Support us
Login | Signup

Shaun vita da pecora - Il Film (2015)

Main Language: | Added:04-01-2016 | Author: Anonymous | Category: Animation/Cartoons |

Torrent Score: 0
0

Size:

4.75 GB

Seeders:

503

Leechers:

43

Complete:

1006

Description:

Titolo originale:   Shaun the Sheep Movie
Nazione:   Regno Unito
Anno:   2015
Genere:   Animazione
Durata:   85'
Regia:   Mark Burton, Richard Starzack
Sito ufficiale:   www.shaunthesheep.com/movie
Sito italiano:   www.shaunvitadapecora.it
Social network:   facebook

Cast (voci):   Justin Fletcher, John Sparkes
Produzione:   Aardman Animations, Anton Capital Entertainment, StudioCanal
Distribuzione:   Kock Media
Data di uscita:   12 Febbraio 2015 (cinema)

Trama:
La vita della fattoria sta iniziando a diventare noiosa. Giorno dopo giorno, il Fattore dice a Shaun quel che deve fare; così, Shaun architetta un piano per prendersi un giorno libero: ma si deve stare attenti a quel che si desidera! Insieme al gregge, elabora un'idea geniale: una dopo l'altra, le pecore saltano la staccionata così che il Fattore, contandole, si appisoli. Dopodiché, muovendosi silenziosamente, lo portano in una vecchia roulotte parcheggiata in un angolo del campo ricreando tutte le condizioni tipiche della notte. Quando Bitzer le scopre, ormai la frittata è fatta; cercano quindi di riportare il Fattore fuori dalla roulotte che, a quel punto, inizia a muoversi dirigendosi precipitosamente verso la strada, con il Fattore avvolto in un sonno profondo ancora al suo interno. Bitzer si scaglia all'inseguimento della roulotte, che punta dritta verso la Grande Città. Shaun e il gregge rimangono alla fattoria, ma il caos prende il sopravvento: Bitzer e il Fattore non si vedono più. A quel punto, decidono di lanciarsi alla ricerca dei due per porre rimedio al problema che hanno creato. Shaun ritroverà il Fattore prima che se ne perdano le tracce per sempre?

Complete name : Shaun - Vita da pecora- Il Film (2015) FULL HD 1080p/shaunpecora-80.mkv
Format : Matroska
Format version : Version 2
File size : 4.75 GiB
Duration : 1h 24mn
Overall bit rate : 8 005 Kbps
Encoded date : UTC 2015-05-30 16:56:13
Writing application : mkvmerge v6.7.0 ('Back to the Ground') 64bit built on Jan 8 2014 15:10:52
Writing library : libebml v1.3.0 + libmatroska v1.4.1

Video
ID : 1
Format : AVC
Format/Info : Advanced Video Codec
Format profile : [email protected]
Format settings, CABAC : Yes
Format settings, ReFrames : 4 frames
Codec ID : V_MPEG4/ISO/AVC
Duration : 1h 24mn
Bit rate : 6 595 Kbps
Width : 1 920 pixels
Height : 1 040 pixels
Display aspect ratio : 1.85:1
Frame rate : 24.000 fps
Color space : YUV
Chroma subsampling : 4:2:0
Bit depth : 8 bits
Scan type : Progressive
Bits/(Pixel*Frame) : 0.138
Stream size : 3.83 GiB (81%)
Writing library : x264 core 146 r2538 121396c
Encoding settings : cabac=1 / ref=4 / deblock=1:-3:-3 / analyse=0x3:0x113 / me=umh / subme=8 / psy=1 / psy_rd=1.00:0.00 / mixed_ref=1 / me_range=16 / chroma_me=1 / trellis=1 / 8x8dct=1 / cqm=0 / deadzone=21,11 / fast_pskip=1 / chroma_qp_offset=-2 / threads=6 / lookahead_threads=1 / sliced_threads=0 / nr=0 / decimate=1 / interlaced=0 / bluray_compat=0 / constrained_intra=0 / bframes=3 / b_pyramid=2 / b_adapt=2 / b_bias=0 / direct=3 / weightb=1 / open_gop=0 / weightp=2 / keyint=240 / keyint_min=24 / scenecut=40 / intra_refresh=0 / rc_lookahead=50 / rc=2pass / mbtree=1 / bitrate=6595 / ratetol=1.0 / qcomp=0.60 / qpmin=0 / qpmax=69 / qpstep=4 / cplxblur=20.0 / qblur=0.5 / ip_ratio=1.40 / aq=1:1.00
Language : English
Default : Yes
Forced : No

Audio #1
ID : 2
Format : DTS
Format/Info : Digital Theater Systems
Codec ID : A_DTS
Duration : 1h 24mn
Bit rate mode : Constant
Bit rate : 754 Kbps
Channel(s) : 6 channels
Channel positions : Front: L C R, Side: L R, LFE
Sampling rate : 48.0 KHz
Bit depth : 24 bits
Compression mode : Lossy
Stream size : 459 MiB (9%)
Title : Dts Eng 5.1 Ch
Language : English
Default : No
Forced : No

Audio #2
ID : 3
Format : AC-3
Format/Info : Audio Coding 3
Mode extension : CM (complete main)
Format settings, Endianness : Big
Codec ID : A_AC3
Duration : 1h 24mn
Bit rate mode : Constant
Bit rate : 640 Kbps
Channel(s) : 6 channels
Channel positions : Front: L C R, Side: L R, LFE
Sampling rate : 48.0 KHz
Bit depth : 16 bits
Compression mode : Lossy
Stream size : 389 MiB (8%)
Title : AC3 Eng 5.1 Ch
Language : English
Default : Yes
Forced : No

Text #1
ID : 4
Format : UTF-8
Codec ID : S_TEXT/UTF8
Codec ID/Info : UTF-8 Plain Text
Title : Subs Eng Full
Language : English
Default : No
Forced : No

Text #2
ID : 5
Format : UTF-8
Codec ID : S_TEXT/UTF8
Codec ID/Info : UTF-8 Plain Text
Title : Subs Eng N.U.
Language : English
Default : No
Forced : No

Text #3
ID : 6
Format : UTF-8
Codec ID : S_TEXT/UTF8
Codec ID/Info : UTF-8 Plain Text
Title : FORCED Ita
Language : Italian
Default : Yes
Forced : Yes

Hash: EA48F923F3B6E6C7A9C81720B473CDD60281FF42

If our torrent is not available, you can try to find it on iTorrents or Torrageor Btcache.

  Movie/Films     Animation/Cartoons     TV Shows/Series     Music     Games     Applications     Books     Other  

   How works MfT    Rules    Suggest idea    Request torrent    Privacy Policy    DMCA    Contacts    MfT Status    Friends sites    Is this site safe?   

mkv, HD-Rip , BD-Rip , Blu-Ray , HD Film , hd film , hd films , scarica film gratis , hd torrents , hd torrent , hdtorrents, hdrip , bdrip , Bluray ,

Blu-Ray player, scarica film , scarica torrent , torrent film , film ita, bluray, mux, 1080p, 720p, hdtorrents, torrent ita, torrents ita, HD film ita, HD ita, Blu-Ray ita

Please Disable Ad-Block To View the content of:



We Provide a very low quantity of Ads

Please, help to keep us alive!

Disable Adblock for this site, and refresh the page