Spongebob - Fuori dall'acqua (2015) .mkv AC3 iTA-ENG Bluray 1080p x264

Main Language: | Added:04-01-2016 | Author: Anonymous | Category: Animation/Cartoons |
Torrent Score: 0
0

Size:

6.5 GB

Seeders:

745

Leechers:

11

Complete:

1490

Description:

Full Title: Spongebob - Fuori dall'acqua (2015) .mkv AC3 iTA-ENG Bluray 1080p x264
Titolo originale: The SpongeBob Movie: Sponge Out of Water
Nazione: U.S.A.
Anno: 2015
Genere: Animazione
Durata: 93'
Regia: Paul Tibbitt
Sito ufficiale: www.spongebobmovie.com
Sito italiano: www.spongebob-fuoridallacqua.it
Social network: facebook

Cast: Antonio Banderas
Cast (voci): Clancy Brown, Tom Kenny, Thomas F. Wilson, Bill Fagerbakke, Rodger Bumpass, Mr. Lawrence, Kaitlyn Ervin, Carolyn Lawrence, Noah Lomax, Jesica Ahlberg
Produzione: Disruption Entertainment, Nickelodeon Animation Studio, Nickelodeon Movies, Paramount Animation, Paramount Pictures, Reel FX Creative Studios, United Plankton Pictures
Distribuzione: Universal Pictures Italia
Data di uscita: 26 Febbraio 2015 (cinema)

Trama:
Da Paramount Animation e Nickelodeon Movies arriva "Spongebob - Fuori dall'Acqua", una nuova avventura in 3D che è pazza e divertente come il suo protagonista. Per la prima volta, Spongebob Squarepants, l'invertebrato marino più amato del mondo, approda a terra nel nostro mondo per la sua più supereroica avventura. La vita a Bikini Bottom non poteva andare meglio per SpongeBob (Tom Kenny), l'eterno ottimista, e i suoi amici: Patrick Stella (Bill Fagerbakke) la stella marina, il sardonico Squiddy Tentacolo (Rodger Bumpass), Sandy (Carolyn Lawrence) la scienziata scoiattolo e il crostaceo capitalista Mr. Krabs (Clancy Brown). Quando però la ricetta segretissima dell'hamburger Krabby Patty viene rubata, i due eterni avversari SpongeBob e Plankton (Mr. Lawrence) dovranno unire le loro forze in un viaggio attraverso il tempo e lo spazio e sfruttare i superpoteri che albergano in loro, per dare battaglia al diabolico pirata Barba Burger (Antonio Banderas) e frustrare i suoi piani per quelle deliziose prelibatezze.

Name : SpongeBob.Fuori.Dall.Acqua.2015.iTA-ENG.Bluray.1080p.x264-TRL.mkv
Format : Matroska
Format version : Version 2
File size : 6.50 GiB
Duration : 1h 32mn
Overall bit rate : 10.0 Mbps
Encoded date : UTC 2015-05-29 12:57:46
Writing application : mkvmerge v7.1.0 ('Good Love') 32bit built on Jul 27 2014 12:59:18
Writing library : libebml v1.3.0 + libmatroska v1.4.1
Attachment : Yes

Video
ID : 1
Format : AVC
Format/Info : Advanced Video Codec
Format profile : [email protected]
Format settings, CABAC : Yes
Format settings, ReFrames : 4 frames
Codec ID : V_MPEG4/ISO/AVC
Duration : 1h 32mn
Bit rate : 7 951 Kbps
Width : 1 920 pixels
Height : 1 080 pixels
Display aspect ratio : 16:9
Frame rate : 23.976 fps
Color space : YUV
Chroma subsampling : 4:2:0
Bit depth : 8 bits
Scan type : Progressive
Bits/(Pixel*Frame) : 0.160
Stream size : 5.14 GiB (79%)
Writing library : x264 core 146 r2538 121396c
Language : English
Default : Yes
Forced : No

Audio #1
ID : 2
Format : AC-3
Format/Info : Audio Coding 3
Mode extension : CM (complete main)
Format settings, Endianness : Big
Codec ID : A_AC3
Duration : 1h 32mn
Bit rate mode : Constant
Bit rate : 384 Kbps
Channel(s) : 6 channels
Channel positions : Front: L C R, Side: L R, LFE
Sampling rate : 48.0 KHz
Bit depth : 16 bits
Compression mode : Lossy
Stream size : 254 MiB (4%)
Title : itunes RESYNC
Language : Italian
Default : Yes
Forced : No

Audio #2
ID : 3
Format : DTS
Format/Info : Digital Theater Systems
Codec ID : A_DTS
Duration : 1h 32mn
Bit rate mode : Constant
Bit rate : 1 510 Kbps
Channel(s) : 6 channels
Channel positions : Front: L C R, Side: L R, LFE
Sampling rate : 48.0 KHz
Bit depth : 24 bits
Compression mode : Lossy
Stream size : 1 000 MiB (15%)
Language : English
Default : No
Forced : No

Text #1
ID : 4
Format : UTF-8
Codec ID : S_TEXT/UTF8
Codec ID/Info : UTF-8 Plain Text
Title : FORCED
Language : Italian
Default : Yes
Forced : No

Text #2
ID : 5
Format : UTF-8
Codec ID : S_TEXT/UTF8
Codec ID/Info : UTF-8 Plain Text
Language : Italian
Default : No
Forced : No

Text #3
ID : 6
Format : UTF-8
Codec ID : S_TEXT/UTF8
Codec ID/Info : UTF-8 Plain Text
Language : English
Default : No
Forced : No

Hash: 3FD26B4C870EC4D20F95B2DBF2DE7BB20B475B1A

If our torrent is not available, you can try to find it on Google or Torrageor Btcache.





Please rate and Add comment in form below.
Opinions about this torrent help others users