100 Code - The Hundred Code S01e05 HDTV AVC SWE AAC SUBS

Main Language: | Added:05-01-2016 | Author: Anonymous | Category: TV Shows/Series |
Torrent Score: 0
0

Size:

278.11 MB

Seeders:

897

Leechers:

83

Complete:

1794

Description:

Full Title: 100 Code - The Hundred Code S01e05 HDTV AVC SWE AAC SUBS

For more releases go to nexthd.altervista.org


  

General
Complete name : /home/ru60856/Downloads/100 Code S01e01-02 [Swe - ExtSub Ita Eng Swe]/100.code.s01e02.swedish.hdtv.x264-naptime.mp4
Format : MPEG-4
Format profile : Base Media
Codec ID : isom
File size : 258 MiB
Duration : 42mn 34s
Overall bit rate mode : Variable
Overall bit rate : 848 Kbps
Encoded date : UTC 2015-03-28 11:18:58
Tagged date : UTC 2015-03-28 11:18:58

Video
ID : 1
Format : AVC
Format/Info : Advanced Video Codec
Format profile : [email protected]
Format settings, CABAC : Yes
Format settings, ReFrames : 5 frames
Codec ID : avc1
Codec ID/Info : Advanced Video Coding
Duration : 42mn 34s
Bit rate : 698 Kbps
Maximum bit rate : 4 688 Kbps
Width : 720 pixels
Height : 404 pixels
Display aspect ratio : 16:9
Frame rate mode : Constant
Frame rate : 25.000 fps
Color space : YUV
Chroma subsampling : 4:2:0
Bit depth : 8 bits
Scan type : Progressive
Bits/(Pixel*Frame) : 0.096
Stream size : 213 MiB (82%)
Title : code_s01e02_404.264 - Imported with GPAC 0.5.0-rev
Writing library : x264 core 146 r2538 121396c
Encoding settings : cabac=1 / ref=5 / deblock=1:0:0 / analyse=0x3:0x113 / me=umh / subme=9 / psy=1 / psy_rd=1.00:0.00 / mixed_ref=1 / me_range=16 / chroma_me=1 / trellis=1 / 8x8dct=1 / cqm=0 / deadzone=21,11 / fast_pskip=1 / chroma_qp_offset=-2 / threads=12 / lookahead_threads=1 / sliced_threads=0 / nr=0 / decimate=1 / interlaced=0 / bluray_compat=0 / constrained_intra=0 / bframes=3 / b_pyramid=2 / b_adapt=2 / b_bias=0 / direct=3 / weightb=1 / open_gop=0 / weightp=2 / keyint=250 / keyint_min=25 / scenecut=40 / intra_refresh=0 / rc_lookahead=50 / rc=crf / mbtree=1 / crf=19.0 / qcomp=0.60 / qpmin=0 / qpmax=69 / qpstep=4 / ip_ratio=1.40 / aq=1:1.00
Encoded date : UTC 2015-03-28 11:18:58
Tagged date : UTC 2015-03-28 11:19:00
Matrix coefficients : BT.709-5, BT.1361, IEC 61966-2-4 709, SMPTE RP177

Audio
ID : 2
Format : AAC
Format/Info : Advanced Audio Codec
Format profile : LC
Codec ID : 40
Duration : 42mn 34s
Bit rate mode : Variable
Bit rate : 144 Kbps
Maximum bit rate : 185 Kbps
Channel(s) : 2 channels
Channel positions : Front: L R
Sampling rate : 48.0 KHz
Compression mode : Lossy
Stream size : 44.4 MiB (17%)
Encoded date : UTC 2015-03-28 11:18:59
Tagged date : UTC 2015-03-28 11:19:00


For more releases go to nexthd.altervista.org

Hash: CB065BFE0439F745CC6F94FE33FBD656D8B9F46A

If our torrent is not available, you can try to find it on Google or Torrageor Btcache.





Please rate and Add comment in form below.
Opinions about this torrent help others users