Molly Moon and the Incredible Book of Hypnotism (2015).H264.Italian.English.Ac3.5.1.iCV-MIRCrew

Main Language: | Added:14-12-2016 | Author: robbyrs | Category: Movie/Films |
Torrent Score: 1
0

Size:

1.48 GB

Seeders:

57

Leechers:

122

Complete:

37

Description:

Full Title: Molly Moon and the Incredible Book of Hypnotism (2015).H264.Italian.English.Ac3.5.1.iCV-MIRCrew
Molly Moon and the Incredible Book of Hypnotism - Molly Moon (2015).H264.Italian.English.Ac3.5.1.iCV-MIRCrew

My release is always in double track audio italian and Original audio
for select it use VLC or dvd player home
not use wmp

Molly Moon e l'incredibile libro dell'ipnotismo (2015)







Regia: Dominic Monaghan, Christopher N. Rowley
Sceneggiatura: Tom Butterworth, Chris Hurford
Musica: Peter Raeburn
Scritto da: Georgia Byng
Paese: Regno Unito
Anno: 2015
Genere: Fantasy
Durata: 98 min



Raffey Cassidy, Lesley Manville, Emily Watson, Celia Imrie, Anne-Marie Duff, Omid Djalili, Dominic Monaghan, Joan Collins



L'orfana Molly Moon vive una difficile esistenza nel freddo e disastrato istituto gestito da Miss Anderstone, una donna di immane crudeltà. Un giorno, trovando un libro, Molly si convince di poter imparare l'antica arte dell'ipnosi e di poter migliorare la sua esistenza grazie a questa, ritrovando anche l'amico Rocky andato in adozione............



An orphan who practices hypnosis faces off against a bank robber who wants her book on the art form. ..........








[spoiler]
General
Unique ID                                : 266432071771037100043256626925064552553 (0xC870F355134AB3924E37038AF5920069)
Complete name                            : Molly Moon (2015).H264.ita.eng.iCV-MIRCrew.mkv
Format                                   : Matroska
Format version                           : Version 2
File size                                : 1.48 GiB
Duration                                 : 1h 37mn
Overall bit rate                         : 2 170 Kbps
Movie name                               : VISIT www.icv-crew.org
Encoded date                             : UTC 2016-12-08 18:13:49
Writing application                      : Lavf54.63.100
Writing library                          : Lavf54.63.100
COPYRIGHT                                : robbyrs

Video
ID                                       : 1
Format                                   : AVC
Format/Info                              : Advanced Video Codec
Format profile                           : [email protected]
Format settings, CABAC                   : Yes
Format settings, ReFrames                : 2 frames
Codec ID                                 : V_MPEG4/ISO/AVC
Duration                                 : 1h 37mn
Bit rate                                 : 1 270 Kbps
Width                                    : 720 pixels
Height                                   : 390 pixels
Display aspect ratio                     : 16:9
Frame rate mode                          : Variable
Frame rate                               : 24.000 fps
Color space                              : YUV
Chroma subsampling                       : 4:2:0
Bit depth                                : 8 bits
Scan type                                : Progressive
Bits/(Pixel*Frame)                       : 0.188
Stream size                              : 860 MiB (57%)
Writing library                          : x264 core 130 r2273
Encoding settings                        : cabac=1 / ref=2 / deblock=1:0:0 / analyse=0x1:0x131 / me=hex / subme=7 / psy=1 / psy_rd=1.00:0.00 / mixed_ref=0 / me_range=16 / chroma_me=1 / trellis=1 / 8x8dct=0 / cqm=0 / deadzone=21,11 / fast_pskip=1 / chroma_qp_offset=-2 / threads=12 / lookahead_threads=2 / sliced_threads=0 / nr=0 / decimate=1 / interlaced=0 / bluray_compat=0 / constrained_intra=0 / bframes=3 / b_pyramid=0 / b_adapt=1 / b_bias=0 / direct=3 / weightb=1 / open_gop=0 / weightp=2 / keyint=240 / keyint_min=24 / scenecut=40 / intra_refresh=0 / rc_lookahead=40 / rc=2pass / mbtree=1 / bitrate=1270 / ratetol=1.0 / qcomp=0.60 / qpmin=10 / qpmax=69 / qpstep=4 / cplxblur=20.0 / qblur=0.5 / vbv_maxrate=24000 / vbv_bufsize=24000 / nal_hrd=none / ip_ratio=1.40 / aq=1:1.00
Language                                 : Italian
Default                                  : Yes
Forced                                   : No
DURATION                                 : 01:37:43.334000000
NUMBER_OF_FRAMES                         : 140720
NUMBER_OF_BYTES                          : 9300291978
_STATISTICS_WRITING_APP                  : mkvmerge v8.7.0 ('All of the above') 64bit
_STATISTICS_WRITING_DATE_UTC             : 2016-12-06 14:15:41
_STATISTICS_TAGS                         : BPS DURATION NUMBER_OF_FRAMES NUMBER_OF_BYTES

Audio #1
ID                                       : 2
Format                                   : AC-3
Format/Info                              : Audio Coding 3
Mode extension                           : CM (complete main)
Codec ID                                 : A_AC3
Duration                                 : 1h 37mn
Bit rate mode                            : Constant
Bit rate                                 : 448 Kbps
Channel(s)                               : 6 channels
Channel positions                        : Front: L C R, Side: L R, LFE
Sampling rate                            : 48.0 KHz
Bit depth                                : 16 bits
Compression mode                         : Lossy
Delay relative to video                  : 1mn 5s
Stream size                              : 313 MiB (21%)
Title                                    : AC3 ITA
Language                                 : Italian
Default                                  : No
Forced                                   : No
DURATION                                 : 01:37:30.240000000
NUMBER_OF_FRAMES                         : 182820
NUMBER_OF_BYTES                          : 468019200
_STATISTICS_WRITING_APP                  : mkvmerge v8.7.0 ('All of the above') 64bit
_STATISTICS_WRITING_DATE_UTC             : 2016-12-06 14:15:41
_STATISTICS_TAGS                         : BPS DURATION NUMBER_OF_FRAMES NUMBER_OF_BYTES

Audio #2
ID                                       : 3
Format                                   : AC-3
Format/Info                              : Audio Coding 3
Mode extension                           : CM (complete main)
Codec ID                                 : A_AC3
Duration                                 : 1h 37mn
Bit rate mode                            : Constant
Bit rate                                 : 448 Kbps
Channel(s)                               : 6 channels
Channel positions                        : Front: L C R, Side: L R, LFE
Sampling rate                            : 48.0 KHz
Bit depth                                : 16 bits
Compression mode                         : Lossy
Delay relative to video                  : 1mn 5s
Stream size                              : 313 MiB (21%)
Title                                    : AC3 ENG
Language                                 : English
Default                                  : No
Forced                                   : No
DURATION                                 : 01:37:42.368000000
NUMBER_OF_FRAMES                         : 183199
NUMBER_OF_BYTES                          : 468989440
_STATISTICS_WRITING_APP                  : mkvmerge v8.7.0 ('All of the above') 64bit
_STATISTICS_WRITING_DATE_UTC             : 2016-12-06 14:15:41
_STATISTICS_TAGS                         : BPS DURATION NUMBER_OF_FRAMES NUMBER_OF_BYTES

Menu
00:00:00.000                             : :00:00:00.000
00:07:05.342                             : :00:07:05.342
00:14:28.201                             : :00:14:28.201
00:20:13.838                             : :00:20:13.838
00:29:27.099                             : :00:29:27.099
00:39:02.590                             : :00:39:02.590
00:50:56.804                             : :00:50:56.804
00:59:52.756                             : :00:59:52.756
01:08:53.129                             : :01:08:53.129
01:16:19.950                             : :01:16:19.950
01:25:27.706                             : :01:25:27.706
01:35:23.259                             : :01:35:23.259



[/spoiler]

[/color][/b][/center]


Hash: E0B6BE8841399F5E2E9991E3B2897B50ABC6C2DF

If our torrent is not available, you can try to find it on Google or Torrageor Btcache.





Please rate and Add comment in form below.
Opinions about this torrent help others users