Draft Day (2014).H264.Italian.English.Ac3.5.1.sub.ita.eng.iCV-MIRCrew

Main Language: | Added:16-12-2016 | Author: robbyrs | Category: Movie/Films |
Torrent Score: 0
0

Size:

1.67 GB

Seeders:

141

Leechers:

86

Complete:

238

Description:

Full Title: Draft Day (2014).H264.Italian.English.Ac3.5.1.sub.ita.eng.iCV-MIRCrew
Draft Day (2014).H264.Italian.English.Ac3.5.1.sub.ita.eng.iCV-MIRCrew


My release is always in double track audio italian and Original audio
for select it use VLC or dvd player home
not use wmp

Draft Day (2014)







    GENERE: Drammatico
    ANNO: 2014
    REGIA: Ivan Reitman
    SCENEGGIATURA: Scott Rothman, Rajiv Joseph
    PRODUZIONE: Lionsgate, The Montecito Picture Company, OddLot Entertainment
    PAESE: USA



Kevin Costner, Jennifer Garner, Tom Welling, Terry Crews



Il film è incentrato sul manager dei Cleveland Browns squadra di football in difficoltà, che cerca di assicurarsi il miglior giocatore sul mercato nel giorno del reclutamento.



At the NFL Draft, general manager Sonny Weaver has the opportunity to rebuild his team when he trades for the number one pick. He must decide what he's willing to sacrifice on a life-changing day for a few hundred young men with NFL dreams.










[spoiler]
General
Unique ID                                : 110685057851118270696958785054449624652 (0x53452AAEE4DB50F42E48F4D6ED0C664C)
Complete name                            : Draft Day (2014).H264.ita.eng.sub.ita.eng.iCV-MIRCrew.mkv
Format                                   : Matroska
Format version                           : Version 2
File size                                : 1.67 GiB
Duration                                 : 1h 50mn
Overall bit rate                         : 2 171 Kbps
Movie name                               : VISIT www.icv-crew.org
Encoded date                             : UTC 2016-12-11 12:01:26
Writing application                      : Lavf54.63.100
Writing library                          : Lavf54.63.100
COPYRIGHT                                : robbyrs

Video
ID                                       : 1
Format                                   : AVC
Format/Info                              : Advanced Video Codec
Format profile                           : Main@L4.1
Format settings, CABAC                   : Yes
Format settings, ReFrames                : 2 frames
Codec ID                                 : V_MPEG4/ISO/AVC
Duration                                 : 1h 50mn
Bit rate                                 : 1 270 Kbps
Width                                    : 720 pixels
Height                                   : 300 pixels
Display aspect ratio                     : 2.40:1
Frame rate mode                          : Variable
Frame rate                               : 23.976 fps
Color space                              : YUV
Chroma subsampling                       : 4:2:0
Bit depth                                : 8 bits
Scan type                                : Progressive
Bits/(Pixel*Frame)                       : 0.245
Stream size                              : 969 MiB (57%)
Writing library                          : x264 core 130 r2273
Encoding settings                        : cabac=1 / ref=2 / deblock=1:0:0 / analyse=0x1:0x131 / me=hex / subme=7 / psy=1 / psy_rd=1.00:0.00 / mixed_ref=0 / me_range=16 / chroma_me=1 / trellis=1 / 8x8dct=0 / cqm=0 / deadzone=21,11 / fast_pskip=1 / chroma_qp_offset=-2 / threads=12 / lookahead_threads=2 / sliced_threads=0 / nr=0 / decimate=1 / interlaced=0 / bluray_compat=0 / constrained_intra=0 / bframes=3 / b_pyramid=0 / b_adapt=1 / b_bias=0 / direct=3 / weightb=1 / open_gop=0 / weightp=2 / keyint=230 / keyint_min=23 / scenecut=40 / intra_refresh=0 / rc_lookahead=40 / rc=2pass / mbtree=1 / bitrate=1270 / ratetol=1.0 / qcomp=0.60 / qpmin=10 / qpmax=69 / qpstep=4 / cplxblur=20.0 / qblur=0.5 / vbv_maxrate=24000 / vbv_bufsize=24000 / nal_hrd=none / ip_ratio=1.40 / aq=1:1.00
Language                                 : English
Default                                  : Yes
Forced                                   : No
DURATION                                 : 01:50:00.010000000
NUMBER_OF_FRAMES                         : 158242
NUMBER_OF_BYTES                          : 8864273050
_STATISTICS_WRITING_APP                  : mkvmerge v8.7.0 ('All of the above') 64bit
_STATISTICS_WRITING_DATE_UTC             : 2016-12-08 09:42:04
_STATISTICS_TAGS                         : BPS DURATION NUMBER_OF_FRAMES NUMBER_OF_BYTES

Audio #1
ID                                       : 2
Format                                   : AC-3
Format/Info                              : Audio Coding 3
Mode extension                           : CM (complete main)
Codec ID                                 : A_AC3
Duration                                 : 1h 50mn
Bit rate mode                            : Constant
Bit rate                                 : 448 Kbps
Channel(s)                               : 6 channels
Channel positions                        : Front: L C R, Side: L R, LFE
Sampling rate                            : 48.0 KHz
Bit depth                                : 16 bits
Compression mode                         : Lossy
Delay relative to video                  : 1mn 5s
Stream size                              : 352 MiB (21%)
Title                                    : AC3 iTA
Language                                 : Italian
Default                                  : Yes
Forced                                   : No
DURATION                                 : 01:49:59.904000000
NUMBER_OF_FRAMES                         : 206247
NUMBER_OF_BYTES                          : 369594624
_STATISTICS_WRITING_APP                  : mkvmerge v8.7.0 ('All of the above') 64bit
_STATISTICS_WRITING_DATE_UTC             : 2016-12-08 09:42:04
_STATISTICS_TAGS                         : BPS DURATION NUMBER_OF_FRAMES NUMBER_OF_BYTES

Audio #2
ID                                       : 3
Format                                   : AC-3
Format/Info                              : Audio Coding 3
Mode extension                           : CM (complete main)
Codec ID                                 : A_AC3
Duration                                 : 1h 50mn
Bit rate mode                            : Constant
Bit rate                                 : 448 Kbps
Channel(s)                               : 6 channels
Channel positions                        : Front: L C R, Side: L R, LFE
Sampling rate                            : 48.0 KHz
Bit depth                                : 16 bits
Compression mode                         : Lossy
Delay relative to video                  : 1mn 5s
Stream size                              : 352 MiB (21%)
Title                                    : AC3 ENG
Language                                 : English
Default                                  : No
Forced                                   : No
DURATION                                 : 01:50:00.064000000
NUMBER_OF_FRAMES                         : 206252
NUMBER_OF_BYTES                          : 528005120
_STATISTICS_WRITING_APP                  : mkvmerge v8.7.0 ('All of the above') 64bit
_STATISTICS_WRITING_DATE_UTC             : 2016-12-08 09:42:04
_STATISTICS_TAGS                         : BPS DURATION NUMBER_OF_FRAMES NUMBER_OF_BYTES

Text #1
ID                                       : 4
Format                                   : UTF-8
Codec ID                                 : S_TEXT/UTF8
Codec ID/Info                            : UTF-8 Plain Text
Title                                    : REGULAR iTA
Language                                 : Italian
Default                                  : No
Forced                                   : No
DURATION                                 : 01:40:24.525000000
NUMBER_OF_FRAMES                         : 1928
NUMBER_OF_BYTES                          : 65077
_STATISTICS_WRITING_APP                  : mkvmerge v8.7.0 ('All of the above') 64bit
_STATISTICS_WRITING_DATE_UTC             : 2016-12-08 09:42:04
_STATISTICS_TAGS                         : BPS DURATION NUMBER_OF_FRAMES NUMBER_OF_BYTES

Text #2
ID                                       : 5
Format                                   : UTF-8
Codec ID                                 : S_TEXT/UTF8
Codec ID/Info                            : UTF-8 Plain Text
Title                                    : NON UDENTI ENG
Language                                 : English
Default                                  : No
Forced                                   : No
DURATION                                 : 01:41:04.350000000
NUMBER_OF_FRAMES                         : 2020
NUMBER_OF_BYTES                          : 67257
_STATISTICS_WRITING_APP                  : mkvmerge v8.7.0 ('All of the above') 64bit
_STATISTICS_WRITING_DATE_UTC             : 2016-12-08 09:42:04
_STATISTICS_TAGS                         : BPS DURATION NUMBER_OF_FRAMES NUMBER_OF_BYTES

Menu
00:00:00.000                             : :Chapter 01
00:03:43.431                             : :Chapter 02
00:13:12.958                             : :Chapter 03
00:22:27.596                             : :Chapter 04
00:29:29.809                             : :Chapter 05
00:36:38.571                             : :Chapter 06
00:46:23.739                             : :Chapter 07
00:52:07.332                             : :Chapter 08
00:59:12.840                             : :Chapter 09
01:04:34.579                             : :Chapter 10
01:10:19.340                             : :Chapter 11
01:17:51.208                             : :Chapter 12
01:20:28.365                             : :Chapter 13
01:29:07.759                             : :Chapter 14
01:36:15.227                             : :Chapter 15
01:41:19.031                             : :Chapter 16



[/spoiler]

[/color][/b][/center]


Hash: 1D37D9A149B8221219C91B283BA4D5051376D2D1

If our torrent is not available, you can try to find it on Google or Torrageor Btcache.





Please rate and Add comment in form below.
Opinions about this torrent help others users