Central Intelligence - Una spia e mezzo (2016).H264.Italian.English.Ac3.5.1.sub.ita.eng.iCV-MIRCrew

Main Language: | Added:18-12-2016 | Author: robbyrs | Category: Movie/Films |
Torrent Score: 0
0

Size:

1.64 GB

Seeders:

2

Leechers:

10

Complete:

0

Description:

Full Title: Central Intelligence - Una spia e mezzo (2016).H264.Italian.English.Ac3.5.1.sub.ita.eng.iCV-MIRCrew


My release is always in double track audio italian and Original audio
for select it use VLC or dvd player home
not use wmp

Una spia e mezzo - Central Intelligence (2016)







    DATA USCITA: 14 luglio 2016
    GENERE: Azione , Commedia
    ANNO: 2016
    REGIA: Rawson Marshall Thurber
    SCENEGGIATURA: David Stassen, Rawson Marshall Thurber
    FOTOGRAFIA: Barry Peterson
    MONTAGGIO: Michael L. Sale
    MUSICHE: Ludwig Goransson, Theodore Shapiro
    PRODUZIONE: New Line Cinema, Bluegrass Films, Principato-Young Entertainment
    DISTRIBUZIONE: Universal Pictures
    PAESE: USA
    DURATA: 107 Min



Dwayne Johnson, Kevin Hart, Ike Barinholtz, Aaron Paul, Amy Ryan, Megan Park, Ryan Hansen, Danielle Nicolet



Quello che una volta era vittima di bullismo a scuola è diventato poi un letale agente della CIA. Alle prese con un caso top secret, decide di avvalersi dell'aiuto di un suo ex compagno di scuola diventato ormai un semplice impiegato dopo i "gloriosi" tempi del college.



After he reconnects with an awkward pal from high school through Facebook, a mild-mannered accountant is lured into the world of international espionage.  










[spoiler]
General
Unique ID                                : 258691780741237487761274550614689214193 (0xC29E398542A25A4F7CD2EDEE050E6EF1)
Complete name                            : Una Spia e Mezzo - Central Intelligence (2016).H264.ita.eng.sub.ita.eng.iCV-MIRCrew.mkv
Format                                   : Matroska
Format version                           : Version 2
File size                                : 1.64 GiB
Duration                                 : 1h 47mn
Overall bit rate                         : 2 181 Kbps
Movie name                               : VISIT www.icv-crew.org
Encoded date                             : UTC 2016-12-01 21:26:46
Writing application                      : Lavf54.63.100
Writing library                          : Lavf54.63.100
COPYRIGHT                                : robbyrs

Video
ID                                       : 1
Format                                   : AVC
Format/Info                              : Advanced Video Codec
Format profile                           : [email protected]
Format settings, CABAC                   : Yes
Format settings, ReFrames                : 2 frames
Codec ID                                 : V_MPEG4/ISO/AVC
Duration                                 : 1h 47mn
Bit rate                                 : 1 280 Kbps
Width                                    : 720 pixels
Height                                   : 300 pixels
Display aspect ratio                     : 2.40:1
Frame rate mode                          : Variable
Frame rate                               : 23.976 fps
Color space                              : YUV
Chroma subsampling                       : 4:2:0
Bit depth                                : 8 bits
Scan type                                : Progressive
Bits/(Pixel*Frame)                       : 0.247
Stream size                              : 956 MiB (57%)
Writing library                          : x264 core 130 r2273
Encoding settings                        : cabac=1 / ref=2 / deblock=1:0:0 / analyse=0x1:0x131 / me=hex / subme=7 / psy=1 / psy_rd=1.00:0.00 / mixed_ref=0 / me_range=16 / chroma_me=1 / trellis=1 / 8x8dct=0 / cqm=0 / deadzone=21,11 / fast_pskip=1 / chroma_qp_offset=-2 / threads=12 / lookahead_threads=2 / sliced_threads=0 / nr=0 / decimate=1 / interlaced=0 / bluray_compat=0 / constrained_intra=0 / bframes=3 / b_pyramid=0 / b_adapt=1 / b_bias=0 / direct=3 / weightb=1 / open_gop=0 / weightp=2 / keyint=230 / keyint_min=23 / scenecut=40 / intra_refresh=0 / rc_lookahead=40 / rc=2pass / mbtree=1 / bitrate=1280 / ratetol=1.0 / qcomp=0.60 / qpmin=10 / qpmax=69 / qpstep=4 / cplxblur=20.0 / qblur=0.5 / vbv_maxrate=24000 / vbv_bufsize=24000 / nal_hrd=none / ip_ratio=1.40 / aq=1:1.00
Language                                 : Italian
Default                                  : Yes
Forced                                   : No
DURATION                                 : 01:47:37.660000000
NUMBER_OF_FRAMES                         : 154829
NUMBER_OF_BYTES                          : 8047966774
_STATISTICS_WRITING_APP                  : mkvmerge v8.3.0 ('Over the Horizon') 64bit
_STATISTICS_WRITING_DATE_UTC             : 2016-10-28 23:44:40
_STATISTICS_TAGS                         : BPS DURATION NUMBER_OF_FRAMES NUMBER_OF_BYTES

Audio #1
ID                                       : 2
Format                                   : AC-3
Format/Info                              : Audio Coding 3
Mode extension                           : CM (complete main)
Codec ID                                 : A_AC3
Duration                                 : 1h 47mn
Bit rate mode                            : Constant
Bit rate                                 : 448 Kbps
Channel(s)                               : 6 channels
Channel positions                        : Front: L C R, Side: L R, LFE
Sampling rate                            : 48.0 KHz
Bit depth                                : 16 bits
Compression mode                         : Lossy
Delay relative to video                  : 1mn 5s
Stream size                              : 345 MiB (21%)
Title                                    : AC3 iTA
Language                                 : Italian
Default                                  : No
Forced                                   : No
DURATION                                 : 01:47:37.728000000
NUMBER_OF_FRAMES                         : 201804
NUMBER_OF_BYTES                          : 516618240
_STATISTICS_WRITING_APP                  : mkvmerge v8.3.0 ('Over the Horizon') 64bit
_STATISTICS_WRITING_DATE_UTC             : 2016-10-28 23:44:40
_STATISTICS_TAGS                         : BPS DURATION NUMBER_OF_FRAMES NUMBER_OF_BYTES

Audio #2
ID                                       : 3
Format                                   : AC-3
Format/Info                              : Audio Coding 3
Mode extension                           : CM (complete main)
Codec ID                                 : A_AC3
Duration                                 : 1h 47mn
Bit rate mode                            : Constant
Bit rate                                 : 448 Kbps
Channel(s)                               : 6 channels
Channel positions                        : Front: L C R, Side: L R, LFE
Sampling rate                            : 48.0 KHz
Bit depth                                : 16 bits
Compression mode                         : Lossy
Delay relative to video                  : 1mn 5s
Stream size                              : 345 MiB (21%)
Title                                    : AC3 ENG
Language                                 : English
Default                                  : No
Forced                                   : No
DURATION                                 : 01:47:37.728000000
NUMBER_OF_FRAMES                         : 201804
NUMBER_OF_BYTES                          : 516618240
_STATISTICS_WRITING_APP                  : mkvmerge v8.3.0 ('Over the Horizon') 64bit
_STATISTICS_WRITING_DATE_UTC             : 2016-10-28 23:44:40
_STATISTICS_TAGS                         : BPS DURATION NUMBER_OF_FRAMES NUMBER_OF_BYTES

Text #1
ID                                       : 4
Format                                   : UTF-8
Codec ID                                 : S_TEXT/UTF8
Codec ID/Info                            : UTF-8 Plain Text
Title                                    : FORCED iTA
Language                                 : Italian
Default                                  : Yes
Forced                                   : No
DURATION                                 : 01:46:21.876000000
NUMBER_OF_FRAMES                         : 48
NUMBER_OF_BYTES                          : 1375
_STATISTICS_WRITING_APP                  : mkvmerge v8.3.0 ('Over the Horizon') 64bit
_STATISTICS_WRITING_DATE_UTC             : 2016-10-28 23:44:40
_STATISTICS_TAGS                         : BPS DURATION NUMBER_OF_FRAMES NUMBER_OF_BYTES

Text #2
ID                                       : 5
Format                                   : UTF-8
Codec ID                                 : S_TEXT/UTF8
Codec ID/Info                            : UTF-8 Plain Text
Title                                    : REGULAR iTA
Language                                 : Italian
Default                                  : No
Forced                                   : No
DURATION                                 : 01:46:21.876000000
NUMBER_OF_FRAMES                         : 2038
NUMBER_OF_BYTES                          : 60341
_STATISTICS_WRITING_APP                  : mkvmerge v8.3.0 ('Over the Horizon') 64bit
_STATISTICS_WRITING_DATE_UTC             : 2016-10-28 23:44:40
_STATISTICS_TAGS                         : BPS DURATION NUMBER_OF_FRAMES NUMBER_OF_BYTES

Text #3
ID                                       : 6
Format                                   : UTF-8
Codec ID                                 : S_TEXT/UTF8
Codec ID/Info                            : UTF-8 Plain Text
Title                                    : REGULAR ENG
Language                                 : English
Default                                  : No
Forced                                   : No
DURATION                                 : 01:45:58.227000000
NUMBER_OF_FRAMES                         : 2382
NUMBER_OF_BYTES                          : 72984
_STATISTICS_WRITING_APP                  : mkvmerge v8.3.0 ('Over the Horizon') 64bit
_STATISTICS_WRITING_DATE_UTC             : 2016-10-28 23:44:40
_STATISTICS_TAGS                         : BPS DURATION NUMBER_OF_FRAMES NUMBER_OF_BYTES

Menu
00:00:00.000                             : :00:00:00.000
00:09:12.051                             : :00:09:12.051
00:20:11.752                             : :00:20:11.752
00:30:31.079                             : :00:30:31.079
00:43:21.766                             : :00:43:21.766
00:52:42.493                             : :00:52:42.493
00:58:09.861                             : :00:58:09.861
01:10:12.458                             : :01:10:12.458
01:18:36.754                             : :01:18:36.754
01:28:56.289                             : :01:28:56.289
01:39:32.258                             : :01:39:32.258



[/spoiler]

[/color][/b][/center]


Hash: D39ECF4854B2A93AEB769D675DE037C53A02EDFA

If our torrent is not available, you can try to find it on Google or Torrageor Btcache.





Please rate and Add comment in form below.
Opinions about this torrent help others users