Escobar: Paradise Lost - Escobar (2014).BRrip.XviD - Italian.English.iCV-MIRCrew

Main Language: | Added:20-12-2016 | Author: robbyrs | Category: Movie/Films |
Torrent Score: 1
0

Size:

1.81 GB

Seeders:

542

Leechers:

299

Complete:

1180

Description:

Full Title: Escobar: Paradise Lost - Escobar (2014).BRrip.XviD - Italian.English.iCV-MIRCrew


My release is always in double track audio italian and Original audio
for select it use VLC or dvd player home
not use wmp

Escobar: Paradise Lost - Escobar (2014)







    DATA USCITA: 25 agosto 2016
    GENERE: Thriller , Drammatico
    ANNO: 2014
    REGIA: Andrea Di Stefano
    SCENEGGIATURA: Andrea Di Stefano
    FOTOGRAFIA: Luis David Sansans
    MONTAGGIO: Maryline Monthieux
    MUSICHE: Max Richter
    PRODUZIONE: Chapter 2
    DISTRIBUZIONE: Good Films
    PAESE: Francia, Spagna, Belgio
    DURATA: 120 Min



Benicio Del Toro, Josh Hutcherson, Brady Corbet, Carlos Bardem, Claudia Traisac, Ana Girardot



Nick pensa di aver trovato il paradiso quando raggiunge il fratello in Colombia. Una laguna turchese, una spiaggia d'avorio, onde perfette - è un sogno per questo giovane surfista canadese. Poi incontra Maria, una splendida ragazza colombiana.



In Colombia, a young surfer meets the woman of his dreams - and then he meets her uncle, Pablo Escobar.











[spoiler]
General
Complete name                            : Avengers Grimm (2015).ita.eng.Sub.eng.iCV-MIRCrew.avi
Format                                   : AVI
Format/Info                              : Audio Video Interleave
File size                                : 1.44 GiB
Duration                                 : 1h 25mn
Overall bit rate                         : 2 410 Kbps
Movie name                               : www.icv-crew.org
Writing application                      : VirtualDubMod 1.5.10.2 (build 2540/release)
Writing library                          : VirtualDubMod build 2540/release

Video
ID                                       : 0
Format                                   : MPEG-4 Visual
Format profile                           : [email protected]
Format settings, BVOP                    : No
Format settings, QPel                    : No
Format settings, GMC                     : No warppoints
Format settings, Matrix                  : Default (H.263)
Codec ID                                 : XVID
Codec ID/Hint                            : XviD
Duration                                 : 1h 25mn
Bit rate                                 : 1 500 Kbps
Width                                    : 720 pixels
Height                                   : 404 pixels
Display aspect ratio                     : 16:9
Frame rate                               : 23.976 fps
Color space                              : YUV
Chroma subsampling                       : 4:2:0
Bit depth                                : 8 bits
Scan type                                : Progressive
Compression mode                         : Lossy
Bits/(Pixel*Frame)                       : 0.215
Stream size                              : 917 MiB (62%)
Writing library                          : XviD 64

Audio #1
ID                                       : 1
Format                                   : AC-3
Format/Info                              : Audio Coding 3
Mode extension                           : CM (complete main)
Codec ID                                 : 2000
Duration                                 : 1h 25mn
Bit rate mode                            : Constant
Bit rate                                 : 448 Kbps
Channel(s)                               : 6 channels
Channel positions                        : Front: L C R, Side: L R, LFE
Sampling rate                            : 48.0 KHz
Bit depth                                : 16 bits
Compression mode                         : Lossy
Stream size                              : 274 MiB (19%)
Alignment                                : Split accross interleaves
Interleave, duration                     : 42 ms (1.00 video frame)
Interleave, preload duration             : 500 ms

Audio #2
ID                                       : 2
Format                                   : AC-3
Format/Info                              : Audio Coding 3
Mode extension                           : CM (complete main)
Codec ID                                 : 2000
Duration                                 : 1h 25mn
Bit rate mode                            : Constant
Bit rate                                 : 448 Kbps
Channel(s)                               : 6 channels
Channel positions                        : Front: L C R, Side: L R, LFE
Sampling rate                            : 48.0 KHz
Bit depth                                : 16 bits
Compression mode                         : Lossy
Stream size                              : 274 MiB (19%)
Alignment                                : Split accross interleaves
Interleave, duration                     : 42 ms (1.00 video frame)
Interleave, preload duration             : 500 ms



[/spoiler]

[/color][/b][/center]


Hash: A330C03B2EA4B514A73CE05943AD9ED8F45E329C

If our torrent is not available, you can try to find it on Google or Torrageor Btcache.





Please rate and Add comment in form below.
Opinions about this torrent help others users