Eye in the Sky - Il diritto di uccidere (2015).H264.Italian.English.Ac3.5.1.sub.ita.forced.eng.iCV-MIRCrew

Main Language: | Added:31-12-2016 | Author: robbyrs | Category: Movie/Films |
Torrent Score: 0
0

Size:

1.56 GB

Seeders:

45

Leechers:

17

Complete:

125

Description:

Full Title: Eye in the Sky - Il diritto di uccidere (2015).H264.Italian.English.Ac3.5.1.sub.ita.forced.eng.iCV-MIRCrew


My release is always in double track audio italian and Original audio
for select it use VLC or dvd player home
not use wmp

Il diritto di uccidere - Eye in the Sky (2015)







Riconoscimenti

    2016 - National Board of Review of Motion Pictures
        Migliori dieci film indipendenti
    2017 - Satellite Awards

Titolo originale Eye in the Sky
Lingua originale inglese, somalo
Paese di produzione Regno Unito
Anno 2015
Durata 102 min
Genere drammatico, guerra
Regia Gavin Hood
Sceneggiatura Guy Hibbert
Produttore Ged Doherty, Colin Firth, David Lancaster
Produttore esecutivo Benedict Carver, Xavier Marchand, Anne Sheehan
Casa di produzione eOne Films, Moonlighting Films, Entertainment One Features, Raindog Films
Distribuzione (Italia) Teodora Film
Fotografia Haris Zambarloukos
Montaggio Megan Gill
Musiche Paul Hepker, Mark Kilian
Scenografia Johnny Breedt
Costumi Ruy Filipe



Helen Mirren: colonnello Katherine Powell
Aaron Paul: tenente Steve Watts
Alan Rickman: generale Frank Benson
Phoebe Fox: Carrie Gershon
Barkhad Abdi: Jama Farah
Jeremy Northam: Brian Woodale
Babou Ceesay: sergente Mushtaq Saddiq
Iain Glen: James Willett
Jessica Jones: Kate Barnes
Monica Dolan: Angela Northman
Armaan Haggio: Musa Mo'allim
Aisha Takow: Alia
Richard McCabe: George Matherson
Michael O'Keefe: Ken Stanitzke
Carl Beukes: sergente Mike Gleeson
Gavin Hood: colonnello Ed Walsh
Laila Robins: Jillian Goodman



Protagonista è il colonnello inglese Katherine Powell, che dirige a distanza un'operazione contro una cellula terroristica a Nairobi. Il suo "occhio" sul campo è un drone pilotato in Nevada dal giovane ufficiale Steve Watts, ma quando diventa inevitabile sferrare un attacco entrambi realizzano che anche una bambina innocente finirebbe tra le vittime...........



Col. Katherine Powell, a military officer in command of an operation to capture terrorists in Kenya, sees her mission escalate when a girl enters the kill zone triggering an international dispute over the implications of modern warfare. ............









[spoiler]
General
Unique ID                                : 162251054422184025186880131994273635927 (0x7A106A9AA1FCCFCBC89D5BC6BE6ADE57)
Complete name                            : Il diritto di uccidere - Eye in the Sky (2015).ita.eng.sub.ita.forced.ita.eng.iCV-MIRCrew.mkv
Format                                   : Matroska
Format version                           : Version 2
File size                                : 1.56 GiB
Duration                                 : 1h 42mn
Overall bit rate                         : 2 171 Kbps
Movie name                               : VISIT www.icv-crew.org
Encoded date                             : UTC 2016-12-16 18:48:29
Writing application                      : Lavf54.63.100
Writing library                          : Lavf54.63.100
COPYRIGHT                                : robbyrs

Video
ID                                       : 1
Format                                   : AVC
Format/Info                              : Advanced Video Codec
Format profile                           : [email protected]
Format settings, CABAC                   : Yes
Format settings, ReFrames                : 2 frames
Codec ID                                 : V_MPEG4/ISO/AVC
Duration                                 : 1h 42mn
Bit rate                                 : 1 270 Kbps
Width                                    : 720 pixels
Height                                   : 304 pixels
Display aspect ratio                     : 2.40:1
Frame rate mode                          : Variable
Frame rate                               : 23.976 fps
Color space                              : YUV
Chroma subsampling                       : 4:2:0
Bit depth                                : 8 bits
Scan type                                : Progressive
Bits/(Pixel*Frame)                       : 0.242
Stream size                              : 905 MiB (57%)
Writing library                          : x264 core 130 r2273
Encoding settings                        : cabac=1 / ref=2 / deblock=1:0:0 / analyse=0x1:0x131 / me=hex / subme=7 / psy=1 / psy_rd=1.00:0.00 / mixed_ref=0 / me_range=16 / chroma_me=1 / trellis=1 / 8x8dct=0 / cqm=0 / deadzone=21,11 / fast_pskip=1 / chroma_qp_offset=-2 / threads=12 / lookahead_threads=2 / sliced_threads=0 / nr=0 / decimate=1 / interlaced=0 / bluray_compat=0 / constrained_intra=0 / bframes=3 / b_pyramid=0 / b_adapt=1 / b_bias=0 / direct=3 / weightb=1 / open_gop=0 / weightp=2 / keyint=230 / keyint_min=23 / scenecut=40 / intra_refresh=0 / rc_lookahead=40 / rc=2pass / mbtree=1 / bitrate=1270 / ratetol=1.0 / qcomp=0.60 / qpmin=10 / qpmax=69 / qpstep=4 / cplxblur=20.0 / qblur=0.5 / vbv_maxrate=24000 / vbv_bufsize=24000 / nal_hrd=none / ip_ratio=1.40 / aq=1:1.00
Language                                 : English
Default                                  : Yes
Forced                                   : No
DURATION                                 : 01:42:45.086000000
NUMBER_OF_FRAMES                         : 147814
NUMBER_OF_BYTES                          : 7046376575
_STATISTICS_WRITING_APP                  : mkvmerge v8.7.0 ('All of the above') 64bit
_STATISTICS_WRITING_DATE_UTC             : 2016-12-15 14:13:38
_STATISTICS_TAGS                         : BPS DURATION NUMBER_OF_FRAMES NUMBER_OF_BYTES

Audio #1
ID                                       : 2
Format                                   : AC-3
Format/Info                              : Audio Coding 3
Mode extension                           : CM (complete main)
Codec ID                                 : A_AC3
Duration                                 : 1h 42mn
Bit rate mode                            : Constant
Bit rate                                 : 448 Kbps
Channel(s)                               : 6 channels
Channel positions                        : Front: L C R, Side: L R, LFE
Sampling rate                            : 48.0 KHz
Bit depth                                : 16 bits
Compression mode                         : Lossy
Delay relative to video                  : 1mn 5s
Stream size                              : 329 MiB (21%)
Language                                 : Italian
Default                                  : Yes
Forced                                   : No
DURATION                                 : 01:42:45.120000000
NUMBER_OF_FRAMES                         : 192660
NUMBER_OF_BYTES                          : 345246720
_STATISTICS_WRITING_APP                  : mkvmerge v8.7.0 ('All of the above') 64bit
_STATISTICS_WRITING_DATE_UTC             : 2016-12-15 14:13:38
_STATISTICS_TAGS                         : BPS DURATION NUMBER_OF_FRAMES NUMBER_OF_BYTES

Audio #2
ID                                       : 3
Format                                   : AC-3
Format/Info                              : Audio Coding 3
Mode extension                           : CM (complete main)
Codec ID                                 : A_AC3
Duration                                 : 1h 42mn
Bit rate mode                            : Constant
Bit rate                                 : 448 Kbps
Channel(s)                               : 6 channels
Channel positions                        : Front: L C R, Side: L R, LFE
Sampling rate                            : 48.0 KHz
Bit depth                                : 16 bits
Compression mode                         : Lossy
Delay relative to video                  : 1mn 5s
Stream size                              : 329 MiB (21%)
Language                                 : English
Default                                  : No
Forced                                   : No
DURATION                                 : 01:42:45.120000000
NUMBER_OF_FRAMES                         : 192660
NUMBER_OF_BYTES                          : 493209600
_STATISTICS_WRITING_APP                  : mkvmerge v8.7.0 ('All of the above') 64bit
_STATISTICS_WRITING_DATE_UTC             : 2016-12-15 14:13:38
_STATISTICS_TAGS                         : BPS DURATION NUMBER_OF_FRAMES NUMBER_OF_BYTES

Text #1
ID                                       : 4
Format                                   : UTF-8
Codec ID                                 : S_TEXT/UTF8
Codec ID/Info                            : UTF-8 Plain Text
Title                                    : Forced
Language                                 : Italian
Default                                  : Yes
Forced                                   : No
DURATION                                 : 01:28:27.895000000
NUMBER_OF_FRAMES                         : 96
NUMBER_OF_BYTES                          : 3569
_STATISTICS_WRITING_APP                  : mkvmerge v8.7.0 ('All of the above') 64bit
_STATISTICS_WRITING_DATE_UTC             : 2016-12-15 14:13:38
_STATISTICS_TAGS                         : BPS DURATION NUMBER_OF_FRAMES NUMBER_OF_BYTES

Text #2
ID                                       : 5
Format                                   : UTF-8
Codec ID                                 : S_TEXT/UTF8
Codec ID/Info                            : UTF-8 Plain Text
Title                                    : Regular
Language                                 : Italian
Default                                  : No
Forced                                   : No
DURATION                                 : 01:31:06.349000000
NUMBER_OF_FRAMES                         : 756
NUMBER_OF_BYTES                          : 41382
_STATISTICS_WRITING_APP                  : mkvmerge v8.7.0 ('All of the above') 64bit
_STATISTICS_WRITING_DATE_UTC             : 2016-12-15 14:13:38
_STATISTICS_TAGS                         : BPS DURATION NUMBER_OF_FRAMES NUMBER_OF_BYTES

Menu
00:00:00.000                             : :00:00:00.000
00:07:05.342                             : :00:07:05.342
00:14:28.201                             : :00:14:28.201
00:20:13.838                             : :00:20:13.838
00:29:27.099                             : :00:29:27.099
00:39:02.590                             : :00:39:02.590
00:50:56.804                             : :00:50:56.804
00:59:52.756                             : :00:59:52.756
01:08:53.129                             : :01:08:53.129
01:16:19.950                             : :01:16:19.950
01:25:27.706                             : :01:25:27.706
01:35:23.259                             : :01:35:23.259



[/spoiler]

[/color][/b][/center]


Hash: A31248AAAAD57BF2C1E36557E98182B3D23F0EC1

If our torrent is not available, you can try to find it on Google or Torrageor Btcache.





Please rate and Add comment in form below.
Opinions about this torrent help others users