Ma Loute (2016).H264.Italian.French.Ac3.5.1.sub.ita.iCV-MIRCrew

Main Language: | Added:31-12-2016 | Author: robbyrs | Category: Movie/Films |
Torrent Score: 0
0

Size:

1.87 GB

Seeders:

65

Leechers:

15

Complete:

171

Description:

Full Title: Ma Loute (2016).H264.Italian.French.Ac3.5.1.sub.ita.iCV-MIRCrew


My release is always in double track audio italian and Original audio
for select it use VLC or dvd player home
not use wmp

Ma Loute (2016)







    GENERE: Commedia
    ANNO: 2016
    REGIA: Bruno Dumont
    SCENEGGIATURA: Bruno Dumont
    FOTOGRAFIA: Guillaume Deffontaines
    PRODUZIONE: 3B Productions, Arte France Cinéma, Scope Pictures
    DISTRIBUZIONE: Movies Inspired
    PAESE: Germania, Francia
    DURATA: 122 Min



Juliette Binoche, Valeria Bruni Tedeschi, Fabrice Luchini, Jean-Luc Vincent, Angélique Vergara



Il film è ambientato nel 1910, sulla Côte d'Opale, e vede un ispettore di polizia e il suo assistente indagare su alcune misteriose sparizioni, mentre i rampolli di due famiglie, Ma Loute Bréfort e la giovane e spregiudicata Billie Van Peteghem, intrecciano una storia d'amore che sconvolgerà sia i Bréfort (traghettatori) che i Van Peteghem (ricchi borghesi degenerati).



Summer 1910. Several tourists have vanished while relaxing on the beautiful beaches of the Channel Coast. Infamous inspectors Machin and Malfoy soon gather that the epicenter of these ...










[spoiler]
General
Unique ID                                : 84756076562033004873016164335493066172 (0x3FC36D3479ADC5DBF298CBC8029C2DBC)
Complete name                            : Ma Loute (2016).H264.ita.fre.sub.ita.iCV-MIRCrew.mkv
Format                                   : Matroska
Format version                           : Version 2
File size                                : 1.87 GiB
Duration                                 : 2h 3mn
Overall bit rate                         : 2 170 Kbps
Movie name                               : VISIT www.icv-crew.org
Encoded date                             : UTC 2016-12-26 22:22:07
Writing application                      : Lavf54.63.100
Writing library                          : Lavf54.63.100
COPYRIGHT                                : robbyrs

Video
ID                                       : 1
Format                                   : AVC
Format/Info                              : Advanced Video Codec
Format profile                           : [email protected]
Format settings, CABAC                   : Yes
Format settings, ReFrames                : 2 frames
Codec ID                                 : V_MPEG4/ISO/AVC
Duration                                 : 2h 3mn
Bit rate                                 : 1 275 Kbps
Width                                    : 720 pixels
Height                                   : 300 pixels
Display aspect ratio                     : 2.40:1
Original display aspect ratio            : 2.40:1
Frame rate mode                          : Variable
Frame rate                               : 23.976 fps
Color space                              : YUV
Chroma subsampling                       : 4:2:0
Bit depth                                : 8 bits
Scan type                                : Progressive
Bits/(Pixel*Frame)                       : 0.246
Stream size                              : 1.06 GiB (57%)
Writing library                          : x264 core 130 r2273
Encoding settings                        : cabac=1 / ref=2 / deblock=1:0:0 / analyse=0x1:0x131 / me=hex / subme=7 / psy=1 / psy_rd=1.00:0.00 / mixed_ref=0 / me_range=16 / chroma_me=1 / trellis=1 / 8x8dct=0 / cqm=0 / deadzone=21,11 / fast_pskip=1 / chroma_qp_offset=-2 / threads=12 / lookahead_threads=2 / sliced_threads=0 / nr=0 / decimate=1 / interlaced=0 / bluray_compat=0 / constrained_intra=0 / bframes=3 / b_pyramid=0 / b_adapt=1 / b_bias=0 / direct=3 / weightb=1 / open_gop=0 / weightp=2 / keyint=230 / keyint_min=23 / scenecut=40 / intra_refresh=0 / rc_lookahead=40 / rc=2pass / mbtree=1 / bitrate=1275 / ratetol=1.0 / qcomp=0.60 / qpmin=10 / qpmax=69 / qpstep=4 / cplxblur=20.0 / qblur=0.5 / vbv_maxrate=24000 / vbv_bufsize=24000 / nal_hrd=none / ip_ratio=1.40 / aq=1:1.00
Language                                 : English
Default                                  : Yes
Forced                                   : No
DURATION                                 : 02:03:05.086000000
NUMBER_OF_FRAMES                         : 177065
NUMBER_OF_BYTES                          : 9506011200
_STATISTICS_WRITING_APP                  : mkvmerge v8.7.0 ('All of the above') 64bit
_STATISTICS_WRITING_DATE_UTC             : 2016-12-16 11:36:01
_STATISTICS_TAGS                         : BPS DURATION NUMBER_OF_FRAMES NUMBER_OF_BYTES

Audio #1
ID                                       : 2
Format                                   : AC-3
Format/Info                              : Audio Coding 3
Mode extension                           : CM (complete main)
Codec ID                                 : A_AC3
Duration                                 : 2h 3mn
Bit rate mode                            : Constant
Bit rate                                 : 448 Kbps
Channel(s)                               : 6 channels
Channel positions                        : Front: L C R, Side: L R, LFE
Sampling rate                            : 48.0 KHz
Bit depth                                : 16 bits
Compression mode                         : Lossy
Delay relative to video                  : 21s 808ms
Stream size                              : 396 MiB (21%)
Title                                    : AC3 ITA
Language                                 : Italian
Default                                  : Yes
Forced                                   : No
DURATION                                 : 02:03:04.352000000
NUMBER_OF_FRAMES                         : 230761
NUMBER_OF_BYTES                          : 590748160
_STATISTICS_WRITING_APP                  : mkvmerge v8.7.0 ('All of the above') 64bit
_STATISTICS_WRITING_DATE_UTC             : 2016-12-16 11:36:01
_STATISTICS_TAGS                         : BPS DURATION NUMBER_OF_FRAMES NUMBER_OF_BYTES

Audio #2
ID                                       : 3
Format                                   : AC-3
Format/Info                              : Audio Coding 3
Mode extension                           : CM (complete main)
Codec ID                                 : A_AC3
Duration                                 : 2h 3mn
Bit rate mode                            : Constant
Bit rate                                 : 448 Kbps
Channel(s)                               : 6 channels
Channel positions                        : Front: L C R, Side: L R, LFE
Sampling rate                            : 48.0 KHz
Bit depth                                : 16 bits
Compression mode                         : Lossy
Delay relative to video                  : 1mn 5s
Stream size                              : 396 MiB (21%)
Title                                    : AC3 FRE
Language                                 : French
Default                                  : No
Forced                                   : No
DURATION                                 : 02:03:05.184000000
NUMBER_OF_FRAMES                         : 230787
NUMBER_OF_BYTES                          : 590814720
_STATISTICS_WRITING_APP                  : mkvmerge v8.7.0 ('All of the above') 64bit
_STATISTICS_WRITING_DATE_UTC             : 2016-12-16 11:36:01
_STATISTICS_TAGS                         : BPS DURATION NUMBER_OF_FRAMES NUMBER_OF_BYTES

Text
ID                                       : 4
Format                                   : UTF-8
Codec ID                                 : S_TEXT/UTF8
Codec ID/Info                            : UTF-8 Plain Text
Title                                    : Regolari
Language                                 : Italian
Default                                  : No
Forced                                   : No
DURATION                                 : 01:56:54.851000000
NUMBER_OF_FRAMES                         : 947
NUMBER_OF_BYTES                          : 33878
_STATISTICS_WRITING_APP                  : mkvmerge v8.7.0 ('All of the above') 64bit
_STATISTICS_WRITING_DATE_UTC             : 2016-12-16 11:36:01
_STATISTICS_TAGS                         : BPS DURATION NUMBER_OF_FRAMES NUMBER_OF_BYTES

Menu
00:00:00.000                             : :00:00:00.000
00:07:05.342                             : :00:07:05.342
00:14:28.201                             : :00:14:28.201
00:20:13.838                             : :00:20:13.838
00:29:27.099                             : :00:29:27.099
00:39:02.590                             : :00:39:02.590
00:50:56.804                             : :00:50:56.804
00:59:52.756                             : :00:59:52.756
01:08:53.129                             : :01:08:53.129
01:16:19.950                             : :01:16:19.950
01:25:27.706                             : :01:25:27.706
01:35:23.259                             : :01:35:23.259
01:45:16.300                             : :01:45:16:300
01:55:01.150                             : :01:55:01:150



[/spoiler]

[/color][/b][/center]


Hash: 4217B0A0A798F7E2F38ECBFA5F2461D39BA3EEA9

If our torrent is not available, you can try to find it on Google or Torrageor Btcache.





Please rate and Add comment in form below.
Opinions about this torrent help others users