Day Watch - I Guardiani del Giorno (2006).H264.Italian.English.Ac3.5.1.sub.eng.iCV-MIRCrew

Main Language: | Added:04-01-2017 | Author: robbyrs | Category: Movie/Films |
Torrent Score: 1
0

Size:

2.15 GB

Seeders:

0

Leechers:

0

Complete:

0

Description:

Full Title: Day Watch - I Guardiani del Giorno (2006).H264.Italian.English.Ac3.5.1.sub.eng.iCV-MIRCrew
Day Watch - I Guardiani del Giorno (2006).H264.Italian.English.Ac3.5.1.sub.eng.iCV-MIRCrew



My release is always in double track audio italian and Original audio
for select it use VLC or dvd player home
not use wmp

I Guardiani del Giorno - Day Watch (2006)







    DATA USCITA: 09 novembre 2007
    GENERE: Avventura, Fantasy
    ANNO: 2006
    REGIA: Timur Bekmambetov
    SCENEGGIATURA: Timur Bekmambetov, Alexander Talal
    FOTOGRAFIA: Sergei Trofimov
    MONTAGGIO: Dmitri Kiselev
    MUSICHE: Yuri Poteyenko
    PRODUZIONE: Bazelevs Production, Channel One Russia, TABBAK,
    DISTRIBUZIONE: 20th Century Fox,
    PAESE: Russia
    DURATA: 132 Min

CAST:

Konstantin Khabensky, Mariya Poroshina, Vladimir Menshov, Galina Tyunina, Viktor Verzhbitsky, Zhanna Friske, Dmitri Martynov, Valeriy Zolotukhin, Aleksei Chadov, Nurzhuman Ikhtymbayev, Aleksei Maklakov, Aleksandr Samojlenko, Yuri Kutsenko, Irina Yakovleva, Yegor Dronov, Nikolai Olyalin, Rimma Markova, Anna Slyu, Igor Lifanov, Sergei Trofimov, Mariya Mironova, Anna Dubrovskaya



È passato del tempo dal confronto finale tra le forze del Bene e quelle del Male de I guardiani della notte, ma Anton continua nella sua lotta, cercando al tempo stesso di salvare suo figlio dalle forze oscure che combatte. Quando alcuni degli Esseri Oscuri vengono misteriosamente uccisi,



A man who serves in the war between the forces of Light and Dark comes into possession of a device that can restore life to Moscow, which was nearly destroyed by an apocalyptic event.










[spoiler]
General
Unique ID                                : 167719438052478691182732524900393814630 (0x7E2D96BB9A92E71A633B97B636120A66)
Complete name                            : I Guardiani del Giorno - Day Watch (2006).H264.ita.eng.sub.eng.iCV-MIRCrew.mkv
Format                                   : Matroska
Format version                           : Version 2
File size                                : 2.15 GiB
Duration                                 : 2h 25mn
Overall bit rate                         : 2 106 Kbps
Encoded date                             : UTC 2016-12-30T16:10:33Z
Writing application                      : HandBrake 0.10.5 2016021100
Writing library                          : Lavf55.12.0

Video
ID                                       : 1
Format                                   : AVC
Format/Info                              : Advanced Video Codec
Format profile                           : Main@L4.0
Format settings, CABAC                   : Yes
Format settings, ReFrames                : 4 frames
Codec ID                                 : V_MPEG4/ISO/AVC
Duration                                 : 2h 25mn
Bit rate                                 : 1 275 Kbps
Width                                    : 720 pixels
Height                                   : 304 pixels
Display aspect ratio                     : 2.35:1
Frame rate mode                          : Variable
Frame rate                               : 23.976 fps
Color space                              : YUV
Chroma subsampling                       : 4:2:0
Bit depth                                : 8 bits
Scan type                                : Progressive
Bits/(Pixel*Frame)                       : 0.241
Stream size                              : 1.25 GiB (59%)
Writing library                          : x264 core 142 r2479 dd79a61
Encoding settings                        : cabac=1 / ref=1 / deblock=1:0:0 / analyse=0x1:0x111 / me=hex / subme=2 / psy=1 / psy_rd=1.00:0.00 / mixed_ref=0 / me_range=16 / chroma_me=1 / trellis=0 / 8x8dct=0 / cqm=0 / deadzone=21,11 / fast_pskip=1 / chroma_qp_offset=0 / threads=12 / lookahead_threads=2 / sliced_threads=0 / nr=0 / decimate=1 / interlaced=0 / bluray_compat=0 / constrained_intra=0 / bframes=3 / b_pyramid=2 / b_adapt=1 / b_bias=0 / direct=1 / weightb=1 / open_gop=0 / weightp=1 / keyint=240 / keyint_min=24 / scenecut=40 / intra_refresh=0 / rc_lookahead=10 / rc=abr / mbtree=1 / bitrate=1275 / ratetol=1.0 / qcomp=0.60 / qpmin=0 / qpmax=69 / qpstep=4 / vbv_maxrate=20000 / vbv_bufsize=25000 / nal_hrd=none / filler=0 / ip_ratio=1.40 / aq=1:1.00
Default                                  : Yes
Forced                                   : No
Color primaries                          : BT.709-5, BT.1361, IEC 61966-2-4, SMPTE RP177
Transfer characteristics                 : BT.709-5, BT.1361
Matrix coefficients                      : BT.709-5, BT.1361, IEC 61966-2-4 709, SMPTE RP177

Audio #1
ID                                       : 2
Format                                   : AC-3
Format/Info                              : Audio Coding 3
Mode extension                           : CM (complete main)
Codec ID                                 : A_AC3
Duration                                 : 2h 25mn
Bit rate mode                            : Constant
Bit rate                                 : 448 Kbps
Channel(s)                               : 2 channels
Channel positions                        : Front: L R
Sampling rate                            : 48.0 KHz
Bit depth                                : 16 bits
Compression mode                         : Lossy
Delay relative to video                  : 1mn 5s
Stream size                              : 467 MiB (21%)
Language                                 : Italian
Default                                  : Yes
Forced                                   : No

Audio #2
ID                                       : 3
Format                                   : AC-3
Format/Info                              : Audio Coding 3
Mode extension                           : CM (complete main)
Codec ID                                 : A_AC3
Duration                                 : 2h 25mn
Bit rate mode                            : Constant
Bit rate                                 : 384 Kbps
Channel(s)                               : 2 channels
Channel positions                        : Front: L R
Sampling rate                            : 48.0 KHz
Bit depth                                : 16 bits
Compression mode                         : Lossy
Delay relative to video                  : 1mn 5s
Stream size                              : 400 MiB (18%)
Language                                 : English
Default                                  : No
Forced                                   : No

Text #1
ID                                       : 4
Format                                   : VobSub
Codec ID                                 : S_VOBSUB
Codec ID/Info                            : The same subtitle format used on DVDs
Language                                 : English
Default                                  : No
Forced                                   : No

Text #2
ID                                       : 5
Format                                   : VobSub
Codec ID                                 : S_VOBSUB
Codec ID/Info                            : The same subtitle format used on DVDs
Language                                 : English
Default                                  : No
Forced                                   : No



[/spoiler]

[/color][/b][/center]


Hash: 3426F975F243D3FE4BE64B3A6E2FCD2C756EF4C0

If our torrent is not available, you can try to find it on Google or Torrageor Btcache.





Please rate and Add comment in form below.
Opinions about this torrent help others users