L'estate addosso (2016).H264.Italian.Ac3.5.1.sub.ita.iCV-MIRCrew

Main Language: | Added:06-01-2017 | Author: robbyrs | Category: Movie/Films |
Torrent Score: 1
0

Size:

1.25 GB

Seeders:

13

Leechers:

153

Complete:

5

Description:

Full Title: L'estate addosso (2016).H264.Italian.Ac3.5.1.sub.ita.iCV-MIRCrew
L'estate addosso (2016).H264.Italian.Ac3.5.1.sub.ita.iCV-MIRCrew




NO FOUND ONLY ORIGINAL RELEASE



My release is always in double track audio italian and Original audio
for select it use VLC or dvd player home
not use wmp

L'estate addosso (2016)







    DATA USCITA: 14 settembre 2016
    GENERE: Commedia, Drammatico
    ANNO: 2016
    REGIA: Gabriele Muccino
    SCENEGGIATURA: Dale Nall, Gabriele Muccino
    MUSICHE: Jovanotti
    PRODUZIONE: Indiana Production Company con Rai Cinema
    DISTRIBUZIONE: 01 Distribution
    PAESE: Italia
    DURATA: 103 Min



Brando Pacitto, Matilda Lutz, Joseph Haro, Taylor Frey



Marco ha 18 anni, sta per diplomarsi al liceo ma di fronte alle fatali scelte della vita, è terribilmente angosciato dall'incertezza assoluta sul proprio futuro. L'estate "della maturità" subisce un improvviso colpo di scena quando, in seguito ad un incidente con lo scooter, Marco riceve dall'assicurazione un risarcimento che gli consentirà di partire per San Francisco.



A gay couple living in San Francisco takes in two strangers traveling from Italy to start a new life in America, discovering each other and forming the most unlikely of relationships along the  










[spoiler]
General
Unique ID                                : 92641135192699414420053508208052815992 (0x45B2089C4D10F37E3E962D01875E4878)
Complete name                            : L'estate addosso (2016).H264.ita.sub.ita.iCV-MIRCrew.mkv
Format                                   : Matroska
Format version                           : Version 2
File size                                : 1.25 GiB
Duration                                 : 1h 43mn
Overall bit rate                         : 1 726 Kbps
Movie name                               : VISIT www.icv-crew.org
Encoded date                             : UTC 2017-01-05 16:08:35
Writing application                      : Lavf54.63.100
Writing library                          : Lavf54.63.100
COPYRIGHT                                : robbyrs

Video
ID                                       : 1
Format                                   : AVC
Format/Info                              : Advanced Video Codec
Format profile                           : [email protected]
Format settings, CABAC                   : Yes
Format settings, ReFrames                : 2 frames
Codec ID                                 : V_MPEG4/ISO/AVC
Duration                                 : 1h 43mn
Bit rate                                 : 1 275 Kbps
Width                                    : 720 pixels
Height                                   : 300 pixels
Display aspect ratio                     : 2.40:1
Original display aspect ratio            : 2.40:1
Frame rate mode                          : Variable
Frame rate                               : 24.000 fps
Color space                              : YUV
Chroma subsampling                       : 4:2:0
Bit depth                                : 8 bits
Scan type                                : Progressive
Bits/(Pixel*Frame)                       : 0.246
Stream size                              : 919 MiB (72%)
Writing library                          : x264 core 130 r2273
Encoding settings                        : cabac=1 / ref=2 / deblock=1:0:0 / analyse=0x1:0x131 / me=hex / subme=7 / psy=1 / psy_rd=1.00:0.00 / mixed_ref=0 / me_range=16 / chroma_me=1 / trellis=1 / 8x8dct=0 / cqm=0 / deadzone=21,11 / fast_pskip=1 / chroma_qp_offset=-2 / threads=12 / lookahead_threads=2 / sliced_threads=0 / nr=0 / decimate=1 / interlaced=0 / bluray_compat=0 / constrained_intra=0 / bframes=3 / b_pyramid=0 / b_adapt=1 / b_bias=0 / direct=3 / weightb=1 / open_gop=0 / weightp=2 / keyint=240 / keyint_min=24 / scenecut=40 / intra_refresh=0 / rc_lookahead=40 / rc=2pass / mbtree=1 / bitrate=1275 / ratetol=1.0 / qcomp=0.60 / qpmin=10 / qpmax=69 / qpstep=4 / cplxblur=20.0 / qblur=0.5 / vbv_maxrate=24000 / vbv_bufsize=24000 / nal_hrd=none / ip_ratio=1.40 / aq=1:1.00
Language                                 : English
Default                                  : Yes
Forced                                   : No
DURATION                                 : 01:43:18.709000000
NUMBER_OF_FRAMES                         : 148769
NUMBER_OF_BYTES                          : 7756374953
_STATISTICS_WRITING_APP                  : mkvmerge v8.7.0 ('All of the above') 64bit
_STATISTICS_WRITING_DATE_UTC             : 2016-12-30 16:34:31
_STATISTICS_TAGS                         : BPS DURATION NUMBER_OF_FRAMES NUMBER_OF_BYTES

Audio
ID                                       : 2
Format                                   : AC-3
Format/Info                              : Audio Coding 3
Mode extension                           : CM (complete main)
Codec ID                                 : A_AC3
Duration                                 : 1h 43mn
Bit rate mode                            : Constant
Bit rate                                 : 448 Kbps
Channel(s)                               : 6 channels
Channel positions                        : Front: L C R, Side: L R, LFE
Sampling rate                            : 48.0 KHz
Bit depth                                : 16 bits
Compression mode                         : Lossy
Delay relative to video                  : 1mn 5s
Stream size                              : 331 MiB (26%)
Title                                    : AC3 ITA
Language                                 : Italian
Default                                  : No
Forced                                   : No
DURATION                                 : 01:43:18.848000000
NUMBER_OF_FRAMES                         : 193714
NUMBER_OF_BYTES                          : 495907840
_STATISTICS_WRITING_APP                  : mkvmerge v8.7.0 ('All of the above') 64bit
_STATISTICS_WRITING_DATE_UTC             : 2016-12-30 16:34:31
_STATISTICS_TAGS                         : BPS DURATION NUMBER_OF_FRAMES NUMBER_OF_BYTES

Text #1
ID                                       : 3
Format                                   : UTF-8
Codec ID                                 : S_TEXT/UTF8
Codec ID/Info                            : UTF-8 Plain Text
Title                                    : FORZATI
Language                                 : Italian
Default                                  : Yes
Forced                                   : No
DURATION                                 : 01:24:47.333000000
NUMBER_OF_FRAMES                         : 644
NUMBER_OF_BYTES                          : 23625
_STATISTICS_WRITING_APP                  : mkvmerge v8.7.0 ('All of the above') 64bit
_STATISTICS_WRITING_DATE_UTC             : 2016-12-30 16:34:31
_STATISTICS_TAGS                         : BPS DURATION NUMBER_OF_FRAMES NUMBER_OF_BYTES

Text #2
ID                                       : 4
Format                                   : UTF-8
Codec ID                                 : S_TEXT/UTF8
Codec ID/Info                            : UTF-8 Plain Text
Title                                    : REGULAR
Language                                 : Italian
Default                                  : No
Forced                                   : No
DURATION                                 : 01:35:49.875000000
NUMBER_OF_FRAMES                         : 1070
NUMBER_OF_BYTES                          : 48245
_STATISTICS_WRITING_APP                  : mkvmerge v8.7.0 ('All of the above') 64bit
_STATISTICS_WRITING_DATE_UTC             : 2016-12-30 16:34:31
_STATISTICS_TAGS                         : BPS DURATION NUMBER_OF_FRAMES NUMBER_OF_BYTES

Menu
00:00:00.000                             : :00:00:00.000
00:10:37.250                             : :00:10:37.250
00:21:08.375                             : :00:21:08.375
00:32:11.042                             : :00:32:11.042
00:40:05.958                             : :00:40:05.958
00:50:40.000                             : :00:50:40.000
00:59:15.000                             : :00:59:15.000
01:08:59.417                             : :01:08:59.417
01:17:58.042                             : :01:17:58.042
01:27:05.250                             : :01:27:05.250
01:32:02.042                             : :01:32:02.042
01:37:16.000                             : :01:37:16.000


[/spoiler]




Hash: 01AB640F708772FF380708EBC046D3625C07FEF8

If our torrent is not available, you can try to find it on Google or Torrageor Btcache.





Please rate and Add comment in form below.
Opinions about this torrent help others users