Hard Target 2 - Senza tregua 2 (2016).H264.Italian.English.Ac3.5.1.sub.ita.eng.iCV-MIRCrew

Main Language: | Added:07-01-2017 | Author: robbyrs | Category: Movie/Films |
Torrent Score: 0
0

Size:

1.57 GB

Seeders:

4

Leechers:

136

Complete:

8

Description:

Full Title: Hard Target 2 - Senza tregua 2 (2016).H264.Italian.English.Ac3.5.1.sub.ita.eng.iCV-MIRCrew
Hard Target 2 - Senza tregua 2 (2016).H264.Italian.English.Ac3.5.1.sub.ita.eng.iCV-MIRCrew




NO FOUND ONLY ORIGINAL RELEASE



My release is always in double track audio italian and Original audio
for select it use VLC or dvd player home
not use wmp

Senza tregua 2 - Hard Target 2 (2016)







Titolo originale Hard Target 2
Paese di produzione USA
Anno 2016
Durata 104 min
Rapporto 1,85:1
Genere azione, thriller
Regia Roel Reiné
Sceneggiatura Matt Harvey, Dominic Morgan e George Huang
Produttore Oliver Ackermann, Sean Daniels e Chris Lowenstein
Musiche Jack Wall




    Scott Adkins: Wes Baylor
    Robert Knepper: Aldrich
    Rhona Mitra: Sofia
    Temuera Morrison: Madden
    Ann Truong: Tha
    Adam Saunders: Esparto
    Jamie Timony: Landon
    Peter Hardy: Jacob Zimling
    Sean Keenan: Tobias Zimling
    Troy Honeysett: Jonny Sutherland




L'ex-marine Wes Baylor, dopo aver ucciso sul ring il suo rivale amico, continua a dannarsi per quel fatto. Un giorno Aldrich lo scova e gli propone un'ultima battaglia. Arrivato nell'Asia del sud, scopre che è stato ingannato e sarà costretto a partecipare ad una caccia all'uomo dove lui è..............



Retired mixed martial artist Wes "The Jailor" Baylor (Scott Adkins) can't refuse a million-dollar purse he's offered for one final bout in Myanmar. But when he arrives for the fight, he ...










[spoiler]
General
Unique ID                                : 185347330925706988297318322200096132718 (0x8B7098F411D3095D2BA112EBEB5DCE6E)
Complete name                            : Senza tregua 2 (2016).H264.ita.eng.sub.ita.eng.iCV-MIRCrew.mkv
Format                                   : Matroska
Format version                           : Version 2
File size                                : 1.57 GiB
Duration                                 : 1h 43mn
Overall bit rate                         : 2 176 Kbps
Movie name                               : VISIT www.icv-crew.org
Encoded date                             : UTC 2017-01-06 15:36:35
Writing application                      : Lavf54.63.100
Writing library                          : Lavf54.63.100
COPYRIGHT                                : robbyrs

Video
ID                                       : 1
Format                                   : AVC
Format/Info                              : Advanced Video Codec
Format profile                           : Main@L4.1
Format settings, CABAC                   : Yes
Format settings, ReFrames                : 2 frames
Codec ID                                 : V_MPEG4/ISO/AVC
Duration                                 : 1h 43mn
Bit rate                                 : 1 275 Kbps
Width                                    : 718 pixels
Height                                   : 404 pixels
Display aspect ratio                     : 16:9
Frame rate mode                          : Variable
Frame rate                               : 23.976 fps
Color space                              : YUV
Chroma subsampling                       : 4:2:0
Bit depth                                : 8 bits
Scan type                                : Progressive
Bits/(Pixel*Frame)                       : 0.183
Stream size                              : 916 MiB (57%)
Writing library                          : x264 core 130 r2273
Encoding settings                        : cabac=1 / ref=2 / deblock=1:0:0 / analyse=0x1:0x131 / me=hex / subme=7 / psy=1 / psy_rd=1.00:0.00 / mixed_ref=0 / me_range=16 / chroma_me=1 / trellis=1 / 8x8dct=0 / cqm=0 / deadzone=21,11 / fast_pskip=1 / chroma_qp_offset=-2 / threads=12 / lookahead_threads=2 / sliced_threads=0 / nr=0 / decimate=1 / interlaced=0 / bluray_compat=0 / constrained_intra=0 / bframes=3 / b_pyramid=0 / b_adapt=1 / b_bias=0 / direct=3 / weightb=1 / open_gop=0 / weightp=2 / keyint=230 / keyint_min=23 / scenecut=40 / intra_refresh=0 / rc_lookahead=40 / rc=2pass / mbtree=1 / bitrate=1275 / ratetol=1.0 / qcomp=0.60 / qpmin=10 / qpmax=69 / qpstep=4 / cplxblur=20.0 / qblur=0.5 / vbv_maxrate=24000 / vbv_bufsize=24000 / nal_hrd=none / ip_ratio=1.40 / aq=1:1.00
Default                                  : Yes
Forced                                   : No
DURATION                                 : 01:43:33.249000000
NUMBER_OF_FRAMES                         : 148969
NUMBER_OF_BYTES                          : 9471295910
_STATISTICS_WRITING_APP                  : mkvmerge v9.6.0 ('Slave To Your Mind') 32bit
_STATISTICS_WRITING_DATE_UTC             : 2016-12-14 15:33:11
_STATISTICS_TAGS                         : BPS DURATION NUMBER_OF_FRAMES NUMBER_OF_BYTES

Audio #1
ID                                       : 2
Format                                   : AC-3
Format/Info                              : Audio Coding 3
Mode extension                           : CM (complete main)
Codec ID                                 : A_AC3
Duration                                 : 1h 43mn
Bit rate mode                            : Constant
Bit rate                                 : 448 Kbps
Channel(s)                               : 6 channels
Channel positions                        : Front: L C R, Side: L R, LFE
Sampling rate                            : 48.0 KHz
Bit depth                                : 16 bits
Compression mode                         : Lossy
Delay relative to video                  : 1mn 5s
Stream size                              : 332 MiB (21%)
Language                                 : Italian
Default                                  : No
Forced                                   : No
DURATION                                 : 01:43:33.280000000
NUMBER_OF_FRAMES                         : 194165
NUMBER_OF_BYTES                          : 497062400
_STATISTICS_WRITING_APP                  : mkvmerge v9.6.0 ('Slave To Your Mind') 32bit
_STATISTICS_WRITING_DATE_UTC             : 2016-12-14 15:33:11
_STATISTICS_TAGS                         : BPS DURATION NUMBER_OF_FRAMES NUMBER_OF_BYTES

Audio #2
ID                                       : 3
Format                                   : AC-3
Format/Info                              : Audio Coding 3
Mode extension                           : CM (complete main)
Codec ID                                 : A_AC3
Duration                                 : 1h 43mn
Bit rate mode                            : Constant
Bit rate                                 : 448 Kbps
Channel(s)                               : 6 channels
Channel positions                        : Front: L C R, Side: L R, LFE
Sampling rate                            : 48.0 KHz
Bit depth                                : 16 bits
Compression mode                         : Lossy
Delay relative to video                  : 1mn 5s
Stream size                              : 332 MiB (21%)
Language                                 : English
Default                                  : No
Forced                                   : No
DURATION                                 : 01:43:33.280000000
NUMBER_OF_FRAMES                         : 194165
NUMBER_OF_BYTES                          : 497062400
_STATISTICS_WRITING_APP                  : mkvmerge v9.6.0 ('Slave To Your Mind') 32bit
_STATISTICS_WRITING_DATE_UTC             : 2016-12-14 15:33:11
_STATISTICS_TAGS                         : BPS DURATION NUMBER_OF_FRAMES NUMBER_OF_BYTES

Text #1
ID                                       : 4
Format                                   : UTF-8
Codec ID                                 : S_TEXT/UTF8
Codec ID/Info                            : UTF-8 Plain Text
Title                                    : Sub. Ita. Forced
Language                                 : Italian
Default                                  : Yes
Forced                                   : Yes
DURATION                                 : 01:21:39.143000000
NUMBER_OF_FRAMES                         : 4
NUMBER_OF_BYTES                          : 90
_STATISTICS_WRITING_APP                  : mkvmerge v9.6.0 ('Slave To Your Mind') 32bit
_STATISTICS_WRITING_DATE_UTC             : 2016-12-14 15:33:11
_STATISTICS_TAGS                         : BPS DURATION NUMBER_OF_FRAMES NUMBER_OF_BYTES

Text #2
ID                                       : 5
Format                                   : UTF-8
Codec ID                                 : S_TEXT/UTF8
Codec ID/Info                            : UTF-8 Plain Text
Title                                    : Sub. Ita.
Language                                 : Italian
Default                                  : No
Forced                                   : No
DURATION                                 : 01:39:26.001000000
NUMBER_OF_FRAMES                         : 831
NUMBER_OF_BYTES                          : 26630
_STATISTICS_WRITING_APP                  : mkvmerge v9.6.0 ('Slave To Your Mind') 32bit
_STATISTICS_WRITING_DATE_UTC             : 2016-12-14 15:33:11
_STATISTICS_TAGS                         : BPS DURATION NUMBER_OF_FRAMES NUMBER_OF_BYTES

Text #3
ID                                       : 6
Format                                   : UTF-8
Codec ID                                 : S_TEXT/UTF8
Codec ID/Info                            : UTF-8 Plain Text
Title                                    : Sub. Eng. Not Hearing
Language                                 : English
Default                                  : No
Forced                                   : No
DURATION                                 : 01:41:17.487000000
NUMBER_OF_FRAMES                         : 1058
NUMBER_OF_BYTES                          : 29732
_STATISTICS_WRITING_APP                  : mkvmerge v9.6.0 ('Slave To Your Mind') 32bit
_STATISTICS_WRITING_DATE_UTC             : 2016-12-14 15:33:11
_STATISTICS_TAGS                         : BPS DURATION NUMBER_OF_FRAMES NUMBER_OF_BYTES

Menu
00:00:00.000                             : :00:00:00.000
00:04:20.260                             : :00:04:20.260
00:11:08.042                             : :00:11:08.042
00:14:49.889                             : :00:14:49.889
00:19:39.345                             : :00:19:39.345
00:22:42.778                             : :00:22:42.778
00:29:22.135                             : :00:29:22.135
00:34:33.780                             : :00:34:33.780
00:39:10.265                             : :00:39:10.265
00:44:59.113                             : :00:44:59.113
00:49:06.318                             : :00:49:06.318
00:54:23.260                             : :00:54:23.260
00:58:45.981                             : :00:58:45.981
01:04:09.054                             : :01:04:09.054
01:09:10.396                             : :01:09:10.396
01:17:46.203                             : :01:17:46.203
01:22:19.935                             : :01:22:19.935
01:27:10.434                             : :01:27:10.434
01:31:24.396                             : :01:31:24.396
01:40:24.018                             : :01:40:24.018


[/spoiler]




Hash: 155F81EE7A3A74E2D5F931022153E8C6E6E70573

If our torrent is not available, you can try to find it on Google or Torrageor Btcache.





Please rate and Add comment in form below.
Opinions about this torrent help others users