Support us
Login | Signup

Blair Witch (2016).H264Italian.English.Ac3.5.1.sub.ita.iCV-MIRCrew

Main Language: | Added:09-01-2017 | Author: robbyrs | Category: Movie/Films |

Torrent Score: 0
0

Size:

1.27 GB

Seeders:

120

Leechers:

113

Complete:

241

Description:

Blair Witch (2016).H264Italian.English.Ac3.5.1.sub.ita.iCV-MIRCrew




NO FOUND ONLY ORIGINAL RELEASE



My release is always in double track audio italian and Original audio
for select it use VLC or dvd player home
not use wmp

Blair Witch (2016)







Titolo originale:    Blair Witch
Conosciuto anche come:    The Blair Witch Project 3, The Woods
Nazione:    U.S.A.
Anno:    2016
Genere:    Horror, Thriller
Durata:    90'
Regia:    Adam Wingard
Produzione:    Lionsgate
Distribuzione:    Eagle Pictures



Corbin Reid, Wes Robinson, Valorie Curry, James Allen McCune, Callie Hernandez, Brandon Scott



Un gruppo di studenti universitari si avventura nella foresta di Black Hills, nel Maryland, per cercare di svelare il mistero legato alla sparizione della sorella di James Donahue, Heather, avvenuta 17 anni prima e che in molti pensano sia collegata alla leggenda della Strega di Blair. Il gruppo รจ inizialmente ottimista, soprattutto quando alcuni abitanti del posto si offrono di guidarli nella foresta



After discovering a video showing what he believes to be his vanished sister Heather, James and a group of friends head to the forest believed to be inhabited by the Blair Witch.










[spoiler]
General
Unique ID                                : 172858149132620044361696403429803622825 (0x820B44BFFE4F41FC4B788718E95301A9)
Complete name                            : Blair Witch (2016).H264.ita.eng.sub.ita.eng.iCV-MIRCrew.mkv
Format                                   : Matroska
Format version                           : Version 2
File size                                : 1.27 GiB
Duration                                 : 1h 29mn
Overall bit rate                         : 2 039 Kbps
Encoded date                             : UTC 2017-01-07T10:09:52Z
Writing application                      : HandBrake 0.10.5 2016021100
Writing library                          : Lavf55.12.0

Video
ID                                       : 1
Format                                   : AVC
Format/Info                              : Advanced Video Codec
Format profile                           : [email protected]
Format settings, CABAC                   : Yes
Format settings, ReFrames                : 4 frames
Codec ID                                 : V_MPEG4/ISO/AVC
Duration                                 : 1h 29mn
Bit rate                                 : 1 280 Kbps
Width                                    : 720 pixels
Height                                   : 390 pixels
Display aspect ratio                     : 16:9
Frame rate mode                          : Variable
Frame rate                               : 24.000 fps
Color space                              : YUV
Chroma subsampling                       : 4:2:0
Bit depth                                : 8 bits
Scan type                                : Progressive
Bits/(Pixel*Frame)                       : 0.190
Stream size                              : 784 MiB (60%)
Writing library                          : x264 core 142 r2479 dd79a61
Encoding settings                        : cabac=1 / ref=1 / deblock=1:0:0 / analyse=0x1:0x111 / me=hex / subme=2 / psy=1 / psy_rd=1.00:0.00 / mixed_ref=0 / me_range=16 / chroma_me=1 / trellis=0 / 8x8dct=0 / cqm=0 / deadzone=21,11 / fast_pskip=1 / chroma_qp_offset=0 / threads=12 / lookahead_threads=3 / sliced_threads=0 / nr=0 / decimate=1 / interlaced=0 / bluray_compat=0 / constrained_intra=0 / bframes=3 / b_pyramid=2 / b_adapt=1 / b_bias=0 / direct=1 / weightb=1 / open_gop=0 / weightp=1 / keyint=240 / keyint_min=24 / scenecut=40 / intra_refresh=0 / rc_lookahead=10 / rc=abr / mbtree=1 / bitrate=1280 / ratetol=1.0 / qcomp=0.60 / qpmin=0 / qpmax=69 / qpstep=4 / vbv_maxrate=20000 / vbv_bufsize=25000 / nal_hrd=none / filler=0 / ip_ratio=1.40 / aq=1:1.00
Default                                  : Yes
Forced                                   : No
Color primaries                          : BT.709-5, BT.1361, IEC 61966-2-4, SMPTE RP177
Transfer characteristics                 : BT.709-5, BT.1361
Matrix coefficients                      : BT.709-5, BT.1361, IEC 61966-2-4 709, SMPTE RP177

Audio #1
ID                                       : 2
Format                                   : AC-3
Format/Info                              : Audio Coding 3
Mode extension                           : CM (complete main)
Codec ID                                 : A_AC3
Duration                                 : 1h 29mn
Bit rate mode                            : Constant
Bit rate                                 : 384 Kbps
Channel(s)                               : 6 channels
Channel positions                        : Front: L C R, Side: L R, LFE
Sampling rate                            : 48.0 KHz
Bit depth                                : 16 bits
Compression mode                         : Lossy
Delay relative to video                  : 1mn 5s
Stream size                              : 245 MiB (19%)
Language                                 : Italian
Default                                  : Yes
Forced                                   : No

Audio #2
ID                                       : 3
Format                                   : AC-3
Format/Info                              : Audio Coding 3
Mode extension                           : CM (complete main)
Codec ID                                 : A_AC3
Duration                                 : 1h 29mn
Bit rate mode                            : Constant
Bit rate                                 : 384 Kbps
Channel(s)                               : 6 channels
Channel positions                        : Front: L C R, Side: L R, LFE
Sampling rate                            : 48.0 KHz
Bit depth                                : 16 bits
Compression mode                         : Lossy
Delay relative to video                  : 1mn 5s
Stream size                              : 245 MiB (19%)
Language                                 : English
Default                                  : No
Forced                                   : No

Text #1
ID                                       : 4
Format                                   : ASS
Codec ID                                 : S_TEXT/ASS
Codec ID/Info                            : Advanced Sub Station Alpha
Compression mode                         : Lossless
Language                                 : Italian
Default                                  : No
Forced                                   : No

Text #2
ID                                       : 5
Format                                   : ASS
Codec ID                                 : S_TEXT/ASS
Codec ID/Info                            : Advanced Sub Station Alpha
Compression mode                         : Lossless
Language                                 : Italian
Default                                  : No
Forced                                   : No

Menu
00:00:00.000                             : :00:00:00.000
00:07:05.458                             : :00:07:05.342
00:14:28.290                             : :00:14:28.201
00:20:13.957                             : :00:20:13.838
00:29:27.206                             : :00:29:27.099
00:39:02.706                             : :00:39:02.590
00:50:56.913                             : :00:50:56.804
00:59:52.871                             : :00:59:52.756
01:08:53.246                             : :01:08:53.129
01:16:20.037                             : :01:16:19.950
01:23:27.828                             : :01:23:27.706



[/spoiler]



Hash: D7320708D75A3F90F45A09036CD54FB6C36DB89F

If our torrent is not available, you can try to find it on iTorrents or Torrageor Btcache.

  Movie/Films     Animation/Cartoons     TV Shows/Series     Music     Games     Applications     Books     Other  

   How works MfT    Rules    Suggest idea    Request torrent    Privacy Policy    DMCA    Contacts    MfT Status    Friends sites    Is this site safe?   

mkv, HD-Rip , BD-Rip , Blu-Ray , HD Film , hd film , hd films , scarica film gratis , hd torrents , hd torrent , hdtorrents, hdrip , bdrip , Bluray ,

Blu-Ray player, scarica film , scarica torrent , torrent film , film ita, bluray, mux, 1080p, 720p, hdtorrents, torrent ita, torrents ita, HD film ita, HD ita, Blu-Ray ita

Please Disable Ad-Block To View the content of:



We Provide a very low quantity of Ads

Please, help to keep us alive!

Disable Adblock for this site, and refresh the page