Seconds - Operazione diabolica (1966).H264.Italian.English.Ac3.sub.ita.eng.iCV-MIRCrew

Main Language: | Added:11-01-2017 | Author: robbyrs | Category: Movie/Films |
Torrent Score: 0
0

Size:

1.24 GB

Seeders:

901

Leechers:

48

Complete:

1802

Description:

Full Title: Seconds - Operazione diabolica (1966).H264.Italian.English.Ac3.sub.ita.eng.iCV-MIRCrew
Seconds - Operazione diabolica (1966).H264.Italian.English.Ac3.sub.ita.eng.iCV-MIRCrew




NO FOUND ONLY ORIGINAL RELEASE



My release is always in double track audio italian and Original audio
for select it use VLC or dvd player home
not use wmp

Operazione diabolica - Seconds (1966)







Titolo originale Seconds
Lingua originale Inglese
Paese di produzione Stati Uniti d'America
Anno 1966
Durata 107 min
Colore B/N
Rapporto 1.66:1
Genere thriller, fantascienza, drammatico
Regia John Frankenheimer
Soggetto David Ely (romanzo)
Sceneggiatura Lewis John Carlino
Produttore John Frankenheimer, Edward Lewis
Casa di produzione Paramount Pictures, Gibraltar Productions
Fotografia James Wong Howe
Montaggio David Newhouse, Ferris Webster
Musiche Jerry Goldsmith
Scenografia Ted Haworth
Costumi Jack Martell, Peter V. Saldutti
Trucco Jack Petty, Mark Reedall




    Rock Hudson: Antiochus "Tony" Wilson
    Salome Jens: Nora Marcus
    John Randolph: Arthur Hamilton
    Frances Reid: Emily Hamilton
    Murray Hamilton: Charlie
    Will Geer: Il vecchio
    Jeff Corey: Mr. Ruby
    Richard Anderson: Dr. Innes
    Khigh Dhiegh: Davalo




Arthur Hamilton, un uomo di mezza età, conduce una vita insoddisfatta nonostante un buon impiego e un ottimo stato sociale. Un giorno riceve una telefonata da Charlie, un amico che credeva morto il quale gli indica un indirizzo al quale recarsi. Il luogo è la sede di un'organizzazione che offre ai propri clienti la possibilità di iniziare una nuova vita inscenandone la morte e cambiandone l'aspetto con un'operazione di chirurgia plastica...................



Middle-aged banker Arthur Hamilton is given the opportunity to start a completely new life when he receives calls from his old friend Charlie. The only problem is that Charlie is supposed to be dead. Hamilton is eventually introduced to a firm that will fake his death and create an entirely new look and life for him. After undergoing physical reconstruction surgery and months of training and psychotherapy, Hamilton returns to the world in the form of artist Tony Wilson................










[spoiler]
General
Unique ID                                : 42235171849390502668420590867806295029 (0x1FC632BE5B3D3A09A934CE3D3C0E13F5)
Complete name                            : Operazione diabolica - Seconds (1966).H264.ita.eng.sub.ita.eng.iCV-MIRCrew.mkv
Format                                   : Matroska
Format version                           : Version 2
File size                                : 1.24 GiB
Duration                                 : 1h 47mn
Overall bit rate                         : 1 656 Kbps
Movie name                               : VISIT www.icv-crew.org
Encoded date                             : UTC 2017-01-06T20:34:19Z
Writing application                      : HandBrake 0.10.5 2016021100
Writing library                          : Lavf55.12.0

Video
ID                                       : 1
Format                                   : AVC
Format/Info                              : Advanced Video Codec
Format profile                           : [email protected]
Format settings, CABAC                   : Yes
Format settings, ReFrames                : 4 frames
Codec ID                                 : V_MPEG4/ISO/AVC
Duration                                 : 1h 47mn
Bit rate                                 : 1 270 Kbps
Width                                    : 688 pixels
Height                                   : 392 pixels
Display aspect ratio                     : 16:9
Original display aspect ratio            : 16:9
Frame rate mode                          : Variable
Frame rate                               : 23.976 fps
Color space                              : YUV
Chroma subsampling                       : 4:2:0
Bit depth                                : 8 bits
Scan type                                : Progressive
Bits/(Pixel*Frame)                       : 0.196
Stream size                              : 952 MiB (75%)
Writing library                          : x264 core 142 r2479 dd79a61
Encoding settings                        : cabac=1 / ref=1 / deblock=1:0:0 / analyse=0x1:0x111 / me=hex / subme=2 / psy=1 / psy_rd=1.00:0.00 / mixed_ref=0 / me_range=16 / chroma_me=1 / trellis=0 / 8x8dct=0 / cqm=0 / deadzone=21,11 / fast_pskip=1 / chroma_qp_offset=0 / threads=12 / lookahead_threads=3 / sliced_threads=0 / nr=0 / decimate=1 / interlaced=0 / bluray_compat=0 / constrained_intra=0 / bframes=3 / b_pyramid=2 / b_adapt=1 / b_bias=0 / direct=1 / weightb=1 / open_gop=0 / weightp=1 / keyint=240 / keyint_min=24 / scenecut=40 / intra_refresh=0 / rc_lookahead=10 / rc=abr / mbtree=1 / bitrate=1270 / ratetol=1.0 / qcomp=0.60 / qpmin=0 / qpmax=69 / qpstep=4 / vbv_maxrate=20000 / vbv_bufsize=25000 / nal_hrd=none / filler=0 / ip_ratio=1.40 / aq=1:1.00
Default                                  : Yes
Forced                                   : No
Color primaries                          : BT.709-5, BT.1361, IEC 61966-2-4, SMPTE RP177
Transfer characteristics                 : BT.709-5, BT.1361
Matrix coefficients                      : BT.709-5, BT.1361, IEC 61966-2-4 709, SMPTE RP177

Audio #1
ID                                       : 2
Format                                   : AC-3
Format/Info                              : Audio Coding 3
Mode extension                           : CM (complete main)
Codec ID                                 : A_AC3
Duration                                 : 1h 47mn
Bit rate mode                            : Constant
Bit rate                                 : 192 Kbps
Channel(s)                               : 2 channels
Channel positions                        : Front: L R
Sampling rate                            : 48.0 KHz
Bit depth                                : 16 bits
Compression mode                         : Lossy
Delay relative to video                  : 1mn 5s
Stream size                              : 147 MiB (12%)
Language                                 : Italian
Default                                  : Yes
Forced                                   : No

Audio #2
ID                                       : 3
Format                                   : AC-3
Format/Info                              : Audio Coding 3
Mode extension                           : CM (complete main)
Codec ID                                 : A_AC3
Duration                                 : 1h 47mn
Bit rate mode                            : Constant
Bit rate                                 : 192 Kbps
Channel(s)                               : 1 channel
Channel positions                        : Front: C
Sampling rate                            : 48.0 KHz
Bit depth                                : 16 bits
Compression mode                         : Lossy
Delay relative to video                  : 1mn 5s
Stream size                              : 147 MiB (12%)
Language                                 : English
Default                                  : No
Forced                                   : No

Text #1
ID                                       : 4
Format                                   : ASS
Codec ID                                 : S_TEXT/ASS
Codec ID/Info                            : Advanced Sub Station Alpha
Compression mode                         : Lossless
Language                                 : Italian
Default                                  : No
Forced                                   : No

Text #2
ID                                       : 5
Format                                   : ASS
Codec ID                                 : S_TEXT/ASS
Codec ID/Info                            : Advanced Sub Station Alpha
Compression mode                         : Lossless
Language                                 : Italian
Default                                  : No
Forced                                   : No

Text #3
ID                                       : 6
Format                                   : ASS
Codec ID                                 : S_TEXT/ASS
Codec ID/Info                            : Advanced Sub Station Alpha
Compression mode                         : Lossless
Language                                 : English
Default                                  : No
Forced                                   : No



[/spoiler]




Hash: EC69CE9533E9FDD357A10B09BD3E4678146120D2

If our torrent is not available, you can try to find it on Google or Torrageor Btcache.





Please rate and Add comment in form below.
Opinions about this torrent help others users