Citizenfour (2014).H264.Italian.English.Ac3.sub.ita.iCV-MIRCrew

Main Language: | Added:25-01-2017 | Author: robbyrs | Category: Movie/Films |
Torrent Score: 0
0

Size:

1.48 GB

Seeders:

28

Leechers:

6

Complete:

253

Description:

Full Title: Citizenfour (2014).H264.Italian.English.Ac3.sub.ita.iCV-MIRCrew
Citizenfour (2014).H264.Italian.English.Ac3.sub.ita.iCV-MIRCrew





NO FOUND ONLY ORIGINAL RELEASE



My release is always in double track audio italian and Original audio
for select it use VLC or dvd player home
not use wmp

Citizenfour (2014)







    DATA USCITA: 16 aprile 2015
    GENERE: Documentario
    ANNO: 2014
    REGIA: Laura Poitras
    FOTOGRAFIA: Laura Poitras, Kirsten Johnson, Trevor Paglen, Katy Scoggin
    MONTAGGIO: Mathilde Bonnefoy
    DISTRIBUZIONE: I Wonder Pictures
    PAESE: Germania, USA
    DURATA: 114 Min



Edward Snowden, Julian Assange, Glenn Greenwald, Ewen MacAskill



Ricostruzione della vicenda di Edward Snowden e dello scandalo sulle sorveglianze illegali della NSA americana raccontato dallo stesso protagonista, che ha contattato l'autrice del documentario offrendogli di diffondere ulteriormente la sua storia.



In January 2013, Laura Poitras started receiving anonymous encrypted e-mails from "CITIZENFOUR," who claimed to have evidence of illegal covert surveillance programs run by the NSA in collaboration with other intelligence agencies worldwide. Five months later, she and reporters Glenn Greenwald and Ewen MacAskill flew to Hong Kong for the first of many meetings with the man who turned out to be Edward Snowden. She brought her camera with her. The resulting film is history unfolding before our eyes.











[spoiler]
General
Unique ID                                : 188364132769554174961159050405484924853 (0x8DB59CC49AABA7E19B70A45949738FB5)
Complete name                            : Citizenfour (2014).H264.ita.eng.sub.ita.iCV-MIRCrew.mkv
Format                                   : Matroska
Format version                           : Version 2
File size                                : 1.48 GiB
Duration                                 : 1h 49mn
Overall bit rate                         : 1 942 Kbps
Movie name                               : CITIZENFOUR.Title1
Encoded date                             : UTC 2017-01-20 18:11:22
Writing application                      : DVDFab 9.1.5.7
Writing library                          : libebml v0.7.8 + libmatroska v0.8.1

Video
ID                                       : 1
Format                                   : AVC
Format/Info                              : Advanced Video Codec
Format profile                           : [email protected]
Format settings, CABAC                   : Yes
Format settings, ReFrames                : 2 frames
Codec ID                                 : V_MPEG4/ISO/AVC
Duration                                 : 1h 49mn
Bit rate                                 : 1 263 Kbps
Width                                    : 720 pixels
Height                                   : 404 pixels
Display aspect ratio                     : 16:9
Frame rate                               : 25.000 fps
Color space                              : YUV
Chroma subsampling                       : 4:2:0
Bit depth                                : 8 bits
Scan type                                : Progressive
Bits/(Pixel*Frame)                       : 0.174
Stream size                              : 987 MiB (65%)
Writing library                          : x264 core
Default                                  : Yes
Forced                                   : No
Color primaries                          : BT.601-6 525, BT.1358 525, BT.1700 NTSC, SMPTE 170M
Transfer characteristics                 : BT.709-5, BT.1361
Matrix coefficients                      : BT.601-6 525, BT.1358 525, BT.1700 NTSC, SMPTE 170M

Audio #1
ID                                       : 2
Format                                   : AC-3
Format/Info                              : Audio Coding 3
Mode extension                           : CM (complete main)
Codec ID                                 : A_AC3
Duration                                 : 1h 49mn
Bit rate mode                            : Constant
Bit rate                                 : 192 Kbps
Channel(s)                               : 2 channels
Channel positions                        : Front: L R
Sampling rate                            : 48.0 KHz
Bit depth                                : 16 bits
Compression mode                         : Lossy
Stream size                              : 150 MiB (10%)
Language                                 : Italian
Default                                  : Yes
Forced                                   : No

Audio #2
ID                                       : 3
Format                                   : AC-3
Format/Info                              : Audio Coding 3
Mode extension                           : CM (complete main)
Codec ID                                 : A_AC3
Duration                                 : 1h 49mn
Bit rate mode                            : Constant
Bit rate                                 : 448 Kbps
Channel(s)                               : 6 channels
Channel positions                        : Front: L C R, Side: L R, LFE
Sampling rate                            : 48.0 KHz
Bit depth                                : 16 bits
Compression mode                         : Lossy
Stream size                              : 350 MiB (23%)
Language                                 : English
Default                                  : No
Forced                                   : No

Text #1
ID                                       : 4
Format                                   : VobSub
Codec ID                                 : S_VOBSUB
Codec ID/Info                            : The same subtitle format used on DVDs
Language                                 : Italian
Default                                  : Yes
Forced                                   : No

Text #2
ID                                       : 5
Format                                   : VobSub
Codec ID                                 : S_VOBSUB
Codec ID/Info                            : The same subtitle format used on DVDs
Language                                 : Italian
Default                                  : No
Forced                                   : No

Text #3
ID                                       : 6
Format                                   : VobSub
Codec ID                                 : S_VOBSUB
Codec ID/Info                            : The same subtitle format used on DVDs
Language                                 : Italian
Default                                  : No
Forced                                   : No

Menu
00:00:00.000                             : en:(01)00:00:00:000
00:05:06.880                             : en:(02)00:05:06:880
00:08:30.680                             : en:(03)00:08:30:680
00:11:50.280                             : en:(04)00:11:50:280
00:15:31.800                             : en:(05)00:15:31:800
00:20:10.560                             : en:(06)00:20:10:560
00:26:42.320                             : en:(07)00:26:42:320
00:34:04.680                             : en:(08)00:34:04:680
00:39:41.120                             : en:(09)00:39:41:120
00:44:09.360                             : en:(10)00:44:09:360
00:50:01.520                             : en:(11)00:50:01:520
00:56:26.400                             : en:(12)00:56:26:400
01:03:42.760                             : en:(13)01:03:42:760
01:10:18.880                             : en:(14)01:10:18:880
01:16:18.920                             : en:(15)01:16:18:920
01:20:11.240                             : en:(16)01:20:11:240
01:26:32.840                             : en:(17)01:26:32:840
01:30:22.160                             : en:(18)01:30:22:160
01:35:58.040                             : en:(19)01:35:58:040
01:40:32.720                             : en:(20)01:40:32:720
01:46:01.000                             : en:(21)01:46:01:000



[/spoiler]




Hash: 48D4B9BBD1E52DC1920BF91C43D0827C192B435D

If our torrent is not available, you can try to find it on Google or Torrageor Btcache.





Please rate and Add comment in form below.
Opinions about this torrent help others users