I, Daniel Blake (2016).H264.Italian.English.Ac3.5.1.sub.ita.fre.iCV-MIRCrew

Main Language: | Added:29-03-2017 | Author: robbyrs | Category: Movie/Films |
Torrent Score: 0
0

Size:

1.54 GB

Seeders:

896

Leechers:

63

Complete:

1792

Description:

Full Title: I, Daniel Blake (2016).H264.Italian.English.Ac3.5.1.sub.ita.fre.iCV-MIRCrew
I, Daniel Blake (2016).H264.Italian.English.Ac3.5.1.sub.ita.fre.iCV-MIRCrew




NO FOUND ONLY ORIGINAL RELEASE



My release is always in double track audio italian and Original audio
for select it use VLC or dvd player home
not use wmp

I, Daniel Blake (2016)








Riconoscimenti

    2017 - British Academy Film Award
        Miglior film britannico
    2016 - Festival di Cannes
        Palma d'oro per il miglior film
    2016 - Festival del film Locarno
        Premio del pubblico
    2016 - Festival internazionale del cinema di San Sebastián
        Premio del pubblico al miglior film
    2016 - Vancouver International Film Festival
        Most Popular International Feature
    2016 - British Independent Film Awards
        Miglior attore a Dave Johns
        Miglior esordiente a Hayley Squires


Titolo originale I, Daniel Blake
Paese di produzione Regno Unito, Francia
Anno 2016
Durata 100 min
Genere drammatico, commedia
Regia Ken Loach
Sceneggiatura Paul Laverty
Distribuzione (Italia) Cinema
Fotografia Robbie Ryan
Montaggio Jonathan Morris
Musiche George Fenton
Scenografia Fergus Clegg e Linda Wilson




    Dave Johns: Daniel Blake
    Hayley Squires: Katie
    Dylan McKiernan: Dylan
    Briana Shann: Daisy
    Kema Sikazwe: China
    Sharon Percy: Sheila
    Micky McGregor: Ivan




In seguito a una grave crisi cardiaca, per la prima volta nella sua vita, Daniel Blake, un carpentiere di Newcastle di 59 anni, è costretto a chiedere un sussidio statale. Il suo medico gli ha proibito di lavorare, ma a causa di incredibili incongruenze burocratiche si trova nell'assurda condizione di dover comunque cercare lavoro ........



A middle aged carpenter who requires state welfare after suffering a heart attack is joined by a single mother in a similar scenario. .











[spoiler]
General
Unique ID                                : 63674636627331475566203003811307288785 (0x2FE749F7D4CF808B761489E299FD78D1)
Complete name                            : I Daniel Blake (2016).ita.eng.sub.ita.fre.iCV-MIRCrew.mkv
Format                                   : Matroska
Format version                           : Version 2
File size                                : 1.54 GiB
Duration                                 : 1h 40mn
Overall bit rate                         : 2 186 Kbps
Movie name                               : VISIT www.icv-crew.org
Encoded date                             : UTC 2017-03-23 21:32:07
Writing application                      : Lavf54.63.100
Writing library                          : Lavf54.63.100
COPYRIGHT                                : robbyrs

Video
ID                                       : 1
Format                                   : AVC
Format/Info                              : Advanced Video Codec
Format profile                           : Main@L4.1
Format settings, CABAC                   : Yes
Format settings, ReFrames                : 2 frames
Codec ID                                 : V_MPEG4/ISO/AVC
Duration                                 : 1h 40mn
Bit rate                                 : 1 290 Kbps
Width                                    : 720 pixels
Height                                   : 384 pixels
Display aspect ratio                     : 1.854
Original display aspect ratio            : 1.853
Frame rate mode                          : Variable
Frame rate                               : 23.976 fps
Color space                              : YUV
Chroma subsampling                       : 4:2:0
Bit depth                                : 8 bits
Scan type                                : Progressive
Bits/(Pixel*Frame)                       : 0.195
Stream size                              : 898 MiB (57%)
Writing library                          : x264 core 130 r2273
Encoding settings                        : cabac=1 / ref=2 / deblock=1:0:0 / analyse=0x1:0x131 / me=hex / subme=7 / psy=1 / psy_rd=1.00:0.00 / mixed_ref=0 / me_range=16 / chroma_me=1 / trellis=1 / 8x8dct=0 / cqm=0 / deadzone=21,11 / fast_pskip=1 / chroma_qp_offset=-2 / threads=12 / lookahead_threads=2 / sliced_threads=0 / nr=0 / decimate=1 / interlaced=0 / bluray_compat=0 / constrained_intra=0 / bframes=3 / b_pyramid=0 / b_adapt=1 / b_bias=0 / direct=3 / weightb=1 / open_gop=0 / weightp=2 / keyint=230 / keyint_min=23 / scenecut=40 / intra_refresh=0 / rc_lookahead=40 / rc=2pass / mbtree=1 / bitrate=1290 / ratetol=1.0 / qcomp=0.60 / qpmin=10 / qpmax=69 / qpstep=4 / cplxblur=20.0 / qblur=0.5 / vbv_maxrate=24000 / vbv_bufsize=24000 / nal_hrd=none / ip_ratio=1.40 / aq=1:1.00
Language                                 : Italian
Default                                  : Yes
Forced                                   : No
DURATION                                 : 01:40:25.812000000
NUMBER_OF_FRAMES                         : 144475
NUMBER_OF_BYTES                          : 7212779570
_STATISTICS_WRITING_APP                  : mkvmerge v8.7.0 ('All of the above') 64bit
_STATISTICS_WRITING_DATE_UTC             : 2017-03-10 18:29:02
_STATISTICS_TAGS                         : BPS DURATION NUMBER_OF_FRAMES NUMBER_OF_BYTES

Audio #1
ID                                       : 2
Format                                   : AC-3
Format/Info                              : Audio Coding 3
Mode extension                           : CM (complete main)
Codec ID                                 : A_AC3
Duration                                 : 1h 40mn
Bit rate mode                            : Constant
Bit rate                                 : 448 Kbps
Channel(s)                               : 6 channels
Channel positions                        : Front: L C R, Side: L R, LFE
Sampling rate                            : 48.0 KHz
Bit depth                                : 16 bits
Compression mode                         : Lossy
Delay relative to video                  : 1mn 5s
Stream size                              : 323 MiB (20%)
Title                                    : AC3 ITA
Language                                 : Italian
Default                                  : Yes
Forced                                   : No
DURATION                                 : 01:40:44.960000000
NUMBER_OF_FRAMES                         : 188905
NUMBER_OF_BYTES                          : 338517760
_STATISTICS_WRITING_APP                  : mkvmerge v8.7.0 ('All of the above') 64bit
_STATISTICS_WRITING_DATE_UTC             : 2017-03-10 18:29:02
_STATISTICS_TAGS                         : BPS DURATION NUMBER_OF_FRAMES NUMBER_OF_BYTES

Audio #2
ID                                       : 3
Format                                   : AC-3
Format/Info                              : Audio Coding 3
Mode extension                           : CM (complete main)
Codec ID                                 : A_AC3
Duration                                 : 1h 40mn
Bit rate mode                            : Constant
Bit rate                                 : 448 Kbps
Channel(s)                               : 6 channels
Channel positions                        : Front: L C R, Side: L R, LFE
Sampling rate                            : 48.0 KHz
Bit depth                                : 16 bits
Compression mode                         : Lossy
Delay relative to video                  : 1mn 5s
Stream size                              : 323 MiB (20%)
Title                                    : AC3 ENG
Language                                 : English
Default                                  : No
Forced                                   : No
DURATION                                 : 01:40:25.888000000
NUMBER_OF_FRAMES                         : 188309
NUMBER_OF_BYTES                          : 482071040
_STATISTICS_WRITING_APP                  : mkvmerge v8.7.0 ('All of the above') 64bit
_STATISTICS_WRITING_DATE_UTC             : 2017-03-10 18:29:02
_STATISTICS_TAGS                         : BPS DURATION NUMBER_OF_FRAMES NUMBER_OF_BYTES

Text #1
ID                                       : 4
Format                                   : UTF-8
Codec ID                                 : S_TEXT/UTF8
Codec ID/Info                            : UTF-8 Plain Text
Title                                    : FORCED
Language                                 : Italian
Default                                  : Yes
Forced                                   : No
DURATION                                 : 01:16:28.222000000
NUMBER_OF_FRAMES                         : 6
NUMBER_OF_BYTES                          : 321
_STATISTICS_WRITING_APP                  : mkvmerge v8.7.0 ('All of the above') 64bit
_STATISTICS_WRITING_DATE_UTC             : 2017-03-10 18:29:02
_STATISTICS_TAGS                         : BPS DURATION NUMBER_OF_FRAMES NUMBER_OF_BYTES

Text #2
ID                                       : 5
Format                                   : UTF-8
Codec ID                                 : S_TEXT/UTF8
Codec ID/Info                            : UTF-8 Plain Text
Title                                    : REGULAR
Language                                 : Italian
Default                                  : No
Forced                                   : No
DURATION                                 : 01:37:30.273000000
NUMBER_OF_FRAMES                         : 1210
NUMBER_OF_BYTES                          : 49167
_STATISTICS_WRITING_APP                  : mkvmerge v8.7.0 ('All of the above') 64bit
_STATISTICS_WRITING_DATE_UTC             : 2017-03-10 18:29:02
_STATISTICS_TAGS                         : BPS DURATION NUMBER_OF_FRAMES NUMBER_OF_BYTES

Text #3
ID                                       : 6
Format                                   : UTF-8
Codec ID                                 : S_TEXT/UTF8
Codec ID/Info                            : UTF-8 Plain Text
Title                                    : FORCED
Language                                 : French
Default                                  : No
Forced                                   : No
DURATION                                 : 01:21:43.607000000
NUMBER_OF_FRAMES                         : 11
NUMBER_OF_BYTES                          : 494
_STATISTICS_WRITING_APP                  : mkvmerge v8.7.0 ('All of the above') 64bit
_STATISTICS_WRITING_DATE_UTC             : 2017-03-10 18:29:02
_STATISTICS_TAGS                         : BPS DURATION NUMBER_OF_FRAMES NUMBER_OF_BYTES

Text #4
ID                                       : 7
Format                                   : UTF-8
Codec ID                                 : S_TEXT/UTF8
Codec ID/Info                            : UTF-8 Plain Text
Title                                    : REGULAR
Language                                 : French
Default                                  : No
Forced                                   : No
DURATION                                 : 01:39:26.711000000
NUMBER_OF_FRAMES                         : 1469
NUMBER_OF_BYTES                          : 56935
_STATISTICS_WRITING_APP                  : mkvmerge v8.7.0 ('All of the above') 64bit
_STATISTICS_WRITING_DATE_UTC             : 2017-03-10 18:29:02
_STATISTICS_TAGS                         : BPS DURATION NUMBER_OF_FRAMES NUMBER_OF_BYTES

Menu
00:00:00.000                             : :00:00:00.000
00:07:05.342                             : :00:07:05.342
00:14:28.201                             : :00:14:28.201
00:20:13.838                             : :00:20:13.838
00:29:27.099                             : :00:29:27.099
00:39:02.590                             : :00:39:02.590
00:50:56.804                             : :00:50:56.804
00:59:52.756                             : :00:59:52.756
01:08:53.129                             : :01:08:53.129
01:16:19.950                             : :01:16:19.950
01:25:27.706                             : :01:25:27.706
01:35:23.259                             : :01:35:23.259



[/spoiler]




Hash: 8ACBEDDCB22038DAAA1964CD98B89C532D9122CF

If our torrent is not available, you can try to find it on Google or Torrageor Btcache.





Please rate and Add comment in form below.
Opinions about this torrent help others users