Batman Beyond: Return of the Joker - Batman of the Future - Il ritorno del Joker (2000).H264.Italian.English.Ac3.5.1

Main Language: | Added:18-08-2017 | Author: robbyrs | Category: Animation/Cartoons |

Size:

921.42 MB

Seeders:

1

Leechers:

1

Complete:

0

Description:

Full Title: Batman Beyond: Return of the Joker - Batman of the Future - Il ritorno del Joker (2000).H264.Italian.English.Ac3.5.1
Batman Beyond: Return of the Joker - Batman of the Future - Il ritorno del Joker (2000).H264.Italian.English.Ac3.5.1.sub.eng.iCV-MIRCrew




NO FOUND ONLY ORIGINAL RELEASE



My release is always in double track audio italian and Original audio
for select it use VLC or dvd player home
not use wmp

Batman of the Future - Il ritorno del Joker - Batman Beyond: Return of the Joker (2000)







Titolo originale Batman Beyond: Return of the Joker
Paese di produzione Stati Uniti d'America
Anno 2000
Durata 73 min (versione censurata)
76 min (versione originale)
Genere animazione, azione, avventura, drammatico, fantascienza
Regia Curt Geda
Soggetto Paul Dini, Glen Murakami, Bruce Timm
Sceneggiatura Paul Dini
Casa di produzione Warner Bros. Family Entertainment, Warner Bros. Animation
Musiche Kristopher Carter



Doppiatori italiani

    Nicola Bartolini Carrassi: Terry McGinnis / Batman
    Mario Zucca: Bruce Wayne
    Riccardo Peroni: Joker
    Stefania Patruno: Commissario Barbara Gordon
    Guido Rutta: Tim Drake
    Jasmine Laurenti: Harleen Quinzel / Harley Quinn
    Marco Balzarotti: giovane Bruce Wayne / Batman
    Debora Magnaghi: giovane Barbara Gordon / Batgirl
    Davide Garbolino: giovane Tim Drake / Robin / J.J.
    Marcella Silvestri: giovane Harleen Quinzel / Harley Quinn
    Claudio Moneta: Jordan Price




Gotham City, 2039. Il Joker, a capo della gang Jokerz, annuncia il suo ritorno 35 anni dopo essere scomparso,[1] tra l'altro rubando alle Imprese Wayne delle armi tecnologiche. Bruce Wayne però sostiene che il Joker sia morto anni prima, non rivelando a Terry nulla di più. In seguito, Joker irrompe nella Batcaverna, e solo l'intervento del giovane salva Bruce dal suo veleno letale.



The Joker is back with a vengeance, and Gotham's newest Dark Knight needs answers as he stands alone to face Gotham's most infamous Clown Prince of Crime.  











[spoiler]
General
Unique ID                                : 330963149683470936513136621835386458194 (0xF8FD2F1DAA64E06E8A6C33A815299052)
Complete name                            : Batman of the Future - Il ritorno del Joker (2000).H264.ita.eng.sub.eng.iCV-MIRCrew.mkv
Format                                   : Matroska
Format version                           : Version 2
File size                                : 921 MiB
Duration                                 : 1h 16mn
Overall bit rate                         : 1 678 Kbps
Movie name                               : Mux By Pippomix72
Encoded date                             : UTC 2017-07-22T14:36:52Z
Writing application                      : HandBrake 0.10.5 2016021100
Writing library                          : Lavf55.12.0

Video
ID                                       : 1
Format                                   : AVC
Format/Info                              : Advanced Video Codec
Format profile                           : [email protected]
Format settings, CABAC                   : Yes
Format settings, ReFrames                : 4 frames
Codec ID                                 : V_MPEG4/ISO/AVC
Duration                                 : 1h 16mn
Bit rate                                 : 1 290 Kbps
Width                                    : 688 pixels
Height                                   : 512 pixels
Display aspect ratio                     : 4:3
Frame rate mode                          : Variable
Frame rate                               : 23.976 fps
Color space                              : YUV
Chroma subsampling                       : 4:2:0
Bit depth                                : 8 bits
Scan type                                : Progressive
Bits/(Pixel*Frame)                       : 0.153
Stream size                              : 692 MiB (75%)
Writing library                          : x264 core 142 r2479 dd79a61
Encoding settings                        : cabac=1 / ref=1 / deblock=1:1:1 / analyse=0x1:0x111 / me=hex / subme=2 / psy=1 / psy_rd=0.40:0.00 / mixed_ref=0 / me_range=16 / chroma_me=1 / trellis=0 / 8x8dct=0 / cqm=0 / deadzone=21,11 / fast_pskip=1 / chroma_qp_offset=0 / threads=12 / lookahead_threads=4 / sliced_threads=0 / nr=0 / decimate=1 / interlaced=0 / bluray_compat=0 / constrained_intra=0 / bframes=5 / b_pyramid=2 / b_adapt=1 / b_bias=0 / direct=1 / weightb=1 / open_gop=0 / weightp=1 / keyint=240 / keyint_min=24 / scenecut=40 / intra_refresh=0 / rc_lookahead=10 / rc=abr / mbtree=1 / bitrate=1290 / ratetol=1.0 / qcomp=0.60 / qpmin=0 / qpmax=69 / qpstep=4 / vbv_maxrate=20000 / vbv_bufsize=25000 / nal_hrd=none / filler=0 / ip_ratio=1.40 / aq=1:0.60
Default                                  : Yes
Forced                                   : No
Color primaries                          : BT.709-5, BT.1361, IEC 61966-2-4, SMPTE RP177
Transfer characteristics                 : BT.709-5, BT.1361
Matrix coefficients                      : BT.709-5, BT.1361, IEC 61966-2-4 709, SMPTE RP177

Audio #1
ID                                       : 2
Format                                   : AC-3
Format/Info                              : Audio Coding 3
Mode extension                           : CM (complete main)
Codec ID                                 : A_AC3
Duration                                 : 1h 16mn
Bit rate mode                            : Constant
Bit rate                                 : 192 Kbps
Channel(s)                               : 2 channels
Channel positions                        : Front: L R
Sampling rate                            : 48.0 KHz
Bit depth                                : 16 bits
Compression mode                         : Lossy
Delay relative to video                  : 1mn 5s
Stream size                              : 105 MiB (11%)
Title                                    : Stereo
Language                                 : Italian
Default                                  : Yes
Forced                                   : No

Audio #2
ID                                       : 3
Format                                   : AC-3
Format/Info                              : Audio Coding 3
Mode extension                           : CM (complete main)
Codec ID                                 : A_AC3
Duration                                 : 1h 16mn
Bit rate mode                            : Constant
Bit rate                                 : 192 Kbps
Channel(s)                               : 2 channels
Channel positions                        : Front: L R
Sampling rate                            : 48.0 KHz
Bit depth                                : 16 bits
Compression mode                         : Lossy
Delay relative to video                  : 1mn 5s
Stream size                              : 105 MiB (11%)
Title                                    : Stereo
Language                                 : English
Default                                  : No
Forced                                   : No

Text
ID                                       : 4
Format                                   : ASS
Codec ID                                 : S_TEXT/ASS
Codec ID/Info                            : Advanced Sub Station Alpha
Compression mode                         : Lossless
Language                                 : English
Default                                  : No
Forced                                   : No


[/spoiler]




Hash: 6FAA1A6347E1E49A45E3231DC30FC365A57104B5

If our torrent is not available, you can try to find it on Google or Torrageor Btcache.





Please rate and Add comment in form below.
Opinions about this torrent help others users