The Dark Tower - La torre nera (2017).H264.italian.english.Ac3-5.1.sub.ita.eng.MIRCrew

Main Language: | Added:07-11-2017 | Author: robbyrs | Category: Movie/Films |

Size:

1.45 GB

Seeders:

494

Leechers:

224

Complete:

846

Description:

Full Title: The Dark Tower - La torre nera (2017).H264.italian.english.Ac3-5.1.sub.ita.eng.MIRCrew
The Dark Tower - La torre nera (2017).H264.italian.english.Ac3-5.1.sub.ita.eng.MIRCrew




NO FOUND ONLY ORIGINAL RELEASE



My release is always in double track audio italian and Original audio
for select it use VLC or dvd player home
not use wmp

La torre nera - The Dark Tower (2017)







Titolo originale The Dark Tower
Lingua originale Inglese
Paese di produzione Stati Uniti d'America
Anno 2017
Durata 95 min
Rapporto 2,35:1
Genere fantastico, azione, avventura, fantascienza, western
Regia Nikolaj Arcel
Soggetto Stephen King (romanzi)
Sceneggiatura Nikolaj Arcel, Anders Thomas Jensen, Akiva Goldsman, Jeff Pinkner
Produttore Akiva Goldsman, Ron Howard, Brian Grazer, Stephen King
Produttore esecutivo G. Mac Brown, Trish Hofmann, Erica Huggins, Anders Thomas Jensen, Jeff Pinkner
Casa di produzione Weed Road Pictures, Imagine Entertainment, Media Rights Capital
Distribuzione (Italia) Warner Bros.
Fotografia Rasmus Videbæk
Montaggio Alan Edward Bell, Dan Zimmerman
Effetti speciali Nicolas Aithadi
Musiche Junkie XL
Scenografia Christopher Glass
Costumi Trish Summerville



    Idris Elba: Roland Deschain
    Matthew McConaughey: Walter Padick
    Tom Taylor: Jake Chambers
    Claudia Kim: Arra Champignon
    Katheryn Winnick: Laurie Chambers
    Fran Kranz: Pimli
    Abbey Lee Kershaw: Tirana
    Jackie Earle Haley: Sayre
    Dennis Haysbert: Steven Deschain
    Michael Barbieri: Timmy
    Jose Zuniga: Dr. Hotchkiss



Nella moderna New York, un ragazzo di nome Jake è tormentato da strani sogni e visioni che lo costringono a rivolgersi a uno psichiatra. Le principali immagini visualizzate dal ragazzo, tra le varie poi disegnate anche su carta, sono quelle di un pistolero, di una torre nera e di un uomo in nero, oltre che di molta gente morta................



The last Gunslinger, Roland Deschain, has been locked in an eternal battle with Walter O'Dim, also known as the Man in Black, determined to prevent him from toppling the Dark Tower, which holds the universe together. With the fate of the worlds at stake, good and evil will collide in the ultimate battle as only Roland can defend the Tower from the Man in Black.  

















[spoiler]
General
Unique ID                                : 192695918017283294006960922486294816601 (0x90F7E2451CB465AFB59F64407761A759)
Complete name                            : La torre nera - The Dark Tower (2017).H264.ita.eng.sub.ita.eng.MIRCrew\La torre nera - The Dark Tower (2017).H264.ita.eng.sub.ita.eng.MIRCrew.mkv
Format                                   : Matroska
Format version                           : Version 2
File size                                : 1.45 GiB
Duration                                 : 1h 34mn
Overall bit rate                         : 2 189 Kbps
Movie name                               : by MIRCrew
Encoded date                             : UTC 2017-11-06 08:49:47
Writing application                      : mkvmerge v5.4.0 ('Piper') built on Mar 10 2012 13:34:39
Writing library                          : Lavf54.63.100
ARTIST                                   : robbyrs

Video
ID                                       : 1
Format                                   : AVC
Format/Info                              : Advanced Video Codec
Format profile                           : [email protected]
Format settings, CABAC                   : Yes
Format settings, ReFrames                : 2 frames
Muxing mode                              : Header stripping
Codec ID                                 : V_MPEG4/ISO/AVC
Duration                                 : 1h 34mn
Bit rate                                 : 1 300 Kbps
Width                                    : 720 pixels
Height                                   : 300 pixels
Display aspect ratio                     : 2.40:1
Frame rate mode                          : Variable
Frame rate                               : 23.976 fps
Color space                              : YUV
Chroma subsampling                       : 4:2:0
Bit depth                                : 8 bits
Scan type                                : Progressive
Bits/(Pixel*Frame)                       : 0.251
Stream size                              : 847 MiB (57%)
Title                                    : La torre nera - The Dark Tower (2017).H264.ita.eng.sub.ita.eng.MIRCrew
Writing library                          : x264 core 130 r2273
Encoding settings                        : cabac=1 / ref=2 / deblock=1:0:0 / analyse=0x1:0x131 / me=hex / subme=7 / psy=1 / psy_rd=1.00:0.00 / mixed_ref=0 / me_range=16 / chroma_me=1 / trellis=1 / 8x8dct=0 / cqm=0 / deadzone=21,11 / fast_pskip=1 / chroma_qp_offset=-2 / threads=3 / lookahead_threads=1 / sliced_threads=0 / nr=0 / decimate=1 / interlaced=0 / bluray_compat=0 / constrained_intra=0 / bframes=3 / b_pyramid=0 / b_adapt=1 / b_bias=0 / direct=3 / weightb=1 / open_gop=0 / weightp=2 / keyint=230 / keyint_min=23 / scenecut=40 / intra_refresh=0 / rc_lookahead=40 / rc=abr / mbtree=1 / bitrate=1300 / ratetol=1.0 / qcomp=0.60 / qpmin=10 / qpmax=69 / qpstep=4 / vbv_maxrate=24000 / vbv_bufsize=24000 / nal_hrd=none / ip_ratio=1.40 / aq=1:1.00
Language                                 : Italian
Default                                  : Yes
Forced                                   : No
DURATION                                 : 01:34:44.596000000
NUMBER_OF_FRAMES                         : 136294
NUMBER_OF_BYTES                          : 6037867616
_STATISTICS_WRITING_APP                  : mkvmerge v15.0.0 ('Duel with the Devil') 64-bit
_STATISTICS_WRITING_DATE_UTC             : 2017-11-05 15:12:09
_STATISTICS_TAGS                         : BPS DURATION NUMBER_OF_FRAMES NUMBER_OF_BYTES

Audio #1
ID                                       : 2
Format                                   : AC-3
Format/Info                              : Audio Coding 3
Mode extension                           : CM (complete main)
Muxing mode                              : Header stripping
Codec ID                                 : A_AC3
Duration                                 : 1h 34mn
Bit rate mode                            : Constant
Bit rate                                 : 448 Kbps
Channel(s)                               : 6 channels
Channel positions                        : Front: L C R, Side: L R, LFE
Sampling rate                            : 48.0 KHz
Bit depth                                : 16 bits
Compression mode                         : Lossy
Delay relative to video                  : -5ms
Stream size                              : 304 MiB (20%)
Title                                    : Ita Ac3 5.1
Language                                 : Italian
Default                                  : Yes
Forced                                   : No
DURATION                                 : 01:34:44.768000000
NUMBER_OF_FRAMES                         : 177649
NUMBER_OF_BYTES                          : 318347008
_STATISTICS_WRITING_APP                  : mkvmerge v15.0.0 ('Duel with the Devil') 64-bit
_STATISTICS_WRITING_DATE_UTC             : 2017-11-05 15:12:09
_STATISTICS_TAGS                         : BPS DURATION NUMBER_OF_FRAMES NUMBER_OF_BYTES

Audio #2
ID                                       : 3
Format                                   : AC-3
Format/Info                              : Audio Coding 3
Mode extension                           : CM (complete main)
Muxing mode                              : Header stripping
Codec ID                                 : A_AC3
Duration                                 : 1h 34mn
Bit rate mode                            : Constant
Bit rate                                 : 448 Kbps
Channel(s)                               : 6 channels
Channel positions                        : Front: L C R, Side: L R, LFE
Sampling rate                            : 48.0 KHz
Bit depth                                : 16 bits
Compression mode                         : Lossy
Delay relative to video                  : -5ms
Stream size                              : 304 MiB (20%)
Title                                    : Eng Ac3 5.1
Language                                 : English
Default                                  : No
Forced                                   : No
DURATION                                 : 01:34:44.683000000
NUMBER_OF_FRAMES                         : 532939
NUMBER_OF_BYTES                          : 1072274024
_STATISTICS_WRITING_APP                  : mkvmerge v15.0.0 ('Duel with the Devil') 64-bit
_STATISTICS_WRITING_DATE_UTC             : 2017-11-05 15:12:09
_STATISTICS_TAGS                         : BPS DURATION NUMBER_OF_FRAMES NUMBER_OF_BYTES

Text #1
ID                                       : 4
Format                                   : ASS
Codec ID                                 : S_TEXT/ASS
Codec ID/Info                            : Advanced Sub Station Alpha
Compression mode                         : Lossless
Title                                    : Forced srt
Language                                 : Italian
Default                                  : Yes
Forced                                   : No
DURATION                                 : 00:18:23.186000000
NUMBER_OF_FRAMES                         : 12
NUMBER_OF_BYTES                          : 339
_STATISTICS_WRITING_APP                  : mkvmerge v15.0.0 ('Duel with the Devil') 64-bit
_STATISTICS_WRITING_DATE_UTC             : 2017-11-05 15:12:09
_STATISTICS_TAGS                         : BPS DURATION NUMBER_OF_FRAMES NUMBER_OF_BYTES

Text #2
ID                                       : 5
Format                                   : ASS
Codec ID                                 : S_TEXT/ASS
Codec ID/Info                            : Advanced Sub Station Alpha
Compression mode                         : Lossless
Title                                    : Eng NH
Language                                 : English
Default                                  : No
Forced                                   : No
DURATION                                 : 01:33:19.843000000
NUMBER_OF_FRAMES                         : 1055
NUMBER_OF_BYTES                          : 29224
_STATISTICS_WRITING_APP                  : mkvmerge v15.0.0 ('Duel with the Devil') 64-bit
_STATISTICS_WRITING_DATE_UTC             : 2017-11-05 15:12:09
_STATISTICS_TAGS                         : BPS DURATION NUMBER_OF_FRAMES NUMBER_OF_BYTES

Menu
00:00:00.000                             : :00:00:00.000
00:05:51.643                             : :00:05:51.643
00:10:36.094                             : :00:10:36.094
00:16:33.618                             : :00:16:33.618
00:21:54.897                             : :00:21:54.897
00:25:35.534                             : :00:25:35.534
00:31:01.985                             : :00:31:01.985
00:36:25.183                             : :00:36:25.183
00:40:49.822                             : :00:40:49.822
00:46:02.134                             : :00:46:02.134
00:53:18.404                             : :00:53:18.404
00:58:42.853                             : :00:58:42.853
01:03:51.119                             : :01:03:51.119
01:10:37.650                             : :01:10:37.650
01:15:53.174                             : :01:15:53.174
01:21:15.204                             : :01:21:15.204



[/spoiler]




Hash: AAD2C01CB7AC7CCE686E38A1066953C59638868C

If our torrent is not available, you can try to find it on Google or Torrageor Btcache.





Please rate and Add comment in form below.
Opinions about this torrent help others users