The Lost City of Z - Civilta Perduta (2016).H264.italian.english.Ac3-5.1.MIRCrew

Main Language: | Added:07-11-2017 | Author: robbyrs | Category: Movie/Films |

Size:

2.13 GB

Seeders:

104

Leechers:

24

Complete:

1045

Description:

Full Title: The Lost City of Z - Civilta Perduta (2016).H264.italian.english.Ac3-5.1.MIRCrew
The Lost City of Z - Civilta Perduta (2016).H264.italian.english.Ac3-5.1.MIRCrew




NO FOUND ONLY ORIGINAL RELEASE



My release is always in double track audio italian and Original audio
for select it use VLC or dvd player home
not use wmp

Civilta Perduta - The Lost City of Z (2016)







    DATA USCITA: 22 giugno 2017
    GENERE: Avventura, Drammatico, Biografico
    ANNO: 2016
    REGIA: James Gray
    PAESE: USA
    DURATA: 141 Min
    DISTRIBUZIONE: Eagle Pictures



Charlie Hunnam, Robert Pattinson, Sienna Miller, Tom Holland, Angus Macfadyen, Daniel Huttlestone, Aleksandar Jovanovic, Edward Ashley



Il film Civiltà Perduta, tratto dal bestseller Z la città perduta (The Lost City of Z) di David Grann, racconta l'incredibile storia, basata su fatti realmente accaduti, di un esploratore Percy Fawcett (Charlie Hunnam) che negli anni 20 scomparve nel cuore delle giungle amazzoniche. Siamo nel 1925, il leggendario esploratore britannico Percy Fawcett si avventura in Amazzonia, alla ricerca di un'antica civiltà, lo splendente regno di El Dorado.....................



The Lost City of Z tells the incredible true story of British explorer Percy Fawcett, who journeys into the Amazon at the dawn of the 20th century and discovers evidence of a previously unknown, advanced civilization that may have once inhabited the region.











[spoiler]
General
Unique ID                                : 79211094337318767265806951108099333893 (0x3B97807951DAFFEA770E7C1D13425F05)
Complete name                            : Civilta Perduta - The Lost City of Z (2016)H264\Civilta Perduta - The Lost City of Z (2016).H264.ita.eng.sub.ita.eng.MIRCrew.mkv
Format                                   : Matroska
Format version                           : Version 2
File size                                : 2.13 GiB
Duration                                 : 2h 21mn
Overall bit rate                         : 2 161 Kbps
Movie name                               :  Civilta Perduta - The Lost City of Z (2016)
Encoded date                             : UTC 2017-10-13 16:02:02
Writing application                      : Lavf54.63.100
Writing library                          : Lavf54.63.100
ARTIST                                   : robbyrs
COPYRIGHT                                : MIRCrew
DATE                                     : 2017

Video
ID                                       : 1
Format                                   : AVC
Format/Info                              : Advanced Video Codec
Format profile                           : [email protected]
Format settings, CABAC                   : Yes
Format settings, ReFrames                : 2 frames
Codec ID                                 : V_MPEG4/ISO/AVC
Duration                                 : 2h 21mn
Bit rate                                 : 1 222 Kbps
Nominal bit rate                         : 1 290 Kbps
Width                                    : 720 pixels
Height                                   : 304 pixels
Display aspect ratio                     : 2.40:1
Frame rate mode                          : Variable
Frame rate                               : 24.000 fps
Color space                              : YUV
Chroma subsampling                       : 4:2:0
Bit depth                                : 8 bits
Scan type                                : Progressive
Bits/(Pixel*Frame)                       : 0.233
Stream size                              : 1.21 GiB (57%)
Writing library                          : x264 core 130 r2273
Encoding settings                        : cabac=1 / ref=2 / deblock=1:0:0 / analyse=0x1:0x131 / me=hex / subme=7 / psy=1 / psy_rd=1.00:0.00 / mixed_ref=0 / me_range=16 / chroma_me=1 / trellis=1 / 8x8dct=0 / cqm=0 / deadzone=21,11 / fast_pskip=1 / chroma_qp_offset=-2 / threads=12 / lookahead_threads=2 / sliced_threads=0 / nr=0 / decimate=1 / interlaced=0 / bluray_compat=0 / constrained_intra=0 / bframes=3 / b_pyramid=0 / b_adapt=1 / b_bias=0 / direct=3 / weightb=1 / open_gop=0 / weightp=2 / keyint=240 / keyint_min=24 / scenecut=40 / intra_refresh=0 / rc_lookahead=40 / rc=abr / mbtree=1 / bitrate=1290 / ratetol=1.0 / qcomp=0.60 / qpmin=10 / qpmax=69 / qpstep=4 / vbv_maxrate=24000 / vbv_bufsize=24000 / nal_hrd=none / ip_ratio=1.40 / aq=1:1.00
Language                                 : Italian
Default                                  : Yes
Forced                                   : No
DURATION                                 : 02:21:14.875000000
NUMBER_OF_FRAMES                         : 203397
NUMBER_OF_BYTES                          : 11020575163
_STATISTICS_WRITING_APP                  : mkvmerge v8.7.0 ('All of the above') 64bit
_STATISTICS_WRITING_DATE_UTC             : 2017-10-10 08:57:46
_STATISTICS_TAGS                         : BPS DURATION NUMBER_OF_FRAMES NUMBER_OF_BYTES

Audio #1
ID                                       : 2
Format                                   : AC-3
Format/Info                              : Audio Coding 3
Mode extension                           : CM (complete main)
Codec ID                                 : A_AC3
Duration                                 : 2h 21mn
Bit rate mode                            : Constant
Bit rate                                 : 448 Kbps
Channel(s)                               : 6 channels
Channel positions                        : Front: L C R, Side: L R, LFE
Sampling rate                            : 48.0 KHz
Bit depth                                : 16 bits
Compression mode                         : Lossy
Delay relative to video                  : 1mn 5s
Stream size                              : 453 MiB (21%)
Title                                    : AC3 ITA
Language                                 : Italian
Default                                  : No
Forced                                   : No
DURATION                                 : 02:21:13.920000000
NUMBER_OF_FRAMES                         : 264810
NUMBER_OF_BYTES                          : 677913600
_STATISTICS_WRITING_APP                  : mkvmerge v8.7.0 ('All of the above') 64bit
_STATISTICS_WRITING_DATE_UTC             : 2017-10-10 08:57:46
_STATISTICS_TAGS                         : BPS DURATION NUMBER_OF_FRAMES NUMBER_OF_BYTES

Audio #2
ID                                       : 3
Format                                   : AC-3
Format/Info                              : Audio Coding 3
Mode extension                           : CM (complete main)
Codec ID                                 : A_AC3
Duration                                 : 2h 21mn
Bit rate mode                            : Constant
Bit rate                                 : 448 Kbps
Channel(s)                               : 6 channels
Channel positions                        : Front: L C R, Side: L R, LFE
Sampling rate                            : 48.0 KHz
Bit depth                                : 16 bits
Compression mode                         : Lossy
Delay relative to video                  : 1mn 5s
Stream size                              : 453 MiB (21%)
Title                                    : AC3 ENG
Language                                 : English
Default                                  : No
Forced                                   : No
DURATION                                 : 02:21:13.856000000
NUMBER_OF_FRAMES                         : 264808
NUMBER_OF_BYTES                          : 677908480
_STATISTICS_WRITING_APP                  : mkvmerge v8.7.0 ('All of the above') 64bit
_STATISTICS_WRITING_DATE_UTC             : 2017-10-10 08:57:46
_STATISTICS_TAGS                         : BPS DURATION NUMBER_OF_FRAMES NUMBER_OF_BYTES

Text #1
ID                                       : 4
Format                                   : ASS
Codec ID                                 : S_TEXT/ASS
Codec ID/Info                            : Advanced Sub Station Alpha
Compression mode                         : Lossless
Title                                    : REGULAR
Language                                 : Italian
Default                                  : Yes
Forced                                   : No
DURATION                                 : 02:08:51.291000000
NUMBER_OF_FRAMES                         : 1307
NUMBER_OF_BYTES                          : 40322
_STATISTICS_WRITING_APP                  : mkvmerge v8.7.0 ('All of the above') 64bit
_STATISTICS_WRITING_DATE_UTC             : 2017-10-10 08:57:46
_STATISTICS_TAGS                         : BPS DURATION NUMBER_OF_FRAMES NUMBER_OF_BYTES

Text #2
ID                                       : 5
Format                                   : ASS
Codec ID                                 : S_TEXT/ASS
Codec ID/Info                            : Advanced Sub Station Alpha
Compression mode                         : Lossless
Title                                    : REGULAR
Language                                 : English
Default                                  : No
Forced                                   : No
DURATION                                 : 02:08:51.135000000
NUMBER_OF_FRAMES                         : 1380
NUMBER_OF_BYTES                          : 41986
_STATISTICS_WRITING_APP                  : mkvmerge v8.7.0 ('All of the above') 64bit
_STATISTICS_WRITING_DATE_UTC             : 2017-10-10 08:57:46
_STATISTICS_TAGS                         : BPS DURATION NUMBER_OF_FRAMES NUMBER_OF_BYTES

Menu
00:00:00.000                             : :00:00:00.000
00:07:05.342                             : :00:07:05.342
00:14:28.201                             : :00:14:28.201
00:20:13.838                             : :00:20:13.838
00:29:27.099                             : :00:29:27.099
00:39:02.590                             : :00:39:02.590
00:50:56.804                             : :00:50:56.804
00:59:52.756                             : :00:59:52.756
01:08:53.129                             : :01:08:53.129
01:16:19.950                             : :01:16:19.950
01:25:27.706                             : :01:25:27.706
01:35:23.259                             : :01:35:23.259
01:45:16.300                             : :01:45:16:300
01:55:01.150                             : :01:55:01:150
02:05:00.150                             : :02:05:00:150



[/spoiler]




Hash: 5F12C9B76C81863202C116FAA7534000F5C9888F

If our torrent is not available, you can try to find it on Google or Torrageor Btcache.





Please rate and Add comment in form below.
Opinions about this torrent help others users