Despicable Me 3 - Cattivissimo Me 3 (2017).H264.italian.english.Ac3-5.1.sub.ita.eng.MIRCrew

Main Language: | Added:07-11-2017 | Author: robbyrs | Category: Animation/Cartoons |

Size:

1.28 GB

Seeders:

268

Leechers:

73

Complete:

1368

Description:

Full Title: Despicable Me 3 - Cattivissimo Me 3 (2017).H264.italian.english.Ac3-5.1.sub.ita.eng.MIRCrew
Despicable Me 3 - Cattivissimo Me 3 (2017).H264.italian.english.Ac3-5.1.sub.ita.eng.MIRCrew





NO FOUND ONLY ORIGINAL RELEASE



My release is always in double track audio italian and Original audio
for select it use VLC or dvd player home
not use wmp

Cattivissimo Me 3 - Despicable Me 3 (2017)








    DATA USCITA: 24 agosto 2017
    GENERE: Animazione, Commedia, Avventura, Family
    ANNO: 2017
    REGIA: Kyle Balda, Pierre Coffin
    ATTORI: Max Giusti, Arisa, Paolo Ruffini, Kristen Wiig, Steve Carell
    PAESE: USA
    DURATA: 96 Min
    DISTRIBUZIONE: Universal Pictures




::::::::::::::::::::::::::::::::::::::::::::::



Cattivi si nasce, non si diventa. Semmai si ritorna. E infatti Gru (Max Giusti), protagonista di Cattivissimo me 3, dopo aver voltato pagina e seguito l'adorata Lucy (Arisa) tra le fila della Lega Anti Cattivi, si lascia stuzzicare ancora una volta dal fascino della malvagità............



Gru meets his long-lost charming, cheerful, and more successful twin brother Dru who wants to team up with him for one last criminal heist.








[spoiler]
General
Unique ID                                : 181722534646580518567573321381981788804 (0x88B67CB2E2BF4492B11D82424D651A84)
Complete name                            : C:\Users\robby\Desktop\Cattivissimo Me 3 - Despicable Me 3 (2017).H264.ita.eng.sub.ita.eng.MIRCrew\Cattivissimo Me 3 - Despicable Me 3 (2017).H264.ita.eng.sub.ita.eng.MIRCrew.mkv
Format                                   : Matroska
Format version                           : Version 2
File size                                : 1.28 GiB
Duration                                 : 1h 29mn
Overall bit rate                         : 2 046 Kbps
Movie name                               : Cattivissimo Me 3 - Despicable Me 3 (2017).H264.ita.eng.sub.ita.eng.MIRCrew
Encoded date                             : UTC 2017-11-04T07:54:29Z
Writing application                      : mkvmerge v5.4.0 ('Piper') built on Mar 10 2012 13:34:39
Writing library                          : Lavf55.12.0

Video
ID                                       : 1
Format                                   : AVC
Format/Info                              : Advanced Video Codec
Format profile                           : [email protected]
Format settings, CABAC                   : Yes
Format settings, ReFrames                : 4 frames
Muxing mode                              : Header stripping
Codec ID                                 : V_MPEG4/ISO/AVC
Duration                                 : 1h 29mn
Bit rate                                 : 1 290 Kbps
Width                                    : 720 pixels
Height                                   : 304 pixels
Display aspect ratio                     : 2.35:1
Frame rate mode                          : Variable
Frame rate                               : 23.976 fps
Color space                              : YUV
Chroma subsampling                       : 4:2:0
Bit depth                                : 8 bits
Scan type                                : Progressive
Bits/(Pixel*Frame)                       : 0.246
Stream size                              : 794 MiB (60%)
Title                                    : Cattivissimo Me 3 - Despicable Me 3 (2017).H264.ita.eng.sub.ita.eng.MIRCrew
Writing library                          : x264 core 142 r2479 dd79a61
Encoding settings                        : cabac=1 / ref=1 / deblock=1:1:1 / analyse=0x1:0x111 / me=hex / subme=2 / psy=1 / psy_rd=0.40:0.00 / mixed_ref=0 / me_range=16 / chroma_me=1 / trellis=0 / 8x8dct=0 / cqm=0 / deadzone=21,11 / fast_pskip=1 / chroma_qp_offset=0 / threads=3 / lookahead_threads=1 / sliced_threads=0 / nr=0 / decimate=1 / interlaced=0 / bluray_compat=0 / constrained_intra=0 / bframes=5 / b_pyramid=2 / b_adapt=1 / b_bias=0 / direct=1 / weightb=1 / open_gop=0 / weightp=1 / keyint=240 / keyint_min=24 / scenecut=40 / intra_refresh=0 / rc_lookahead=10 / rc=abr / mbtree=1 / bitrate=1290 / ratetol=1.0 / qcomp=0.60 / qpmin=0 / qpmax=69 / qpstep=4 / vbv_maxrate=20000 / vbv_bufsize=25000 / nal_hrd=none / filler=0 / ip_ratio=1.40 / aq=1:0.60
Language                                 : Italian
Default                                  : Yes
Forced                                   : No
Color primaries                          : BT.709-5, BT.1361, IEC 61966-2-4, SMPTE RP177
Transfer characteristics                 : BT.709-5, BT.1361
Matrix coefficients                      : BT.709-5, BT.1361, IEC 61966-2-4 709, SMPTE RP177

Audio #1
ID                                       : 2
Format                                   : AC-3
Format/Info                              : Audio Coding 3
Mode extension                           : CM (complete main)
Muxing mode                              : Header stripping
Codec ID                                 : A_AC3
Duration                                 : 1h 29mn
Bit rate mode                            : Constant
Bit rate                                 : 384 Kbps
Channel(s)                               : 6 channels
Channel positions                        : Front: L C R, Side: L R, LFE
Sampling rate                            : 48.0 KHz
Bit depth                                : 16 bits
Compression mode                         : Lossy
Delay relative to video                  : -5ms
Stream size                              : 246 MiB (19%)
Title                                    : Ita Ac3 5.1
Language                                 : Italian
Default                                  : Yes
Forced                                   : No

Audio #2
ID                                       : 3
Format                                   : AC-3
Format/Info                              : Audio Coding 3
Mode extension                           : CM (complete main)
Muxing mode                              : Header stripping
Codec ID                                 : A_AC3
Duration                                 : 1h 29mn
Bit rate mode                            : Constant
Bit rate                                 : 384 Kbps
Channel(s)                               : 6 channels
Channel positions                        : Front: L C R, Side: L R, LFE
Sampling rate                            : 48.0 KHz
Bit depth                                : 16 bits
Compression mode                         : Lossy
Delay relative to video                  : -5ms
Stream size                              : 246 MiB (19%)
Title                                    : Eng Ac3 5.1
Language                                 : English
Default                                  : No
Forced                                   : No

Menu
00:00:00.000                             : :00:00:00.000
00:03:06.186                             : :00:03:06.103
00:07:58.144                             : :00:07:57.977
00:11:12.922                             : :00:11:12.839
00:16:15.849                             : :00:16:15.766
00:20:07.581                             : :00:20:07.498
00:24:08.071                             : :00:24:07.988
00:28:57.235                             : :00:28:57.069
00:32:55.431                             : :00:32:55.348
00:39:01.923                             : :00:39:01.839
00:42:44.270                             : :00:42:44.187
00:46:47.262                             : :00:46:47.179
00:50:55.719                             : :00:50:55.636
00:56:12.160                             : :00:56:12.077
01:00:02.348                             : :01:00:02.265
01:05:41.312                             : :01:05:41.229
01:10:14.627                             : :01:10:14.544
01:14:33.844                             : :01:14:33.761
01:19:29.806                             : :01:19:29.723
01:21:57.078                             : :01:21:56.995



[/spoiler]




Hash: 651A68F768EB92C897894E017328A74D22B7D5C4

If our torrent is not available, you can try to find it on Google or Torrageor Btcache.





Please rate and Add comment in form below.
Opinions about this torrent help others users