Always Watching: A Marble Hornets Story (2015).H264.italian.english.Ac3-5.1.sub.ita.MIRCrew

Main Language: | Added:08-11-2017 | Author: robbyrs | Category: Movie/Films |

Size:

1.08 GB

Seeders:

3

Leechers:

20

Complete:

0

Description:

Full Title: Always Watching: A Marble Hornets Story (2015).H264.italian.english.Ac3-5.1.sub.ita.MIRCrew
Always Watching: A Marble Hornets Story (2015).H264.italian.english.Ac3-5.1.sub.ita.MIRCrew




NO FOUND ONLY ORIGINAL RELEASE



My release is always in double track audio italian and Original audio
for select it use VLC or dvd player home
not use wmp

Always Watching: A Marble Hornets Story (2015)







Titolo Originale: ALWAYS WATCHING: A MARBLE HORNETS STORY
Regia: James Moran
Durata: h 1.32
Nazionalit√†:  Usa 2015
Genere: horror



Alexandra Breckenridge, Doug Jones, Jake McDorman, Alexandra Holden, Chris Marquette, Rick Otto, Cynthia Murell, Shashawnee Hall



A caccia di notizie intriganti, una squadra del notiziario di una piccola cittadina composta da tre componenti segue un gruppo di ispettori di case infestate. In un'abitazione particolarmente inquietante, viene rinvenuta una scatola di nastri video all'interno di un armadio chiuso a chiave............



A small town news team discovers a box of video tapes where a faceless figure dressed in a dark suit, haunts and torments a family... slowly driving them insane. Soon after, they realize that the "Operator" has begun to stalk them as well. ..............













[spoiler]
General
Unique ID                                : 242555309866159831416059065659973680414 (0xB67A7414EA3786C7A038CE525C07BD1E)
Complete name                            : C:\Users\robby\Desktop\Always Watching (2015).H264.ita.eng.sub.ita.MIRCrew\Always Watching (2015).H264.ita.eng.sub.ita.MIRCrew.mkv
Format                                   : Matroska
Format version                           : Version 2
File size                                : 1.08 GiB
Duration                                 : 1h 27mn
Overall bit rate                         : 1 755 Kbps
Movie name                               : Always Watching (2015).H264.ita.eng.sub.ita.MIRCrew
Encoded date                             : UTC 2017-11-05T19:45:06Z
Writing application                      : mkvmerge v5.4.0 ('Piper') built on Mar 10 2012 13:34:39
Writing library                          : Lavf55.12.0

Video
ID                                       : 1
Format                                   : AVC
Format/Info                              : Advanced Video Codec
Format profile                           : [email protected]
Format settings, CABAC                   : Yes
Format settings, ReFrames                : 4 frames
Muxing mode                              : Header stripping
Codec ID                                 : V_MPEG4/ISO/AVC
Duration                                 : 1h 27mn
Bit rate                                 : 1 000 Kbps
Width                                    : 688 pixels
Height                                   : 384 pixels
Display aspect ratio                     : 16:9
Frame rate mode                          : Variable
Frame rate                               : 25.000 fps
Color space                              : YUV
Chroma subsampling                       : 4:2:0
Bit depth                                : 8 bits
Scan type                                : Progressive
Bits/(Pixel*Frame)                       : 0.151
Stream size                              : 599 MiB (54%)
Title                                    : Always Watching (2015).H264.ita.eng.sub.ita.MIRCrew
Writing library                          : x264 core 142 r2479 dd79a61
Encoding settings                        : cabac=1 / ref=1 / deblock=1:-1:-1 / analyse=0x1:0x111 / me=hex / subme=2 / psy=1 / psy_rd=1.00:0.15 / mixed_ref=0 / me_range=16 / chroma_me=1 / trellis=0 / 8x8dct=0 / cqm=0 / deadzone=21,11 / fast_pskip=1 / chroma_qp_offset=0 / threads=3 / lookahead_threads=1 / sliced_threads=0 / nr=0 / decimate=1 / interlaced=0 / bluray_compat=0 / constrained_intra=0 / bframes=3 / b_pyramid=2 / b_adapt=1 / b_bias=0 / direct=1 / weightb=1 / open_gop=0 / weightp=1 / keyint=250 / keyint_min=25 / scenecut=40 / intra_refresh=0 / rc_lookahead=10 / rc=abr / mbtree=1 / bitrate=1000 / ratetol=1.0 / qcomp=0.60 / qpmin=0 / qpmax=69 / qpstep=4 / vbv_maxrate=20000 / vbv_bufsize=25000 / nal_hrd=none / filler=0 / ip_ratio=1.40 / aq=1:1.00
Language                                 : Italian
Default                                  : Yes
Forced                                   : No
Color primaries                          : BT.470-6 System B, BT.470-6 System G, BT.601-6 625, BT.1358 625, BT.1700 625 PAL, BT.1700 625 SECAM
Transfer characteristics                 : BT.709-5, BT.1361
Matrix coefficients                      : BT.601-6 525, BT.1358 525, BT.1700 NTSC, SMPTE 170M

Audio #1
ID                                       : 2
Format                                   : AC-3
Format/Info                              : Audio Coding 3
Mode extension                           : CM (complete main)
Muxing mode                              : Header stripping
Codec ID                                 : A_AC3
Duration                                 : 1h 27mn
Bit rate mode                            : Constant
Bit rate                                 : 384 Kbps
Channel(s)                               : 6 channels
Channel positions                        : Front: L C R, Side: L R, LFE
Sampling rate                            : 48.0 KHz
Bit depth                                : 16 bits
Compression mode                         : Lossy
Delay relative to video                  : -5ms
Stream size                              : 241 MiB (22%)
Title                                    : Ita Ac3 5.1
Language                                 : Italian
Default                                  : Yes
Forced                                   : No

Audio #2
ID                                       : 3
Format                                   : AC-3
Format/Info                              : Audio Coding 3
Mode extension                           : CM (complete main)
Muxing mode                              : Header stripping
Codec ID                                 : A_AC3
Duration                                 : 1h 27mn
Bit rate mode                            : Constant
Bit rate                                 : 384 Kbps
Channel(s)                               : 6 channels
Channel positions                        : Front: L C R, Side: L R, LFE
Sampling rate                            : 48.0 KHz
Bit depth                                : 16 bits
Compression mode                         : Lossy
Delay relative to video                  : -5ms
Stream size                              : 241 MiB (22%)
Title                                    : eng Ac3 5.1
Language                                 : English
Default                                  : No
Forced                                   : No

Text
ID                                       : 4
Format                                   : VobSub
Muxing mode                              : zlib
Codec ID                                 : S_VOBSUB
Codec ID/Info                            : The same subtitle format used on DVDs
Title                                    : Italian
Language                                 : Italian
Default                                  : No
Forced                                   : No

Menu
00:00:00.000                             : :Chapter 1
00:06:31.280                             : :Chapter 2
00:14:13.200                             : :Chapter 3
00:20:25.440                             : :Chapter 4
00:30:17.360                             : :Chapter 5
00:37:40.640                             : :Chapter 6
00:45:05.640                             : :Chapter 7
00:53:54.880                             : :Chapter 8
01:01:00.600                             : :Chapter 9
01:07:47.040                             : :Chapter 10
01:14:50.040                             : :Chapter 11
01:22:30.760                             : :Chapter 12



[/spoiler]




Hash: CE0E45D3576016EF2839963C0E66A35BE15BFA50

If our torrent is not available, you can try to find it on Google or Torrageor Btcache.





Please rate and Add comment in form below.
Opinions about this torrent help others users