Card Captor Sakura - The Movie [BDmux 1080p - H264 - Ita Eng Jap Ac3 - Cartelli SoftSub Ita Eng]

Main Language: | Added:10-11-2017 | Author: MPT2 | Category: Animation/Cartoons |
Torrent Score: 0
0

Size:

12.51 GB

Seeders:

13

Leechers:

7

Complete:

99

Description:

Full Title: Card Captor Sakura - The Movie [BDmux 1080p - H264 - Ita Eng Jap Ac3 - Cartelli SoftSub Ita Eng]

.: Trama :.

Il film si svolge tra la prima e la seconda stagione originale della serie animata, cioè tra l'episodio 35 e il 36.

In occasione delle vacanze invernali, Sakura, con Kero-chan, Touya, Tomoyo e Yukito, si recano nella misteriosa Hong Kong, grazie ad una fortunata estrazione della protagonista, che le fa vincere un viaggio per quattro persone.
Subito dopo essere arrivati, incontreranno Li ShaoLang, e sua cugina MeiLing.

Intanto, Sakura inizierà ad avere strani sogni, in cui fluttua nell'acqua, e successivamente, in cui dei nastri le si avvolgono intorno al corpo.
Da allora, sentirà una strana presenza per le vie di Hong Kong...

.: Scheda :.

Titolo originale: Card Captor Sakura - The Movie (劇場版カードキャプターさくら Gekijōban Kādokyaputā Sakura)
Anno: Giappone 21 agosto 1999
Genere: Shōjo / Avventura, combattimento, majokko, scolastico, sentimentale
Produzione: Madhouse
Distribuzione: Giappone, Bandai Visual Company, NHK Enterprises / Italia, Shin Vision, Yamato Video
Numero episodi: 01 (film)
Durata approssimativa degli episodi: 82 min

.: Dati tecnici del file :.

Info sul file

Nome: Card Captor Sakura S01e01 - Il libro misterioso.mkv
Data: 4/07/2017 19:38:08
Dimensione: 1,067,274,784 bytes (1017.833 MB)

General

Unique ID : 228252234305702430567541452063947392742 (0xABB7C802C514224FBA09A672A3B886E6)
Complete name : G:\Card Captor Sakura\Card Captor Sakura - Movie\Card Captor Sakura - The Movie\Card Captor Sakura - The Movie.mkv
Format : Matroska
Format version : Version 4 / Version 2
File size : 12.5 GiB
Duration : 1 h 22 min
Overall bit rate : 21.8 Mb/s
Movie name : Card Captor Sakura - Movie I - Mux By MPT
Encoded date : UTC 2017-09-05 16:38:37
Writing application : mkvmerge v13.0.0 ('The Juggler') 64bit
Writing library : libebml v1.3.4 + libmatroska v1.4.5
Attachments : ARIALUNI.TTF / Balzac-Regular.ttf / ClearfaceGothicLTStd-Roman.otf / Disney_Simple.ttf / DruagaQuorum.ttf / fansubBlock.ttf / Gotham-Medium.ttf

Video

ID : 1
Format : AVC
Format/Info : Advanced Video Codec
Format profile : High [email protected]
Format settings, CABAC : Yes
Format settings, ReFrames : 16 frames
Codec ID : V_MPEG4/ISO/AVC
Duration : 1 h 21 min
Bit rate : 20.6 Mb/s
Width : 1 920 pixels
Height : 1 080 pixels
Display aspect ratio : 16:9
Frame rate mode : Constant
Frame rate : 23.976 (24000/1001) FPS
Color space : YUV
Chroma subsampling : 4:2:0
Bit depth : 10 bits
Scan type : Progressive
Bits/(Pixel*Frame) : 0.414
Stream size : 11.7 GiB (94%)
Writing library : x264 core 115 r2008+578 3864dbe
Encoding settings : cabac=1 / ref=16 / deblock=1:-2:-2 / analyse=0x3:0x133 / me=umh / subme=10 / psy=1 / fade_compensate=0.00 / psy_rd=0.70:0.10 / mixed_ref=1 / me_range=24 / chroma_me=1 / trellis=2 / 8x8dct=1 / cqm=0 / deadzone=21,11 / fast_pskip=1 / chroma_qp_offset=-3 / threads=9 / sliced_threads=0 / nr=0 / decimate=1 / interlaced=0 / bluray_compat=0 / constrained_intra=0 / fgo=0 / bframes=8 / b_pyramid=2 / b_adapt=2 / b_bias=0 / direct=3 / weightb=1 / open_gop=0 / weightp=2 / keyint=250 / keyint_min=23 / scenecut=40 / intra_refresh=0 / rc_lookahead=60 / rc=crf / mbtree=1 / crf=19.0 / qcomp=0.60 / qpmin=0 / qpmax=81 / qpstep=4 / ip_ratio=1.40 / aq=1:1.20
Language : Japanese
Default : Yes
Forced : No

Audio #1

ID : 2
Format : AC-3
Format/Info : Audio Coding 3
Mode extension : CM (complete main)
Format settings, Endianness : Big
Codec ID : A_AC3
Duration : 1 h 21 min
Bit rate mode : Constant
Bit rate : 448 kb/s
Channel(s) : 2 channels
Channel positions : Front: L R
Sampling rate : 48.0 kHz
Frame rate : 31.250 FPS (1536 spf)
Bit depth : 16 bits
Compression mode : Lossy
Stream size : 261 MiB (2%)
Title : Italiano
Language : Italian
Default : Yes
Forced : No

Audio #2

ID : 3
Format : AC-3
Format/Info : Audio Coding 3
Mode extension : CM (complete main)
Format settings, Endianness : Big
Codec ID : A_AC3
Duration : 1 h 22 min
Bit rate mode : Constant
Bit rate : 448 kb/s
Channel(s) : 2 channels
Channel positions : Front: L R
Sampling rate : 48.0 kHz
Frame rate : 31.250 FPS (1536 spf)
Bit depth : 16 bits
Compression mode : Lossy
Delay relative to video : 27 ms
Stream size : 263 MiB (2%)
Title : Inglese
Language : English
Default : No
Forced : No

Audio #3

ID : 4
Format : AC-3
Format/Info : Audio Coding 3
Mode extension : CM (complete main)
Format settings, Endianness : Big
Codec ID : A_AC3
Duration : 1 h 21 min
Bit rate mode : Constant
Bit rate : 448 kb/s
Channel(s) : 2 channels
Channel positions : Front: L R
Sampling rate : 48.0 kHz
Frame rate : 31.250 FPS (1536 spf)
Bit depth : 16 bits
Compression mode : Lossy
Stream size : 261 MiB (2%)
Title : Giapponese
Language : Japanese
Default : No
Forced : No

Text #1

ID : 5
Format : ASS
Codec ID : S_TEXT/ASS
Codec ID/Info : Advanced Sub Station Alpha
Duration : 1 h 18 min
Bit rate : 150 b/s
Count of elements : 1334
Compression mode : Lossless
Stream size : 86.6 KiB (0%)
Title : Cartelli
Language : Italian
Default : Yes
Forced : No

Text #2

ID : 6
Format : ASS
Codec ID : S_TEXT/ASS
Codec ID/Info : Advanced Sub Station Alpha
Duration : 2 s 500 ms
Bit rate : 166 b/s
Count of elements : 1
Compression mode : Lossless
Stream size : 52.0 Bytes (0%)
Title : Inglese Note
Language : English
Default : No
Forced : No

Text #3

ID : 7
Format : ASS
Codec ID : S_TEXT/ASS
Codec ID/Info : Advanced Sub Station Alpha
Duration : 1 h 20 min
Bit rate : 255 b/s
Count of elements : 2072
Compression mode : Lossless
Stream size : 151 KiB (0%)
Title : Inglese Sub
Language : English
Default : No
Forced : No

Menu

00:00:00.000 : en:00:00:00.000
00:02:52.381 : en:00:02:52.381
00:03:02.391 : en:00:03:02.391
00:05:46.221 : en:00:05:46.221
00:07:40.919 : en:00:07:40.919
00:10:49.649 : en:00:10:49.649
00:14:32.955 : en:00:14:32.955
00:17:49.068 : en:00:17:49.068
00:19:34.799 : en:00:19:34.799
00:26:30.339 : en:00:26:30.339
00:30:23.989 : en:00:30:23.989
00:34:56.678 : en:00:34:56.678
00:37:27.287 : en:00:37:27.287
00:39:13.309 : en:00:39:13.309
00:40:49.656 : en:00:40:49.656
00:45:38.611 : en:00:45:38.611
00:53:20.197 : en:00:53:20.197
00:57:43.001 : en:00:57:43.001
01:00:55.360 : en:01:00:55.360
01:03:31.433 : en:01:03:31.433
01:05:53.992 : en:01:05:53.992
01:07:54.237 : en:01:07:54.237
01:11:37.752 : en:01:11:37.752
01:15:41.996 : en:01:15:41.996
01:21:33.931 : en:01:21:33.931


Hash: 92CAF8E3AA5F38D3AC11C751515AD6CDED1F907C

If our torrent is not available, you can try to find it on Google or Torrageor Btcache.





Please rate and Add comment in form below.
Opinions about this torrent help others users