Support us
Login | Signup

Hunger Games Il canto della rivolta - Parte 1 (2014) iTA-ENG Bluray 1080p x264

Main Language: | Added:31-12-2015 | Author: Anonymous | Category: Movie/Films |

Torrent Score: 0
0

Size:

12 GB

Seeders:

32

Leechers:

72

Complete:

64

Description:

Titolo originale: The Hunger Games: Mockingjay - Part 1
Nazione: U.S.A.
Anno: 2014
Genere: Drammatico, Thriller
Durata: 123'
Regia: Francis Lawrence
Sito ufficiale: www.thecapitol.pn
Sito italiano: www.thecapitol.pn/intl/it/
Social network: facebook, twitter

Cast: Jennifer Lawrence, Natalie Dormer, Liam Hemsworth, Josh Hutcherson, Julianne Moore, Philip Seymour Hoffman, Evan Ross, Stef Dawson
Produzione: Color Force, Lionsgate
Distribuzione: Universal Pictures Italia
Data di uscita: 20 Novembre 2014 (cinema)

Trama:
Attesissimo terzo capitolo del fenomeno cinematografico campione d’incassi, che ha incendiato gli schermi di tutto il mondo.
Qui la storia arriva ad un livello nuovo ed esilarante, e la cronaca futuristica di Katniss Everdeen si apre a nuove avventure. Mentre i Giochi sono stati cancellati per sempre, la lotta per la sopravvivenza va intensificandosi. Di fronte ad una realtà scoraggiante - e con lo sguardo di una nazione piena di speranza - Katniss deve usare il suo coraggio, la sua forza ed il suo potere contro l'onnipotente Capitol City. Questo è il momento in cui si rende conto di non avere altra scelta, se non di spiegare le ali ed incarnare pienamente il simbolo della Ghiandaia Imitatrice. Per salvare Peeta, deve diventare una leader. La storia inizia con Katniss che è riuscita a salvarsi dalla devastazione dell’Edizione della Memoria. Si risveglia in un mondo sconvolgente, che non sapeva nemmeno esistesse: un Distretto 13 sotterraneo ed oscuro, apparentemente raso al suolo. Da lì capisce subito la realtà sconcertante che deve affrontare: il Distretto 12 è stato trasformato in macerie; e Peeta è stato rapito, portato a Capitol City, e sottoposto ad un processo di depistaggio – una sorta di lavaggio del cervello - dal Presidente Snow. Allo stesso tempo, davanti agli occhi di Katniss si apre una ribellione di segreta e rapida diffusione del Distretto 13 in tutta Panem – un’insurrezione che la metterà al centro di un audace complotto, per assalire Capitol City e porre fine alla tirannia del Presidente Snow.

Complete name : Hunger.Games.Il.Canto.Della.Rivolta.Parte.1.2014.iTA-ENG.Bluray.1080p.x264.mkv
Format : Matroska
Format version : Version 2
File size : 12.0 GiB
Duration : 2h 2mn
Overall bit rate mode : Variable
Overall bit rate : 14.0 Mbps
Movie name : ******ENCODE BY B&S******
Encoded date : UTC 2015-04-01 00:35:49
Writing application : mkvmerge v6.7.0 ('Back to the Ground') 64bit built on Jan 8 2014 15:10:52
Writing library : libebml v1.3.0 + libmatroska v1.4.1

Video
ID : 1
Format : AVC
Format/Info : Advanced Video Codec
Format profile : [email protected]
Format settings, CABAC : Yes
Format settings, ReFrames : 4 frames
Codec ID : V_MPEG4/ISO/AVC
Duration : 2h 2mn
Width : 1 920 pixels
Height : 800 pixels
Display aspect ratio : 2.40:1
Frame rate : 23.976 fps
Color space : YUV
Chroma subsampling : 4:2:0
Bit depth : 8 bits
Scan type : Progressive
Title : ******ENCODE BY B&S******
Writing library : x264 core 142 r2409 d6b4e63
Language : English
Default : Yes
Forced : No

Audio #1
ID : 2
Format : TrueHD
Codec ID : A_TRUEHD
Duration : 2h 2mn
Bit rate mode : Variable
Maximum bit rate : 7 719 Kbps
Channel(s) : 8 channels
Channel positions : Front: L C R, Side: L R, Back: L R, LFE
Sampling rate : 48.0 KHz
Compression mode : Lossless
Title : Thd Eng 5.1 Ch
Language : English
Default : No
Forced : No

Audio #2
ID : 3
Format : AC-3
Format/Info : Audio Coding 3
Mode extension : CM (complete main)
Format settings, Endianness : Big
Codec ID : A_AC3
Duration : 2h 2mn
Bit rate mode : Constant
Bit rate : 640 Kbps
Channel(s) : 6 channels
Channel positions : Front: L C R, Side: L R, LFE
Sampling rate : 48.0 KHz
Bit depth : 16 bits
Compression mode : Lossy
Stream size : 562 MiB (5%)
Title : AC3 Eng 5.1 Ch
Language : English
Default : No
Forced : No

Audio #3
ID : 4
Format : AC-3
Format/Info : Audio Coding 3
Mode extension : CM (complete main)
Format settings, Endianness : Big
Codec ID : A_AC3
Duration : 2h 2mn
Bit rate mode : Constant
Bit rate : 384 Kbps
Channel(s) : 6 channels
Channel positions : Front: L C R, Side: L R, LFE
Sampling rate : 48.0 KHz
Bit depth : 16 bits
Compression mode : Lossy
Stream size : 337 MiB (3%)
Title : iTunes resync
Language : Italian
Default : Yes
Forced : Yes

Text #1
ID : 5
Format : UTF-8
Codec ID : S_TEXT/UTF8
Codec ID/Info : UTF-8 Plain Text
Title : Subs Eng Full
Language : English
Default : No
Forced : No

Text #2
ID : 6
Format : UTF-8
Codec ID : S_TEXT/UTF8
Codec ID/Info : UTF-8 Plain Text
Title : Subs Eng N.U.
Language : English
Default : No
Forced : No

Hash: 8CF5055990B45F61A841D45F25B139C77FE91507

If our torrent is not available, you can try to find it on iTorrents or Torrageor Btcache.

  Movie/Films     Animation/Cartoons     TV Shows/Series     Music     Games     Applications     Books     Other  

   How works MfT    Rules    Suggest idea    Request torrent    Privacy Policy    DMCA    Contacts    MfT Status    Friends sites    Is this site safe?   

mkv, HD-Rip , BD-Rip , Blu-Ray , HD Film , hd film , hd films , scarica film gratis , hd torrents , hd torrent , hdtorrents, hdrip , bdrip , Bluray ,

Blu-Ray player, scarica film , scarica torrent , torrent film , film ita, bluray, mux, 1080p, 720p, hdtorrents, torrent ita, torrents ita, HD film ita, HD ita, Blu-Ray ita

Please Disable Ad-Block To View the content of:



We Provide a very low quantity of Ads

Please, help to keep us alive!

Disable Adblock for this site, and refresh the page