Support us
Login | Signup

Popular TAGs: 2016 2015 2014 2013 720p 1080p m1080p XviD x264 x265 3D DVDrip BDrip MKV 320kbps

Show only:                                            

Sort by: Date | Name | Seeders | Leechers | Comments

xXx.2.The.Next.Level.2005.iTALiAN.AC3.BRRip.XviD-T4P3

Language: | Size: 1.7 GB | Seed: 0 | Leech: 0

Description:

xXx 2 - The next level Titolo originale: xXx: state of the union Nazione: U.S.A. Anno: 2005 Genere: Azione Durata: Regia: Lee Tamahori Cast: Willem Dafoe, Samuel L. Jackson, Ice Cube, Xzibit, Nona M. Gaye Produzione: Revolution Studios, Original Film, One Race Productions Distribuzione: Columbia Tristar Data di uscita: 29 Aprile 2005 (cinema) Trama: Un gruppo proveniente da una cellula impazzita dei servizi segreti ha intenzione di effettuare un colpo di stato ai danni della nazione e della democrazia. L'unica persona che può impedire questo disastro è reclusa in una prigione militare per aver disobbedito ad un superiore. Si tratta di Darius Stone. Ad accorgersi del suo potenziale è il responsabile dell'Agenzia per la Sicurezza Nazionale, l'agente Augustus Gibbons, il quale sa anche che per chiedergli di salvare l'America, dovrà prima aiutarlo ad evadere...

xXx.2002.iTALiAN.AC3.BRRip.XviD-T4P3

Language: | Size: 1.56 GB | Seed: 0 | Leech: 0

Description:

xXx Titolo originale: XXX Nazione: Usa/Repubblica Ceca Anno: 2002 Genere: Drammatico/Azione Durata: Regia: Rob Cohen Cast: Vin Diesel, Samuel L. Jackson, Marton Csokas, Asia Argento Produzione: Neal H. Moritz Distribuzione: Columbia Tristar Uscita prevista: 31 Ottobre 2002 (cinema) Trama: Xander Cage, atleta di sports estremi, viene reclutato dal governo per una speciale missione.

Jungle Shuffle (2014).H264.Italian.English.Ac3.5.1.sub.ita.iCV-MIRCrew

Language: | Size: 1.23 GB | Seed: 0 | Leech: 0

Description:

Jungle Shuffle (2014).H264.Italian.English.Ac3.5.1.sub.ita.iCV-MIRCrew [center] [color=red][b][img]http://extraimago.com/images/2016/07/16/oCo82IVa08d8.png[/img] [u]NO FOUND ONLY ORIGINAL RELEASE[/u] [img]http://i.imgur.com/GDNQx1Z.png[/img] My release is always in double track audio italian and Original audio for select it use VLC or dvd player home not use wmp Jungle Shuffle (2014) [img]http://extraimage.net/images/2017/01/23/c2da7eb8cb172f2663e1493276fb86c9.png[/img] [URL=http://www.imdb.com/title/tt2722786/][IMG]http://www.userlogos.org/files/logos/Sucka/imdb_new.png[/IMG][/URL] [img]http://i.imgur.com/Q5gAZRt.png[/img] Jungle Shuffle Corea del Sud, Messico 2014 Genere: Animazione Durata 82' Regia di Taedong Park [img]http://i.imgur.com/Jtvgw7x.png[/img] *********************************** [img]http://i.imgur.com/hL3n1m8.png[/img] Manu e Sacha sono due coati che vivono nella giungla messicana e che si amano. Peccato, però, che Sacha sia la figlia del re della tribù dei coati e che Manu brilli in negativo per la sua infinita goffaggine. Un giorno Manu combina un guaio così grosso che finisce addirittura per farlo bandire dalla tribù, costringendolo a vivere da solo nel bosco............... [img]http://i.imgur.com/MTp7cO6.png[/img] 1960 Lacedon Jungle in Mexico. Coatis Manu and Sacha are best friends. However, mischievous Manu is exiled from the empire for breaking a statue ordered to be made by the king, then girlfriend Sacha is captured by hunters................ [img]http://i.imgur.com/6TgqSmf.png[/img] [img]http://extraimage.net/images/2017/01/23/588d3fa0df758eb38844d656ea18d404.png[/img] [img]http://extraimage.net/images/2017/01/23/2e6e5e42f6a20b1c9262ca1df3cd3c9e.png[/img] [img]http://extraimage.net/images/2017/01/23/8c76ded305ba54fd7fa493f07053382c.png[/img] [img]http://i.imgur.com/t8N3Ia1.png[/img] [spoiler] General Unique ID : 182808795594202830039072121759537386050 (0x8987B17F98CDEC7CAC3DFB7A16C95242) Complete name : Jungle Shuffle (2014).H264.ita.eng.sub.ita.iCV-MIRCrew.mkv Format : Matroska Format version : Version 2 File size : 1.23 GiB Duration : 1h 21mn Overall bit rate : 2 167 Kbps Movie name : VISIT www.icv-crew.org Encoded date : UTC 2017-01-21 18:55:45 Writing application : mkvmerge v5.4.0 ('Piper') built on Mar 10 2012 13:34:39 Writing library : Lavf54.63.100 COPYRIGHT : robbyrs Video ID : 1 Format : AVC Format/Info : Advanced Video Codec Format profile : [email protected] Format settings, CABAC : Yes Format settings, ReFrames : 2 frames Muxing mode : Header stripping Codec ID : V_MPEG4/ISO/AVC Duration : 1h 21mn Bit rate : 1 270 Kbps Width : 720 pixels Height : 404 pixels Display aspect ratio : 16:9 Frame rate mode : Variable Frame rate : 23.976 fps Color space : YUV Chroma subsampling : 4:2:0 Bit depth : 8 bits Scan type : Progressive Bits/(Pixel*Frame) : 0.182 Stream size : 716 MiB (57%) Writing library : x264 core 130 r2273 Encoding settings : cabac=1 / ref=2 / deblock=1:0:0 / analyse=0x1:0x131 / me=hex / subme=7 / psy=1 / psy_rd=1.00:0.00 / mixed_ref=0 / me_range=16 / chroma_me=1 / trellis=1 / 8x8dct=0 / cqm=0 / deadzone=21,11 / fast_pskip=1 / chroma_qp_offset=-2 / threads=12 / lookahead_threads=2 / sliced_threads=0 / nr=0 / decimate=1 / interlaced=0 / bluray_compat=0 / constrained_intra=0 / bframes=3 / b_pyramid=0 / b_adapt=1 / b_bias=0 / direct=3 / weightb=1 / open_gop=0 / weightp=2 / keyint=230 / keyint_min=23 / scenecut=40 / intra_refresh=0 / rc_lookahead=40 / rc=2pass / mbtree=1 / bitrate=1270 / ratetol=1.0 / qcomp=0.60 / qpmin=10 / qpmax=69 / qpstep=4 / cplxblur=20.0 / qblur=0.5 / vbv_maxrate=24000 / vbv_bufsize=24000 / nal_hrd=none / ip_ratio=1.40 / aq=1:1.00 Language : Italian Default : Yes Forced : No DURATION : 01:21:34.348000000 NUMBER_OF_FRAMES : 117347 NUMBER_OF_BYTES : 4738624396 _STATISTICS_WRITING_APP : mkvmerge v8.7.0 ('All of the above') 64bit _STATISTICS_WRITING_DATE_UTC : 2017-01-20 20:47:33 _STATISTICS_TAGS : BPS DURATION NUMBER_OF_FRAMES NUMBER_OF_BYTES Audio #1 ID : 2 Format : AC-3 Format/Info : Audio Coding 3 Mode extension : CM (complete main) Muxing mode : Header stripping Codec ID : A_AC3 Duration : 1h 21mn Bit rate mode : Constant Bit rate : 448 Kbps Channel(s) : 6 channels Channel positions : Front: L C R, Side: L R, LFE Sampling rate : 48.0 KHz Bit depth : 16 bits Compression mode : Lossy Delay relative to video : -5ms Stream size : 261 MiB (21%) Title : AC3 ITA Language : Italian Default : No Forced : No DURATION : 01:21:34.304000000 NUMBER_OF_FRAMES : 152947 NUMBER_OF_BYTES : 391544320 _STATISTICS_WRITING_APP : mkvmerge v8.7.0 ('All of the above') 64bit _STATISTICS_WRITING_DATE_UTC : 2017-01-20 20:47:33 _STATISTICS_TAGS : BPS DURATION NUMBER_OF_FRAMES NUMBER_OF_BYTES Audio #2 ID : 3 Format : AC-3 Format/Info : Audio Coding 3 Mode extension : CM (complete main) Muxing mode : Header stripping Codec ID : A_AC3 Duration : 1h 21mn Bit rate mode : Constant Bit rate : 448 Kbps Channel(s) : 6 channels Channel positions : Front: L C R, Side: L R, LFE Sampling rate : 48.0 KHz Bit depth : 16 bits Compression mode : Lossy Delay relative to video : -5ms Stream size : 261 MiB (21%) Title : AC3 ENG Language : English Default : No Forced : No DURATION : 01:21:34.336000000 NUMBER_OF_FRAMES : 152948 NUMBER_OF_BYTES : 391546880 _STATISTICS_WRITING_APP : mkvmerge v8.7.0 ('All of the above') 64bit _STATISTICS_WRITING_DATE_UTC : 2017-01-20 20:47:33 _STATISTICS_TAGS : BPS DURATION NUMBER_OF_FRAMES NUMBER_OF_BYTES Text #1 ID : 4 Format : UTF-8 Codec ID : S_TEXT/UTF8 Codec ID/Info : UTF-8 Plain Text Default : Yes Forced : No Text #2 ID : 5 Format : UTF-8 Codec ID : S_TEXT/UTF8 Codec ID/Info : UTF-8 Plain Text Default : No Forced : No Menu 00:00:00.000 : :00:00:00.000 00:07:05.342 : :00:07:05.342 00:14:28.201 : :00:14:28.201 00:20:13.838 : :00:20:13.838 00:29:27.099 : :00:29:27.099 00:39:02.590 : :00:39:02.590 00:50:56.804 : :00:50:56.804 00:59:52.756 : :00:59:52.756 01:08:53.129 : :01:08:53.129 01:16:19.950 : :01:16:19.950 [/spoiler] [/color][/b][/center]

ACDC - The Ultimate Volts (2001), [Mp3][TNT]

Language: | Size: 453.84 MB | Seed: 0 | Leech: 0

Description:

Artist: ACDC Title: The Ultimate Volts Year Of Release: 2001 Genre: Rock, Hard Rock Label: Dirty Records Ltd Tracks: 58 CDs: 3 Format: Mp3 Quality: 320 Kbps Included Scans: Si Archive Size: 453 Mb --------- CD 1 01. Baby Please Don't Go (04:52) 02. Show Business (04:47) 03. Love Song (05:23) 04. Soul Stripper (06:28) 05. Stick Around (04:41) 06. You Ain't Got Hold On Me (03:33) 07. School Days (05:21) 08. Jailbreak (04:44) 09. Rock In Peace (R.I.P.) (03:37) 10. Carry Me Home (03:58) 11. Dirty Eyes (03:20) 12. Сrapsody In Blue (04:46) 13. Cold Hearted Man (03:38) 14. Get It Hot (04:15) 15. If You Want Blood (04:25) 16. Back Seat Confidental (05:23) 17. Touch Too Much (06:31) CD 2 01. Guns For Hire (03:23) 02. Flick Of The Switch (03:14) 03. Nervous Skakedown (06:16) 04. Rising Power (03:47) 05. Shake You Foundations (03:53) 06. Who Made Who (04:51) 07. Borrowed Timer (03:51) 08. Snake Eye (03:16) 09. Down On The Borderline (04:16) 10. That's The Way I Wanna Rock'n'roll (03:55) 11. Heatseeker (04:16) 12. Let It Loose (04:18) 13. Alright Tonight (03:59) 14. Big Gun (04:24) 15. Highway To Hell (05:01) 16. Boogie Man (02:44) 17. Rocker (03:33) 18. Boom Boom Boom (04:06) 19. Cyberspace (02:58) CD 3 01. Can I Sit Next To You Girl (03:19) 02. Rockin' In The Parlour (03:19) 03. Fling Thing (02:00) 04. Dog Eat Dog (04:37) 05. Johnny B. Goode (04:55) 06. Highway To Hell (03:27) 07. Ride On (04:17) 08. Ride On (02:59) 09. Lucille (04:55) 10. A Little Background Music (00:41) 11. Fling Thing (01:03) 12. Back In Black (03:55) 13. You Shook Me All Night Long (04:43) 14. Stiff Upper Lip (03:50) 15. Back In Black (04:21) 16. Stiff Upper Lip (03:42) 17. Highway To Hell (03:34) 18. Back In Black (03:59) 19. Satelite Blues (03:55) 20. T.N.T. (03:46) 21. Stiff Upper Lip (03:49) 22. You Shook Me All Night Long (04:06)

I cieli di Escaflowne S01e12-16 [BDmux 1080p - H264 - Ita Jap Aac]

Language: | Size: 6.33 GB | Seed: 11 | Leech: 29

Description:

I cieli di Escaflowne S01e12-16 [BDmux 1080p - H264 - Ita Jap Aac] .: Trama :. Hitomi Kanzaki è una tipica ragazza delle scuole superiori con tutti i problemi relativi ad un'adolescente della sua età. Tra le sue compagne di classe è famosa per l'abilità di prevedere il futuro con i tarocchi, capacità che le permette anche di avere visioni. Durante una di esse le appare un mondo alieno nel cui cielo si stagliano la Luna e la Terra. In un modo a lei sconosciuto e incomprensibile, Hitomi arriverà nel mondo sconosciuto di Gaia con un giovane spadaccino, Van. In questo mondo vi sono diversi Paesi in guerra fra loro, con una tecnologia piuttosto diversa da quella presente sulla Terra... .: Scheda :. Titolo originale: The Vision of Escaflowne (天空のエスカフローネ Tenkū no Esukafurōne) Anno: Giappone 2 aprile – 24 agosto 1996 / Italia 26 dicembre 2000 – 19 giugno 2001 Genere: Avventura, Fantasy, Romantico, Mecha Studio: Sunrise Distribuzione: Giappone TV Tokyo (1996), Animax, BS11 / Italia Dynit, MTV Italia, AXN (Animax, 2008), Ka-Boom Numero episodi: 26 (completa) Durata approssimativa: 25 minuti .: Screenshot :. [img]http://i.imgur.com/eybWC1T.jpg[/img] .: Dati tecnici del file :. Info sul file Nome: I cieli di Escaflowne S01e12 - La porta segreta - [Mux By MPT].mkv Data: 14/01/2017 13:52:16 Dimensione: 1,355,374,291 bytes (1292.586 MB) Info generiche Durata: 00:23:08 (1388.266 s) Tipo di contenitore: matroska Data creazione: 14/01/2017 12:50:17 UTC Streams totali: 4 Tipo stream n. 1: video (V_MPEG4/ISO/AVC) Tipo stream n. 2: audio (A_AAC (AAC Low complexity)) {Italiano} Tipo stream n. 3: audio (A_AAC (AAC Low complexity)) {Giapponese} Tipo stream n. 4: subtitle (S_TEXT/ASS) {Cartelli} Audio streams: 2 Muxing Application: libebml v1.3.4 + libmatroska v1.4.5 Writing Application: mkvmerge v9.6.0 ('Slave To Your Mind') 64bit Dati rilevanti Risoluzione: 1440 x 1080 Larghezza: multipla di 32 Altezza: multipla di 8 Traccia video Codec ID: V_MPEG4/ISO/AVC Risoluzione: 1440 x 1080 Frame aspect ratio: 4:3 = 1.333333 Pixel aspect ratio: 1:1 = 1 Display aspect ratio: 4:3 = 1.333333 Framerate: 23.976024 fps Traccia audio n. 1 Codec ID: A_AAC (AAC Low complexity) Canali (contenitore): 2 Frequenza: 48000 Hz Traccia audio n. 2 Codec ID: A_AAC (AAC Low complexity) Canali (contenitore): 2 Frequenza: 48000 Hz Info sulla codifica H.264 User data: x264 User data: core 120 r2120bm 0c7dab9 User data: H.264/MPEG-4 AVC codec User data: Copyleft 2003-2011 User data: http://www.videolan.org/x264.html User data: cabac=1 User data: ref=5 User data: deblock=1:1:1 User data: analyse=0x3:0x133 User data: me=umh User data: subme=9 User data: psy=1 User data: psy_rd=0.80:0.20 User data: mixed_ref=1 User data: me_range=24 User data: chroma_me=1 User data: trellis=1 User data: 8x8dct=1 User data: cqm=0 User data: deadzone=21,11 User data: fast_pskip=0 User data: chroma_qp_offset=-3 User data: threads=6 User data: sliced_threads=0 User data: nr=0 User data: decimate=1 User data: interlaced=0 User data: bluray_compat=0 User data: constrained_intra=0 User data: bframes=5 User data: b_pyramid=2 User data: b_adapt=2 User data: b_bias=0 User data: direct=3 User data: weightb=1 User data: open_gop=0 User data: weightp=2 User data: keyint=250 User data: keyint_min=23 User data: scenecut=40 User data: intra_refresh=0 User data: rc_lookahead=50 User data: rc=2pass User data: mbtree=1 User data: bitrate=7401 User data: ratetol=1.0 User data: qcomp=0.60 User data: qpmin=0 User data: qpmax=69 User data: qpstep=4 User data: cplxblur=20.0 User data: qblur=0.5 User data: ip_ratio=1.40 User data: aq=1:1.40 SPS id: 0 Profile: [email protected] Num ref frames: 5 Aspect ratio: Square pixels Chroma format idc: YUV 4:2:0 PPS id: 0 (SPS: 0) Codifica entropica: CABAC Weighted prediction: P slices - explicit weighted prediction Weighted bipred idc: B slices - implicit weighted prediction 8x8dct: Sì Profile compliancy Profilo da testare: MTK PAL 6000 Risoluzione: 1440 x 1080 > 720 x 576 Framerate: 23.976024 <> 25 Rapporto generato da AVInaptic (18-11-2007) in data 19 gen 2017, h 12:55:56

I cieli di Escaflowne S01e07-11 [BDmux 1080p - H264 - Ita Jap Aac]

Language: | Size: 6.32 GB | Seed: 13 | Leech: 29

Description:

I cieli di Escaflowne S01e07-11 [BDmux 1080p - H264 - Ita Jap Aac] .: Trama :. Hitomi Kanzaki è una tipica ragazza delle scuole superiori con tutti i problemi relativi ad un'adolescente della sua età. Tra le sue compagne di classe è famosa per l'abilità di prevedere il futuro con i tarocchi, capacità che le permette anche di avere visioni. Durante una di esse le appare un mondo alieno nel cui cielo si stagliano la Luna e la Terra. In un modo a lei sconosciuto e incomprensibile, Hitomi arriverà nel mondo sconosciuto di Gaia con un giovane spadaccino, Van. In questo mondo vi sono diversi Paesi in guerra fra loro, con una tecnologia piuttosto diversa da quella presente sulla Terra... .: Scheda :. Titolo originale: The Vision of Escaflowne (天空のエスカフローネ Tenkū no Esukafurōne) Anno: Giappone 2 aprile – 24 agosto 1996 / Italia 26 dicembre 2000 – 19 giugno 2001 Genere: Avventura, Fantasy, Romantico, Mecha Studio: Sunrise Distribuzione: Giappone TV Tokyo (1996), Animax, BS11 / Italia Dynit, MTV Italia, AXN (Animax, 2008), Ka-Boom Numero episodi: 26 (completa) Durata approssimativa: 25 minuti .: Screenshot :. [img]http://i.imgur.com/X3v6gNI.jpg[/img] .: Dati tecnici del file :. Info sul file Nome: I cieli di Escaflowne S01e07 - Un addio inaspettato - [Mux By MPT].mkv Data: 12/01/2017 20:10:00 Dimensione: 1,352,855,260 bytes (1290.183 MB) Info generiche Durata: 00:24:48 (1487.872 s) Tipo di contenitore: matroska Data creazione: 12/01/2017 19:08:11 UTC Streams totali: 4 Tipo stream n. 1: video (V_MPEG4/ISO/AVC) Tipo stream n. 2: audio (A_AAC (AAC Low complexity)) {Italiano} Tipo stream n. 3: audio (A_AAC (AAC Low complexity)) {Giapponese} Tipo stream n. 4: subtitle (S_TEXT/ASS) {Cartelli} Audio streams: 2 Muxing Application: libebml v1.3.4 + libmatroska v1.4.5 Writing Application: mkvmerge v9.6.0 ('Slave To Your Mind') 64bit Dati rilevanti Risoluzione: 1440 x 1080 Larghezza: multipla di 32 Altezza: multipla di 8 Traccia video Codec ID: V_MPEG4/ISO/AVC Risoluzione: 1440 x 1080 Frame aspect ratio: 4:3 = 1.333333 Pixel aspect ratio: 1:1 = 1 Display aspect ratio: 4:3 = 1.333333 Framerate: 23.976024 fps Traccia audio n. 1 Codec ID: A_AAC (AAC Low complexity) Canali (contenitore): 2 Frequenza: 48000 Hz Traccia audio n. 2 Codec ID: A_AAC (AAC Low complexity) Canali (contenitore): 2 Frequenza: 48000 Hz Info sulla codifica H.264 User data: x264 User data: core 120 r2120bm 0c7dab9 User data: H.264/MPEG-4 AVC codec User data: Copyleft 2003-2011 User data: http://www.videolan.org/x264.html User data: cabac=1 User data: ref=5 User data: deblock=1:1:1 User data: analyse=0x3:0x133 User data: me=umh User data: subme=9 User data: psy=1 User data: psy_rd=0.80:0.20 User data: mixed_ref=1 User data: me_range=24 User data: chroma_me=1 User data: trellis=1 User data: 8x8dct=1 User data: cqm=0 User data: deadzone=21,11 User data: fast_pskip=0 User data: chroma_qp_offset=-3 User data: threads=6 User data: sliced_threads=0 User data: nr=0 User data: decimate=1 User data: interlaced=0 User data: bluray_compat=0 User data: constrained_intra=0 User data: bframes=5 User data: b_pyramid=2 User data: b_adapt=2 User data: b_bias=0 User data: direct=3 User data: weightb=1 User data: open_gop=0 User data: weightp=2 User data: keyint=250 User data: keyint_min=23 User data: scenecut=40 User data: intra_refresh=0 User data: rc_lookahead=50 User data: rc=2pass User data: mbtree=1 User data: bitrate=6851 User data: ratetol=1.0 User data: qcomp=0.60 User data: qpmin=0 User data: qpmax=69 User data: qpstep=4 User data: cplxblur=20.0 User data: qblur=0.5 User data: ip_ratio=1.40 User data: aq=1:1.40 SPS id: 0 Profile: [email protected] Num ref frames: 5 Aspect ratio: Square pixels Chroma format idc: YUV 4:2:0 PPS id: 0 (SPS: 0) Codifica entropica: CABAC Weighted prediction: P slices - explicit weighted prediction Weighted bipred idc: B slices - implicit weighted prediction 8x8dct: Sì Profile compliancy Profilo da testare: MTK PAL 6000 Risoluzione: 1440 x 1080 > 720 x 576 Framerate: 23.976024 <> 25 Rapporto generato da AVInaptic (18-11-2007) in data 17 gen 2017, h 15:46:11

I cieli di Escaflowne S01e01-06 [BDmux 1080p - H264 - Ita Jap Aac]

Language: | Size: 7.56 GB | Seed: 17 | Leech: 14

Description:

I cieli di Escaflowne S01e01-06 [BDmux 1080p - H264 - Ita Jap Aac] .: Trama :. Hitomi Kanzaki è una tipica ragazza delle scuole superiori con tutti i problemi relativi ad un'adolescente della sua età. Tra le sue compagne di classe è famosa per l'abilità di prevedere il futuro con i tarocchi, capacità che le permette anche di avere visioni. Durante una di esse le appare un mondo alieno nel cui cielo si stagliano la Luna e la Terra. In un modo a lei sconosciuto e incomprensibile, Hitomi arriverà nel mondo sconosciuto di Gaia con un giovane spadaccino, Van. In questo mondo vi sono diversi Paesi in guerra fra loro, con una tecnologia piuttosto diversa da quella presente sulla Terra... .: Scheda :. Titolo originale: The Vision of Escaflowne (天空のエスカフローネ Tenkū no Esukafurōne) Anno: Giappone 2 aprile – 24 agosto 1996 / Italia 26 dicembre 2000 – 19 giugno 2001 Genere: Avventura, Fantasy, Romantico, Mecha Studio: Sunrise Distribuzione: Giappone TV Tokyo (1996), Animax, BS11 / Italia Dynit, MTV Italia, AXN (Animax, 2008), Ka-Boom Numero episodi: 26 (completa) Durata approssimativa: 25 minuti .: Dati tecnici del file :. Info sul file Nome: I cieli di Escaflowne S01e01 - Una dichiarazione segnata dal destino - [Mux By MPT].mkv Data: 10/01/2017 15:56:56 Dimensione: 1,355,338,162 bytes (1292.551 MB) Info generiche Durata: 00:24:51 (1491.057 s) Tipo di contenitore: matroska Data creazione: 10/01/2017 14:55:34 UTC Streams totali: 4 Tipo stream n. 1: video (V_MPEG4/ISO/AVC) Tipo stream n. 2: audio (A_AAC (AAC Low complexity)) {Italiano} Tipo stream n. 3: audio (A_AAC (AAC Low complexity)) {Giapponese} Tipo stream n. 4: subtitle (S_TEXT/ASS) {Cartelli} Audio streams: 2 Muxing Application: libebml v1.3.4 + libmatroska v1.4.5 Writing Application: mkvmerge v9.6.0 ('Slave To Your Mind') 64bit Dati rilevanti Risoluzione: 1440 x 1080 Larghezza: multipla di 32 Altezza: multipla di 8 Traccia video Codec ID: V_MPEG4/ISO/AVC Risoluzione: 1440 x 1080 Frame aspect ratio: 4:3 = 1.333333 Pixel aspect ratio: 1:1 = 1 Display aspect ratio: 4:3 = 1.333333 Framerate: 23.976024 fps Traccia audio n. 1 Codec ID: A_AAC (AAC Low complexity) Canali (contenitore): 2 Frequenza: 48000 Hz Traccia audio n. 2 Codec ID: A_AAC (AAC Low complexity) Canali (contenitore): 2 Frequenza: 48000 Hz Info sulla codifica H.264 User data: x264 User data: core 120 r2120bm 0c7dab9 User data: H.264/MPEG-4 AVC codec User data: Copyleft 2003-2011 User data: http://www.videolan.org/x264.html User data: cabac=1 User data: ref=5 User data: deblock=1:1:1 User data: analyse=0x3:0x133 User data: me=umh User data: subme=9 User data: psy=1 User data: psy_rd=0.60:0.00 User data: mixed_ref=1 User data: me_range=24 User data: chroma_me=1 User data: trellis=1 User data: 8x8dct=1 User data: cqm=0 User data: deadzone=21,11 User data: fast_pskip=0 User data: chroma_qp_offset=-2 User data: threads=6 User data: sliced_threads=0 User data: nr=0 User data: decimate=1 User data: interlaced=0 User data: bluray_compat=0 User data: constrained_intra=0 User data: bframes=5 User data: b_pyramid=2 User data: b_adapt=2 User data: b_bias=0 User data: direct=3 User data: weightb=1 User data: open_gop=0 User data: weightp=2 User data: keyint=250 User data: keyint_min=25 User data: scenecut=40 User data: intra_refresh=0 User data: rc=cqp User data: mbtree=0 User data: qp=1 User data: ip_ratio=1.40 User data: pb_ratio=1.30 User data: aq=0 SPS id: 0 Profile: [email protected] Num ref frames: 5 Aspect ratio: Square pixels Chroma format idc: YUV 4:2:0 PPS id: 0 (SPS: 0) Codifica entropica: CABAC Weighted prediction: P slices - explicit weighted prediction Weighted bipred idc: B slices - implicit weighted prediction 8x8dct: Sì Profile compliancy Profilo da testare: MTK PAL 6000 Risoluzione: 1440 x 1080 > 720 x 576 Framerate: 23.976024 <> 25 Rapporto generato da AVInaptic (18-11-2007) in data 15 gen 2017, h 12:42:48

Just Go with It - Mia moglie per finta (2011).H264.Italian.English.Ac3.5.1.sub.ita.eng.iCV-MIRCrew

Language: | Size: 1.76 GB | Seed: 0 | Leech: 0

Description:

Just Go with It - Mia moglie per finta (2011).H264.Italian.English.Ac3.5.1.sub.ita.eng.iCV-MIRCrew [center] [color=red][b][img]http://s23.postimg.org/b9yhws27f/0sc_Del1.png[/img] [u]NO FOUND ONLY ORIGINAL RELEASE[/u] [img]http://i.imgur.com/GDNQx1Z.png[/img] My release is always in double track audio italian and Original audio for select it use VLC or dvd player home not use wmp Mia moglie per finta - Just Go with It (2011) [img]http://extraimage.net/images/2017/01/22/3f22e60d252cce7afc86e56409c4f6d1.png[/img] [URL=http://www.imdb.com/title/tt1564367/][IMG]http://www.userlogos.org/files/logos/Sucka/imdb_new.png[/IMG][/URL] [img]http://i.imgur.com/fGu1rKv.png[/img] DATA USCITA: 01 aprile 2011 GENERE: Commedia, Sentimentale ANNO: 2011 REGIA: Dennis Dugan SCENEGGIATURA: Timothy Dowling FOTOGRAFIA: Theo van de Sande MUSICHE: Rupert Gregson-Williams PRODUZIONE: Happy Madison Productions DISTRIBUZIONE: Sony Pictures Releasing Italia PAESE: USA DURATA: 116 Min [img]http://i.imgur.com/W7kBqiE.png[/img] Jennifer Aniston, Adam Sandler, Nicole Kidman, Jessica Andres, Bailee Madison, Nick Swardson, Kevin Nealon, Dana Goodman, Rachel Specter, Natalina Maggio, Kent Avenido, Brooklyn Decker [img]http://i.imgur.com/bFK3ggF.png[/img] Per anni Patrick ha finto di essere sposato per non impegnarsi con le donne. Un giorno finalmente incontra la ragazza dei suoi sogni e si toglie la fede ma, quando lei nota il segno dell'abbronzatura che gli è rimasto sul dito, vuole incontrare l'ex moglie prima di andare avanti nella relazione............... [img]http://i.imgur.com/48xHWWH.png[/img] On a weekend trip to Hawaii, a plastic surgeon convinces his loyal assistant to pose as his soon-to-be-divorced wife in order to cover up a careless lie he told to his much-younger girlfriend. [img]http://i.imgur.com/K8bfNTy.png[/img] [img]http://extraimage.net/images/2017/01/22/7ebef23e201201b23326f6087b776f09.png[/img] [img]http://extraimage.net/images/2017/01/22/5feba7af2458a904e469f964701516aa.png[/img] [img]http://extraimage.net/images/2017/01/22/6fb9a860677c4d720385319acf1ed331.png[/img] [img]http://i.imgur.com/aVrMohH.png[/img] [spoiler] General Unique ID : 13160423159436542702323121119483406395 (0x9E69AF539EFC56C9148A12EA134283B) Complete name : Mia moglie per finta - Just Go with It (2011).H264.ita.eng.sub.ita.eng.iCV-MIRCrew.mkv Format : Matroska Format version : Version 2 File size : 1.76 GiB Duration : 1h 56mn Overall bit rate : 2 165 Kbps Movie name : VISIT www.icv-crew.org Encoded date : UTC 2017-01-13 13:35:51 Writing application : Lavf54.63.100 Writing library : Lavf54.63.100 COPYRIGHT : robbyrs Video ID : 1 Format : AVC Format/Info : Advanced Video Codec Format profile : [email protected] Format settings, CABAC : Yes Format settings, ReFrames : 2 frames Codec ID : V_MPEG4/ISO/AVC Duration : 1h 56mn Bit rate : 1 280 Kbps Width : 720 pixels Height : 388 pixels Display aspect ratio : 1.856 Frame rate mode : Variable Frame rate : 23.976 fps Color space : YUV Chroma subsampling : 4:2:0 Bit depth : 8 bits Scan type : Progressive Bits/(Pixel*Frame) : 0.191 Stream size : 1 022 MiB (57%) Writing library : x264 core 130 r2273 Encoding settings : cabac=1 / ref=2 / deblock=1:0:0 / analyse=0x1:0x131 / me=hex / subme=7 / psy=1 / psy_rd=1.00:0.00 / mixed_ref=0 / me_range=16 / chroma_me=1 / trellis=1 / 8x8dct=0 / cqm=0 / deadzone=21,11 / fast_pskip=1 / chroma_qp_offset=-2 / threads=12 / lookahead_threads=2 / sliced_threads=0 / nr=0 / decimate=1 / interlaced=0 / bluray_compat=0 / constrained_intra=0 / bframes=3 / b_pyramid=0 / b_adapt=1 / b_bias=0 / direct=3 / weightb=1 / open_gop=0 / weightp=2 / keyint=230 / keyint_min=23 / scenecut=40 / intra_refresh=0 / rc_lookahead=40 / rc=abr / mbtree=1 / bitrate=1280 / ratetol=1.0 / qcomp=0.60 / qpmin=10 / qpmax=69 / qpstep=4 / vbv_maxrate=24000 / vbv_bufsize=24000 / nal_hrd=none / ip_ratio=1.40 / aq=1:1.00 Language : English Default : Yes Forced : No Audio #1 ID : 2 Format : AC-3 Format/Info : Audio Coding 3 Mode extension : CM (complete main) Codec ID : A_AC3 Duration : 1h 56mn Bit rate mode : Constant Bit rate : 448 Kbps Channel(s) : 6 channels Channel positions : Front: L C R, Side: L R, LFE Sampling rate : 48.0 KHz Bit depth : 16 bits Compression mode : Lossy Delay relative to video : 1mn 5s Stream size : 373 MiB (21%) Language : Italian Default : Yes Forced : No Audio #2 ID : 3 Format : AC-3 Format/Info : Audio Coding 3 Mode extension : CM (complete main) Codec ID : A_AC3 Duration : 1h 56mn Bit rate mode : Constant Bit rate : 448 Kbps Channel(s) : 6 channels Channel positions : Front: L C R, Side: L R, LFE Sampling rate : 48.0 KHz Bit depth : 16 bits Compression mode : Lossy Delay relative to video : 1mn 5s Stream size : 373 MiB (21%) Language : English Default : No Forced : No Text #1 ID : 4 Format : UTF-8 Codec ID : S_TEXT/UTF8 Codec ID/Info : UTF-8 Plain Text Title : SUB ITA Forced Language : Italian Default : Yes Forced : No Text #2 ID : 5 Format : UTF-8 Codec ID : S_TEXT/UTF8 Codec ID/Info : UTF-8 Plain Text Title : SUB ITA Language : Italian Default : No Forced : No Text #3 ID : 6 Format : UTF-8 Codec ID : S_TEXT/UTF8 Codec ID/Info : UTF-8 Plain Text Title : SUB ENG Language : English Default : No Forced : No Menu 00:00:00.000 : :CAPITOLO 1 00:05:03.136 : :CAPITOLO 2 00:13:04.409 : :CAPITOLO 3 00:21:29.121 : :CAPITOLO 4 00:29:15.837 : :CAPITOLO 5 00:34:19.099 : :CAPITOLO 6 00:44:11.107 : :CAPITOLO 7 00:49:54.617 : :CAPITOLO 8 00:56:02.317 : :CAPITOLO 9 01:03:24.968 : :CAPITOLO 10 01:08:33.026 : :CAPITOLO 11 01:16:15.654 : :CAPITOLO 12 01:24:45.998 : :CAPITOLO 13 01:31:30.777 : :CAPITOLO 14 01:39:27.295 : :CAPITOLO 15 01:46:09.863 : :CAPITOLO 16 [/spoiler] [/color][/b][/center]
  1 2 3 4 5 ... 453 454 455 456 457  »
  Movie/Films     Animation/Cartoons     TV Shows/Series     Music     Games     Applications     Books     Other  

   How works MfT    Rules    Suggest idea    Request torrent    Privacy Policy    DMCA    Contacts    MfT Status    Friends sites    Is this site safe?   

mkv, HD-Rip , BD-Rip , Blu-Ray , HD Film , hd film , hd films , scarica film gratis , hd torrents , hd torrent , hdtorrents, hdrip , bdrip , Bluray ,

Blu-Ray player, scarica film , scarica torrent , torrent film , film ita, bluray, mux, 1080p, 720p, hdtorrents, torrent ita, torrents ita, HD film ita, HD ita, Blu-Ray ita