Search Top Tags














Damian Marley - Halfway Tree (2001), [Mp3][Tnt]

Language: | Size: 142.16 MB | Seed: 1 | Leech: 1

Description:

Artist: Damian Marley Title: Halfway Tree Year Of Release: 2001 Genre: Reggae Label: Motown Records Tracks: 16 CDs: 1 Format: Mp3 Quality: 320 kbps Included Scans: Cover Archive Size: 142 Mb --------- 01. Educated Fools feat. Treach, Bunny Wailer, & Bounty Killer (05:17) 02. More Justice (03:35) 03. It Was Written feat. Stephen Marley, Capleton, & Drag-On (06:01) 04. Catch A Fire (04:51) 05. Still Searchin' feat. Stephen Marley & Yami Bolo (05:05) 06. She Needs My Love feat. Yami Bolo & Sabor (04:17) 07. Mi Blenda (04:41) 08. Where Is The Love feat. Eve (05:08) 09. Harder (Interlude) (00:43) 10. Born To Be Wild (04:01) 11. Give Dem Some Way feat. Daddigan (04:01) 12. HalfWay Tree (Interlude) (01:45) 13. Paradise Child feat. Mr. Cheeks & Jimmy Cozier (04:02) 14. Stuck In Between (03:43) 15. HalfWay Tree (05:25) 16. Stand A Chance feat. Treach & Yami Bolo (09:31)

U2 - Odds and Demos from 1978 to 1983 [Mp3 320][TntVillage]

Language: | Size: 102.34 MB | Seed: 133 | Leech: 21

Description:

[_to_info] Titolo: Odds & Demos From 1978 To 1983 Anno: 1985 Genere: Rock .: Tracklist :. A1 Magic Carpet A2 Another Time, Another Place A3 Alone In The Light A4 False Prophet A5 Interview Dutch TV (7/82) A6 Touch A7 The Ocean A8 11 O'Clock Tick Tock B1 Interview Dutch TV (7/82) B2 Scarlet B3 Tomorrow B4 Like A Song B5 The Cry / Electric Co. B6 Knockin' On Heaven's Doors [_to_dane] Tipo di file: MPEG-1 Layer III Encoder: LAME3.98r Bitrate: 320 kbps CBR Frequenza: 44100 Hz Emphasis: none Mode: stereo Padding: Sě [_to_opis] Odds & Demos - From 1978 to 1983". It was released in 1985 and contains Rare Live Performances, Demos, Interviews and Studio Sessions.

Oceania.2016.iTALiAN.AC3.BRRip.XviD-T4P3

Language: | Size: 1.46 GB | Seed: 6 | Leech: 0

Description:

Oceania Titolo originale: Moana Nazione: U.S.A. Anno: 2016 Genere: Animazione Durata: 103' Regia: Ron Clements, John Musker Cast (voci): Dwayne Johnson, Alan Tudyk, Auli'i Cravalho, Phillipa Soo Produzione: Walt Disney Animation Studios, Walt Disney Pictures Distribuzione: Walt Disney Studios Motion Pictures Italia Data di uscita: 22 Dicembre 2016 (cinema) Trama: Una vivace adolescente di nome Vaiana s’imbarca in una coraggiosa missione per salvare il suo popolo. Durante il suo viaggio, s’imbatterà nel semidio in disgrazia Maui che la guiderà nella sua ricerca per diventare una grande esploratrice. Insieme, i due attraverseranno l’oceano in un viaggio pieno d’azione che li porterà ad affrontare enormi creature feroci e ostacoli impossibili e, lungo il percorso, Vaiana porterà a compimento l’antica ricerca dei suoi antenati e troverà l’unica cosa che ha sempre desiderato: la propria identità.

Various Artists - Glamkings Of Rock: The True Story Of Glam Rock (1994) [Mp3][Tnt]

Language: | Size: 246.21 MB | Seed: 1 | Leech: 2

Description:

Artist: Various Artists Title: Glamkings Of Rock: The True Story Of Glam Rock Year Of Release: 1994 Genre: Glam Rock Label: Edel Company Tracks: 30 CDs: 2 Format: Mp3 Quality: 320 kbps Included Scans: Si Archive Size: 246 Mb ------------ CD1: 01. Suzi Quatro - Can the Can [3:36] 02. Mud - Tiger Feet [3:53] 03. Sweet - Teenage Rampage [3:38] 04. T-Rex - Get It On [4:27] 05. Gary Glitter - Do You Wanna Touch Me [3:21] 06. Alice Cooper - He's Back (The Man Behind the Mask) [3:47] 07. Sweet - Fox on the Run [3:27] 08. Paul Da Vinci - Your Baby Ain't Your Baby Anymore [3:25] 09. Hello - Star Studded Sham [2:56] 10. The Glitter Band - Let's Get Together Again [4:02] 11. Suzi Quatro - 48 Crash [3:56] 12. T-Rex - Ride a White Swan [2:16] 13. Wizzard - Are You Ready to Rock [2:32] 14. Alvin Stardust - Pretend [2:44] 15. Gary Glitter - I'm the Leader of the Gang [3:27] CD2: 01. Mott The Hoople - All the Young Dudes [3:33] 02. Lulu + David Bowie - The Man Who Sold the World [3:48] 03. Gary Glitter - I Love You Love Me Love [3:14] 04. Alvin Stardust - A Wonderful Time up There [2:36] 05. Barry Blue - Dancing on a Saturday Night [3:13] 06. Mud - L-L-Lucy [3:02] 07. T-Rex - Jeepster [4:13] 08. Hello - New York Groove [2:48] 09. Suzi Quatro - Glad All Over [2:53] 10. Gary Glitter - Rock 'n' Roll Part I [3:05] 11. Chicory Tip - Son of My Father [3:14] 12. The Glitter Band - Angel Face [3:00] 13. Mud - Show Me You're a Woman [4:03] 14. Wizzard - Rock 'n' Roll Winter [5:07] 15. T-Rex - Hot Love [4:55]

One Million B.C. - Sul sentiero dei mostri (1940).H264.Italian.Ac3.iCV-MIRCrew

Language: | Size: 819.07 MB | Seed: 15 | Leech: 3

Description:

One Million B.C. - Sul sentiero dei mostri (1940).H264.Italian.Ac3.iCV-MIRCrew [center] [color=red][b][img]http://s23.postimg.org/b9yhws27f/0sc_Del1.png[/img] [u]NO FOUND ONLY ORIGINAL RELEASE[/u] [img]http://i.imgur.com/GDNQx1Z.png[/img] Sul sentiero dei mostri - One Million B.C. (1940) [img]https://extraimage.net/images/2017/04/09/193f6d0e8d473f09cf43956c66430578.png[/img] [URL=http://www.imdb.com/title/tt0032871/][IMG]http://www.userlogos.org/files/logos/Sucka/imdb_new.png[/IMG][/URL] [img]http://i.imgur.com/fGu1rKv.png[/img] Distribuito dall'United Artists, il film venne distribuito nelle sale cinematografiche USA il 5 aprile 1940. Il film del 1966 Un milione di anni fa è un remake di Sul sentiero dei mostri, anche i titoli originali dei due film sono simili One Million B.C.(Sul sentiero dei mostri) e One Million Years B.C. (Un milione di anni fa). Titolo originale One Million B.C. Paese di produzione Stati Uniti Anno 1940 Durata 80 min Colore B/N Audio Mono (Western Electric Mirrophonic Recording) Rapporto 1.37 : 1 Genere avventura Regia Hal Roach Jr. Hal Roach Produttore Hal Roach per TWF Casa di produzione Hal Roach Studios Distribuzione (Italia) I.C.I (1949) Fotografia Norbert Brodine Montaggio Ray Snyder Musiche Werner R. Heymann Scenografia Charles D. Hall (art director) William Stevens (set decorator) [img]http://i.imgur.com/W7kBqiE.png[/img] Victor Mature: Tumak Carole Landis: Loana Lon Chaney Jr.: Akhoba Conrad Nagel: archeologo John Hubbard: Ohtao Nigel De Brulier: Peytow Mamo Clark: Nupondi Inez Palange: Tohana Edgar Edwards: Skakana Jacqueline Dalya: Ataf Mary Gale Fisher: Wandi Creighton Hale Rosemary Theby: [img]http://i.imgur.com/bFK3ggF.png[/img] Dopo un violento alterco con il capo Akhoba, Tumak viene espulso dal popolo delle rocce, e, scampato alla morte, incontra Loana del popolo della spiaggia. I due giovani si innamorano e riescono dopo molte pericolose avventure a riappacificare le tribù rivali. Mostri spaventosi e boati di vulcani in piena attività accompagnano le peregrinazioni dei due ragazzi in questo fantastico mondo preistorico............. [img]http://i.imgur.com/48xHWWH.png[/img] Tale of Prehistoric survival and love between a male and a female belonging to opposing tribes that happened to be at slightly different stages of evolution. [img]http://i.imgur.com/K8bfNTy.png[/img] [img]https://extraimage.net/images/2017/04/09/898c2b241f061e15446a3bf3e4e89b38.png[/img] [img]https://extraimage.net/images/2017/04/09/edfbb5f7379da9a5b56491802349efe4.png[/img] [img]https://extraimage.net/images/2017/04/09/5aad793347147b4873ba6e2d1d7d8569.png[/img] [img]http://i.imgur.com/aVrMohH.png[/img] [spoiler] General Unique ID : 247636327858468939790056225460288087701 (0xBA4D059C291EBAC79388EDFBE345E695) Complete name : Sul sentiero dei mostri - One Million B.C. (1940).H264.Mute.iCV-MIRCrew.mkv Format : Matroska Format version : Version 2 File size : 819 MiB Duration : 1h 15mn Overall bit rate : 1 516 Kbps Movie name : Sul sentiero dei mostri - One Million B.C. (1940).Title3 Encoded date : UTC 2017-04-05 14:50:08 Writing application : DVDFab 9.1.5.7 Writing library : libebml v0.7.8 + libmatroska v0.8.1 Video ID : 1 Format : AVC Format/Info : Advanced Video Codec Format profile : [email protected] Format settings, CABAC : Yes Format settings, ReFrames : 2 frames Codec ID : V_MPEG4/ISO/AVC Duration : 1h 15mn Bit rate : 1 294 Kbps Width : 720 pixels Height : 540 pixels Display aspect ratio : 4:3 Frame rate : 25.000 fps Color space : YUV Chroma subsampling : 4:2:0 Bit depth : 8 bits Scan type : Progressive Bits/(Pixel*Frame) : 0.133 Stream size : 699 MiB (85%) Writing library : x264 core Default : Yes Forced : No Color primaries : BT.601-6 525, BT.1358 525, BT.1700 NTSC, SMPTE 170M Transfer characteristics : BT.709-5, BT.1361 Matrix coefficients : BT.601-6 525, BT.1358 525, BT.1700 NTSC, SMPTE 170M Audio ID : 2 Format : AC-3 Format/Info : Audio Coding 3 Mode extension : CM (complete main) Codec ID : A_AC3 Duration : 1h 15mn Bit rate mode : Constant Bit rate : 192 Kbps Channel(s) : 2 channels Channel positions : Front: L R Sampling rate : 48.0 KHz Bit depth : 16 bits Compression mode : Lossy Stream size : 104 MiB (13%) Default : Yes Forced : No Menu 00:00:00.000 : en:(01)00:00:00:000 00:06:08.800 : en:(02)00:06:08:800 00:14:03.120 : en:(03)00:14:03:120 00:20:48.800 : en:(04)00:20:48:800 00:28:18.760 : en:(05)00:28:18:760 00:38:00.040 : en:(06)00:38:00:040 00:46:57.040 : en:(07)00:46:57:040 00:54:45.440 : en:(08)00:54:45:440 01:06:57.720 : en:(09)01:06:57:720 [/spoiler] [/color][/b][/center]

The Discovery - La Scoperta (2017).H264.Italian.English.Ac3.5.1.iCV-MIRCrew

Language: | Size: 1.57 GB | Seed: 278 | Leech: 4

Description:

The Discovery - La Scoperta (2017).H264.Italian.English.Ac3.5.1.iCV-MIRCrew [center] [color=red][b][img]http://s23.postimg.org/b9yhws27f/0sc_Del1.png[/img] [u]NO FOUND ONLY ORIGINAL RELEASE[/u] [img]http://i.imgur.com/GDNQx1Z.png[/img] My release is always in double track audio italian and Original audio for select it use VLC or dvd player home not use wmp La Scoperta - The Discovery (2017) [img]https://extraimage.net/images/2017/04/07/5f46b7b3cc6b6f10548d3da4a91c6e7a.png[/img] [img]http://i.imgur.com/fGu1rKv.png[/img] GENERE: Sentimentale, Fantascienza ANNO: 2017 REGIA: Charlie McDowell SCENEGGIATURA: Charlie McDowell FOTOGRAFIA: Sturla Brandth Grøvlen MONTAGGIO: Jennifer Lilly MUSICHE: Danny Bensi, Saunder Jurriaans PRODUZIONE: Endgame Entertainment, Netflix, Protagonist Pictures DISTRIBUZIONE: Netflix PAESE: USA [img]http://i.imgur.com/W7kBqiE.png[/img] Robert Redford, Rooney Mara, Jason Segel, Riley Keough, Jesse Plemons, Ron Canada, Kateri Demartino [img]http://i.imgur.com/bFK3ggF.png[/img] Un anno dopo che l'esistenza dell'aldilà è stata verificata scientificamente, milioni di persone di ogni parte del mondo hanno posto fine alla propria vita per arrivarci. ............... [img]http://i.imgur.com/48xHWWH.png[/img] Writer-director Charlie McDowell returns to Sundance this year with a thriller about a scientist (played by Robert Redford) who uncovers scientific proof that there is indeed an afterlife. His son is portrayed by Jason Segel, who's not too sure about his father's "discovery", and Rooney Mara plays a mystery woman who has her own reasons for wanting to find out more about the afterlife [img]http://i.imgur.com/K8bfNTy.png[/img] [img]https://extraimage.net/images/2017/04/09/2b75eab5b02f7b888d3d50e6f3df1fea.png[/img] [img]https://extraimage.net/images/2017/04/09/236879c97cd63bf8c5c8c2897999563e.png[/img] [img]https://extraimage.net/images/2017/04/09/3886f67e688ae09a4b125f3099d046cd.png[/img] [img]http://i.imgur.com/aVrMohH.png[/img] [spoiler] General Unique ID : 43809622046675159425896788193631426601 (0x20F56D21AE9D626531582135358E5829) Complete name : La Scoperta - The Discovery (2017).H264.ita.eng.sub.ita.eng.iCV-MIRCrew.mkv Format : Matroska Format version : Version 2 File size : 1.57 GiB Duration : 1h 42mn Overall bit rate : 2 191 Kbps Movie name : www.icv-crew.org Encoded date : UTC 2017-04-05 18:27:58 Writing application : Lavf54.63.100 Writing library : Lavf54.63.100 COPYRIGHT : robbyrs Video ID : 1 Format : AVC Format/Info : Advanced Video Codec Format profile : [email protected] Format settings, CABAC : Yes Format settings, ReFrames : 2 frames Codec ID : V_MPEG4/ISO/AVC Duration : 1h 42mn Bit rate : 1 290 Kbps Width : 720 pixels Height : 304 pixels Display aspect ratio : 2.40:1 Frame rate mode : Variable Frame rate : 23.976 fps Color space : YUV Chroma subsampling : 4:2:0 Bit depth : 8 bits Scan type : Progressive Bits/(Pixel*Frame) : 0.246 Stream size : 917 MiB (57%) Writing library : x264 core 130 r2273 Encoding settings : cabac=1 / ref=2 / deblock=1:0:0 / analyse=0x1:0x131 / me=hex / subme=7 / psy=1 / psy_rd=1.00:0.00 / mixed_ref=0 / me_range=16 / chroma_me=1 / trellis=1 / 8x8dct=0 / cqm=0 / deadzone=21,11 / fast_pskip=1 / chroma_qp_offset=-2 / threads=12 / lookahead_threads=2 / sliced_threads=0 / nr=0 / decimate=1 / interlaced=0 / bluray_compat=0 / constrained_intra=0 / bframes=3 / b_pyramid=0 / b_adapt=1 / b_bias=0 / direct=3 / weightb=1 / open_gop=0 / weightp=2 / keyint=230 / keyint_min=23 / scenecut=40 / intra_refresh=0 / rc_lookahead=40 / rc=2pass / mbtree=1 / bitrate=1290 / ratetol=1.0 / qcomp=0.60 / qpmin=10 / qpmax=69 / qpstep=4 / cplxblur=20.0 / qblur=0.5 / vbv_maxrate=24000 / vbv_bufsize=24000 / nal_hrd=none / ip_ratio=1.40 / aq=1:1.00 Language : Italian Default : Yes Forced : No DURATION : 01:42:22.804000000 NUMBER_OF_FRAMES : 147280 NUMBER_OF_BYTES : 7449434703 _STATISTICS_WRITING_APP : mkvmerge v8.7.0 ('All of the above') 64bit _STATISTICS_WRITING_DATE_UTC : 2017-04-03 13:49:11 _STATISTICS_TAGS : BPS DURATION NUMBER_OF_FRAMES NUMBER_OF_BYTES Audio #1 ID : 2 Format : AC-3 Format/Info : Audio Coding 3 Mode extension : CM (complete main) Codec ID : A_AC3 Duration : 1h 42mn Bit rate mode : Constant Bit rate : 448 Kbps Channel(s) : 6 channels Channel positions : Front: L C R, Side: L R, LFE Sampling rate : 48.0 KHz Bit depth : 16 bits Compression mode : Lossy Delay relative to video : 1mn 5s Stream size : 328 MiB (20%) Title : AC3 ITA Language : Italian Default : Yes Forced : No DURATION : 01:42:22.752000000 NUMBER_OF_FRAMES : 191961 NUMBER_OF_BYTES : 343994112 _STATISTICS_WRITING_APP : mkvmerge v8.7.0 ('All of the above') 64bit _STATISTICS_WRITING_DATE_UTC : 2017-04-03 13:49:11 _STATISTICS_TAGS : BPS DURATION NUMBER_OF_FRAMES NUMBER_OF_BYTES Audio #2 ID : 3 Format : AC-3 Format/Info : Audio Coding 3 Mode extension : CM (complete main) Codec ID : A_AC3 Duration : 1h 42mn Bit rate mode : Constant Bit rate : 448 Kbps Channel(s) : 6 channels Channel positions : Front: L C R, Side: L R, LFE Sampling rate : 48.0 KHz Bit depth : 16 bits Compression mode : Lossy Delay relative to video : 1mn 5s Stream size : 328 MiB (20%) Title : AC3 ENG Language : English Default : No Forced : No DURATION : 01:42:22.752000000 NUMBER_OF_FRAMES : 191961 NUMBER_OF_BYTES : 491420160 _STATISTICS_WRITING_APP : mkvmerge v8.7.0 ('All of the above') 64bit _STATISTICS_WRITING_DATE_UTC : 2017-04-03 13:49:11 _STATISTICS_TAGS : BPS DURATION NUMBER_OF_FRAMES NUMBER_OF_BYTES Text #1 ID : 4 Format : ASS Codec ID : S_TEXT/ASS Codec ID/Info : Advanced Sub Station Alpha Compression mode : Lossless Title : FORCED Language : Italian Default : Yes Forced : No DURATION : 01:41:35.465000000 NUMBER_OF_FRAMES : 10 NUMBER_OF_BYTES : 278 _STATISTICS_WRITING_APP : mkvmerge v8.7.0 ('All of the above') 64bit _STATISTICS_WRITING_DATE_UTC : 2017-04-03 13:49:11 _STATISTICS_TAGS : BPS DURATION NUMBER_OF_FRAMES NUMBER_OF_BYTES Text #2 ID : 5 Format : ASS Codec ID : S_TEXT/ASS Codec ID/Info : Advanced Sub Station Alpha Compression mode : Lossless Title : REGULAR Language : Italian Default : No Forced : No DURATION : 01:41:40.470000000 NUMBER_OF_FRAMES : 1089 NUMBER_OF_BYTES : 43169 _STATISTICS_WRITING_APP : mkvmerge v8.7.0 ('All of the above') 64bit _STATISTICS_WRITING_DATE_UTC : 2017-04-03 13:49:11 _STATISTICS_TAGS : BPS DURATION NUMBER_OF_FRAMES NUMBER_OF_BYTES Text #3 ID : 6 Format : ASS Codec ID : S_TEXT/ASS Codec ID/Info : Advanced Sub Station Alpha Compression mode : Lossless Title : NON UDENTI Language : English Default : No Forced : No DURATION : 01:41:08.438000000 NUMBER_OF_FRAMES : 1204 NUMBER_OF_BYTES : 46668 _STATISTICS_WRITING_APP : mkvmerge v8.7.0 ('All of the above') 64bit _STATISTICS_WRITING_DATE_UTC : 2017-04-03 13:49:11 _STATISTICS_TAGS : BPS DURATION NUMBER_OF_FRAMES NUMBER_OF_BYTES Menu 00:00:00.000 : :00:00:00.000 00:07:05.342 : :00:07:05.342 00:14:28.201 : :00:14:28.201 00:20:13.838 : :00:20:13.838 00:29:27.099 : :00:29:27.099 00:39:02.590 : :00:39:02.590 00:50:56.804 : :00:50:56.804 00:59:52.756 : :00:59:52.756 01:08:53.129 : :01:08:53.129 01:16:19.950 : :01:16:19.950 01:25:27.706 : :01:25:27.706 01:35:23.259 : :01:35:23.259 [/spoiler] [/color][/b][/center]

Liza Minnelli - Live From Radio City Music Hall (1992) [Flac][ TntVillage]

Language: | Size: 434.85 MB | Seed: 67 | Leech: 51

Description:

Artist...............: Liza Minnelli Album................: Live from Radio city Music hall Genre................: Showtunes Source...............: CD Year.................: 1992 Ripper...............: EAC (Secure mode) / LAME 3.92 & Asus CD-S520 Codec................: Free Lossless Audio Codec (FLAC) Version..............: reference libFLAC 1.3.1 20141125 Quality..............: Lossless, (avg. compression: 57 %) Channels.............: Stereo / 44100 HZ / 16 Bit Tags.................: VorbisComment Information..........: TntVillage Ripped by............: Leonenero on 07/04/2017 Posted by............: Leonenero on 08/04/2017 News Server..........: news.astraweb.com News Group(s)........: TNTVILLAGE Included.............: NFO, M3U, LOG, CUE Covers...............: Front Back CD --------------------------------------------------------------------- Tracklisting --------------------------------------------------------------------- 1. Liza Minnelli - stepping out [01:47] 2. Liza Minnelli - i wanna get into the act [04:21] 3. Liza Minnelli - men's medley [12:21] 4. Liza Minnelli - imagine [03:36] 5. Liza Minnelli - Medley our love is here to stay and here i'll stay[05:30] 6. Liza Minnelli - there's no business like show business [00:43] 7. Liza Minnelli - stepping out (reprise) [07:27] 8. Liza Minnelli - new york, new york (theme from) [05:33] 9. Liza Minnelli - overture [00:54] 10. Liza Minnelli - teach me tonight [03:50] 11. Liza Minnelli - old friends [02:10] 12. Liza Minnelli - live alone and like it [03:31] 13. Liza Minnelli - sorry i asked [03:50] 14. Liza Minnelli - so what [04:10] 15. Liza Minnelli - sara lee [03:17] 16. Liza Minnelli - some people [05:10] 17. Liza Minnelli - seeing things [05:53] Playing Time.........: 01:14:10 Total Size...........: 434,59 MB This CD, recorded at the famed Radio City Music Hall, captures Liza at her finest. She has the beauty and energy of youth (46 years old when recorded) combined with the stage maturity required to be in full control

Rogue One - A Star Wars Story (2016).H264.Italian.English.5.1.sub.ita.eng.iCV-MIRCrew

Language: | Size: 2.05 GB | Seed: 0 | Leech: 3

Description:

Rogue One - A Star Wars Story (2016).H264.Italian.English.5.1.sub.ita.eng.iCV-MIRCrew [center] [color=red][b][img]http://s23.postimg.org/b9yhws27f/0sc_Del1.png[/img] [u]NO FOUND ONLY ORIGINAL RELEASE[/u] [img]http://i.imgur.com/GDNQx1Z.png[/img] My release is always in double track audio italian and Original audio for select it use VLC or dvd player home not use wmp Rogue One a Star Wars Story (2016) Audio 5.1 [img]https://extraimage.net/images/2017/04/09/d0afdcd9195f947d5bf124e31008af87.png[/img] [URL=http://www.imdb.com/title/tt3748528/][IMG]http://www.userlogos.org/files/logos/Sucka/imdb_new.png[/img][/URL] [img]http://i.imgur.com/fGu1rKv.png[/img] Lingua originale inglese Paese di produzione Stati Uniti d'America Anno 2016 Durata 133 minuti Rapporto 2.35:1 Genere fantascienza, azione Regia Gareth Edwards Soggetto John Knoll, Gary Whitta Sceneggiatura Chris Weitz, Tony Gilroy Produttore Kathleen Kennedy, Allison Shearmur, Simon Emanuel Produttore esecutivo John Knoll, Jason D. McGatlin Casa di produzione Lucasfilm Distribuzione (Italia) Walt Disney Studios Motion Pictures Fotografia Greig Fraser Montaggio Jabez Olssen, John Gilroy, Colin Goudie Effetti speciali Neil Corbould, John Knoll Musiche Michael Giacchino Scenografia Doug Chiang, Neil Lamont [img]http://i.imgur.com/W7kBqiE.png[/img] Felicity Jones: Jyn Erso Diego Luna: Cassian Andor Ben Mendelsohn: Orson Krennic Donnie Yen: Chirrut Îmwe Mads Mikkelsen: Galen Erso Alan Tudyk: K-2SO Riz Ahmed: Bodhi Rook Jiang Wen: Baze Malbus Forest Whitaker: Saw Gerrera [img]http://i.imgur.com/bFK3ggF.png[/img] Lo scienziato Galen Erso, dopo aver lavorato per anni per l'Impero Galattico, si è ritirato sul pianeta Lah'mu, dove vive insieme alla moglie Lyra e alla figlia Jyn Erso. Erso viene raggiunto dal Direttore Imperiale Orson Krennic, che uccide Lyra e costringe lo scienziato a completare la progettazione della Morte Nera, una grande stazione spaziale capace di distruggere interi pianeti.............. [img]http://i.imgur.com/48xHWWH.png[/img] The Rebel Alliance makes a risky move to steal the plans for the Death Star, setting up the epic saga to follow. [img]http://i.imgur.com/K8bfNTy.png[/img] [img]https://extraimage.net/images/2017/04/09/61ccd495fac3cdd3c12b40213fa937c5.png[/img] [img]https://extraimage.net/images/2017/04/09/1401827ec3e099e70075cd4ed24d0507.png[/img] [img]https://extraimage.net/images/2017/04/09/635edf06c0ea64f6afcf33af8a080d8c.png[/img] [img]http://i.imgur.com/aVrMohH.png[/img] [spoiler] General Unique ID : 64705241882886927540698159871491071175 (0x30ADC6BAF2CE3B036288837D42F85CC7) Complete name : Rogue One A Star Wars Story (2016).H246.ita.eng.sub.ita.eng.iCV-MIRCrew.mkv Format : Matroska Format version : Version 2 File size : 2.05 GiB Duration : 2h 13mn Overall bit rate : 2 191 Kbps Movie name : www.icv-crew.org Encoded date : UTC 2017-04-07 21:01:11 Writing application : Lavf54.63.100 Writing library : Lavf54.63.100 COPYRIGHT : robbyrs Video ID : 1 Format : AVC Format/Info : Advanced Video Codec Format profile : [email protected] Format settings, CABAC : Yes Format settings, ReFrames : 2 frames Codec ID : V_MPEG4/ISO/AVC Duration : 2h 13mn Bit rate : 1 290 Kbps Width : 720 pixels Height : 300 pixels Display aspect ratio : 2.40:1 Frame rate mode : Variable Frame rate : 23.976 fps Color space : YUV Chroma subsampling : 4:2:0 Bit depth : 8 bits Scan type : Progressive Bits/(Pixel*Frame) : 0.249 Stream size : 1.17 GiB (57%) Writing library : x264 core 130 r2273 Encoding settings : cabac=1 / ref=2 / deblock=1:0:0 / analyse=0x1:0x131 / me=hex / subme=7 / psy=1 / psy_rd=1.00:0.00 / mixed_ref=0 / me_range=16 / chroma_me=1 / trellis=1 / 8x8dct=0 / cqm=0 / deadzone=21,11 / fast_pskip=1 / chroma_qp_offset=-2 / threads=12 / lookahead_threads=2 / sliced_threads=0 / nr=0 / decimate=1 / interlaced=0 / bluray_compat=0 / constrained_intra=0 / bframes=3 / b_pyramid=0 / b_adapt=1 / b_bias=0 / direct=3 / weightb=1 / open_gop=0 / weightp=2 / keyint=230 / keyint_min=23 / scenecut=40 / intra_refresh=0 / rc_lookahead=40 / rc=2pass / mbtree=1 / bitrate=1290 / ratetol=1.0 / qcomp=0.60 / qpmin=10 / qpmax=69 / qpstep=4 / cplxblur=20.0 / qblur=0.5 / vbv_maxrate=24000 / vbv_bufsize=24000 / nal_hrd=none / ip_ratio=1.40 / aq=1:1.00 Language : Italian Default : Yes Forced : No DURATION : 02:13:57.280000000 NUMBER_OF_FRAMES : 192702 NUMBER_OF_BYTES : 9800263639 _STATISTICS_WRITING_APP : mkvmerge v8.7.0 ('All of the above') 64bit _STATISTICS_WRITING_DATE_UTC : 2017-04-07 09:53:06 _STATISTICS_TAGS : BPS DURATION NUMBER_OF_FRAMES NUMBER_OF_BYTES Audio #1 ID : 2 Format : AC-3 Format/Info : Audio Coding 3 Mode extension : CM (complete main) Codec ID : A_AC3 Duration : 2h 13mn Bit rate mode : Constant Bit rate : 448 Kbps Channel(s) : 6 channels Channel positions : Front: L C R, Side: L R, LFE Sampling rate : 48.0 KHz Bit depth : 16 bits Compression mode : Lossy Delay relative to video : 1mn 5s Stream size : 429 MiB (20%) Title : AC3 ITA Language : Italian Default : No Forced : No DURATION : 02:13:57.312000000 NUMBER_OF_FRAMES : 251166 NUMBER_OF_BYTES : 642984960 _STATISTICS_WRITING_APP : mkvmerge v8.7.0 ('All of the above') 64bit _STATISTICS_WRITING_DATE_UTC : 2017-04-07 09:53:06 _STATISTICS_TAGS : BPS DURATION NUMBER_OF_FRAMES NUMBER_OF_BYTES Audio #2 ID : 3 Format : AC-3 Format/Info : Audio Coding 3 Mode extension : CM (complete main) Codec ID : A_AC3 Duration : 2h 13mn Bit rate mode : Constant Bit rate : 448 Kbps Channel(s) : 6 channels Channel positions : Front: L C R, Side: L R, LFE Sampling rate : 48.0 KHz Bit depth : 16 bits Compression mode : Lossy Delay relative to video : 1mn 5s Stream size : 429 MiB (20%) Title : AC3 ENG Language : English Default : No Forced : No DURATION : 02:13:57.280000000 NUMBER_OF_FRAMES : 251165 NUMBER_OF_BYTES : 642982400 _STATISTICS_WRITING_APP : mkvmerge v8.7.0 ('All of the above') 64bit _STATISTICS_WRITING_DATE_UTC : 2017-04-07 09:53:06 _STATISTICS_TAGS : BPS DURATION NUMBER_OF_FRAMES NUMBER_OF_BYTES Text #1 ID : 4 Format : ASS Codec ID : S_TEXT/ASS Codec ID/Info : Advanced Sub Station Alpha Compression mode : Lossless Title : FORCED Language : Italian Default : Yes Forced : No DURATION : 01:23:25.881000000 NUMBER_OF_FRAMES : 16 NUMBER_OF_BYTES : 470 _STATISTICS_WRITING_APP : mkvmerge v8.7.0 ('All of the above') 64bit _STATISTICS_WRITING_DATE_UTC : 2017-04-07 09:53:06 _STATISTICS_TAGS : BPS DURATION NUMBER_OF_FRAMES NUMBER_OF_BYTES Text #2 ID : 5 Format : ASS Codec ID : S_TEXT/ASS Codec ID/Info : Advanced Sub Station Alpha Compression mode : Lossless Title : REGULAR Language : Italian Default : No Forced : No DURATION : 02:05:23.982000000 NUMBER_OF_FRAMES : 1502 NUMBER_OF_BYTES : 44129 _STATISTICS_WRITING_APP : mkvmerge v8.7.0 ('All of the above') 64bit _STATISTICS_WRITING_DATE_UTC : 2017-04-07 09:53:06 _STATISTICS_TAGS : BPS DURATION NUMBER_OF_FRAMES NUMBER_OF_BYTES Text #3 ID : 6 Format : ASS Codec ID : S_TEXT/ASS Codec ID/Info : Advanced Sub Station Alpha Compression mode : Lossless Title : FORCED Language : English Default : No Forced : No DURATION : 00:25:37.579000000 NUMBER_OF_FRAMES : 9 NUMBER_OF_BYTES : 227 _STATISTICS_WRITING_APP : mkvmerge v8.7.0 ('All of the above') 64bit _STATISTICS_WRITING_DATE_UTC : 2017-04-07 09:53:06 _STATISTICS_TAGS : BPS DURATION NUMBER_OF_FRAMES NUMBER_OF_BYTES Text #4 ID : 7 Format : ASS Codec ID : S_TEXT/ASS Codec ID/Info : Advanced Sub Station Alpha Compression mode : Lossless Title : REGULAR Language : English Default : No Forced : No DURATION : 02:05:27.394000000 NUMBER_OF_FRAMES : 1830 NUMBER_OF_BYTES : 51608 _STATISTICS_WRITING_APP : mkvmerge v8.7.0 ('All of the above') 64bit _STATISTICS_WRITING_DATE_UTC : 2017-04-07 09:53:06 _STATISTICS_TAGS : BPS DURATION NUMBER_OF_FRAMES NUMBER_OF_BYTES Menu 00:00:00.000 : :"He's Come For Us" 00:02:34.654 : :Unfinished Business 00:07:46.466 : :Jyn In Prison 00:08:42.814 : :Ring Of Kafrene 00:11:04.622 : :An Urgent Message 00:12:21.199 : :Wobani Prison Break 00:13:41.154 : :Rebel Interrogation 00:17:19.914 : :Mission Departure 00:20:09.542 : :Saw Gerrera 00:21:54.772 : :Krennic And Tarkin 00:23:47.092 : :Jyn's Dream 00:24:31.386 : :Scouting Jedha City 00:26:53.445 : :Bor Gullet 00:27:46.623 : :Guardians Of The Whills 00:30:37.294 : :Holy City Ambush 00:33:53.406 : :"Let Them Pass" 00:37:11.271 : :Saw's Catacombs 00:42:30.089 : :Galen's Message 00:47:16.125 : :Jedha Escape 00:51:04.144 : :Tarkin Commands 00:52:23.724 : :Race To Eadu 00:55:53.266 : :Eadu Crash 00:59:48.251 : :Scouting Eadu 01:02:07.807 : :Krennic And Galen 01:05:25.505 : :Attack On Eadu 01:10:24.095 : :Eadu Aftermath 01:12:49.532 : :Mustafar 01:16:28.459 : :Jyn Before The Council 01:19:04.323 : :"May The Force Be With Us" 01:21:55.160 : :Rogue One Launches 01:23:25.667 : :Scarif Gate 01:25:58.987 : :10 Men Like 100 01:27:34.958 : :Imperial Inspection 01:29:57.308 : :Ground Forces 01:31:53.841 : :The Battle Begins 01:34:18.736 : :Scrambling The Rebel Fleet 01:36:07.512 : :Sowing Confusion 01:37:48.237 : :Rebel Reinforcements 01:40:27.605 : :Beach Battle 01:42:44.074 : :Master Switch 01:45:26.779 : :Stardust 01:47:55.010 : :Data Vault 01:50:31.416 : :Sacrifices 01:53:28.885 : :"We Have The Plans" 01:55:46.272 : :Final Confrontation 01:59:23.448 : :Transmission Received 02:01:11.347 : :Fire When Ready 02:03:15.596 : :Hope 02:05:42.118 : :End Credits [/spoiler] [/b][/center][/color]

The Greatest Story Ever Told - La Più Grande Storia mai Raccontata (1965) [DVD9 - Ita Eng 5.1 - Ita Eng Subs]

Language: | Size: 7.59 GB | Seed: 17 | Leech: 7

Description:

Original Cover & Original DVD9 by JackieALF Titolo originale: The Greatest Story Ever Told Nazione: Usa Anno: 1965 Genere: Biblico, Religioso, Drammatico Durata: 190' Regia: George Stevens Cast: Max von Sydow -> Gesù Charlton Heston -> Giovanni il Battista José Ferrer -> Erode Antipa Claude Rains -> Re Erode Dorothy McGuire -> Vergine Maria Telly Savalas -> Ponzio Pilato Donald Pleasence -> L'eremita nero Marian Seldes -> Erodiade David McCallum -> Giuda Iscariota Abraham Sofaer -> Giuseppe D'Arimatea Van Heflin -> Bar Amand Victor Buono -> Sorak John Considine -> Giovanni Gary Raymond -> Pietro David Hedison -> Filippo Richard Bakalyan -> Ladro buono in Croce Produzione: George Stevens Production Data di uscita: 1965 Trama Un tema grandioso, sviluppato con rispetto e ammirevole misura per un colossal che ripercorre la vita di Gesù di Nazareth, dalla Sua umilissima nascita agli anni dell’insegnamento, dalla Crocifissione fino alla Resurrezione. Questo film, costato venti milioni di dollari, cifra enorme per l’epoca, nel 1965 ha ricevuto ben cinque nomination agli Oscar. Il film ricalca la vita di Gesù, fedele alla narrazione dei quattro vangeli ed inizia con l'arrivo dei magi. Poi continua con l'ira di Erode il grande, l'adorazione dei magi nella grotta di Betlemme, la strage degli innocenti, la fuga in Egitto, le rivolte dei giudei in Gerusalemme dopo la morte di Erode represse nel sangue dalle legioni romane, il battesimo di Gesù nel fiume Giordano, i discepoli, la predicazione e i miracoli, la morte di Giovanni Battista, la resurrezione di Lazzaro, l'entrata trionfale a Gerusalemme di Gesù, la cacciata dei mercanti dal Tempio, l'ultima cena, il tradimento di Giuda Iscariota, la preghiera all'orto del Getsemani, l'arresto, il processo dinanzi Caifa, Ponzio Pilato ed Erode Antipa, la via al Calvario, la crocifissione insieme a due ladroni, la deposizione nel sepolcro ed, infine, l'annuncio del risorto agli apostoli.

Tiramisù (2015), [XviD - Ita Ac3 - Sub Ita Eng][Tnt]

Language: | Size: 1.47 GB | Seed: 1 | Leech: 5

Description:

Antonio è un rappresentante di materiale sanitario che fatica a piazzare i propri prodotti, consumandosi in lunghe attese nelle sale d'aspetto dei medici di base e nei corridoi degli ospedali. È sposato ad Aurora, bellissima docente con il dono per la cucina: il suo tiramisù è imbattibile. Quando il cognato Franco, manager di successo nel campo della moda e cinico osservatore della natura umana, insinua che il rapporto fra la sorella e suo marito non durerà per sempre perché lei si renderà prima o poi conto di aver sposato un buono a nulla (per giunta afflitto da spermatozoi pigri), Antonio decide di adottare la visione disincantata di Franco e di gettare alle ortiche ogni etica e codice morale, utilizzando il tiramisù della moglie come efficace biglietto da visita per la sua clientela. Fabio De Luigi debutta alla regia con questa commedia da lui stesso scritta e interpretata, prodotta da Maurizio Totti e popolata da molte facce note della scuderia Colorado. Purtroppo però De Luigi, come recita una battuta del film, ha visto (e fatto) troppa televisione, e questa storia di frustrazioni e riscatti rimane solidamente ancorata al linguaggio, alle ambientazioni e ai caratteri del piccolo schermo. -------- Titolo Originale: Tiramisù Nazionalità: Italia Anno: 2015 Data di uscita: Febbraio 2016 Genere: Commedia Regia: Fabio De Luigi Distribuzione: Medusa Dimensione del file: 1.46 Gb Formato del file: Avi

Rogue One - A Star Wars Story (2016).720p.H264.Italian.English.5.1.sub.ita.eng.iCV-MIRCrew

Language: | Size: 3.65 GB | Seed: 1 | Leech: 40

Description:

Rogue One - A Star Wars Story (2016).720p.H264.Italian.English.5.1.sub.ita.eng.iCV-MIRCrew [center] [color=red][b][img]http://s23.postimg.org/b9yhws27f/0sc_Del1.png[/img] [u]NO FOUND ONLY ORIGINAL RELEASE[/u] [img]http://i.imgur.com/GDNQx1Z.png[/img] My release is always in double track audio italian and Original audio for select it use VLC or dvd player home not use wmp Rogue One a Star Wars Story (2016) Audio 5.1 [img]https://extraimage.net/images/2017/04/09/d0afdcd9195f947d5bf124e31008af87.png[/img] [URL=http://www.imdb.com/title/tt3748528/][IMG]http://www.userlogos.org/files/logos/Sucka/imdb_new.png[/img][/URL] [img]http://i.imgur.com/fGu1rKv.png[/img] Lingua originale inglese Paese di produzione Stati Uniti d'America Anno 2016 Durata 133 minuti Rapporto 2.35:1 Genere fantascienza, azione Regia Gareth Edwards Soggetto John Knoll, Gary Whitta Sceneggiatura Chris Weitz, Tony Gilroy Produttore Kathleen Kennedy, Allison Shearmur, Simon Emanuel Produttore esecutivo John Knoll, Jason D. McGatlin Casa di produzione Lucasfilm Distribuzione (Italia) Walt Disney Studios Motion Pictures Fotografia Greig Fraser Montaggio Jabez Olssen, John Gilroy, Colin Goudie Effetti speciali Neil Corbould, John Knoll Musiche Michael Giacchino Scenografia Doug Chiang, Neil Lamont [img]http://i.imgur.com/W7kBqiE.png[/img] Felicity Jones: Jyn Erso Diego Luna: Cassian Andor Ben Mendelsohn: Orson Krennic Donnie Yen: Chirrut Îmwe Mads Mikkelsen: Galen Erso Alan Tudyk: K-2SO Riz Ahmed: Bodhi Rook Jiang Wen: Baze Malbus Forest Whitaker: Saw Gerrera [img]http://i.imgur.com/bFK3ggF.png[/img] Lo scienziato Galen Erso, dopo aver lavorato per anni per l'Impero Galattico, si è ritirato sul pianeta Lah'mu, dove vive insieme alla moglie Lyra e alla figlia Jyn Erso. Erso viene raggiunto dal Direttore Imperiale Orson Krennic, che uccide Lyra e costringe lo scienziato a completare la progettazione della Morte Nera, una grande stazione spaziale capace di distruggere interi pianeti.............. [img]http://i.imgur.com/48xHWWH.png[/img] The Rebel Alliance makes a risky move to steal the plans for the Death Star, setting up the epic saga to follow. [img]http://i.imgur.com/K8bfNTy.png[/img] [url=https://extraimage.net/image/2AUB][img]https://extraimage.net/images/2017/04/09/ed71876103a90f33cde143f1a26d0c0e.th.png[/img][/url] [url=https://extraimage.net/image/2AUC][img]https://extraimage.net/images/2017/04/09/a1b59c51d3abfa19309fd853a2b37dcd.th.png[/img][/url] [url=https://extraimage.net/image/2AUY][img]https://extraimage.net/images/2017/04/09/b683860b5508cef236f22cdded0d294b.th.png[/img][/url] [url=https://extraimage.net/image/2AUp][img]https://extraimage.net/images/2017/04/09/7a5340c9b84a0a1b86595984b6616b09.th.png[/img][/url] [img]http://i.imgur.com/aVrMohH.png[/img] [spoiler] General Unique ID : 131446593262021633638918178523619138596 (0x62E3B168C847BC304F38328D2E8E1C24) Complete name : Rogue One A Star Wars Story (2016).720p.H264.ita.eng.sub.ita.eng.iCV-MIRCrew.mkv Format : Matroska Format version : Version 2 File size : 3.65 GiB Duration : 2h 13mn Overall bit rate : 3 901 Kbps Movie name : www.icv-crew.org Encoded date : UTC 2017-04-07 15:50:37 Writing application : Lavf54.63.100 Writing library : Lavf54.63.100 COPYRIGHT : robbyrs Video ID : 1 Format : AVC Format/Info : Advanced Video Codec Format profile : [email protected] Format settings, CABAC : Yes Format settings, ReFrames : 2 frames Codec ID : V_MPEG4/ISO/AVC Duration : 2h 13mn Bit rate : 3 000 Kbps Width : 1 728 pixels Height : 720 pixels Display aspect ratio : 2.40:1 Frame rate mode : Variable Frame rate : 23.976 fps Color space : YUV Chroma subsampling : 4:2:0 Bit depth : 8 bits Scan type : Progressive Bits/(Pixel*Frame) : 0.101 Stream size : 2.74 GiB (75%) Writing library : x264 core 130 r2273 Encoding settings : cabac=1 / ref=2 / deblock=1:0:0 / analyse=0x1:0x131 / me=hex / subme=7 / psy=1 / psy_rd=1.00:0.00 / mixed_ref=0 / me_range=16 / chroma_me=1 / trellis=1 / 8x8dct=0 / cqm=0 / deadzone=21,11 / fast_pskip=1 / chroma_qp_offset=-2 / threads=12 / lookahead_threads=2 / sliced_threads=0 / nr=0 / decimate=1 / interlaced=0 / bluray_compat=0 / constrained_intra=0 / bframes=3 / b_pyramid=0 / b_adapt=1 / b_bias=0 / direct=3 / weightb=1 / open_gop=0 / weightp=2 / keyint=230 / keyint_min=23 / scenecut=40 / intra_refresh=0 / rc_lookahead=40 / rc=2pass / mbtree=1 / bitrate=3000 / ratetol=1.0 / qcomp=0.60 / qpmin=10 / qpmax=69 / qpstep=4 / cplxblur=20.0 / qblur=0.5 / vbv_maxrate=24000 / vbv_bufsize=24000 / nal_hrd=none / ip_ratio=1.40 / aq=1:1.00 Language : English Default : Yes Forced : No DURATION : 02:13:57.280000000 NUMBER_OF_FRAMES : 192702 NUMBER_OF_BYTES : 9800263639 _STATISTICS_WRITING_APP : mkvmerge v8.7.0 ('All of the above') 64bit _STATISTICS_WRITING_DATE_UTC : 2017-04-07 09:53:06 _STATISTICS_TAGS : BPS DURATION NUMBER_OF_FRAMES NUMBER_OF_BYTES Audio #1 ID : 2 Format : AC-3 Format/Info : Audio Coding 3 Mode extension : CM (complete main) Codec ID : A_AC3 Duration : 2h 13mn Bit rate mode : Constant Bit rate : 448 Kbps Channel(s) : 6 channels Channel positions : Front: L C R, Side: L R, LFE Sampling rate : 48.0 KHz Bit depth : 16 bits Compression mode : Lossy Delay relative to video : 1mn 5s Stream size : 429 MiB (11%) Title : AC3 ITA Language : Italian Default : No Forced : No DURATION : 02:13:57.312000000 NUMBER_OF_FRAMES : 251166 NUMBER_OF_BYTES : 642984960 _STATISTICS_WRITING_APP : mkvmerge v8.7.0 ('All of the above') 64bit _STATISTICS_WRITING_DATE_UTC : 2017-04-07 09:53:06 _STATISTICS_TAGS : BPS DURATION NUMBER_OF_FRAMES NUMBER_OF_BYTES Audio #2 ID : 3 Format : AC-3 Format/Info : Audio Coding 3 Mode extension : CM (complete main) Codec ID : A_AC3 Duration : 2h 13mn Bit rate mode : Constant Bit rate : 448 Kbps Channel(s) : 6 channels Channel positions : Front: L C R, Side: L R, LFE Sampling rate : 48.0 KHz Bit depth : 16 bits Compression mode : Lossy Delay relative to video : 1mn 5s Stream size : 429 MiB (11%) Title : AC3 ENG Language : English Default : No Forced : No DURATION : 02:13:57.280000000 NUMBER_OF_FRAMES : 251165 NUMBER_OF_BYTES : 642982400 _STATISTICS_WRITING_APP : mkvmerge v8.7.0 ('All of the above') 64bit _STATISTICS_WRITING_DATE_UTC : 2017-04-07 09:53:06 _STATISTICS_TAGS : BPS DURATION NUMBER_OF_FRAMES NUMBER_OF_BYTES Text #1 ID : 4 Format : ASS Codec ID : S_TEXT/ASS Codec ID/Info : Advanced Sub Station Alpha Compression mode : Lossless Title : FORCED Language : Italian Default : Yes Forced : No DURATION : 01:23:25.881000000 NUMBER_OF_FRAMES : 16 NUMBER_OF_BYTES : 470 _STATISTICS_WRITING_APP : mkvmerge v8.7.0 ('All of the above') 64bit _STATISTICS_WRITING_DATE_UTC : 2017-04-07 09:53:06 _STATISTICS_TAGS : BPS DURATION NUMBER_OF_FRAMES NUMBER_OF_BYTES Text #2 ID : 5 Format : ASS Codec ID : S_TEXT/ASS Codec ID/Info : Advanced Sub Station Alpha Compression mode : Lossless Title : REGULAR Language : Italian Default : No Forced : No DURATION : 02:05:23.982000000 NUMBER_OF_FRAMES : 1502 NUMBER_OF_BYTES : 44129 _STATISTICS_WRITING_APP : mkvmerge v8.7.0 ('All of the above') 64bit _STATISTICS_WRITING_DATE_UTC : 2017-04-07 09:53:06 _STATISTICS_TAGS : BPS DURATION NUMBER_OF_FRAMES NUMBER_OF_BYTES Text #3 ID : 6 Format : ASS Codec ID : S_TEXT/ASS Codec ID/Info : Advanced Sub Station Alpha Compression mode : Lossless Title : FORCED Language : English Default : No Forced : No DURATION : 00:25:37.579000000 NUMBER_OF_FRAMES : 9 NUMBER_OF_BYTES : 227 _STATISTICS_WRITING_APP : mkvmerge v8.7.0 ('All of the above') 64bit _STATISTICS_WRITING_DATE_UTC : 2017-04-07 09:53:06 _STATISTICS_TAGS : BPS DURATION NUMBER_OF_FRAMES NUMBER_OF_BYTES Text #4 ID : 7 Format : ASS Codec ID : S_TEXT/ASS Codec ID/Info : Advanced Sub Station Alpha Compression mode : Lossless Title : REGULAR Language : English Default : No Forced : No DURATION : 02:05:27.394000000 NUMBER_OF_FRAMES : 1830 NUMBER_OF_BYTES : 51608 _STATISTICS_WRITING_APP : mkvmerge v8.7.0 ('All of the above') 64bit _STATISTICS_WRITING_DATE_UTC : 2017-04-07 09:53:06 _STATISTICS_TAGS : BPS DURATION NUMBER_OF_FRAMES NUMBER_OF_BYTES Menu 00:00:00.000 : :"He's Come For Us" 00:02:34.654 : :Unfinished Business 00:07:46.466 : :Jyn In Prison 00:08:42.814 : :Ring Of Kafrene 00:11:04.622 : :An Urgent Message 00:12:21.199 : :Wobani Prison Break 00:13:41.154 : :Rebel Interrogation 00:17:19.914 : :Mission Departure 00:20:09.542 : :Saw Gerrera 00:21:54.772 : :Krennic And Tarkin 00:23:47.092 : :Jyn's Dream 00:24:31.386 : :Scouting Jedha City 00:26:53.445 : :Bor Gullet 00:27:46.623 : :Guardians Of The Whills 00:30:37.294 : :Holy City Ambush 00:33:53.406 : :"Let Them Pass" 00:37:11.271 : :Saw's Catacombs 00:42:30.089 : :Galen's Message 00:47:16.125 : :Jedha Escape 00:51:04.144 : :Tarkin Commands 00:52:23.724 : :Race To Eadu 00:55:53.266 : :Eadu Crash 00:59:48.251 : :Scouting Eadu 01:02:07.807 : :Krennic And Galen 01:05:25.505 : :Attack On Eadu 01:10:24.095 : :Eadu Aftermath 01:12:49.532 : :Mustafar 01:16:28.459 : :Jyn Before The Council 01:19:04.323 : :"May The Force Be With Us" 01:21:55.160 : :Rogue One Launches 01:23:25.667 : :Scarif Gate 01:25:58.987 : :10 Men Like 100 01:27:34.958 : :Imperial Inspection 01:29:57.308 : :Ground Forces 01:31:53.841 : :The Battle Begins 01:34:18.736 : :Scrambling The Rebel Fleet 01:36:07.512 : :Sowing Confusion 01:37:48.237 : :Rebel Reinforcements 01:40:27.605 : :Beach Battle 01:42:44.074 : :Master Switch 01:45:26.779 : :Stardust 01:47:55.010 : :Data Vault 01:50:31.416 : :Sacrifices 01:53:28.885 : :"We Have The Plans" 01:55:46.272 : :Final Confrontation 01:59:23.448 : :Transmission Received 02:01:11.347 : :Fire When Ready 02:03:15.596 : :Hope 02:05:42.118 : :End Credits [/spoiler] [/b][/center][/color]

Thegiornalisti - Completamente Sold Out (2016)

Language: | Size: 95.31 MB | Seed: 1 | Leech: 0

Description:

Tracklist: 1. Completamente 2. Sold Out 3. Tra la strada e le stelle 4. L'ultimo grido della notte 5. Sbagliare a vivere 6. Gli alberi 7. Fatto di te 8. Non odiarmi 9. Il tuo maglione mio 10. Disperato 11. Vieni e cambiami la vita

Deep Purple inFinite [2017] FLAC CD

Language: | Size: 416.46 MB | Seed: 350 | Leech: 70

Description:

----------------------------------------------------------------------------------- ::: Deep_Purple-Infinite-CD-FLAC-2017-RiBS + MP3-VBRV0-CD ::: ----------------------------------------------------------------------------------- http://www.deeppurple-infinite.com - DP --------- in scene we trust ----------- MFT ----------------------------------------------------------------------------------- https://itunes.apple.com/au/album/infinite/id1186198258 :::: iTunes Album Info :::: ----------------------------------------------------------------------------------- https://thepiratebay.org/torrent/17485201/Deep_Purple_3_EP_[2017]_CDRIP ::: EPs 3CD ------------------------------------------------------------------------------ 1914

Ed Sheeran Divide [2017] FLAC ÷ CD

Language: | Size: 468.79 MB | Seed: 180 | Leech: 24

Description:

-------------------------------------------------------------------- Ed_Sheeran-Divide-(Deluxe_Edition)-2017-RiBS ==================================================================== FLAC + MP3-V0-CD Ed_Sheeran-Divide-Deluxe_Edition-CD-FLAC-2017-RiBS -------------------------------------------------------------------- https://itunes.apple.com/us/album/deluxe/id1193701079 ::: Album Info ==================================================================== MFT ▀▀▀▀▀▀▀▀▀▀▀▀▀▀▀▀▀▀▀▀▀▀▀▀▀▀▀▀▀▀▀▀▀▀▀▀▀▀▀▀▀▀▀▀▀▀▀▀▀▀▀▀▀▀▀▀▀▀▀▀▀▀▀▀ IF YOU LIKE THIS RELEASE THEN GO TO THE STORE AND STEAL THE ORIGINAL ---------------------------------------------------- CAPAJEBO © 1914 ▀▀▀▀▀▀▀▀▀▀▀▀▀▀▀▀▀▀▀▀▀▀▀▀▀▀▀▀▀▀▀▀▀▀▀▀▀▀▀▀▀▀▀▀▀▀▀▀▀▀▀▀▀▀▀▀▀▀▀▀▀▀▀▀▀▀▀▀

Frank Zappa Little Dots 2016 FLAC CD

Language: | Size: 440.19 MB | Seed: 100 | Leech: 0

Description:

------------------------------------------------------------------------------ https://z0x.us/v23734 : Frank_Zappa-Little_Dots-CD-FLAC-2016-NBFLAC : TPB 1914 ------------------------------------------------------------------------------ http://www.zappa.com/music/little-dots - Info ---------------------------- MFT Label ...: Zappa Records - ZR20026, UMe ...................................... Format ..: FLAC, CD, Album ................................................... Country .: US ................................................................ Released.: 04 Nov 2016 ....................................................... Genre ...: Jazz, Rock ........................................................ Style ...: Prog Rock, Fusion ................................................. --------------------------------------------------------------------- CAPAJEBO

Jamiroquai Automaton [2017] FLAC CD

Language: | Size: 473.12 MB | Seed: 214 | Leech: 48

Description:

https://img42.com/9gx4a Jamiroquai-Automaton-CD-FLAC-2017-RiBS + MP3-VBRV0-CD-1914 https://itunes.apple.com/us/album/automaton/id1197528605 ::: Album Info MFT

Body Count Bloodlust [2017] FLAC CD

Language: | Size: 389.37 MB | Seed: 59 | Leech: 14

Description:

----------------------------------------------------------------------------------- https://img42.com/W53RM : Body_Count-Bloodlust-CD-FLAC-2017-RiBS + MP3-VBRV0-CD-1914 ----------------------------------------------------------------------------------- https://itunes.apple.com/us/album/bloodlust/id1201912007 iTunes Album Info ::: MFT ----------------------------------------------------------------------------------- http://bodycountband.com ::: official site ::: ----------------------- ::: CAPAJEBO

Depeche Mode Spirit Deluxe Edition [2017] FLAC CD

Language: | Size: 595.61 MB | Seed: 801 | Leech: 21

Description:

https://img42.com/Eo3I8 : Depeche Mode Spirit DELUXE [2017] FLAC CD Depeche_Mode-Spirit-Deluxe_Edition-2CD-FLAC-2017-RiBS + MP3VBRV0-CD https://itunes.apple.com/us/album/spirit-deluxe/id1199983730 : Info =================================================================== ET .▀▀▀▀▀▀▀▀▀▀▀▀▀▀▀▀▀▀▀▀▀▀▀▀▀▀▀▀▀▀▀▀▀▀▀▀▀▀▀▀▀▀▀▀▀▀▀▀▀▀▀▀▀▀▀▀▀▀▀▀▀▀▀ IF YOU LIKE THIS RELEASE THEN GO TO THE STORE AND STEAL THE ORIGINAL.. MFT CAPAJEBO © 1914 ▀▀▀▀▀▀▀▀▀▀▀▀▀▀▀▀▀▀▀▀▀▀▀▀▀▀▀▀▀▀▀▀▀▀▀▀▀▀▀▀▀▀▀▀▀▀▀▀▀▀▀▀▀▀▀▀▀▀▀▀▀▀▀▀▀▀▀

TOOL DISCOGRAPHY FLAC CD

Language: | Size: 2.86 GB | Seed: 59 | Leech: 6

Description:

========================================================== https://dbr.ee/wXP9 TOOL FLAC CD "IN SCENE WE TRUST" 1914 ---------------------------------------------------------- https://en.wikipedia.org/wiki/Tool_discography TOOL Info ========================================================== Tool-72826-[Remastered]-FLAC-1991-ACAB ................... Tool-Opiate-CDEP-FLAC-1992-SCORN ......................... Tool-Undertow-CD-FLAC-1993-SCORN ......................... Tool-Sober_-_Tales_From_The_Darkside-CDS-FLAC-1994-FlacoFF Tool-Aenima-CD-FLAC-1996-SCORN ........................... Tool-Salival-CD-FLAC-2000-DeVOiD ......................... Tool-Lateralus-CD-FLAC-2001-SCORN ........................ Tool-10000_Days-CD-FLAC-2006-SCORN ....................... ========================================================== ---------------- SRETAN ROĐENDAN BURAZ --------------- MFT ==========================================================

The Passion of the Christ - La Passione di Cristo (2004) [DVD9 - Aramaic Ac3/Dts5.1 - Ita Eng Subs]

Language: | Size: 6.09 GB | Seed: 0 | Leech: 7

Description:

Titolo originale: The Passion of the Christ Nazione: Usa Anno: 2004 Genere: Biblico, Religioso, Drammatico Durata: 120' Regia: Mel Gibson Cast: Jim Caviezel -> Gesù Maia Morgenstern -> Maria Monica Bellucci -> Maria Maddalena Rosalinda Celentano -> Satana Sergio Rubini -> Disma Francesco Cabras -> Gesta Hristo Jivkov -> Giovanni Francesco De Vito -> Pietro Angelo Di Loreta -> l'accusatore Hristo Shopov -> Ponzio Pilato Andrea Refuto -> Gesù da Giovane Hafedh Khalifa -> San Giacomo Produzione: Icon Productions, Quinta Communications Fotografia: Mario Montuori Distribuzione: Caleb Deschanel Data di uscita: 2004 Trama La vicenda si concentra sulle ultime ore di vita di Gesù Cristo, dall'arresto nell'Orto degli Ulivi, al processo sommario presso il Sinedrio e Ponzio Pilato, alla sua atroce flagellazione, fino alla morte in croce e alla risurrezione. La trama del film cerca di seguire il racconto dei vangeli creando una sinossi-armonizzazione di essi data la loro complementarità (vedi tavola sinottica in Passione di Gesù). Alcune delle scene sono tratte dai diari di Anna Katharina Emmerick, una mistica tedesca vissuta tra il 1774 ed il 1824 - in particolare dal suo libro La dolorosa Passione del Nostro Signore Gesù Cristo - e da La mistica città di Dio di María di Ágreda. Per ricreare maggior realismo, il film è stato interamente girato in latino e in aramaico, le lingue del tempo, e sottotitolato nelle lingue moderne. La ricostruzione dei dialoghi in aramaico, lingua che nella versione parlata allora in Giudea (il cosiddetto “aramaico maccabaico”) ci è nota solo con una certa approssimazione, è stata affidata al gesuita statunitense William Fulco, mentre per il latino è stata scelta la pronuncia ecclesiastica in luogo della restituta, verosimilmente utilizzata dai Romani di quel periodo. II film è stato interamente lavorato in Italia, con un cast in prevalenza composto da attori italiani. Gli esterni del film sono stati girati in Basilicata nelle città di Matera[3] e Craco, paese fantasma della provincia materana. Gli interni del film presso gli studi di Cinecittà a Roma.[4] Le riprese del film si sono svolte tra il 4 novembre 2002 ed il 13 gennaio 2003; il suo budget è stato di 30.000.000 $. Sono molti gli aneddoti che girano attorno alla lavorazione del film, avvenuta su un set blindato, nel freddo inverno lucano. Il coinvolgimento emotivo e spirituale è stato forte anche da parte di chi non si potesse dire credente: un esempio fu la conversione dell'attore Pietro Sarubbi (Barabba), che ha dichiarato di aver abbracciato il cristianesimo proprio sul set della pellicola. L'interprete del Cristo, l'attore cattolico statunitense James Caviezel, è stato assistito per tutte le riprese da un sacerdote; nelle pause di lavorazione recitava il rosario, per trarre ispirazione. Nella maggior parte delle scene nel film dove vi è Gesù morente sulla croce, l'attore Jim Caviezel è stato sostituito con una fedele ricostruzione robotica del valore di circa 350.000 $. Un eccellente "lavoro in ecopelle" in modalità "animatronic" (animazione elettronica) per muovere la testa e gli arti, ansimare e far uscire fiotti di sangue.

3 Generations - Una famiglia quasi perfetta (2015).H264.Italian.English.Ac3.5.1.sub.ita.eng.iCV-MIRCrew

Language: | Size: 1.36 GB | Seed: 1 | Leech: 1

Description:

3 Generations - Una famiglia quasi perfetta (2015).H264.Italian.English.Ac3.5.1.sub.ita.eng.iCV-MIRCrew [center] [color=red][b][img]http://s23.postimg.org/b9yhws27f/0sc_Del1.png[/img] [u]NO FOUND ONLY ORIGINAL RELEASE[/u] [img]http://i.imgur.com/GDNQx1Z.png[/img] My release is always in double track audio italian and Original audio for select it use VLC or dvd player home not use wmp 3 Generations - Una famiglia quasi perfetta (2015) [img]https://extraimage.net/images/2017/04/07/b246b5cfb2205086a1c7f45d0b373eef.png[/img] [URL=http://www.imdb.com/title/tt4158624/][IMG]http://www.userlogos.org/files/logos/Sucka/imdb_new.png[/IMG][/URL] [img]http://i.imgur.com/fGu1rKv.png[/img] DATA USCITA: 24 novembre 2016 GENERE: Commedia, Drammatico ANNO: 2015 REGIA: Gaby Dellal SCENEGGIATURA: Nikole Beckwith FOTOGRAFIA: David Johnson MONTAGGIO: Joe Landauer MUSICHE: Michael Brook PRODUZIONE: Big Beach Films, IM Global, InFilm Productions DISTRIBUZIONE: Videa PAESE: USA DURATA: 87 Min [img]http://i.imgur.com/W7kBqiE.png[/img] Elle Fanning, Naomi Watts, Susan Sarandon, Tate Donovan, Maria Dizzia, Sam Trammell, Linda Emond [img]http://i.imgur.com/bFK3ggF.png[/img] 3 GENERATIONS - Una famiglia quasi perfetta, racconta la storia di tre donne della stessa famiglia newyorkese, appartenenti a tre generazioni differenti e di come la trasformazione di una di loro influisca sulle altre. Ray (Elle Fanning) è una ragazza adolescente che sente il desiderio di diventare un ragazzo. ............ [img]http://i.imgur.com/48xHWWH.png[/img] After Ray decides to transition from female to male, Ray's mother, Maggie, must come to terms with the decision while tracking down Ray's biological father to get his legal consent. [img]http://i.imgur.com/K8bfNTy.png[/img] [img]https://extraimage.net/images/2017/04/07/6a8978c42d789a7126de7d7220a86911.png[/img] [img]https://extraimage.net/images/2017/04/07/142521645a2ac89afd776486ba0526f5.png[/img] [img]https://extraimage.net/images/2017/04/07/cb98085b88cd83fa586cdab0b8adef5c.png[/img] [img]https://extraimage.net/images/2017/04/07/7b6394ac8f5c42bb397eed80f4158341.png[/img] [img]http://i.imgur.com/aVrMohH.png[/img] [spoiler] General Unique ID : 222803491124186401537594049055682372518 (0xA79E643B1D319280A71EC0F1F27EA3A6) Complete name : \\NASD164A0\Download\_YJRHA~S\admin\3OW3JX~1\3 Generations - Una famiglia quasi perfetta (2015).H264.ita.eng.sub.ita.eng.iCV-MIRCrew.mkv Format : Matroska Format version : Version 2 File size : 1.36 GiB Duration : 1h 28mn Overall bit rate : 2 197 Kbps Movie name : 3 Generations - Una famiglia quasi perfetta (2015).H264.ita.eng.sub.ita.eng.iCV-MIRCrew Encoded date : UTC 2017-04-05 15:58:28 Writing application : DVDFab 9.1.5.7 Writing library : libebml v0.7.8 + libmatroska v0.8.1 Video ID : 1 Format : AVC Format/Info : Advanced Video Codec Format profile : [email protected] Format settings, CABAC : Yes Format settings, ReFrames : 2 frames Codec ID : V_MPEG4/ISO/AVC Duration : 1h 28mn Bit rate : 1 257 Kbps Width : 720 pixels Height : 388 pixels Display aspect ratio : 1.856 Frame rate : 25.000 fps Color space : YUV Chroma subsampling : 4:2:0 Bit depth : 8 bits Scan type : Progressive Bits/(Pixel*Frame) : 0.180 Stream size : 799 MiB (57%) Writing library : x264 core Default : Yes Forced : No Color primaries : BT.601-6 525, BT.1358 525, BT.1700 NTSC, SMPTE 170M Transfer characteristics : BT.709-5, BT.1361 Matrix coefficients : BT.601-6 525, BT.1358 525, BT.1700 NTSC, SMPTE 170M Audio #1 ID : 2 Format : AC-3 Format/Info : Audio Coding 3 Mode extension : CM (complete main) Codec ID : A_AC3 Duration : 1h 28mn Bit rate mode : Constant Bit rate : 448 Kbps Channel(s) : 6 channels Channel positions : Front: L C R, Side: L R, LFE Sampling rate : 48.0 KHz Bit depth : 16 bits Compression mode : Lossy Stream size : 285 MiB (20%) Language : Italian Default : Yes Forced : No Audio #2 ID : 3 Format : AC-3 Format/Info : Audio Coding 3 Mode extension : CM (complete main) Codec ID : A_AC3 Duration : 1h 28mn Bit rate mode : Constant Bit rate : 448 Kbps Channel(s) : 6 channels Channel positions : Front: L C R, Side: L R, LFE Sampling rate : 48.0 KHz Bit depth : 16 bits Compression mode : Lossy Stream size : 285 MiB (20%) Language : English Default : No Forced : No Text #1 ID : 4 Format : VobSub Codec ID : S_VOBSUB Codec ID/Info : The same subtitle format used on DVDs Language : Italian Default : Yes Forced : No Text #2 ID : 5 Format : VobSub Codec ID : S_VOBSUB Codec ID/Info : The same subtitle format used on DVDs Language : Italian Default : No Forced : No Text #3 ID : 6 Format : VobSub Codec ID : S_VOBSUB Codec ID/Info : The same subtitle format used on DVDs Language : English Default : No Forced : No Menu 00:00:00.000 : en:(01)00:00:00:000 00:10:22.640 : en:(02)00:10:22:640 00:17:37.920 : en:(03)00:17:37:920 00:23:27.640 : en:(04)00:23:27:640 00:31:30.920 : en:(05)00:31:30:920 00:39:22.920 : en:(06)00:39:22:920 00:46:14.320 : en:(07)00:46:14:320 00:52:51.000 : en:(08)00:52:51:000 00:58:05.360 : en:(09)00:58:05:360 01:05:03.120 : en:(10)01:05:03:120 01:14:43.640 : en:(11)01:14:43:640 01:23:28.160 : en:(12)01:23:28:160 01:28:49.680 : en:(13)01:28:49:680 [/spoiler] [/color][/b][/center]

Qualcosa di nuovo (2016).H264.Italian.Ac3.5.1.sub.ita.eng.iCV-MIRCrew

Language: | Size: 1.13 GB | Seed: 1 | Leech: 15

Description:

Qualcosa di nuovo (2016).H264.Italian.Ac3.5.1.sub.ita.eng.iCV-MIRCrew [center] [color=red][b][img]http://s23.postimg.org/b9yhws27f/0sc_Del1.png[/img] [u]NO FOUND ONLY ORIGINAL RELEASE[/u] [img]http://i.imgur.com/GDNQx1Z.png[/img] My release is always in double track audio italian and Original audio for select it use VLC or dvd player home not use wmp ENGLISH SUBTITLE INSIDE Qualcosa di nuovo (2016) [img]https://extraimage.net/images/2017/04/07/3f7faeef95c662f07b3da9f6e91e7f7d.png[/img] [URL=http://www.imdb.com/title/tt6085308/][IMG]http://www.userlogos.org/files/logos/Sucka/imdb_new.png[/IMG][/URL] [img]http://i.imgur.com/fGu1rKv.png[/img] DATA USCITA: 13 ottobre 2016 GENERE: Commedia ANNO: 2016 REGIA: Cristina Comencini SCENEGGIATURA: Cristina Comencini, Giulia Calenda, Paola Cortellesi FOTOGRAFIA: Italo Petriccione MONTAGGIO: Francesca Calvelli MUSICHE: Andrea Farri PRODUZIONE: Cattleya, Rai Cinema, con il contributo del MiBACT DISTRIBUZIONE: 01 Distribution PAESE: Italia DURATA: 93 Min [img]http://i.imgur.com/W7kBqiE.png[/img] Paola Cortellesi, Micaela Ramazzotti, Eduardo Valdarnini, Eleonora Danco [img]http://i.imgur.com/bFK3ggF.png[/img] Lucia e Maria si conoscono da sempre. Due amiche che più diverse non si può. Lucia ha chiuso col genere maschile, Maria invece non riesce proprio a farne a meno. Una sera nel suo letto capita (finalmente!) l'Uomo perfetto.............. [img]http://i.imgur.com/48xHWWH.png[/img] Lucia and Maria are two best friends, who have known each other from the beginning of their life, but have very different tastes and behaviors. Lucia is done with men, Maria, on the ... [img]http://i.imgur.com/K8bfNTy.png[/img] [img]https://extraimage.net/images/2017/04/07/8404928cd2dcc1ebdf732daa4223c9e3.png[/img] [img]https://extraimage.net/images/2017/04/07/e91948c2b4d64f9c89bf039125cad7c7.png[/img] [img]https://extraimage.net/images/2017/04/07/80cc76c5a9b8aa28c58bce6fe706b023.png[/img] [img]https://extraimage.net/images/2017/04/07/b626e992b69c1cb0b6622a99f91a66a0.png[/img] [img]http://i.imgur.com/aVrMohH.png[/img] [spoiler] General Unique ID : 156406872313919444684049835627500277240 (0x75AADE2E05831240DB36C17936000DF8) Complete name : Qualcosa di nuovo (2016).H264.ita.sub.ita.eng.iCV-MIRCrew.mkv Format : Matroska Format version : Version 2 File size : 1.13 GiB Duration : 1h 33mn Overall bit rate : 1 741 Kbps Movie name : www.icv-crew.org Encoded date : UTC 2017-04-06 17:23:23 Writing application : Lavf54.63.100 Writing library : Lavf54.63.100 COPYRIGHT : robbyrs Video ID : 1 Format : AVC Format/Info : Advanced Video Codec Format profile : [email protected] Format settings, CABAC : Yes Format settings, ReFrames : 2 frames Codec ID : V_MPEG4/ISO/AVC Duration : 1h 33mn Bit rate : 1 290 Kbps Width : 720 pixels Height : 300 pixels Display aspect ratio : 2.40:1 Frame rate mode : Variable Frame rate : 23.976 fps Color space : YUV Chroma subsampling : 4:2:0 Bit depth : 8 bits Scan type : Progressive Bits/(Pixel*Frame) : 0.249 Stream size : 838 MiB (72%) Writing library : x264 core 130 r2273 Encoding settings : cabac=1 / ref=2 / deblock=1:0:0 / analyse=0x1:0x131 / me=hex / subme=7 / psy=1 / psy_rd=1.00:0.00 / mixed_ref=0 / me_range=16 / chroma_me=1 / trellis=1 / 8x8dct=0 / cqm=0 / deadzone=21,11 / fast_pskip=1 / chroma_qp_offset=-2 / threads=12 / lookahead_threads=2 / sliced_threads=0 / nr=0 / decimate=1 / interlaced=0 / bluray_compat=0 / constrained_intra=0 / bframes=3 / b_pyramid=0 / b_adapt=1 / b_bias=0 / direct=3 / weightb=1 / open_gop=0 / weightp=2 / keyint=230 / keyint_min=23 / scenecut=40 / intra_refresh=0 / rc_lookahead=40 / rc=2pass / mbtree=1 / bitrate=1290 / ratetol=1.0 / qcomp=0.60 / qpmin=10 / qpmax=69 / qpstep=4 / cplxblur=20.0 / qblur=0.5 / vbv_maxrate=24000 / vbv_bufsize=24000 / nal_hrd=none / ip_ratio=1.40 / aq=1:1.00 Language : Italian Default : Yes Forced : No DURATION : 01:33:08.500000000 NUMBER_OF_FRAMES : 133990 NUMBER_OF_BYTES : 6814297040 _STATISTICS_WRITING_APP : mkvmerge v8.7.0 ('All of the above') 64bit _STATISTICS_WRITING_DATE_UTC : 2017-03-17 07:22:00 _STATISTICS_TAGS : BPS DURATION NUMBER_OF_FRAMES NUMBER_OF_BYTES Audio ID : 2 Format : AC-3 Format/Info : Audio Coding 3 Mode extension : CM (complete main) Codec ID : A_AC3 Duration : 1h 33mn Bit rate mode : Constant Bit rate : 448 Kbps Channel(s) : 2 channels Channel positions : Front: L R Sampling rate : 48.0 KHz Bit depth : 16 bits Compression mode : Lossy Delay relative to video : 1mn 5s Stream size : 298 MiB (26%) Title : AC3 ITA Language : Italian Default : No Forced : No DURATION : 01:33:03.008000000 NUMBER_OF_FRAMES : 174469 NUMBER_OF_BYTES : 446640640 _STATISTICS_WRITING_APP : mkvmerge v8.7.0 ('All of the above') 64bit _STATISTICS_WRITING_DATE_UTC : 2017-03-17 07:22:00 _STATISTICS_TAGS : BPS DURATION NUMBER_OF_FRAMES NUMBER_OF_BYTES Text #1 ID : 3 Format : ASS Codec ID : S_TEXT/ASS Codec ID/Info : Advanced Sub Station Alpha Compression mode : Lossless Title : Regular Language : Italian Default : No Forced : No DURATION : 01:28:56.457000000 NUMBER_OF_FRAMES : 1224 NUMBER_OF_BYTES : 49209 _STATISTICS_WRITING_APP : mkvmerge v8.7.0 ('All of the above') 64bit _STATISTICS_WRITING_DATE_UTC : 2017-03-17 07:22:00 _STATISTICS_TAGS : BPS DURATION NUMBER_OF_FRAMES NUMBER_OF_BYTES Text #2 ID : 4 Format : ASS Codec ID : S_TEXT/ASS Codec ID/Info : Advanced Sub Station Alpha Compression mode : Lossless Title : Regular Language : English Default : No Forced : No DURATION : 01:28:39.689000000 NUMBER_OF_FRAMES : 1288 NUMBER_OF_BYTES : 43436 _STATISTICS_WRITING_APP : mkvmerge v8.7.0 ('All of the above') 64bit _STATISTICS_WRITING_DATE_UTC : 2017-03-17 07:22:00 _STATISTICS_TAGS : BPS DURATION NUMBER_OF_FRAMES NUMBER_OF_BYTES Menu 00:00:00.000 : :00:00:00.000 00:07:05.342 : :00:07:05.342 00:14:28.201 : :00:14:28.201 00:20:13.838 : :00:20:13.838 00:29:27.099 : :00:29:27.099 00:39:02.590 : :00:39:02.590 00:50:56.804 : :00:50:56.804 00:59:52.756 : :00:59:52.756 01:08:53.129 : :01:08:53.129 01:16:19.950 : :01:16:19.950 01:23:27.706 : :01:23:27.706 [/spoiler] [/color][/b][/center]

The Discovery - La Scoperta (2017).H264.Italian.English.Ac3.5.1.sub.ita.eng.iCV-MIRCrew

Language: | Size: 2.79 GB | Seed: 1 | Leech: 10

Description:

The Discovery - La Scoperta (2017).H264.Italian.English.Ac3.5.1.sub.ita.eng.iCV-MIRCrew [center] [color=red][b][img]http://s23.postimg.org/b9yhws27f/0sc_Del1.png[/img] [u]NO FOUND ONLY ORIGINAL RELEASE[/u] [img]http://i.imgur.com/GDNQx1Z.png[/img] My release is always in double track audio italian and Original audio for select it use VLC or dvd player home not use wmp La Scoperta - The Discovery (2017) [img]https://extraimage.net/images/2017/04/07/5f46b7b3cc6b6f10548d3da4a91c6e7a.png[/img] [URL=ATTORI: Robert Redford, Rooney Mara, Jason Segel, Riley Keough, Jesse Plemons, Ron Canada, Kateri Demartino][IMG]http://www.userlogos.org/files/logos/Sucka/imdb_new.png[/IMG][/URL] [img]http://i.imgur.com/fGu1rKv.png[/img] GENERE: Sentimentale, Fantascienza ANNO: 2017 REGIA: Charlie McDowell SCENEGGIATURA: Charlie McDowell FOTOGRAFIA: Sturla Brandth Grøvlen MONTAGGIO: Jennifer Lilly MUSICHE: Danny Bensi, Saunder Jurriaans PRODUZIONE: Endgame Entertainment, Netflix, Protagonist Pictures DISTRIBUZIONE: Netflix PAESE: USA [img]http://i.imgur.com/W7kBqiE.png[/img] Robert Redford, Rooney Mara, Jason Segel, Riley Keough, Jesse Plemons, Ron Canada, Kateri Demartino [img]http://i.imgur.com/bFK3ggF.png[/img] Un anno dopo che l'esistenza dell'aldilà è stata verificata scientificamente, milioni di persone di ogni parte del mondo hanno posto fine alla propria vita per arrivarci. ............... [img]http://i.imgur.com/48xHWWH.png[/img] Writer-director Charlie McDowell returns to Sundance this year with a thriller about a scientist (played by Robert Redford) who uncovers scientific proof that there is indeed an afterlife. His son is portrayed by Jason Segel, who's not too sure about his father's "discovery", and Rooney Mara plays a mystery woman who has her own reasons for wanting to find out more about the afterlife [img]http://i.imgur.com/K8bfNTy.png[/img] [url=https://extraimage.net/image/2vzH][img]https://extraimage.net/images/2017/04/07/f4f33667f279097e5489510eeb14cf9f.th.png[/img][/url] [url=https://extraimage.net/image/2vzF][img]https://extraimage.net/images/2017/04/07/a7f536972419d087ea2eeca85f787278.th.png[/img][/url] [url=https://extraimage.net/image/2vzk][img]https://extraimage.net/images/2017/04/07/326d1d3fc2c1cd8e986bac4fa7af0534.th.png[/img][/url] [img]http://i.imgur.com/aVrMohH.png[/img] [spoiler] Generale ID univoco : 324858282263400537788755775330098760041 (0xF4656DE9D66C05C5F91F686435FA4969) Nome completo : La Scoperta - The Discovery (2017).720p.H264.ita.eng.sub.ita.eng.iCV-MIRCrew.mkv Formato : Matroska Versione formato : Version 2 Dimensione : 2,79 GiB Durata : 1o 42min Bitrate totale : 3.900 Kbps Film : www.icv-crew.org Data codifica : UTC 2017-04-05 22:03:28 / UTC 2017-04-05 22:03:28 Creato con : Lavf54.63.100 Compressore : Lavf54.63.100 / Lavf54.63.100 Copyright : robbyrs Video ID : 1 Formato : AVC Formato/Informazioni : Advanced Video Codec Profilo formato : [email protected] Impostazioni formato, CABAC : Si Impostazioni formato, ReFrames : 2 frame ID codec : V_MPEG4/ISO/AVC Durata : 1o 42min Bitrate : 3.000 Kbps Larghezza : 1.718 pixel Altezza : 718 pixel Rapporto aspetto visualizzazione : 2,40:1 Modalità frame rate : Costante Frame rate : 23,976 (24000/1001) fps Spazio colore : YUV Croma subsampling : 4:2:0 Profondità bit : 8 bit Tipo scansione : Progressivo Bit/(pixel*frame) : 0.101 Dimensione della traccia : 2,09 GiB (75%) Compressore : x264 core 130 r2273 Impostazioni compressione : cabac=1 / ref=2 / deblock=1:0:0 / analyse=0x1:0x131 / me=hex / subme=7 / psy=1 / psy_rd=1.00:0.00 / mixed_ref=0 / me_range=16 / chroma_me=1 / trellis=1 / 8x8dct=0 / cqm=0 / deadzone=21,11 / fast_pskip=1 / chroma_qp_offset=-2 / threads=12 / lookahead_threads=2 / sliced_threads=0 / nr=0 / decimate=1 / interlaced=0 / bluray_compat=0 / constrained_intra=0 / bframes=3 / b_pyramid=0 / b_adapt=1 / b_bias=0 / direct=3 / weightb=1 / open_gop=0 / weightp=2 / keyint=230 / keyint_min=23 / scenecut=40 / intra_refresh=0 / rc_lookahead=40 / rc=2pass / mbtree=1 / bitrate=3000 / ratetol=1.0 / qcomp=0.60 / qpmin=10 / qpmax=69 / qpstep=4 / cplxblur=20.0 / qblur=0.5 / vbv_maxrate=24000 / vbv_bufsize=24000 / nal_hrd=none / ip_ratio=1.40 / aq=1:1.00 Lingua : Inglese Default : Si Forced : No Statistics Tags Issue : mkvmerge v8.7.0 ('All of the above') 64bit 2017-04-03 13:49:11 / Lavf54.63.100 2017-04-05 22:03:28 / UTC 2017-04-05 22:03:28 FromStats_BitRate : 9701673 FromStats_Duration : 01:42:22.804000000 FromStats_FrameCount : 147280 FromStats_StreamSize : 7449434703 Audio #1 ID : 2 Formato : AC-3 Formato/Informazioni : Audio Coding 3 Estensione modo : CM (complete main) Impostazioni formato, Endianness : Big ID codec : A_AC3 Durata : 1o 42min Modalità bitrate : Costante Bitrate : 448 Kbps Canali : 6 canali Posizione canali : Front: L C R, Side: L R, LFE Frequenza campionamento : 48,0 KHz Frame rate : 31,250 fps (1536 spf) Profondità bit : 16 bit Modo compressione : Con perdita Ritardo video : -5ms Dimensione della traccia : 328MiB (11%) Titolo : AC3 ITA Lingua : Italiano Default : Si Forced : No Statistics Tags Issue : mkvmerge v8.7.0 ('All of the above') 64bit 2017-04-03 13:49:11 / Lavf54.63.100 2017-04-05 22:03:28 / UTC 2017-04-05 22:03:28 FromStats_BitRate : 448000 FromStats_Duration : 01:42:22.752000000 FromStats_FrameCount : 191961 FromStats_StreamSize : 343994112 Audio #2 ID : 3 Formato : AC-3 Formato/Informazioni : Audio Coding 3 Estensione modo : CM (complete main) Impostazioni formato, Endianness : Big ID codec : A_AC3 Durata : 1o 42min Modalità bitrate : Costante Bitrate : 448 Kbps Canali : 6 canali Posizione canali : Front: L C R, Side: L R, LFE Frequenza campionamento : 48,0 KHz Frame rate : 31,250 fps (1536 spf) Profondità bit : 16 bit Modo compressione : Con perdita Ritardo video : -5ms Dimensione della traccia : 328MiB (11%) Titolo : AC3 ENG Lingua : Inglese Default : No Forced : No Statistics Tags Issue : mkvmerge v8.7.0 ('All of the above') 64bit 2017-04-03 13:49:11 / Lavf54.63.100 2017-04-05 22:03:28 / UTC 2017-04-05 22:03:28 FromStats_BitRate : 640000 FromStats_Duration : 01:42:22.752000000 FromStats_FrameCount : 191961 FromStats_StreamSize : 491420160 Testo #1 ID : 4 Formato : ASS ID codec : S_TEXT/ASS ID codec/Informazioni : Advanced Sub Station Alpha Modo compressione : Senza perdita Titolo : FORCED Lingua : Italiano Default : Si Forced : No Statistics Tags Issue : mkvmerge v8.7.0 ('All of the above') 64bit 2017-04-03 13:49:11 / Lavf54.63.100 2017-04-05 22:03:28 / UTC 2017-04-05 22:03:28 FromStats_BitRate : 0 FromStats_Duration : 01:41:35.465000000 FromStats_FrameCount : 10 FromStats_StreamSize : 278 Testo #2 ID : 5 Formato : ASS ID codec : S_TEXT/ASS ID codec/Informazioni : Advanced Sub Station Alpha Modo compressione : Senza perdita Titolo : REGULAR Lingua : Italiano Default : No Forced : No Statistics Tags Issue : mkvmerge v8.7.0 ('All of the above') 64bit 2017-04-03 13:49:11 / Lavf54.63.100 2017-04-05 22:03:28 / UTC 2017-04-05 22:03:28 FromStats_BitRate : 56 FromStats_Duration : 01:41:40.470000000 FromStats_FrameCount : 1089 FromStats_StreamSize : 43169 Testo #3 ID : 6 Formato : ASS ID codec : S_TEXT/ASS ID codec/Informazioni : Advanced Sub Station Alpha Modo compressione : Senza perdita Titolo : NON UDENTI Lingua : Inglese Default : No Forced : No Statistics Tags Issue : mkvmerge v8.7.0 ('All of the above') 64bit 2017-04-03 13:49:11 / Lavf54.63.100 2017-04-05 22:03:28 / UTC 2017-04-05 22:03:28 FromStats_BitRate : 61 FromStats_Duration : 01:41:08.438000000 FromStats_FrameCount : 1204 FromStats_StreamSize : 46668 Menu 00:00:00.000 : :00:00:00.000 00:07:05.342 : :00:07:05.342 00:14:28.201 : :00:14:28.201 00:20:13.838 : :00:20:13.838 00:29:27.099 : :00:29:27.099 00:39:02.590 : :00:39:02.590 00:50:56.804 : :00:50:56.804 00:59:52.756 : :00:59:52.756 01:08:53.129 : :01:08:53.129 01:16:19.950 : :01:16:19.950 01:25:27.706 : :01:25:27.706 01:35:23.259 : :01:35:23.259 [/spoiler] [/color][/b][/center]

Rogue.One.A.Star.Wars.Story.2016.iTALiAN.AC3.BRRip.XviD-T4P3

Language: | Size: 1.68 GB | Seed: 6 | Leech: 0

Description:

Rogue One: A Star Wars Story Titolo originale: Rogue One: A Star Wars Story Nazione: U.S.A. Anno: 2016 Genere: Azione, Avventura, Fantastico Durata: 133' Regia: Gareth Edwards Cast: Felicity Jones, Mads Mikkelsen, Ben Mendelsohn, Alan Tudyk, Donnie Yen, Forest Whitaker, Diego Luna, Riz Ahmed Produzione: Lucasfilm, Walt Disney Pictures Distribuzione: Walt Disney Studios Motion Pictures Italia Data di uscita: 15 Dicembre 2016 (cinema) Trama: Un improbabile gruppo di eroi, in un periodo di conflitto, intraprende una missione per sottrarre i piani della più potente arma di distruzione di massa mai ideata dall’Impero, la Morte Nera. Questo evento, spingerà delle persone ordinarie a unirsi per realizzare imprese straordinarie, diventando parte di qualcosa di più grande.

Alphaville - First Harvest 1984 1992 [Flac][TntVillage]

Language: | Size: 446.96 MB | Seed: 6 | Leech: 3

Description:

Artist...............: Alphaville Album................: First Harvest 1984-92 Genre................: Rock Source...............: CD Year.................: 1992 Ripper...............: EAC (Secure mode) / LAME 3.92 & Asus CD-S520 Codec................: Free Lossless Audio Codec (FLAC) Version..............: reference libFLAC 1.2.1 20070917 Quality..............: Lossless, (avg. compression: 65 %) Channels.............: Stereo / 44100 HZ / 16 Bit Tags.................: VorbisComment Information..........: TntVillage Ripped by............: Leonenero on 13/03/2016 Posted by............: Leonenero on 13/03/2016 News Server..........: news.astraweb.com News Group(s)........: TntVillage Included.............: NFO, M3U8, LOG, CUE Covers...............: Front Back CD --------------------------------------------------------------------- Tracklisting --------------------------------------------------------------------- 1. Alphaville - The Jet Set [03:40] 2. Alphaville - Red Rose [04:38] 3. Alphaville - Romeos [04:52] 4. Alphaville - Summer Rain [04:10] 5. Alphaville - Forever young [03:48] 6. Alphaville - Big in Japan (Culture mix) [06:10] 7. Alphaville - Big In Japan [03:55] 8. Alphaville - Sounds Like A Melody [04:29] 9. Alphaville - Sensations [03:58] 10. Alphaville - The Mysteries Of Love [03:34] 11. Alphaville - Lassie Come Home [06:58] 12. Alphaville - Jerusalem [03:35] 13. Alphaville - Dance With Me [04:08] 14. Alphaville - For A Million [06:09] 15. Alphaville - A Victory Of Love [04:13] Playing Time.........: 01:08:22 Total Size...........: 446,39 MB I think this album has the essence of what this group was about at that time. The songs are catchy and enjoyable and this is the cream of the crop of their songs from this period.

Lion - La strada verso casa (2016).H264.Italian.English.Ac3.5.1.sub.ita.iCV-MIRCrew

Language: | Size: 1.81 GB | Seed: 110 | Leech: 14

Description:

Lion - La strada verso casa (2016).H264.Italian.English.Ac3.5.1.sub.ita.iCV-MIRCrew [center] [color=red][b][img]http://s23.postimg.org/b9yhws27f/0sc_Del1.png[/img] [u]NO FOUND ONLY ORIGINAL RELEASE[/u] [img]http://i.imgur.com/GDNQx1Z.png[/img] My release is always in double track audio italian and Original audio for select it use VLC or dvd player home not use wmp Lion - La strada verso casa (2016) [img]https://extraimage.net/images/2017/04/06/b096ae03acf007854ba8635c8e72863c.png[/img] [URL=http://www.imdb.com/title/tt3741834/][IMG]http://www.userlogos.org/files/logos/Sucka/imdb_new.png[/IMG][/URL] [img]http://i.imgur.com/fGu1rKv.png[/img] 2017 - Premio Oscar Candidatura per il Miglior film Candidatura per il Miglior attore non protagonista a Dev Patel Candidatura per la Miglior attrice non protagonista a Nicole Kidman Candidatura per la Miglior sceneggiatura non originale a Luke Davies Candidatura per la Miglior fotografia a Greig Fraser Candidatura per la Miglior colonna sonora a Dustin O'Halloran e Hauschka 2017 - Golden Globe Candidatura per il Miglior film drammatico Candidatura per il Miglior attore non protagonista a Dev Patel Candidatura per la Migliore attrice non protagonista a Nicole Kidman Candidatura per la Migliore colonna sonora originale a Volker Bertelmann, Dustin O'Halloran 2017 - Premio BAFTA Titolo originale Lion Lingua originale inglese, hindi, bengali Paese di produzione Australia, Stati Uniti d'America, Regno Unito Anno 2016 Durata 129 min Genere drammatico Regia Garth Davis Soggetto Saroo Brierley, Larry Buttrose (memorie) Sceneggiatura Luke Davies Produttore Iain Canning, Angie Fielder, Emile Sherman Produttore esecutivo Andrew Fraser, Daniel Levin, Andrew Mackie, Shahen Mekertichian, Richard Payten, Harvey Weinstein Casa di produzione See-Saw Films, Aquarius Films, Screen Australia, Sunstar Entertainment, The Weinstein Company Distribuzione (Italia) Eagle Pictures Fotografia Greig Fraser Montaggio Alexandre de Franceschi Musiche Volker Bertelmann, Dustin O'Halloran [img]http://i.imgur.com/W7kBqiE.png[/img] Dev Patel: Saroo Brierley Nicole Kidman: Sue Brierley Rooney Mara: Lucy David Wenham: John Brierley Sachin Joab: Bharat Pallavi Sharda: Prama Emilie Cocquerel: Annika Arka Das: Sami Abhishek Bharate: Guddu Khan Sunny Pawar: Saroo bambino Divian Ladwa: Mantosh Brierley Priyanka Bose: Kamla Munshi Deepti Naval: Saroj Sood Tannishtha Chatterjee: Noor Rita Boy: Amita Nawazuddin Siddiqui: Rawa [img]http://i.imgur.com/bFK3ggF.png[/img] India centrale, fine anni Ottanta. All'età di quattro anni, Saroo, ultimogenito di una famiglia molto povera, chiede di seguire suo fratello maggiore Guddu al lavoro. In una stazione non distante dal loro villaggio natale, Saroo viene lasciato per qualche ora su una panchina, e quando si sveglia non vede nessuno attorno a sé. Mentre cerca il fratello, il bambino sale erroneamente su un treno deserto che non fa sosta e che lo conduce a Calcutta............... [img]http://i.imgur.com/48xHWWH.png[/img] A five-year-old Indian boy gets lost on the streets of Calcutta, thousands of kilometers from home. He survives many challenges before being adopted by a couple in Australia; 25 years later, he sets out to find his lost family. [img]http://i.imgur.com/K8bfNTy.png[/img] [url=https://extraimage.net/image/2uvX][img]https://extraimage.net/images/2017/04/06/1e142fa5f73c7fbca1254b672e7a91b9.th.png[/img][/url] [url=https://extraimage.net/image/2uvP][img]https://extraimage.net/images/2017/04/06/95b1d27beee14ed3692376018f5c95ad.th.png[/img][/url] [url=https://extraimage.net/image/2uvg][img]https://extraimage.net/images/2017/04/06/07f3d60ef775e98ae928295993577504.th.png[/img][/url] [url=https://extraimage.net/image/2uv5][img]https://extraimage.net/images/2017/04/06/57070a64cb07aa862de8f2ab13ea377b.th.png[/img][/url] [img]http://i.imgur.com/aVrMohH.png[/img] [spoiler] General Unique ID : 181286965495669192585579973947434812463 (0x8862997B4A7B3C2E88A5CE6D8C59442F) Complete name : Lion - La strada verso casa (2016).H264.ita.eng.sub.ita.iCV-MIRCrew.mkv Format : Matroska Format version : Version 2 File size : 1.81 GiB Duration : 1h 58mn Overall bit rate : 2 187 Kbps Movie name : VISIT www.icv-crew.org Encoded date : UTC 2017-04-05 16:36:05 Writing application : mkvmerge v5.4.0 ('Piper') built on Mar 10 2012 13:34:39 Writing library : Lavf54.63.100 COPYRIGHT : robbyrs Video ID : 1 Format : AVC Format/Info : Advanced Video Codec Format profile : [email protected] Format settings, CABAC : Yes Format settings, ReFrames : 2 frames Muxing mode : Header stripping Codec ID : V_MPEG4/ISO/AVC Duration : 1h 58mn Bit rate : 1 290 Kbps Width : 688 pixels Height : 288 pixels Display aspect ratio : 2.40:1 Original display aspect ratio : 2.40:1 Frame rate mode : Variable Frame rate : 24.000 fps Color space : YUV Chroma subsampling : 4:2:0 Bit depth : 8 bits Scan type : Progressive Bits/(Pixel*Frame) : 0.271 Stream size : 1.03 GiB (57%) Title : Lion - La strada verso casa (2016).H264.ita.eng.sub.ita.eng.iCV-MIRCrew Writing library : x264 core 130 r2273 Encoding settings : cabac=1 / ref=2 / deblock=1:0:0 / analyse=0x1:0x131 / me=hex / subme=7 / psy=1 / psy_rd=1.00:0.00 / mixed_ref=0 / me_range=16 / chroma_me=1 / trellis=1 / 8x8dct=0 / cqm=0 / deadzone=21,11 / fast_pskip=1 / chroma_qp_offset=-2 / threads=12 / lookahead_threads=2 / sliced_threads=0 / nr=0 / decimate=1 / interlaced=0 / bluray_compat=0 / constrained_intra=0 / bframes=3 / b_pyramid=0 / b_adapt=1 / b_bias=0 / direct=3 / weightb=1 / open_gop=0 / weightp=2 / keyint=240 / keyint_min=24 / scenecut=40 / intra_refresh=0 / rc_lookahead=40 / rc=2pass / mbtree=1 / bitrate=1290 / ratetol=1.0 / qcomp=0.60 / qpmin=10 / qpmax=69 / qpstep=4 / cplxblur=20.0 / qblur=0.5 / vbv_maxrate=24000 / vbv_bufsize=24000 / nal_hrd=none / ip_ratio=1.40 / aq=1:1.00 Language : Italian Default : Yes Forced : No DURATION : 01:58:35.500000000 NUMBER_OF_FRAMES : 170772 NUMBER_OF_BYTES : 3949833818 _STATISTICS_WRITING_APP : mkvmerge v8.3.0 ('Over the Horizon') 64bit _STATISTICS_WRITING_DATE_UTC : 2017-03-31 19:00:29 _STATISTICS_TAGS : BPS DURATION NUMBER_OF_FRAMES NUMBER_OF_BYTES Audio #1 ID : 2 Format : AC-3 Format/Info : Audio Coding 3 Mode extension : CM (complete main) Muxing mode : Header stripping Codec ID : A_AC3 Duration : 1h 58mn Bit rate mode : Constant Bit rate : 448 Kbps Channel(s) : 6 channels Channel positions : Front: L C R, Side: L R, LFE Sampling rate : 48.0 KHz Bit depth : 16 bits Compression mode : Lossy Delay relative to video : -5ms Stream size : 380 MiB (20%) Title : AC3 iTA Language : Italian Default : No Forced : No DURATION : 01:58:35.584000000 NUMBER_OF_FRAMES : 222362 NUMBER_OF_BYTES : 569246720 _STATISTICS_WRITING_APP : mkvmerge v8.3.0 ('Over the Horizon') 64bit _STATISTICS_WRITING_DATE_UTC : 2017-03-31 19:00:29 _STATISTICS_TAGS : BPS DURATION NUMBER_OF_FRAMES NUMBER_OF_BYTES Audio #2 ID : 3 Format : AC-3 Format/Info : Audio Coding 3 Mode extension : CM (complete main) Muxing mode : Header stripping Codec ID : A_AC3 Duration : 1h 58mn Bit rate mode : Constant Bit rate : 448 Kbps Channel(s) : 6 channels Channel positions : Front: L C R, Side: L R, LFE Sampling rate : 48.0 KHz Bit depth : 16 bits Compression mode : Lossy Delay relative to video : -5ms Stream size : 380 MiB (20%) Title : AC3 ENG Language : English Default : No Forced : No DURATION : 01:58:35.584000000 NUMBER_OF_FRAMES : 222362 NUMBER_OF_BYTES : 569246720 _STATISTICS_WRITING_APP : mkvmerge v8.3.0 ('Over the Horizon') 64bit _STATISTICS_WRITING_DATE_UTC : 2017-03-31 19:00:29 _STATISTICS_TAGS : BPS DURATION NUMBER_OF_FRAMES NUMBER_OF_BYTES Text #1 ID : 4 Format : ASS Codec ID : S_TEXT/ASS Codec ID/Info : Advanced Sub Station Alpha Compression mode : Lossless Title : FORCED iTA Language : Italian Default : Yes Forced : No DURATION : 01:49:58.583000000 NUMBER_OF_FRAMES : 2 NUMBER_OF_BYTES : 39 _STATISTICS_WRITING_APP : mkvmerge v8.3.0 ('Over the Horizon') 64bit _STATISTICS_WRITING_DATE_UTC : 2017-03-31 19:00:29 _STATISTICS_TAGS : BPS DURATION NUMBER_OF_FRAMES NUMBER_OF_BYTES Text #2 ID : 5 Format : ASS Codec ID : S_TEXT/ASS Codec ID/Info : Advanced Sub Station Alpha Compression mode : Lossless Title : REGULAR iTA Language : Italian Default : No Forced : No DURATION : 01:03:10.041000000 NUMBER_OF_FRAMES : 466 NUMBER_OF_BYTES : 12896 _STATISTICS_WRITING_APP : mkvmerge v8.3.0 ('Over the Horizon') 64bit _STATISTICS_WRITING_DATE_UTC : 2017-03-31 19:00:29 _STATISTICS_TAGS : BPS DURATION NUMBER_OF_FRAMES NUMBER_OF_BYTES Menu 00:00:00.000 : :00:00:00.000 00:09:00.208 : :00:09:00.208 00:19:45.833 : :00:19:45.833 00:29:46.833 : :00:29:46.833 00:40:01.000 : :00:40:01.000 00:48:48.000 : :00:48:48.000 00:58:46.833 : :00:58:46.833 01:09:11.417 : :01:09:11.417 01:19:13.417 : :01:19:13.417 01:29:16.625 : :01:29:16.625 01:37:50.417 : :01:37:50.417 01:48:15.000 : :01:48:15.000 [/spoiler] [/color][/b][/center]

Florence Foster Jenkins - Florence (2016).H264.Italian.English.Ac3.5.1.sub.ita.NUita.eng.iCV-MIRCrew

Language: | Size: 1.6 GB | Seed: 1 | Leech: 0

Description:

Florence Foster Jenkins - Florence (2016).H264.Italian.English.Ac3.5.1.sub.ita.NUita.eng.iCV-MIRCrew [center] [color=red][b][img]http://s23.postimg.org/b9yhws27f/0sc_Del1.png[/img] [u]NO FOUND ONLY ORIGINAL RELEASE[/u] [img]http://i.imgur.com/GDNQx1Z.png[/img] My release is always in double track audio italian and Original audio for select it use VLC or dvd player home not use wmp Florence - Florence Foster Jenkins (2016) [img]https://extraimage.net/images/2017/04/06/3201bfc730e916a794d8b604e1e73fff.png[/img] [URL=http://www.imdb.com/title/tt4136084/][IMG]http://www.userlogos.org/files/logos/Sucka/imdb_new.png[/IMG][/URL] [img]http://i.imgur.com/fGu1rKv.png[/img] DATA USCITA: 22 dicembre 2016 GENERE: Biografico, Commedia, Drammatico ANNO: 2016 REGIA: Stephen Frears SCENEGGIATURA: Nicholas Martin FOTOGRAFIA: Danny Cohen MONTAGGIO: Valerio Bonelli MUSICHE: Alexandre Desplat PRODUZIONE: Qwerty Films, Pathé, BBC Films. DISTRIBUZIONE: Lucky Red. PAESE: Gran Bretagna DURATA: 111 Min [img]http://i.imgur.com/W7kBqiE.png[/img] Meryl Streep, Hugh Grant, Simon Helberg, Rebecca Ferguson, Nina Arianda, John Kavanagh, David Haig, Christian McKay, Mark Arnold [img]http://i.imgur.com/bFK3ggF.png[/img] Nel 1944 l'ereditiera Florence Foster Jenkins è tra le protagoniste dei salotti dell'alta società newyorchese. Mecenate generosa, appassionata di musica classica, Florence, con l'aiuto del marito e manager, l'inglese St. Clair Bayfield, intrattiene l'élite cittadina con incredibili performance canore, di cui lei è ovviamente la star.................... [img]http://i.imgur.com/48xHWWH.png[/img] Florence Foster Jenkins, an heiress form NYC always wanted to be a concert pianist and play Carnegie Hall. An injury in her youth deterred that dream. So she sets out to sing her way to Carnegie Hall knowing the only way to get there would be "Practice Practice Practice". Her husband supports her venture and the true story of Florence Foster Jenkins playing Carnegie Hall becomes a truly historic event. [img]http://i.imgur.com/K8bfNTy.png[/img] [url=https://extraimage.net/image/2uv8][img]https://extraimage.net/images/2017/04/06/1fbe3fe922d9d9ef0764a79b9d1b579f.th.png[/img][/url] [url=https://extraimage.net/image/2uuf][img]https://extraimage.net/images/2017/04/06/bbdb4500e405b9f8ca09ff84bc083f3a.th.png[/img][/url] [url=https://extraimage.net/image/2uva][img]https://extraimage.net/images/2017/04/06/b9886e909fcfb3d091f562fe85556f8d.th.png[/img][/url] [url=https://extraimage.net/image/2uvw][img]https://extraimage.net/images/2017/04/06/cc1c87823a26d8c9b7d64b7f0d847b3c.th.png[/img][/url] [img]http://i.imgur.com/aVrMohH.png[/img] [spoiler] General Unique ID : 276898943392103814074036591444443849659 (0xD050CBF2397E9156DEB763E69A8CE3BB) Complete name : Florence (2016).H264.ita.eng.sub.ita.eng.iCV-MIRCrew.mkv Format : Matroska Format version : Version 2 File size : 1.60 GiB Duration : 1h 51mn Overall bit rate : 2 058 Kbps Movie name : VISIT www.icv-crew.org Encoded date : UTC 2017-04-05 14:48:37 Writing application : Lavf54.63.100 Writing library : Lavf54.63.100 COPYRIGHT : robbyrs Video ID : 1 Format : AVC Format/Info : Advanced Video Codec Format profile : [email protected] Format settings, CABAC : Yes Format settings, ReFrames : 2 frames Codec ID : V_MPEG4/ISO/AVC Duration : 1h 51mn Bit rate : 1 290 Kbps Width : 720 pixels Height : 304 pixels Display aspect ratio : 2.40:1 Frame rate mode : Variable Frame rate : 23.976 fps Color space : YUV Chroma subsampling : 4:2:0 Bit depth : 8 bits Scan type : Progressive Bits/(Pixel*Frame) : 0.246 Stream size : 992 MiB (61%) Writing library : x264 core 130 r2273 Encoding settings : cabac=1 / ref=2 / deblock=1:0:0 / analyse=0x1:0x131 / me=hex / subme=7 / psy=1 / psy_rd=1.00:0.00 / mixed_ref=0 / me_range=16 / chroma_me=1 / trellis=1 / 8x8dct=0 / cqm=0 / deadzone=21,11 / fast_pskip=1 / chroma_qp_offset=-2 / threads=12 / lookahead_threads=2 / sliced_threads=0 / nr=0 / decimate=1 / interlaced=0 / bluray_compat=0 / constrained_intra=0 / bframes=3 / b_pyramid=0 / b_adapt=1 / b_bias=0 / direct=3 / weightb=1 / open_gop=0 / weightp=2 / keyint=230 / keyint_min=23 / scenecut=40 / intra_refresh=0 / rc_lookahead=40 / rc=2pass / mbtree=1 / bitrate=1290 / ratetol=1.0 / qcomp=0.60 / qpmin=10 / qpmax=69 / qpstep=4 / cplxblur=20.0 / qblur=0.5 / vbv_maxrate=24000 / vbv_bufsize=24000 / nal_hrd=none / ip_ratio=1.40 / aq=1:1.00 Language : Italian Default : Yes Forced : No DURATION : 01:50:44.597000000 NUMBER_OF_FRAMES : 159311 NUMBER_OF_BYTES : 8019445573 _STATISTICS_WRITING_APP : mkvmerge v8.3.0 ('Over the Horizon') 64bit _STATISTICS_WRITING_DATE_UTC : 2017-04-01 14:05:16 _STATISTICS_TAGS : BPS DURATION NUMBER_OF_FRAMES NUMBER_OF_BYTES Audio #1 ID : 2 Format : AC-3 Format/Info : Audio Coding 3 Mode extension : CM (complete main) Codec ID : A_AC3 Duration : 1h 51mn Bit rate mode : Constant Bit rate : 384 Kbps Channel(s) : 6 channels Channel positions : Front: L C R, Side: L R, LFE Sampling rate : 48.0 KHz Bit depth : 16 bits Compression mode : Lossy Delay relative to video : 1mn 5s Stream size : 305 MiB (19%) Title : AC3 iTA DVD RESYNC Language : Italian Default : Yes Forced : No DURATION : 01:51:05.440000000 NUMBER_OF_FRAMES : 208295 NUMBER_OF_BYTES : 319941120 _STATISTICS_WRITING_APP : mkvmerge v8.3.0 ('Over the Horizon') 64bit _STATISTICS_WRITING_DATE_UTC : 2017-04-01 14:05:16 _STATISTICS_TAGS : BPS DURATION NUMBER_OF_FRAMES NUMBER_OF_BYTES Audio #2 ID : 3 Format : AC-3 Format/Info : Audio Coding 3 Mode extension : CM (complete main) Codec ID : A_AC3 Duration : 1h 51mn Bit rate mode : Constant Bit rate : 384 Kbps Channel(s) : 6 channels Channel positions : Front: L C R, Side: L R, LFE Sampling rate : 48.0 KHz Bit depth : 16 bits Compression mode : Lossy Delay relative to video : 1mn 5s Stream size : 305 MiB (19%) Title : AC3 ENG Language : English Default : No Forced : No DURATION : 01:50:44.672000000 NUMBER_OF_FRAMES : 207646 NUMBER_OF_BYTES : 531573760 _STATISTICS_WRITING_APP : mkvmerge v8.3.0 ('Over the Horizon') 64bit _STATISTICS_WRITING_DATE_UTC : 2017-04-01 14:05:16 _STATISTICS_TAGS : BPS DURATION NUMBER_OF_FRAMES NUMBER_OF_BYTES Text #1 ID : 4 Format : ASS Codec ID : S_TEXT/ASS Codec ID/Info : Advanced Sub Station Alpha Compression mode : Lossless Title : FORCED iTA Language : Italian Default : Yes Forced : No DURATION : 01:44:23.674000000 NUMBER_OF_FRAMES : 13 NUMBER_OF_BYTES : 623 _STATISTICS_WRITING_APP : mkvmerge v8.3.0 ('Over the Horizon') 64bit _STATISTICS_WRITING_DATE_UTC : 2017-04-01 14:05:16 _STATISTICS_TAGS : BPS DURATION NUMBER_OF_FRAMES NUMBER_OF_BYTES Text #2 ID : 5 Format : ASS Codec ID : S_TEXT/ASS Codec ID/Info : Advanced Sub Station Alpha Compression mode : Lossless Title : REGULAR iTA Language : Italian Default : No Forced : No DURATION : 01:43:13.111000000 NUMBER_OF_FRAMES : 1200 NUMBER_OF_BYTES : 36240 _STATISTICS_WRITING_APP : mkvmerge v8.3.0 ('Over the Horizon') 64bit _STATISTICS_WRITING_DATE_UTC : 2017-04-01 14:05:16 _STATISTICS_TAGS : BPS DURATION NUMBER_OF_FRAMES NUMBER_OF_BYTES Text #3 ID : 6 Format : ASS Codec ID : S_TEXT/ASS Codec ID/Info : Advanced Sub Station Alpha Compression mode : Lossless Title : NON UDENTI iTA Language : Italian Default : No Forced : No DURATION : 01:43:28.673000000 NUMBER_OF_FRAMES : 1486 NUMBER_OF_BYTES : 49078 _STATISTICS_WRITING_APP : mkvmerge v8.3.0 ('Over the Horizon') 64bit _STATISTICS_WRITING_DATE_UTC : 2017-04-01 14:05:16 _STATISTICS_TAGS : BPS DURATION NUMBER_OF_FRAMES NUMBER_OF_BYTES Text #4 ID : 7 Format : ASS Codec ID : S_TEXT/ASS Codec ID/Info : Advanced Sub Station Alpha Compression mode : Lossless Title : REGULAR ENG Language : English Default : No Forced : No DURATION : 01:43:13.980000000 NUMBER_OF_FRAMES : 1407 NUMBER_OF_BYTES : 43967 _STATISTICS_WRITING_APP : mkvmerge v8.3.0 ('Over the Horizon') 64bit _STATISTICS_WRITING_DATE_UTC : 2017-04-01 14:05:16 _STATISTICS_TAGS : BPS DURATION NUMBER_OF_FRAMES NUMBER_OF_BYTES Menu 00:00:00.000 : :00:00:00.000 00:07:21.107 : :00:07:21.107 00:14:08.765 : :00:14:08.765 00:21:12.188 : :00:21:12.188 00:26:47.648 : :00:26:47.648 00:29:21.677 : :00:29:21.677 00:35:23.330 : :00:35:23.330 00:42:10.027 : :00:42:10.027 00:46:51.267 : :00:46:51.267 00:55:58.522 : :00:55:58.522 01:05:04.234 : :01:05:04.234 01:10:45.616 : :01:10:45.616 01:15:08.629 : :01:15:08.629 01:21:38.769 : :01:21:38.769 01:28:10.744 : :01:28:10.744 01:33:58.550 : :01:33:58.550 01:39:04.147 : :01:39:04.147 01:46:09.196 : :01:46:09.196 [/spoiler] [/color][/b][/center]

Don Camillo e l'onorevole Peppone (1955 ) [DVDrip-H264-Ita Ac3-Softsub Ita Eng] Vers. restaurata

Language: | Size: 2.15 GB | Seed: 80 | Leech: 24

Description:

Don Camillo e l'onorevole Peppone (1955 ) [DVDrip-H264-Ita Ac3-Softsub Ita Eng] Vers. restaurata .: Trama :. 1948, nel paese prosegue la rivalità tra don Camillo e Peppone, che continuano a farsi i soliti dispetti. Oltretutto ci sono le elezioni, la campagna elettorale, molto infuocata, e Peppone, inoltre, si candida come deputato, cosa che fa uscire dai gangheri don Camillo, che si ritrova sempre più spesso davanti all'altar maggiore per protestare con il Cristo... .: Scheda :. Titolo originale: Don Camillo e l'onorevole Peppone Paese di produzione: Italia, Francia Anno: 25 Ottobre 1955 Durata: 106 min Colore: B/N Audio: sonoro Rapporto: 4:3 Genere: Commedia Produzione: Cinema Rizzoli Regia: Carmine Gallone Soggetto: Giovannino Guareschi Sceneggiatura: René Barjavel, Giovannino Guareschi .: Dati tecnici del file :. Info sul file Nome: Don Camillo e l'onorevole Peppone.mkv Data: 5/03/2017 00:27:35 Dimensione: 2,308,455,070 bytes (2201.514 MB) Info generiche Durata: 01:36:17 (5777.2 s) Tipo di contenitore: matroska Data creazione: 4/03/2017 21:36:18 UTC Streams totali: 4 Tipo stream n. 1: video (V_MPEG4/ISO/AVC) Tipo stream n. 2: audio (A_AC3) Tipo stream n. 3: subtitle (S_VOBSUB) Tipo stream n. 4: subtitle (S_VOBSUB) Audio streams: 1 Muxing Application: Lavf57.57.100 Writing Application: Lavf57.57.100 Dati rilevanti Risoluzione: 720 x 540 Larghezza: multipla di 16 Altezza: multipla di 4 Traccia video Codec ID: V_MPEG4/ISO/AVC Risoluzione: 720 x 540 Frame aspect ratio: 4:3 = 1.333333 Pixel aspect ratio: 1:1 = 1 Display aspect ratio: 4:3 = 1.333333 Framerate: 25 fps Traccia audio Codec ID: A_AC3 Canali (contenitore): 1 Frequenza: 48000 Hz Mode: mono Info sulla codifica H.264 User data: x264 User data: core 148 r2721 User data: H.264/MPEG-4 AVC codec User data: Copyleft 2003-2016 User data: http://www.videolan.org/x264.html User data: cabac=1 User data: ref=2 User data: deblock=1:0:0 User data: analyse=0x1:0x131 User data: me=hex User data: subme=7 User data: psy=1 User data: psy_rd=1.00:0.00 User data: mixed_ref=0 User data: me_range=16 User data: chroma_me=1 User data: trellis=1 User data: 8x8dct=0 User data: cqm=0 User data: deadzone=21,11 User data: fast_pskip=1 User data: chroma_qp_offset=-2 User data: threads=12 User data: lookahead_threads=2 User data: sliced_threads=0 User data: nr=0 User data: decimate=1 User data: interlaced=0 User data: bluray_compat=0 User data: constrained_intra=0 User data: bframes=3 User data: b_pyramid=0 User data: b_adapt=1 User data: b_bias=0 User data: direct=0 User data: weightb=1 User data: open_gop=0 User data: weightp=2 User data: keyint=250 User data: keyint_min=25 User data: scenecut=40 User data: intra_refresh=0 User data: rc_lookahead=40 User data: rc=2pass User data: mbtree=1 User data: bitrate=3000 User data: ratetol=1.0 User data: qcomp=0.60 User data: qpmin=10 User data: qpmax=69 User data: qpstep=4 User data: cplxblur=20.0 User data: qblur=0.5 User data: vbv_maxrate=3500 User data: vbv_bufsize=24000 User data: nal_hrd=none User data: filler=0 User data: ip_ratio=1.40 User data: aq=3:1.00 SPS id: 0 Profile: [email protected] Num ref frames: 2 Aspect ratio: Square pixels Chroma format idc: YUV 4:2:0 PPS id: 0 (SPS: 0) Codifica entropica: CABAC Weighted prediction: P slices - explicit weighted prediction Weighted bipred idc: B slices - implicit weighted prediction 8x8dct: No Profile compliancy Profilo da testare: MTK PAL 6000 Risoluzione: Ok Framerate: Ok Capitoli Capitolo 01: 00:00:00,000 - 00:02:09,480 Capitolo 02: 00:02:09,480 - 00:07:38,640 Capitolo 03: 00:07:38,640 - 00:10:14,120 Capitolo 04: 00:10:14,120 - 00:12:05,400 Capitolo 05: 00:12:05,400 - 00:19:12,840 Capitolo 06: 00:19:12,840 - 00:26:12,480 Capitolo 07: 00:26:12,480 - 00:26:45,240 Capitolo 08: 00:26:45,240 - 00:35:38,760 Capitolo 09: 00:35:38,760 - 00:43:33,000 Capitolo 10: 00:43:33,000 - 00:46:17,320 Capitolo 11: 00:46:17,320 - 00:51:56,880 Capitolo 12: 00:51:56,880 - 01:01:21,080 Capitolo 13: 01:01:21,080 - 01:06:53,880 Capitolo 14: 01:06:53,880 - 01:12:03,800 Capitolo 15: 01:12:03,800 - 01:16:05,080 Capitolo 16: 01:16:05,080 - 01:21:32,160 Capitolo 17: 01:21:32,160 - 01:25:26,160 Capitolo 18: 01:25:26,160 - 01:28:00,600 Capitolo 19: 01:28:00,600 - 01:31:09,880 Capitolo 20: 01:31:09,880 - 01:33:50,560 Capitolo 21: 01:33:50,560 - 01:36:17,200 Rapporto generato da AVInaptic (18-11-2007) in data 20 mar 2017, h 19:52:26

Poveri.Ma.Ricchi.2016.iTALiAN.AC3.DVDRip.XviD-T4P3

Language: | Size: 1.37 GB | Seed: 6 | Leech: 0

Description:

Poveri ma ricchi Titolo originale: Poveri ma ricchi Conosciuto anche come: Nazione: Italia Anno: 2016 Genere: Commedia Durata: 90' Regia: Fausto Brizzi Cast: Christian De Sica, Enrico Brignano, Lucia Ocone, Lodovica Comello, Anna Mazzamauro Produzione: Wildside, Warner Bros. Entertainment Italia Distribuzione: Warner Bros. Pictures Data di uscita: 15 Dicembre 2016 (cinema) Trama: I Tucci sono una famiglia povera di un piccolo paese del Lazio. Padre, madre, una figlia vanitosa e un figlio genio, costretto a fingersi idiota per stare al passo con la famiglia. Con loro vivono anche il cognato, botanico ma nullafacente, e la nonna, patita di serie TV. Un giorno accade qualcosa di completamente inaspettato: i Tucci vincono cento milioni di euro. Sull’onda dell’emozione decidono di mantenere segreta la vincita, ma, come spesso succede in questi casi, una parola di troppo scappa dalla bocca del capofamiglia e ai Tucci rimane soltanto una soluzione, prima di essere perseguitati da sedicenti amici e conoscenti: scappare. Nel bel mezzo della notte fanno le valigie e partono. Destinazione: Milano. La città che la signora Tucci sognava da ragazza prima di sposarsi. Una volta arrivati e preso possesso della loro nuova vita da miliardari, i Tucci si rendono conto che i tempi sono cambiati; i ricchi di oggi non sono più come quelli di una volta. Oggi sono tutti low profile, mangiano poco o niente, sono ecologisti, fanno beneficenza, si tengono in forma, vanno in giro con biciclette o macchinette elettriche. Essere ricchi, oggi, è diventata una gran scocciatura. E questa scoperta renderà le cose molto diverse da come i Tucci se le aspettavano.

Louis Armstrong - 20 Super Sucessos [Flac][TntVillage]

Language: | Size: 425.26 MB | Seed: 14 | Leech: 5

Description:

Artist...............: Louis Armstrong Album................: 20 Grandes Sucessos Genre................: Jazz Source...............: CD Year.................: 2007 Ripper...............: Exact Audio Copy (Secure mode) & Asus CD-S520 Codec................: Free Lossless Audio Codec (FLAC) Version..............: reference libFLAC 1.2.1 20070917 Quality..............: Lossless, (avg. compression: 59 %) Channels.............: Stereo / 44100 HZ / 16 Bit Tags.................: VorbisComment Information..........: TntVillage Ripped by............: leonenero on 28/05/2013 Posted by............: leonenero on 28/05/2013 News Server..........: news.astraweb.com News Group(s)........: alt.binaries.sounds.flac.full_TntVillage Included.............: NFO, M3U, LOG, CUE Covers...............: Front Back CD Playing Time.........: 70:49 Total Size...........: 424,97 MB Tracklisting 1. Hello Dolly [05.52] 2. Mame [03.09] 3. When The Saints Go Marching In [03.52] 4. Ain't Misbehavin' [03.15] 5. Cabaret [03.21] 6. A Kiss To Build A Dream On [04.19] 7. Please Don't Talk About Me When I'm Gone [03.58] 8. Blueberry Hill [02.59] 9. St Louis Blues March [02.43] 10. That's My Desire [03.26] 11. Mack The Knife [02.20] 12. Back O' Town Blues [02.49] 13. Indiana (Back Home Again In Indiana) [04.05] 14. Tiger Rag (Hold That Tiger) [02.56] 15. Black And Blue (What Did I Do To Be So) [04.46] 16. C'est Si Bon [03.20] 17. St James Infirmary [02.44] 18. Someday You'll Be Sorry [05.27] 19. Sweethearts On Parade [02.30] 20. Jelly Roll Blues [02.48] This a great CD...you will recognize many if not all of the songs...it is great to get away from the music that is on the radio and listen to songs that bring a smile to your face....Louis Armstrong has amazing talent...every song is full of life....this is the kind of music that is timeless...it will live on forever.... Enjoy!