Search Top Tags














Masterminds.I.Geni.Della.Truffa.2016.iTALiAN.AC3.DVDRip.XviD-T4P3

Language: | Size: 1.37 GB | Seed: 145 | Leech: 270

Description:

Masterminds - I geni della truffa Titolo originale: Masterminds Nazione: U.S.A. Anno: 2016 Genere: Azione, Commedia Durata: 94' Regia: Jared Hess Cast: Owen Wilson, Zach Galifianakis, Kristen Wiig, Jason Sudeikis, Ken Marino, Mary Elizabeth Ellis, Kate McKinnon, Devin Ratray, Leslie Jones Produzione: Michaels-Goldwyn, Relativity Media Distribuzione: Key Films Data di uscita: 09 Novembre 2016 (cinema) Trama: Tutti i giorni David guida un blindato porta valori carico dei risparmi di sconosciuti. Il suo unico brivido di eccitazione è provocato da Kelly Campbell, la collega che lo convincerà a compiere la rapina del secolo! Insieme ad un gruppo di criminali senza cervello, guidati da Steve Chambers, David riesce incredibilmente a portare a buon fine un colpo da 17 milioni di dollari per poi commettere l’errore di consegnarli ai compagni di viaggio che stupidamente, non solo sperpereranno tutto il bottino, ma lasceranno in giro prove schiaccianti. In fuga dalle autorità, David dovrà nascondersi dal sicario Mike McKinney e tentare di prendersi la sua rivincita.

Bob Dylan - New Morning (1970), [Mp3][Tnt]

Language: | Size: 83.94 MB | Seed: 11 | Leech: 1

Description:

Artist: Bob Dylan Title: New Morning Year Of Release: 1970 Genre: Folk Rock Label: Columbia Tracks: 12 CDs: 1 Format: Mp3 Quality: 320kbps Included Scans: Si Archive Size: 84 Mb --------- 01. If Not For You [02:42] 02. Day Of The Locusts [04:00] 03. Time Passes Slowly [02:35] 04. Went To See The Gypsy [02:51] 05. Winterlude [02:23] 06. If Dogs Run Free [03:41] 07. New Morning [03:59] 08. Sign On The Window [03:41] 09. One More Weekend [03:12] 10. The Man In Me [03:10] 11. Three Angels [02:09] 12. Father Of Night [01:29]

La.Ragazza.Del.Treno.2016.iTALiAN.AC3.BRRip.XviD-T4P3

Language: | Size: 1.48 GB | Seed: 722 | Leech: 746

Description:

La ragazza del treno Titolo originale: The Girl On the Train Conosciuto anche come: Nazione: U.S.A. Anno: 2016 Genere: Thriller Durata: 112' Regia: Tate Taylor Cast: Emily Blunt, Haley Bennett, Rebecca Ferguson, Luke Evans, Lisa Kudrow, Laura Prepon, Edgar Ramirez, Justin Theroux, Allison Janney, Darren Goldstein, Marko Caka, Lana Young, Mauricio Ovalle, Ross Gibby Produzione: Amblin Entertainment, DreamWorks SKG, Marc Platt Productions, Reliance Entertainment, Storyteller Distribution Distribuzione: Leone Film Group Data di uscita: 03 Novembre 2016 (cinema) Trama: Devastata dal recente divorzio e incapace di accettare la fine del matrimonio e il tradimento dell'ex marito, Rachel comincia ad osservare, trasformandola in una vera e propria ossessione, la coppia apparentemente perfetta che vive in una casa che vede ogni giorno dal treno che la porta al lavoro. Fino a quando, una mattina scorge dal finestrino una scena che la sconvolge e si trova improvvisamente coinvolta in un caso misterioso e sconcertante.

Doctor.Strange.2016.iTALiAN.AC3.BRRip.XviD-T4P3

Language: | Size: 1.29 GB | Seed: 503 | Leech: 391

Description:

Doctor Strange Titolo originale: Doctor Strange Conosciuto anche come: Marvel's Doctor Strange, Dr. Strange Nazione: U.S.A. Anno: 2016 Genere: Azione, Avventura, Fantastico Durata: 115' Regia: Scott Derrickson Cast: Benedict Cumberbatch, Chiwetel Ejiofor, Rachel McAdams, Michael Stuhlbarg, Mads Mikkelsen, Tilda Swinton, Scott Adkins, Benedict Wong, Amy Landecker Produzione: Marvel Studios Distribuzione: Walt Disney Data di uscita: 26 Ottobre 2016 (cinema) Trama: Il neurochirurgo Stephen Strange vede la sua vita cambiare per sempre dopo che un terribile incidente automobilistico lo priva dell’uso delle mani. Quando la medicina tradizionale si dimostra incapace di guarirlo, Strange è costretto cercare una cura in un luogo inaspettato: una misteriosa enclave nota come Kamar-Taj. Scoprirà presto che non si tratta soltanto di un luogo di guarigione, ma della prima linea di una battaglia contro invisibili forze oscure decise a distruggere la nostra realtà. Presto, Strange imparerà a padroneggiare la magia e sarà costretto a scegliere se fare ritorno alla sua vita agiata o abbandonare tutto per difendere il mondo e diventare il più potente stregone vivente.

Jean-Luc Ponty - A Taste For Passion [Flac][TNT]

Language: | Size: 211.61 MB | Seed: 62 | Leech: 32

Description:

[img]http://i.imgur.com/jeozaNa.jpg[/img] Artist...............: Jean Luc Ponty Album................: A Taste For Passion Genre................: Jazz Source...............: CD Year.................: 1979 Ripper...............: EAC (Secure mode) / LAME 3.92 & Asus CD-S520 Codec................: Free Lossless Audio Codec (FLAC) Version..............: reference libFLAC 1.3.1 20141125 Quality..............: Lossless, (avg. compression: 50 %) Channels.............: Stereo / 44100 HZ / 16 Bit Tags.................: VorbisComment Information..........: TntVillage Ripped by............: Leonenero on 14/02/2017 Posted by............: Leonenero on 14/02/2017 News Server..........: news.astraweb.com News Group(s)........: TNTVILLAGE Included.............: NFO, M3U, LOG, CUE Covers...............: Front Back CD --------------------------------------------------------------------- Tracklisting --------------------------------------------------------------------- 1. Jean Luc Ponty - Farewell [03:01] 2. Jean Luc Ponty - Stay With Me [05:38] 3. Jean Luc Ponty - Sunset Drive [05:44] 4. Jean Luc Ponty - Dreamy Eyes [04:19] 5. Jean Luc Ponty - Beach Girl [04:56] 6. Jean Luc Ponty - A Taste For Passion [05:25] 7. Jean Luc Ponty - Life Circle [05:46] 8. Jean Luc Ponty - Reminiscence [01:27] 9. Jean Luc Ponty - Give Us A Chance [03:21] 10. Jean Luc Ponty - Obsession [00:41] Playing Time.........: 40:22 Total Size...........: 211,09 MB This album contains rather modern fusion music. There is a good balance here between the electric guitars and the electric violins. The very "bottom" BASS is absolutely OUTSTANDING: it is the same musician who wonderfully played the bass on the "Enigmatic Ocean" album: Ralphe Armstrong; the difference here is that he plays a fretless/Wal-like bass: it gives something very personal to this record: just hear this bass sound! How can you ask for more? It is often fast, VERY well played and VERY sophisticated. The "bottom" & loud drums do a very good job too. Daryl Stuermer no longer appears as the lead guitarist: -I think the guitarists here have a better sound, being definitely more varied, modern and interesting. Ponty plays HIMSELF more modern keyboards and it fits well with the other instruments, featuring among others guitar synthesizers, which contribute to REALLY modernize Ponty's overall music & sound. This album can be completely listened with true pleasure because all the songs are very good. Like Anthony Phillips, Geddy Lee or Eddie Jobson, Ponty proves that he has nothing to envy from the great prog keyboardists, even if his more a violinist than a keyboardist.

Marauders - I Predoni (2016).H264.Italian.English.Ac3.5.1.sub.ita.eng.iCV-MIRCrew

Language: | Size: 1.63 GB | Seed: 414 | Leech: 308

Description:

Marauders - I Predoni (2016).H264.Italian.English.Ac3.5.1.sub.ita.eng.iCV-MIRCrew [center] [color=red][b][img]http://s23.postimg.org/b9yhws27f/0sc_Del1.png[/img] [u]NO FOUND ONLY ORIGINAL RELEASE[/u] [img]http://i.imgur.com/GDNQx1Z.png[/img] My release is always in double track audio italian and Original audio for select it use VLC or dvd player home not use wmp I Predoni - Marauders (2016) [img]https://extraimage.net/images/2017/02/15/3d644abe1917694e9e1ddd32c41e003c.png[/img] [URL=http://www.imdb.com/title/tt3963816/][IMG]http://www.userlogos.org/files/logos/Sucka/imdb_new.png[/IMG][/URL] [img]http://i.imgur.com/fGu1rKv.png[/img] Titolo originale Marauders Paese: Canada Anno: 2016 Regia: Steven C. Miller Genere: Azione Durata: 107 min. [img]http://i.imgur.com/W7kBqiE.png[/img] Bruce Willis, Christopher Meloni, Dave Bautista, Adrian Grenier, Lydia Hull, Tyler Jon Olson, Christopher Rob Bowen, Chris Hill, Danny A. Abeckaser, Texas Battle, Tara Holt, Alyshia Ochse [img]http://i.imgur.com/bFK3ggF.png[/img] In seguito a una brutale rapina in banca, tutti gli indizi portano al proprietario e ai suoi potenti clienti. Mentre un gruppo di agenti dell'Fbi conduce approfondite indagini, si susseguono altre rapine che mostrano quanto grande sia la cospirazione in gioco............... [img]http://i.imgur.com/48xHWWH.png[/img] When a bank is hit by a brutal heist, all evidence points to the owner and his high-powered clients. But as a group of FBI agents dig deeper into the case - and the deadly heists continue - it becomes clear that a larger conspiracy is at play. [img]http://i.imgur.com/K8bfNTy.png[/img] [url=https://extraimage.net/image/20K6][img]https://extraimage.net/images/2017/02/15/30ffda63fb2d9376112d06df1369f0b2.th.png[/img][/url] [url=https://extraimage.net/image/20Kx][img]https://extraimage.net/images/2017/02/15/2afaf0b1042541309e40b765b02d6232.th.png[/img][/url] [url=https://extraimage.net/image/20KV][img]https://extraimage.net/images/2017/02/15/b2ff495af492bf0ff53f049a86603430.th.png[/img][/url] [url=https://extraimage.net/image/20Ku][img]https://extraimage.net/images/2017/02/15/f6ca00273363b175982d94904fd4dc04.th.png[/img][/url] [url=https://extraimage.net/image/20Kv][img]https://extraimage.net/images/2017/02/15/3fbfb1130f158193a14ed1fb175fa526.th.png[/img][/url] [img]http://i.imgur.com/aVrMohH.png[/img] [spoiler] General Unique ID : 54758221488687958541218894722541709488 (0x29320CC2BFEF44BE9678F5B98C6268B0) Complete name : I Predoni - Marauders (2016).H264.ita.eng.sub.ita.eng.iCV-MIRCrew.mkv.d1eb2703ff355f30014542e6e102eb3b38b2f24b\I Predoni - Marauders (2016).H264.ita.eng.sub.ita.eng.iCV-MIRCrew.mkv Format : Matroska Format version : Version 2 File size : 1.63 GiB Duration : 1h 47mn Overall bit rate : 2 181 Kbps Movie name : VISIT www.icv-crew.org Encoded date : UTC 2017-02-13 23:24:24 Writing application : Lavf54.63.100 Writing library : Lavf54.63.100 COPYRIGHT : robbyrs Video ID : 1 Format : AVC Format/Info : Advanced Video Codec Format profile : [email protected] Format settings, CABAC : Yes Format settings, ReFrames : 2 frames Codec ID : V_MPEG4/ISO/AVC Duration : 1h 47mn Bit rate : 1 280 Kbps Width : 720 pixels Height : 304 pixels Display aspect ratio : 2.40:1 Frame rate mode : Variable Frame rate : 23.976 fps Color space : YUV Chroma subsampling : 4:2:0 Bit depth : 8 bits Scan type : Progressive Bits/(Pixel*Frame) : 0.244 Stream size : 952 MiB (57%) Writing library : x264 core 130 r2273 Encoding settings : cabac=1 / ref=2 / deblock=1:0:0 / analyse=0x1:0x131 / me=hex / subme=7 / psy=1 / psy_rd=1.00:0.00 / mixed_ref=0 / me_range=16 / chroma_me=1 / trellis=1 / 8x8dct=0 / cqm=0 / deadzone=21,11 / fast_pskip=1 / chroma_qp_offset=-2 / threads=12 / lookahead_threads=2 / sliced_threads=0 / nr=0 / decimate=1 / interlaced=0 / bluray_compat=0 / constrained_intra=0 / bframes=3 / b_pyramid=0 / b_adapt=1 / b_bias=0 / direct=3 / weightb=1 / open_gop=0 / weightp=2 / keyint=230 / keyint_min=23 / scenecut=40 / intra_refresh=0 / rc_lookahead=40 / rc=2pass / mbtree=1 / bitrate=1280 / ratetol=1.0 / qcomp=0.60 / qpmin=10 / qpmax=69 / qpstep=4 / cplxblur=20.0 / qblur=0.5 / vbv_maxrate=24000 / vbv_bufsize=24000 / nal_hrd=none / ip_ratio=1.40 / aq=1:1.00 Language : Italian Default : Yes Forced : No DURATION : 01:47:07.254000000 NUMBER_OF_FRAMES : 154100 NUMBER_OF_BYTES : 6788648995 _STATISTICS_WRITING_APP : mkvmerge v8.7.0 ('All of the above') 64bit _STATISTICS_WRITING_DATE_UTC : 2017-02-13 08:29:16 _STATISTICS_TAGS : BPS DURATION NUMBER_OF_FRAMES NUMBER_OF_BYTES Audio #1 ID : 2 Format : AC-3 Format/Info : Audio Coding 3 Mode extension : CM (complete main) Codec ID : A_AC3 Duration : 1h 47mn Bit rate mode : Constant Bit rate : 448 Kbps Channel(s) : 6 channels Channel positions : Front: L C R, Side: L R, LFE Sampling rate : 48.0 KHz Bit depth : 16 bits Compression mode : Lossy Delay relative to video : 1mn 5s Stream size : 343 MiB (21%) Language : Italian Default : No Forced : No DURATION : 01:47:07.232000000 NUMBER_OF_FRAMES : 200851 NUMBER_OF_BYTES : 514178560 _STATISTICS_WRITING_APP : mkvmerge v8.7.0 ('All of the above') 64bit _STATISTICS_WRITING_DATE_UTC : 2017-02-13 08:29:16 _STATISTICS_TAGS : BPS DURATION NUMBER_OF_FRAMES NUMBER_OF_BYTES Audio #2 ID : 3 Format : AC-3 Format/Info : Audio Coding 3 Mode extension : CM (complete main) Codec ID : A_AC3 Duration : 1h 47mn Bit rate mode : Constant Bit rate : 448 Kbps Channel(s) : 6 channels Channel positions : Front: L C R, Side: L R, LFE Sampling rate : 48.0 KHz Bit depth : 16 bits Compression mode : Lossy Delay relative to video : 1mn 5s Stream size : 343 MiB (21%) Language : English Default : No Forced : No DURATION : 01:47:07.296000000 NUMBER_OF_FRAMES : 602559 NUMBER_OF_BYTES : 1212348776 _STATISTICS_WRITING_APP : mkvmerge v8.7.0 ('All of the above') 64bit _STATISTICS_WRITING_DATE_UTC : 2017-02-13 08:29:16 _STATISTICS_TAGS : BPS DURATION NUMBER_OF_FRAMES NUMBER_OF_BYTES Text #1 ID : 4 Format : UTF-8 Codec ID : S_TEXT/UTF8 Codec ID/Info : UTF-8 Plain Text Title : FORCED Language : Italian Default : Yes Forced : No DURATION : 00:49:03.782000000 NUMBER_OF_FRAMES : 3 NUMBER_OF_BYTES : 68 _STATISTICS_WRITING_APP : mkvmerge v8.7.0 ('All of the above') 64bit _STATISTICS_WRITING_DATE_UTC : 2017-02-13 08:29:16 _STATISTICS_TAGS : BPS DURATION NUMBER_OF_FRAMES NUMBER_OF_BYTES Text #2 ID : 5 Format : UTF-8 Codec ID : S_TEXT/UTF8 Codec ID/Info : UTF-8 Plain Text Title : REGOLARI Language : Italian Default : No Forced : No DURATION : 01:37:51.120000000 NUMBER_OF_FRAMES : 1312 NUMBER_OF_BYTES : 47594 _STATISTICS_WRITING_APP : mkvmerge v8.7.0 ('All of the above') 64bit _STATISTICS_WRITING_DATE_UTC : 2017-02-13 08:29:16 _STATISTICS_TAGS : BPS DURATION NUMBER_OF_FRAMES NUMBER_OF_BYTES Text #3 ID : 6 Format : UTF-8 Codec ID : S_TEXT/UTF8 Codec ID/Info : UTF-8 Plain Text Title : NON UDENTI Language : English Default : No Forced : No DURATION : 01:39:07.566000000 NUMBER_OF_FRAMES : 1534 NUMBER_OF_BYTES : 52916 _STATISTICS_WRITING_APP : mkvmerge v8.7.0 ('All of the above') 64bit _STATISTICS_WRITING_DATE_UTC : 2017-02-13 08:29:16 _STATISTICS_TAGS : BPS DURATION NUMBER_OF_FRAMES NUMBER_OF_BYTES Menu 00:00:00.000 : :Chapter 1 00:05:19.402 : :Chapter 2 00:11:57.717 : :Chapter 3 00:17:46.106 : :Chapter 4 00:24:42.647 : :Chapter 5 00:30:33.873 : :Chapter 6 00:39:07.678 : :Chapter 7 00:46:14.980 : :Chapter 8 00:51:49.356 : :Chapter 9 00:55:58.271 : :Chapter 10 01:02:08.015 : :Chapter 11 01:09:21.699 : :Chapter 12 01:16:38.594 : :Chapter 13 01:22:48.838 : :Chapter 14 01:28:22.171 : :Chapter 15 01:34:08.351 : :Chapter 16 [/spoiler] [/color][/b][/center]

Sausage Party - Vita segreta di una salsiccia (2016).H264.Italian.English.Ac3.5.1.sub.ita.eng.iCV-MIRCrew

Language: | Size: 1.35 GB | Seed: 196 | Leech: 134

Description:

Sausage Party - Vita segreta di una salsiccia (2016).H264.Italian.English.Ac3.5.1.sub.ita.eng.iCV-MIRCrew [center] [color=red][b][img]http://extraimago.com/images/2016/07/16/oCo82IVa08d8.png[/img] [u]NO FOUND ONLY ORIGINAL RELEASE[/u] [img]http://i.imgur.com/GDNQx1Z.png[/img] My release is always in double track audio italian and Original audio for select it use VLC or dvd player home not use wmp Sausage Party - Vita segreta di una salsiccia (2016) [img]https://extraimage.net/images/2017/02/15/f85678e2d5b9d523327f1d2374392567.png[/img] [URL=http://www.imdb.com/title/tt1700841/][IMG]http://www.userlogos.org/files/logos/Sucka/imdb_new.png[/IMG][/URL] [img]http://i.imgur.com/Q5gAZRt.png[/img] DATA USCITA: 31 ottobre 2016 GENERE: Commedia, Animazione ANNO: 2016 REGIA: Greg Tiernan, Conrad Vernon SCENEGGIATURA: Evan Goldberg, Seth Rogen, Kyle Hunter, Ariel Shaffir PRODUZIONE: Annapurna Pictures, Nitrogen Studios Canada, Point Grey Pictures, Sony Pictures Animation. DISTRIBUZIONE: Warner Bros. Italia PAESE: USA DURATA: 89 Min [img]http://i.imgur.com/Jtvgw7x.png[/img] James Franco, Kristen Wiig, Jonah Hill, Seth Rogen, Salma Hayek, Edward Norton, Michael Cera, David Krumholtz, Nick Kroll, Conrad Vernon [img]http://i.imgur.com/hL3n1m8.png[/img] Una salsiccia in crisi esistenziale alla testa di un gruppo di prodotti da supermercato in missione per scoprire la verità su ciò che realmente accade quando vengono scelti e lasciano il negozio di alimentari, tra corridoi e strani incontri, non sarà semplice. [img]http://i.imgur.com/MTp7cO6.png[/img] The products at Shopwell's Grocery Store are made to believe a code that helps them live happy lives until it's time for them to leave the comfort of the supermarket and head for the great beyond. However, after a botched trip to the great beyond leaves one sausage named Frank and his companion Bun stranded, Frank goes to great lengths (pun intended) to return to his package and make another trip to the great beyond................ [img]http://i.imgur.com/6TgqSmf.png[/img] [url=https://extraimage.net/image/20JQ][img]https://extraimage.net/images/2017/02/15/66c9936b82ee9a7901dc8c992a365f81.th.png[/img][/url] [url=https://extraimage.net/image/20JL][img]https://extraimage.net/images/2017/02/15/25d64dc1b66563576947e1a67ad005d4.th.png[/img][/url] [url=https://extraimage.net/image/20JR][img]https://extraimage.net/images/2017/02/15/b6defa7fb8080160367ed2919732bb76.th.png[/img][/url] [url=https://extraimage.net/image/20Jm][img]https://extraimage.net/images/2017/02/15/1c35d1fde8447753289c25c79035634a.th.png[/img][/url] [img]http://i.imgur.com/t8N3Ia1.png[/img] [spoiler] General Unique ID : 22792124710231513967488543620946664701 (0x11259A8217DA4D57AEF22514D82B1CFD) Complete name : Sausage Party - Vita segreta di una salsiccia (2016).H264.ita.eng.sub.ita.eng.iCV-MIRCrew.mkv Format : Matroska Format version : Version 2 File size : 1.35 GiB Duration : 1h 28mn Overall bit rate : 2 181 Kbps Movie name : VISIT www.icv-crew.org Encoded date : UTC 2017-02-11 01:58:14 Writing application : Lavf54.63.100 Writing library : Lavf54.63.100 COPYRIGHT : robbyrs Video ID : 1 Format : AVC Format/Info : Advanced Video Codec Format profile : [email protected] Format settings, CABAC : Yes Format settings, ReFrames : 2 frames Codec ID : V_MPEG4/ISO/AVC Duration : 1h 28mn Bit rate : 1 280 Kbps Width : 720 pixels Height : 384 pixels Display aspect ratio : 1.854 Original display aspect ratio : 1.853 Frame rate mode : Variable Frame rate : 23.976 fps Color space : YUV Chroma subsampling : 4:2:0 Bit depth : 8 bits Scan type : Progressive Bits/(Pixel*Frame) : 0.193 Stream size : 788 MiB (57%) Writing library : x264 core 130 r2273 Encoding settings : cabac=1 / ref=2 / deblock=1:0:0 / analyse=0x1:0x131 / me=hex / subme=7 / psy=1 / psy_rd=1.00:0.00 / mixed_ref=0 / me_range=16 / chroma_me=1 / trellis=1 / 8x8dct=0 / cqm=0 / deadzone=21,11 / fast_pskip=1 / chroma_qp_offset=-2 / threads=12 / lookahead_threads=2 / sliced_threads=0 / nr=0 / decimate=1 / interlaced=0 / bluray_compat=0 / constrained_intra=0 / bframes=3 / b_pyramid=0 / b_adapt=1 / b_bias=0 / direct=3 / weightb=1 / open_gop=0 / weightp=2 / keyint=230 / keyint_min=23 / scenecut=40 / intra_refresh=0 / rc_lookahead=40 / rc=2pass / mbtree=1 / bitrate=1280 / ratetol=1.0 / qcomp=0.60 / qpmin=10 / qpmax=69 / qpstep=4 / cplxblur=20.0 / qblur=0.5 / vbv_maxrate=24000 / vbv_bufsize=24000 / nal_hrd=none / ip_ratio=1.40 / aq=1:1.00 Language : Italian Default : Yes Forced : No DURATION : 01:28:45.279000000 NUMBER_OF_FRAMES : 127679 NUMBER_OF_BYTES : 6375834858 _STATISTICS_WRITING_APP : mkvmerge v8.3.0 ('Over the Horizon') 64bit _STATISTICS_WRITING_DATE_UTC : 2017-02-11 01:58:14 _STATISTICS_TAGS : BPS DURATION NUMBER_OF_FRAMES NUMBER_OF_BYTES Audio #1 ID : 2 Format : AC-3 Format/Info : Audio Coding 3 Mode extension : CM (complete main) Codec ID : A_AC3 Duration : 1h 28mn Bit rate mode : Constant Bit rate : 448 Kbps Channel(s) : 6 channels Channel positions : Front: L C R, Side: L R, LFE Sampling rate : 48.0 KHz Bit depth : 16 bits Compression mode : Lossy Delay relative to video : 1mn 5s Stream size : 284 MiB (21%) Language : Italian Default : No Forced : No DURATION : 01:28:45.344000000 NUMBER_OF_FRAMES : 166417 NUMBER_OF_BYTES : 426027520 _STATISTICS_WRITING_APP : mkvmerge v8.3.0 ('Over the Horizon') 64bit _STATISTICS_WRITING_DATE_UTC : 2017-02-11 01:58:14 _STATISTICS_TAGS : BPS DURATION NUMBER_OF_FRAMES NUMBER_OF_BYTES Audio #2 ID : 3 Format : AC-3 Format/Info : Audio Coding 3 Mode extension : CM (complete main) Codec ID : A_AC3 Duration : 1h 28mn Bit rate mode : Constant Bit rate : 448 Kbps Channel(s) : 6 channels Channel positions : Front: L C R, Side: L R, LFE Sampling rate : 48.0 KHz Bit depth : 16 bits Compression mode : Lossy Delay relative to video : 1mn 5s Stream size : 284 MiB (21%) Language : English Default : No Forced : No DURATION : 01:28:45.323000000 NUMBER_OF_FRAMES : 499249 NUMBER_OF_BYTES : 1004489708 _STATISTICS_WRITING_APP : mkvmerge v8.3.0 ('Over the Horizon') 64bit _STATISTICS_WRITING_DATE_UTC : 2017-02-11 01:58:14 _STATISTICS_TAGS : BPS DURATION NUMBER_OF_FRAMES NUMBER_OF_BYTES Text #1 ID : 4 Format : UTF-8 Codec ID : S_TEXT/UTF8 Codec ID/Info : UTF-8 Plain Text Title : REGOLARI Language : Italian Default : No Forced : No DURATION : 01:22:17.890000000 NUMBER_OF_FRAMES : 1408 NUMBER_OF_BYTES : 54816 _STATISTICS_WRITING_APP : mkvmerge v8.3.0 ('Over the Horizon') 64bit _STATISTICS_WRITING_DATE_UTC : 2017-02-11 01:58:14 _STATISTICS_TAGS : BPS DURATION NUMBER_OF_FRAMES NUMBER_OF_BYTES Text #2 ID : 5 Format : UTF-8 Codec ID : S_TEXT/UTF8 Codec ID/Info : UTF-8 Plain Text Title : NON UDENTI Language : English Default : No Forced : No DURATION : 01:27:02.591000000 NUMBER_OF_FRAMES : 1708 NUMBER_OF_BYTES : 59776 _STATISTICS_WRITING_APP : mkvmerge v8.3.0 ('Over the Horizon') 64bit _STATISTICS_WRITING_DATE_UTC : 2017-02-11 01:58:14 _STATISTICS_TAGS : BPS DURATION NUMBER_OF_FRAMES NUMBER_OF_BYTES Menu 00:00:00.000 : :00:00:00.000 00:04:24.264 : :00:04:24.264 00:10:19.118 : :00:10:19.118 00:15:27.844 : :00:15:27.844 00:19:32.171 : :00:19:32.171 00:24:53.701 : :00:24:53.701 00:29:32.938 : :00:29:32.938 00:35:44.142 : :00:35:44.142 00:41:55.263 : :00:41:55.263 00:48:18.521 : :00:48:18.521 00:54:45.908 : :00:54:45.908 00:59:54.508 : :00:59:54.508 01:03:47.073 : :01:03:47.073 01:08:01.286 : :01:08:01.286 01:11:55.811 : :01:11:55.811 01:16:03.809 : :01:16:03.809 [/spoiler] [/color][/b][/center]

Doctor.Strange.2016.iTA.ENG.AC3.1080p.BluRay.x264-T4P3

Language: | Size: 7.26 GB | Seed: 830 | Leech: 2148

Description:

Doctor Strange Titolo originale: Doctor Strange Conosciuto anche come: Marvel's Doctor Strange, Dr. Strange Nazione: U.S.A. Anno: 2016 Genere: Azione, Avventura, Fantastico Durata: 115' Regia: Scott Derrickson Cast: Benedict Cumberbatch, Chiwetel Ejiofor, Rachel McAdams, Michael Stuhlbarg, Mads Mikkelsen, Tilda Swinton, Scott Adkins, Benedict Wong, Amy Landecker Produzione: Marvel Studios Distribuzione: Walt Disney Data di uscita: 26 Ottobre 2016 (cinema) Trama: Il neurochirurgo Stephen Strange vede la sua vita cambiare per sempre dopo che un terribile incidente automobilistico lo priva dell’uso delle mani. Quando la medicina tradizionale si dimostra incapace di guarirlo, Strange è costretto cercare una cura in un luogo inaspettato: una misteriosa enclave nota come Kamar-Taj. Scoprirà presto che non si tratta soltanto di un luogo di guarigione, ma della prima linea di una battaglia contro invisibili forze oscure decise a distruggere la nostra realtà. Presto, Strange imparerà a padroneggiare la magia e sarà costretto a scegliere se fare ritorno alla sua vita agiata o abbandonare tutto per difendere il mondo e diventare il più potente stregone vivente.

Teen Titans Go! 2014 Animated Complete SE2 Burntodisc

Language: | Size: 15.63 GB | Seed: 4 | Leech: 24

Description:

Teen Titans Go! is a TV show that follows the Teen Titans when not saving the world and when living together as teenagers without adult supervision.[3] The Teen Titans must deal with situations such as teenage pranks, reaching a whole new level, having to retake a driver's test after wrecking the Batmobile, taking part in dodgeball tournaments, fighting each other, and other antics. SE1 SE2 = 4 discs DISCS IN SET...: 2 EPISODES.......: 26 (52 segments) SIZE...........: DVD9 VIDEO CODEC....: MPEG2 RESOLUTION.....: 720x480 ASPECT RATIO...: NTSC 16:9 FRAMERATE......: 29.97fps AUDIO .........: English 192kb/s SUBTITLES......: None MENU...........: Yes CHAPTERS.......: Yes DISC COVER.....: Yes

Teen Titans Go! 2013 Animated Complete SE1 Burntodisc

Language: | Size: 15.48 GB | Seed: 308 | Leech: 34

Description:

Teen Titans Go! is a TV show that follows the Teen Titans when not saving the world and when living together as teenagers without adult supervision.[3] The Teen Titans must deal with situations such as teenage pranks, reaching a whole new level, having to retake a driver's test after wrecking the Batmobile, taking part in dodgeball tournaments, fighting each other, and other antics. SE1 SE2 = 4 discs DISCS IN SET...: 2 EPISODES.......: 26 (52 segments) SIZE...........: DVD9 VIDEO CODEC....: MPEG2 RESOLUTION.....: 720x480 ASPECT RATIO...: NTSC 16:9 FRAMERATE......: 29.97fps AUDIO .........: English 192kb/s SUBTITLES......: None MENU...........: Yes CHAPTERS.......: Yes DISC COVER.....: Yes

Elizabeth - The Golden Age (2007) BDRip 1080p HEVC ITA DTS ITA ENG AC3 PirateMKV.mkv

Language: | Size: 4.31 GB | Seed: 51 | Leech: 53

Description:

Nel 1585 l'Europa è scossa dalla Guerra santa intrapresa da Filippo II di Spagna: solo la regina anglicana d'Inghilterra, Elisabetta, osa opporglisi. La regina, oltre alle preoccupazioni di politica estera, deve anche interessarsi dei problemi interni al suo regno dal momento che, non essendosi sposata e non avendo figli, il suo trono potrebbe essere ereditato dalla sua cugina cattolica Mary Stuart, regina di Scozia, tenuta prigioniera dalla sovrana inglese in un castello. A mature Queen Elizabeth endures multiple crises late in her reign including court intrigues, an assassination plot, the Spanish Armada, and romantic disappointments.

Elizabeth.1998.iTA-ENG.Bluray.1080p.H265.ICV-MIRCrew.mkv

Language: | Size: 5.51 GB | Seed: 10 | Leech: 30

Description:

A film of the early years of the reign of Elizabeth I of England and her difficult task of learning what is necessary to be a monarch.

Hibike! Euphonium S02e01-13 [720p - H264 - Jap Aac - Hardsub ita]

Language: | Size: 4.77 GB | Seed: 10 | Leech: 63

Description:

Hibike! Euphonium S02e01-13 [720p - H264 - Jap Aac - Hardsub ita] .: Trama :. Un tempo il club dell'orchestra di strumenti del liceo Kitauji gareggiava ai tornei nazionali ed era uno dei favoriti per la vittoria. Tuttavia, dal cambiamento del suo consulente in poi, non è più neanche in grado di partecipare al torneo di qualificazione. Con l'arrivo di Taki, il severo sostituto della signora Rikako, le cose iniziano nuovamente ad andare bene e, dopo litigi su chi deve interpretare gli assoli, membri che danno la priorità allo studio e altri che saltano le attività del club, arriva il tanto atteso giorno del concorso... .: Scheda :. Titolo originale: Hibike! Yūfoniamu 2 (響け!ユーフォニアム2) Anno: 5 ottobre – 28 dicembre 2016 Genere: Musica, Scolastico, Slice of Life, Yuri Studio: Kyoto Animation Distribuzione: Giappone Tokyo MX1, SUN, KBS, TVA, BS11, AT-X / Italia Crunchyroll Numero episodi: 13 (completa) Durata approssimativa: 24 minuti (tranne il 1º ep. da 48 min.) .: Dati tecnici del file :. Info sul file Nome: Hibike! Euphonium S02e01 - Fanfara di mezza estate - [TnC].mp4 Data: 11/12/2016 15:43:24 Dimensione: 712,995,855 bytes (679.966 MB) Info generiche Durata: 00:47:40 (2860.21 s) Tipo di contenitore: MP4/MOV Major brand: ISO Base Media version 1 Compatible brands: JVT AVC Data creazione: 16/10/2016 22:09:46 UTC Data modifica: 16/10/2016 22:09:46 UTC Streams totali: 2 Tipo stream n. 1: video (avc1) Tipo stream n. 2: audio (AAC Low complexity) Audio streams: 1 Dati rilevanti Risoluzione: 1280 x 720 Larghezza: multipla di 32 Altezza: multipla di 16 Traccia video Codec: avc1 Risoluzione: 1280 x 720 Frame aspect ratio: 16:9 = 1.777777 Pixel aspect ratio: 1:1 = 1 Display aspect ratio: 16:9 = 1.777777 Framerate: 23.976023 fps Frames totali: 68573 Bitrate: 1841.999026 kbps Traccia audio Codec: AAC Low complexity Bitrate: 148.493751 kbps Canali: 2 Frequenza: 44100 Hz Info sulla codifica H.264 User data: x264 User data: core 148 r2638 7599210 User data: H.264/MPEG-4 AVC codec User data: Copyleft 2003-2015 User data: http://www.videolan.org/x264.html User data: cabac=1 User data: ref=3 User data: deblock=1:0:0 User data: analyse=0x3:0x113 User data: me=hex User data: subme=7 User data: psy=1 User data: psy_rd=1.00:0.00 User data: mixed_ref=1 User data: me_range=16 User data: chroma_me=1 User data: trellis=1 User data: 8x8dct=1 User data: cqm=0 User data: deadzone=21,11 User data: fast_pskip=1 User data: chroma_qp_offset=-2 User data: threads=6 User data: lookahead_threads=1 User data: sliced_threads=0 User data: nr=0 User data: decimate=1 User data: interlaced=0 User data: bluray_compat=0 User data: constrained_intra=0 User data: bframes=3 User data: b_pyramid=2 User data: b_adapt=1 User data: b_bias=0 User data: direct=1 User data: weightb=1 User data: open_gop=0 User data: weightp=2 User data: keyint=240 User data: keyint_min=23 User data: scenecut=40 User data: intra_refresh=0 User data: rc_lookahead=40 User data: rc=2pass User data: mbtree=1 User data: bitrate=1842 User data: ratetol=1.0 User data: qcomp=0.60 User data: qpmin=0 User data: qpmax=69 User data: qpstep=4 User data: cplxblur=20.0 User data: qblur=0.5 User data: ip_ratio=1.40 User data: aq=1:1.00 SPS id: 0 Profile: [email protected] Num ref frames: 4 Aspect ratio: Square pixels Chroma format idc: YUV 4:2:0 PPS id: 0 (SPS: 0) Codifica entropica: CABAC Weighted prediction: P slices - explicit weighted prediction Weighted bipred idc: B slices - implicit weighted prediction 8x8dct: Sì Profile compliancy Profilo da testare: MTK PAL 6000 Risoluzione: 1280 x 720 > 720 x 576 Framerate: 23.976023 <> 25 Rapporto generato da AVInaptic (18-11-2007) in data 11 feb 2017, h 12:53:44

The Tom And Jerry Show 2014 Complete SE1 Burntodisc

Language: | Size: 15.56 GB | Seed: 5 | Leech: 33

Description:

The series normally follows the antics of Tom in his pursuit of Jerry SE1: 2 DISCS EPISODES: 26 episodes 52 segments SIZE: DVD9 VIDEO CODEC: MPEG2 RESOLUTION: 720x480 ASPECT RATIO: NTSC 16:9 FRAMERATE: 29.97fps AUDIO: English 192kb/s SUBTITLES: None MENU: Yes CHAPTERS: Yes DISC COVER: Custom

Trolls (2016).H264.Italian.English.Ac3.5.1.sub.ita.eng.iCV-MIRCrew

Language: | Size: 1.33 GB | Seed: 5 | Leech: 22

Description:

Trolls (2016).H264.Italian.English.Ac3.5.1.sub.ita.eng.iCV-MIRCrew [center] [color=red][b][img]http://extraimago.com/images/2016/07/16/oCo82IVa08d8.png[/img] [u]NO FOUND ONLY ORIGINAL RELEASE[/u] [img]http://i.imgur.com/GDNQx1Z.png[/img] My release is always in double track audio italian and Original audio for select it use VLC or dvd player home not use wmp Trolls (2016) [img]https://extraimage.net/images/2017/02/13/034522ded02c8ff50098dd156e2b897a.png[/img] [URL=http://www.imdb.com/title/tt1679335/][IMG]http://www.userlogos.org/files/logos/Sucka/imdb_new.png[/IMG][/URL] [img]http://i.imgur.com/Q5gAZRt.png[/img] Titolo originale Trolls Lingua originale inglese Paese di produzione Stati Uniti Anno 2016 Durata 92 minuti Rapporto 1,85:1 Genere animazione, musicale, commedia Regia Mike Mitchell, Walt Dohrn Soggetto Troll dolls di Thomas Dam Sceneggiatura Erica Rivinoja Produttore Gina Shay Produttore esecutivo Dannie Festa Casa di produzione DreamWorks Animation Distribuzione (Italia) 20th Century Fox Montaggio Julie Rogers Musiche Christophe Beck [img]http://i.imgur.com/Jtvgw7x.png[/img] Doppiatori originali Anna Kendrick: Principessa Poppy Justin Timberlake: Branch Zooey Deschanel: Brigida Russell Brand: Creek James Corden: Grandino Gwen Stefani: DJ Suki Icona Pop: Seta e Ciniglia Christopher Mintz-Plasse: Re Gristle John Cleese: Re Gristle Sr. Jeffrey Tambor: Re Peppy Christine Baranski: Chef Ron Funches: Cooper Kunal Nayyar: Guy Diamante GloZell Green: Rosiepuff Meg DeAngelis: Moxie Dewdrop Ricky Dillon: Aspen Heitz Kandee Johnson: Mandy Sparkledust Walt Dohrn: Signor Nuvola Doppiatori italiani Elisa: Principessa Poppy Alessio Bernabei: Branch Francesca Manicone: Brigida (dialoghi) Carlotta Centanni: Brigida (canto) Emiliano Coltorti: Creek Luigi Morville: Grandino Giuppy Izzo: DJ Suki Rossa Caputo: Seta Gemma Donati: Ciniglia Gabriele Patriarca: Re Gristle Giorgio Lopez: Re Gristle Sr. Pino Insegno: Re Peppy Emanuela Rossi: Chef Nanni Baldini: Cooper Stefano Thermes: Guy Diamante Mirta Pepe: Rosiepuff Micaela Incitti: Moxie Dewdrop Giulia Catania: Aspen Heitz Irene Trotta: Mandy Sparkledust Francesco De Francesco: Signor Nuvola; Minuta [img]http://i.imgur.com/hL3n1m8.png[/img] I Troll sono piccole creature che vivono in uno stato quasi perpetuo di felicità, cantando, ballando ed abbracciandosi tutto il giorno. Tuttavia vengono scoperti dai Bergen, enormi creature che pensano di non poter provare allegria, e che si convincono di poterla ottenere mangiando un Troll;.............. [img]http://i.imgur.com/MTp7cO6.png[/img] After the Bergens invade Troll Village, Poppy, the happiest Troll ever born, and the curmudgeonly Branch set off on a journey to rescue her friends. ............. [img]http://i.imgur.com/6TgqSmf.png[/img] [url=https://extraimage.net/image/2zeX][img]https://extraimage.net/images/2017/02/13/1b8858da57bae724e1e12dcebe4cde31.th.png[/img][/url] [url=https://extraimage.net/image/2zeP][img]https://extraimage.net/images/2017/02/13/c1f120956ecbbbadd62ef482cae7113a.th.png[/img][/url] [url=https://extraimage.net/image/2zeg][img]https://extraimage.net/images/2017/02/13/897f1a6e5f93047cf29637ab9acfcc47.th.png[/img][/url] [img]http://i.imgur.com/t8N3Ia1.png[/img] [spoiler] General Unique ID : 85432298368665845196444429472489329088 (0x4045A9839E960A707B56769F5B20D1C0) Complete name : Trolls (2016).H264.ita.eng.sub.ita.eng.iCV-MIRCrew.mkv Format : Matroska Format version : Version 2 File size : 1.33 GiB Duration : 1h 32mn Overall bit rate : 2 053 Kbps Movie name : VISIT www.icv-crew.org Encoded date : UTC 2017-02-09 06:28:40 Writing application : Lavf54.63.100 Writing library : Lavf54.63.100 COPYRIGHT : robbyrs Video ID : 1 Format : AVC Format/Info : Advanced Video Codec Format profile : [email protected] Format settings, CABAC : Yes Format settings, ReFrames : 2 frames Codec ID : V_MPEG4/ISO/AVC Duration : 1h 32mn Bit rate : 1 280 Kbps Width : 720 pixels Height : 304 pixels Display aspect ratio : 2.35:1 Original display aspect ratio : 2.35:1 Frame rate mode : Variable Frame rate : 23.976 fps Color space : YUV Chroma subsampling : 4:2:0 Bit depth : 8 bits Scan type : Progressive Bits/(Pixel*Frame) : 0.244 Stream size : 823 MiB (61%) Writing library : x264 core 130 r2273 Encoding settings : cabac=1 / ref=2 / deblock=1:0:0 / analyse=0x1:0x131 / me=hex / subme=7 / psy=1 / psy_rd=1.00:0.00 / mixed_ref=0 / me_range=16 / chroma_me=1 / trellis=1 / 8x8dct=0 / cqm=0 / deadzone=21,11 / fast_pskip=1 / chroma_qp_offset=-2 / threads=12 / lookahead_threads=2 / sliced_threads=0 / nr=0 / decimate=1 / interlaced=0 / bluray_compat=0 / constrained_intra=0 / bframes=3 / b_pyramid=0 / b_adapt=1 / b_bias=0 / direct=3 / weightb=1 / open_gop=0 / weightp=2 / keyint=230 / keyint_min=23 / scenecut=40 / intra_refresh=0 / rc_lookahead=40 / rc=2pass / mbtree=1 / bitrate=1280 / ratetol=1.0 / qcomp=0.60 / qpmin=10 / qpmax=69 / qpstep=4 / cplxblur=20.0 / qblur=0.5 / vbv_maxrate=24000 / vbv_bufsize=24000 / nal_hrd=none / ip_ratio=1.40 / aq=1:1.00 Language : Italian Default : Yes Forced : No DURATION : 01:32:26.917000000 NUMBER_OF_FRAMES : 132993 NUMBER_OF_BYTES : 6792096980 _STATISTICS_WRITING_APP : mkvmerge v8.3.0 ('Over the Horizon') 64bit _STATISTICS_WRITING_DATE_UTC : 2017-02-09 06:28:40 _STATISTICS_TAGS : BPS DURATION NUMBER_OF_FRAMES NUMBER_OF_BYTES Audio #1 ID : 2 Format : AC-3 Format/Info : Audio Coding 3 Mode extension : CM (complete main) Codec ID : A_AC3 Duration : 1h 32mn Bit rate mode : Constant Bit rate : 384 Kbps Channel(s) : 6 channels Channel positions : Front: L C R, Side: L R, LFE Sampling rate : 48.0 KHz Bit depth : 16 bits Compression mode : Lossy Delay relative to video : 1mn 5s Stream size : 254 MiB (19%) Language : Italian Default : Yes Forced : No DURATION : 01:32:27.904000000 NUMBER_OF_FRAMES : 173372 NUMBER_OF_BYTES : 266299392 _STATISTICS_WRITING_APP : mkvmerge v8.3.0 ('Over the Horizon') 64bit _STATISTICS_WRITING_DATE_UTC : 2017-02-09 06:28:40 _STATISTICS_TAGS : BPS DURATION NUMBER_OF_FRAMES NUMBER_OF_BYTES Audio #2 ID : 3 Format : AC-3 Format/Info : Audio Coding 3 Mode extension : CM (complete main) Codec ID : A_AC3 Duration : 1h 32mn Bit rate mode : Constant Bit rate : 384 Kbps Channel(s) : 6 channels Channel positions : Front: L C R, Side: L R, LFE Sampling rate : 48.0 KHz Bit depth : 16 bits Compression mode : Lossy Delay relative to video : 1mn 5s Stream size : 254 MiB (19%) Language : English Default : No Forced : No DURATION : 01:32:26.976000000 NUMBER_OF_FRAMES : 173343 NUMBER_OF_BYTES : 443758080 _STATISTICS_WRITING_APP : mkvmerge v8.3.0 ('Over the Horizon') 64bit _STATISTICS_WRITING_DATE_UTC : 2017-02-09 06:28:40 _STATISTICS_TAGS : BPS DURATION NUMBER_OF_FRAMES NUMBER_OF_BYTES Text #1 ID : 4 Format : UTF-8 Codec ID : S_TEXT/UTF8 Codec ID/Info : UTF-8 Plain Text Title : FORCED iTA Language : Italian Default : Yes Forced : No DURATION : 00:00:36.036000000 NUMBER_OF_FRAMES : 8 NUMBER_OF_BYTES : 268 _STATISTICS_WRITING_APP : mkvmerge v8.3.0 ('Over the Horizon') 64bit _STATISTICS_WRITING_DATE_UTC : 2017-02-09 06:28:40 _STATISTICS_TAGS : BPS DURATION NUMBER_OF_FRAMES NUMBER_OF_BYTES Text #2 ID : 5 Format : UTF-8 Codec ID : S_TEXT/UTF8 Codec ID/Info : UTF-8 Plain Text Title : REGULAR iTA Language : Italian Default : No Forced : No DURATION : 01:31:26.737000000 NUMBER_OF_FRAMES : 1364 NUMBER_OF_BYTES : 40490 _STATISTICS_WRITING_APP : mkvmerge v8.3.0 ('Over the Horizon') 64bit _STATISTICS_WRITING_DATE_UTC : 2017-02-09 06:28:40 _STATISTICS_TAGS : BPS DURATION NUMBER_OF_FRAMES NUMBER_OF_BYTES Text #3 ID : 6 Format : UTF-8 Codec ID : S_TEXT/UTF8 Codec ID/Info : UTF-8 Plain Text Title : REGULAR ENG Language : English Default : No Forced : No DURATION : 01:29:54.089000000 NUMBER_OF_FRAMES : 1678 NUMBER_OF_BYTES : 46344 _STATISTICS_WRITING_APP : mkvmerge v8.3.0 ('Over the Horizon') 64bit _STATISTICS_WRITING_DATE_UTC : 2017-02-09 06:28:40 _STATISTICS_TAGS : BPS DURATION NUMBER_OF_FRAMES NUMBER_OF_BYTES Text #4 ID : 7 Format : UTF-8 Codec ID : S_TEXT/UTF8 Codec ID/Info : UTF-8 Plain Text Title : NON UDENTI ENG Language : English Default : No Forced : No DURATION : 01:29:54.089000000 NUMBER_OF_FRAMES : 1895 NUMBER_OF_BYTES : 52073 _STATISTICS_WRITING_APP : mkvmerge v8.3.0 ('Over the Horizon') 64bit _STATISTICS_WRITING_DATE_UTC : 2017-02-09 06:28:40 _STATISTICS_TAGS : BPS DURATION NUMBER_OF_FRAMES NUMBER_OF_BYTES Menu 00:00:00.000 : :00:00:00.000 00:02:20.474 : :00:02:20.474 00:06:22.924 : :00:06:22.924 00:10:42.642 : :00:10:42.642 00:13:26.597 : :00:13:26.597 00:18:34.363 : :00:18:34.363 00:22:12.790 : :00:22:12.790 00:25:41.081 : :00:25:41.081 00:28:53.732 : :00:28:53.732 00:32:55.098 : :00:32:55.098 00:36:33.107 : :00:36:33.107 00:40:56.787 : :00:40:56.787 00:44:21.659 : :00:44:21.659 00:47:27.970 : :00:47:27.970 00:51:27.084 : :00:51:27.084 00:55:45.675 : :00:55:45.675 00:59:58.761 : :00:59:58.761 01:03:17.084 : :01:03:17.084 01:05:17.663 : :01:05:17.663 01:07:56.530 : :01:07:56.530 01:10:25.262 : :01:10:25.262 01:13:31.657 : :01:13:31.657 01:16:21.243 : :01:16:21.243 01:21:44.733 : :01:21:44.733 [/spoiler] [/color][/b][/center]

The Accountant (2016).H264.Italian.English.Ac3.5.1.sub.ita.eng.iCV-MIRCrew

Language: | Size: 1.83 GB | Seed: 5 | Leech: 172

Description:

The Accountant (2016).H264.Italian.English.Ac3.5.1.sub.ita.eng.iCV-MIRCrew [center] [color=red][b][img]http://s23.postimg.org/b9yhws27f/0sc_Del1.png[/img] [u]NO FOUND ONLY ORIGINAL RELEASE[/u] [img]http://i.imgur.com/GDNQx1Z.png[/img] My release is always in double track audio italian and Original audio for select it use VLC or dvd player home not use wmp The Accountant (2016) [img]https://extraimage.net/images/2017/02/13/7db1f851073b64850d76319fc083eaed.png[/img] [URL=http://www.imdb.com/title/tt2140479/][IMG]http://www.userlogos.org/files/logos/Sucka/imdb_new.png[/IMG][/URL] [img]http://i.imgur.com/fGu1rKv.png[/img] DATA USCITA: 27 ottobre 2016 GENERE: Drammatico ANNO: 2016 REGIA: Gavin O'Connor SCENEGGIATURA: Bill Dubuque FOTOGRAFIA: Seamus McGarvey MONTAGGIO: Richard Pearson MUSICHE: Mark Isham PRODUZIONE: Electric City Entertainment, Zero Gravity Management DISTRIBUZIONE: Warner Bros. PAESE: USA DURATA: 128 Min [img]http://i.imgur.com/W7kBqiE.png[/img] Ben Affleck, Anna Kendrick, Jon Bernthal, J.K. Simmons, John Lithgow, Jeffrey Tambor, Alison Wright, Cynthia Addai-Robinson, Ron Yuan [img]http://i.imgur.com/bFK3ggF.png[/img] Christian Wolff, un genio matematico che ha più affinità con i numeri che con le persone, lavora sotto copertura in un piccolo studio come contabile freelance per alcune delle più pericolose organizzazioni criminali del pianeta [img]http://i.imgur.com/48xHWWH.png[/img] As a math savant uncooks the books for a new client, the Treasury Department closes in on his activities and the body count starts to rise. [img]http://i.imgur.com/K8bfNTy.png[/img] [url=https://extraimage.net/image/2zZM][img]https://extraimage.net/images/2017/02/13/88448b9a45fca53dd07467147eaa5f1b.th.png[/img][/url] [url=https://extraimage.net/image/2zZU][img]https://extraimage.net/images/2017/02/13/33de62460afb3955ef346704b700adc6.th.png[/img][/url] [url=https://extraimage.net/image/2zZz][img]https://extraimage.net/images/2017/02/13/cf13f17f8de369b1cf55f3f8024b7563.th.png[/img][/url] [img]http://i.imgur.com/aVrMohH.png[/img] [spoiler] General Unique ID : 245323344504455298737863210057651670622 (0xB88F8EB9E1D0C5008C2C7D7949034E5E) Complete name : The Accountant (2016).H264.ita.eng.sub.ita.eng.iCV-MIRCrew.mkv Format : Matroska Format version : Version 2 File size : 1.83 GiB Duration : 2h 7mn Overall bit rate : 2 053 Kbps Movie name : VISIT www.icv-crew.org Encoded date : UTC 2017-02-12 15:46:48 Writing application : Lavf54.63.100 Writing library : Lavf54.63.100 COPYRIGHT : robbyrs Video ID : 1 Format : AVC Format/Info : Advanced Video Codec Format profile : [email protected] Format settings, CABAC : Yes Format settings, ReFrames : 2 frames Codec ID : V_MPEG4/ISO/AVC Duration : 2h 7mn Bit rate : 1 280 Kbps Width : 720 pixels Height : 300 pixels Display aspect ratio : 2.40:1 Frame rate mode : Variable Frame rate : 23.976 fps Color space : YUV Chroma subsampling : 4:2:0 Bit depth : 8 bits Scan type : Progressive Bits/(Pixel*Frame) : 0.247 Stream size : 1.11 GiB (61%) Writing library : x264 core 130 r2273 Encoding settings : cabac=1 / ref=2 / deblock=1:0:0 / analyse=0x1:0x131 / me=hex / subme=7 / psy=1 / psy_rd=1.00:0.00 / mixed_ref=0 / me_range=16 / chroma_me=1 / trellis=1 / 8x8dct=0 / cqm=0 / deadzone=21,11 / fast_pskip=1 / chroma_qp_offset=-2 / threads=12 / lookahead_threads=2 / sliced_threads=0 / nr=0 / decimate=1 / interlaced=0 / bluray_compat=0 / constrained_intra=0 / bframes=3 / b_pyramid=0 / b_adapt=1 / b_bias=0 / direct=3 / weightb=1 / open_gop=0 / weightp=2 / keyint=230 / keyint_min=23 / scenecut=40 / intra_refresh=0 / rc_lookahead=40 / rc=2pass / mbtree=1 / bitrate=1280 / ratetol=1.0 / qcomp=0.60 / qpmin=10 / qpmax=69 / qpstep=4 / cplxblur=20.0 / qblur=0.5 / vbv_maxrate=24000 / vbv_bufsize=24000 / nal_hrd=none / ip_ratio=1.40 / aq=1:1.00 Language : Italian Default : Yes Forced : No DURATION : 02:07:54.250000000 NUMBER_OF_FRAMES : 183998 NUMBER_OF_BYTES : 9565578531 _STATISTICS_WRITING_APP : mkvmerge v8.3.0 ('Over the Horizon') 64bit _STATISTICS_WRITING_DATE_UTC : 2017-02-09 06:56:07 _STATISTICS_TAGS : BPS DURATION NUMBER_OF_FRAMES NUMBER_OF_BYTES Audio #1 ID : 2 Format : AC-3 Format/Info : Audio Coding 3 Mode extension : CM (complete main) Codec ID : A_AC3 Duration : 2h 7mn Bit rate mode : Constant Bit rate : 384 Kbps Channel(s) : 6 channels Channel positions : Front: L C R, Side: L R, LFE Sampling rate : 48.0 KHz Bit depth : 16 bits Compression mode : Lossy Delay relative to video : 1mn 5s Stream size : 351 MiB (19%) Language : Italian Default : Yes Forced : No DURATION : 02:07:53.344000000 NUMBER_OF_FRAMES : 239792 NUMBER_OF_BYTES : 368320512 _STATISTICS_WRITING_APP : mkvmerge v8.3.0 ('Over the Horizon') 64bit _STATISTICS_WRITING_DATE_UTC : 2017-02-09 06:56:07 _STATISTICS_TAGS : BPS DURATION NUMBER_OF_FRAMES NUMBER_OF_BYTES Audio #2 ID : 3 Format : AC-3 Format/Info : Audio Coding 3 Mode extension : CM (complete main) Codec ID : A_AC3 Duration : 2h 7mn Bit rate mode : Constant Bit rate : 384 Kbps Channel(s) : 6 channels Channel positions : Front: L C R, Side: L R, LFE Sampling rate : 48.0 KHz Bit depth : 16 bits Compression mode : Lossy Delay relative to video : 1mn 5s Stream size : 351 MiB (19%) Language : English Default : No Forced : No DURATION : 02:07:54.240000000 NUMBER_OF_FRAMES : 239820 NUMBER_OF_BYTES : 613939200 _STATISTICS_WRITING_APP : mkvmerge v8.3.0 ('Over the Horizon') 64bit _STATISTICS_WRITING_DATE_UTC : 2017-02-09 06:56:07 _STATISTICS_TAGS : BPS DURATION NUMBER_OF_FRAMES NUMBER_OF_BYTES Text #1 ID : 4 Format : UTF-8 Codec ID : S_TEXT/UTF8 Codec ID/Info : UTF-8 Plain Text Title : FORCED iTA Language : Italian Default : Yes Forced : No DURATION : 01:53:26.682000000 NUMBER_OF_FRAMES : 27 NUMBER_OF_BYTES : 815 _STATISTICS_WRITING_APP : mkvmerge v8.3.0 ('Over the Horizon') 64bit _STATISTICS_WRITING_DATE_UTC : 2017-02-09 06:56:07 _STATISTICS_TAGS : BPS DURATION NUMBER_OF_FRAMES NUMBER_OF_BYTES Text #2 ID : 5 Format : UTF-8 Codec ID : S_TEXT/UTF8 Codec ID/Info : UTF-8 Plain Text Title : REGULAR iTA Language : Italian Default : No Forced : No DURATION : 01:58:57.471000000 NUMBER_OF_FRAMES : 1536 NUMBER_OF_BYTES : 49681 _STATISTICS_WRITING_APP : mkvmerge v8.3.0 ('Over the Horizon') 64bit _STATISTICS_WRITING_DATE_UTC : 2017-02-09 06:56:07 _STATISTICS_TAGS : BPS DURATION NUMBER_OF_FRAMES NUMBER_OF_BYTES Text #3 ID : 6 Format : UTF-8 Codec ID : S_TEXT/UTF8 Codec ID/Info : UTF-8 Plain Text Title : NON UDENTI ENG Language : English Default : No Forced : No DURATION : 02:07:13.041000000 NUMBER_OF_FRAMES : 1702 NUMBER_OF_BYTES : 57484 _STATISTICS_WRITING_APP : mkvmerge v8.3.0 ('Over the Horizon') 64bit _STATISTICS_WRITING_DATE_UTC : 2017-02-09 06:56:07 _STATISTICS_TAGS : BPS DURATION NUMBER_OF_FRAMES NUMBER_OF_BYTES Menu 00:00:00.000 : :00:00:00.000 00:13:01.447 : :00:13:01.447 00:20:36.277 : :00:20:36.277 00:29:30.394 : :00:29:30.394 00:38:44.656 : :00:38:44.656 00:49:33.679 : :00:49:33.679 01:00:05.435 : :01:00:05.435 01:13:39.707 : :01:13:39.707 01:25:57.069 : :01:25:57.069 01:39:15.658 : :01:39:15.658 01:54:31.156 : :01:54:31.156 02:01:40.251 : :02:01:40.251 [/spoiler] [/color][/b][/center]

Atjazz - Lab Results [Flac][TntVillage]

Language: | Size: 427.11 MB | Seed: 62 | Leech: 27

Description:

[img]http://i.imgur.com/Q0E01LL.jpg[/img] Artist...............: Atjazz Album................: Lab Results Genre................: Acid Jazz Electronic Source...............: CD Year.................: 2001 Ripper...............: EAC (Secure mode) / LAME 3.92 & Asus CD-S520 Codec................: Free Lossless Audio Codec (FLAC) Version..............: reference libFLAC 1.3.1 20141125 Quality..............: Lossless, (avg. compression: 60 %) Channels.............: Stereo / 44100 HZ / 16 Bit Tags.................: VorbisComment Information..........: TntVillage Ripped by............: Leonenero on 12/02/2017 Posted by............: Leonenero on 12/02/2017 News Server..........: news.astraweb.com News Group(s)........: TNTVILLAGE Included.............: NFO, M3U, LOG, CUE Covers...............: Front Back CD --------------------------------------------------------------------- Tracklisting --------------------------------------------------------------------- 1. Atjazz - Harmony (Dixon's Late Night Mix) [05:32] 2. Atjazz - Wrong Type Of Day [05:49] 3. Atjazz - Touch The Sun (Dzihan & Kamien's Sun Care Remix) [05:48] 4. Atjazz - Witchbender [06:52] 5. Atjazz - Day 2001 (Brooks Flood Loop Remix) [05:31] 6. Atjazz - Rain Angel [06:17] 7. Atjazz - Harmony (Little Big Bee Remix) [08:50] 8. Atjazz - It's Complete (Chateau Flight Dark Side Remix) [05:05] 9. Atjazz - The Walk Home [06:35] 10. Atjazz - It's Complete (Phil Barnell's Pushin' Your Love Remix) [05:30] 11. Atjazz - Touch The Sun (King Britt's Scuba Journey) [08:53] Playing Time.........: 01:10:48 Total Size...........: 426,61 MB Atjazz wisely handed a few of his Lab Funk productions to cooler heads than his own for the remixes-and-originals full-length Lab Results. dZihan & Kamien do a good job roughing up "Touch the Sun," Chateau Flight's warped version of "It's Complete" improves the rather bland original, and King Britt and Dixon do solid work as well. Of the originals, "Witchbender" recalls the sublime bleep techno of As One and LFO, though "Rain Angel" descends into the worst excesses of quiet storm.

Atjazz - Labfunk [Flac][TntVillage]

Language: | Size: 477.74 MB | Seed: 37 | Leech: 18

Description:

[img]http://i.imgur.com/07g0t10.jpg[/img] Artist...............: Atjazz Album................: Labfunk Genre................: Acid Jazz Electronic Source...............: CD Year.................: 2001 Ripper...............: EAC (Secure mode) / LAME 3.92 & Asus CD-S520 Codec................: Free Lossless Audio Codec (FLAC) Version..............: reference libFLAC 1.3.1 20141125 Quality..............: Lossless, (avg. compression: 65 %) Channels.............: Stereo / 44100 HZ / 16 Bit Tags.................: VorbisComment Information..........: TntVillage Ripped by............: Leonenero on 12/02/2017 Posted by............: Leonenero on 12/02/2017 News Server..........: news.astraweb.com News Group(s)........: TNTVILLAGE Included.............: NFO, M3U, LOG, CUE Covers...............: Front Back CD --------------------------------------------------------------------- Tracklisting --------------------------------------------------------------------- 1. Atjazz - Labfunk [06:38] 2. Atjazz - Touch The Sun [07:13] 3. Atjazz - Day 2001 [05:40] 4. Atjazz - Strike [07:19] 5. Atjazz - Kidnapped [07:12] 6. Atjazz - All That [09:02] 7. Atjazz - It's Complete [07:12] 8. Atjazz - Interlude [01:20] 9. Atjazz - Harmony [07:21] 10. Atjazz - Heavy Weather [07:20] 11. Atjazz - Casa De Ilusion [06:04] Playing Time.........: 01:12:26 Total Size...........: 477,33 MB Martin Iveson is best known as the music and sound effect producer for the illustrious Tomb Raider video games and a slew of remixes and 12-inch releases on Nottingham's DIY Records. Upon resurrection of his Mantis Recordings in 1998, he hooked up with jazz musician Pete Wraight (who's played with Charles Webster and extensively on Herbert's Bodily Functions) and Atjazz was born.Labfunk is an album that skirts on the outer rim of both deep house and broken beat, in which organic elements and heavily synthesized sounds happily co-exist. Iveson has a very keen ear for both time-honored music and fast-forward future sounds. Tracks like "Strike" exalt this, with a Herbie Hancock-esque neoprene bassline, muted trumpets and ultra-clean drum break. "Kidnapped" continues on the same path, with an aggressive bassline and more of Atjazz's signature '70s throwback muted horns, while "It's Complete" is on more of a mellow tip, with a subtle drum break, star-kissed synths and a synthetic bass line. The true standout of the album is "Harmony," the only female vocal oriented track that makes a very sudden (and tasteful) change-up from broken beat to straight house music mid-way through the track. This is an expertly programmed album that breaks genre barriers and will appeal to fans of house, broken beat, downtempo and funk. This electronic fusion avoids the syrupy, overwrought instrumentation that has plagued this sound for so long. It's an impure record for purists of all genres, and above all, it's damn good.

Gli Aristogatti - The Aristocats (1970 Ita/Eng) + EXTRA [1080p] [iCV-MIRCrew]

Language: | Size: 4.89 GB | Seed: 2 | Leech: 2

Description:

Titolo originale: The Aristocats Nazionalità: USA Anno: 1970 Genere: animazione, avventura, commedia, musicale Regia: Wolfgang Reitherman Durata: 78 min Trama: Madame Adelaide, una ricca attrice a riposo ormai sulla strada della vecchiaia, nomina eredi universali i suoi quattro gatti: Mamma Duchessa e i cuccioli Minou, Bizet e Matisse. Il maggiordomo Edgar, destinato a sua volta ad ereditare le intere sostanze alla morte dei gatti, e ansioso di mettere al piu' presto le mani sulle ricchezze della padrona, decide di sbarazzarsi degli incomodi concorrenti a quattro zampe. Condottili in una zona isolata di periferia, si accinge ad eliminarli, ma viene messo in fuga dall'intervento di due ferocissimi cani randagi. Rimasti soli, Mamma Duchessa e i suoi tre micetti si imbattono in Romeo, un gatto vagabondo dal cuore d'oro, il quale si impegna a ricondurli dalla loro padrona. Report: http://freetexthost.com/uplx3b0o43 Extra: In questa versione sono compresi gli extra: 1 - L'inizio perduto 2 - "Oui Oui Marie" Video musicale 3 - Canzone eliminata del Classico Originale: "She Never Felt Alone" Dietro le quinte Disney del Classico Originale: 1 - I fratelli Sherman: gli aristocratici delle canzoni Disney 2 - La grande famiglia dei gatti (estratto) 19 settembre 1956 5 - Musica & altro del Classico Originale 6 - Cortometraggio del Classico Originale "Bath Day"

Big Hero 6 (2014 Ita/Eng) + EXTRA [1080p] [iCV-MIRCrew]

Language: | Size: 6.58 GB | Seed: 1 | Leech: 1

Description:

Titolo originale: Big Hero 6 Nazionalità: USA Anno: 2014 Genere: animazione, commedia, drammatico, fantascienza, azione Regia: Don Hall, Chris Williams Durata: 102 min Trama: Big Hero 6 è una commedia d’avventura ricca d’azione sull’enfant prodige esperto di robot Hiro Hamada, che impara a gestire le sue geniali capacità grazie a suo fratello, il brillante Tadashi e ai suoi amici: l’adrenalica Go Go Tamago, il maniaco dell’ordine Wasabi No-Ginger, la maga della chimica Honey Lemon e l’entusiasta Fred. Quando una serie di circostanze disastrose catapultano i protagonisti al centro di un pericoloso complotto che si consuma sulle strade di San Fransokyo, Hiro si rivolge al suo amico più caro, un robot di nome Baymax, e trasforma il suo gruppo di amici in una squadra altamente tecnologica, per riuscire a rivolvere il mistero. Report: http://freetexthost.com/sdwgrbvtxw Extra: In questa versione sono compresi gli extra: 1 - Corto cinematografico: Winston 2 - L'origine di Big Hero 6: il viaggio di Hiro 3 - Big Animator 6: i protagonisti dietro ai personaggi 4 - Scene eliminate con le introduzioni dei registi Don Hall e Chris Williams 5 - Big Hero 6 Trailer cinematografico 6 - Corto di Topolino - Odissea a Tokyo

La.Verita.Sta.In.Cielo.2016.iTALiAN.AC3.DVDRip.XviD-T4P3

Language: | Size: 1.37 GB | Seed: 295 | Leech: 430

Description:

La verità sta in cielo Titolo originale: La verità sta in cielo Conosciuto anche come: Nazione: Italia Anno: 2016 Genere: Thriller Durata: 94' Regia: Roberto Faenza Cast: Riccardo Scamarcio, Maya Sansa, Greta Scarano, Valentina Lodovini, Anthony Souter, Randall Paul, Andrea Iaia, Simone Coppo, Pino Torcasio, Mino Sferra Produzione: Jean Vigo Italia, Rai Cinema Distribuzione: 01 Distribution Data di uscita: 06 Ottobre 2016 (cinema) Trama: Il 22 giugno 1983 Emanuela Orlandi, quindicenne cittadina vaticana, figlia di un messo pontificio, sparisce dal centro di Roma, dando inizio a uno dei più clamorosi casi irrisolti mai accaduti in Italia, conosciuto anche all’estero. Dopo decine di indagini, oscure ipotesi, coinvolgimento di “poteri forti”, depistaggi di ogni genere, una cosa è certa: Emanuela non ha fatto più ritorno a casa. Sollecitata dallo scandalo “Mafia capitale” che attanaglia Roma ai giorni nostri, una rete televisiva inglese decide di inviare a Roma una giornalista di origine italiana per raccontare dove tutto ebbe inizio: quel 22 giugno di tanti anni prima. Con l’aiuto di un’altra giornalista, inviata di un noto programma televisivo italiano, che ha scoperto una nuova pista, entra in scena un personaggio inquietante: Sabrina Minardi. E’ l’amante di Enrico De Pedis, meglio conosciuto come Renatino, il boss che ha saputo gestire meglio di ogni altro il malaffare della capitale, poi finendo sotto i colpi della banda rivale della Magliana. Nonostante il suo passato, Renatino verrà sepolto nella Basilica di S. Apollinare, nel cuore di Roma, proprio accanto alla scuola di musica frequentata da Emanuela: un altro mistero. La Minardi si decide a raccontare quanto afferma di sapere sul sequestro della ragazza. E’ la verità? Quale intreccio indicibile si cela dietro i delitti rimasti impuniti nell’arco di trent’anni?

Hibike! Euphonium S01e01-13 - OAV e Specials [720p - H264 - Jap Aac - Hardsub ita]

Language: | Size: 4.17 GB | Seed: 35 | Leech: 33

Description:

Hibike! Euphonium S01e01-13 - OAV e Specials [720p - H264 - Jap Aac - Hardsub ita] .: Trama :. Un tempo il club dell'orchestra di strumenti del liceo Kitauji gareggiava ai tornei nazionali ed era uno dei favoriti per la vittoria. Tuttavia, dal cambiamento del suo consulente in poi, non è più neanche in grado di partecipare al torneo di qualificazione. Con l'arrivo di Taki, il severo sostituto della signora Rikako, le cose iniziano nuovamente ad andare bene e, dopo litigi su chi deve interpretare gli assoli, membri che danno la priorità allo studio e altri che saltano le attività del club, arriva il tanto atteso giorno del concorso... .: Scheda :. Titolo originale: Hibike! Yūfoniamu (響け!ユーフォニアム) Anno: 7 aprile – 30 giugno 2015 Genere: Musica, Scolastico, Slice of Life, Yuri Studio: Kyoto Animation Distribuzione: Giappone Tokyo MX1, SUN, KBS, TVA, BS11, AT-X / Italia Crunchyroll Numero episodi: 13 (completa), +1 OAV e 7 Specials Durata approssimativa: 24 minuti .: Dati tecnici del file :. Info sul file Nome: Hibike! Euphonium S01e01 - Benvenuti al liceo - [TnC].mp4 Data: 11/12/2016 14:16:28 Dimensione: 314,719,770 bytes (300.14 MB) Info generiche Durata: 00:23:40 (1420.316666 s) Tipo di contenitore: MP4/MOV Major brand: ISO Base Media version 1 Compatible brands: JVT AVC Data creazione: 8/04/2015 20:28:18 UTC Data modifica: 8/04/2015 20:28:18 UTC Streams totali: 2 Tipo stream n. 1: video (avc1) Tipo stream n. 2: audio (AAC Low complexity) Audio streams: 1 Dati rilevanti Risoluzione: 1280 x 720 Larghezza: multipla di 32 Altezza: multipla di 16 Traccia video Codec: avc1 Risoluzione: 1280 x 720 Frame aspect ratio: 16:9 = 1.777777 Pixel aspect ratio: 1:1 = 1 Display aspect ratio: 16:9 = 1.777777 Framerate: 23.976023 fps Frames totali: 34049 Bitrate: 1620.406769 kbps Traccia audio Codec: AAC Low complexity Bitrate: 148.677969 kbps Canali: 2 Frequenza: 44100 Hz Info sulla codifica H.264 User data: x264 User data: core 146 r2538 121396c User data: H.264/MPEG-4 AVC codec User data: Copyleft 2003-2015 User data: http://www.videolan.org/x264.html User data: cabac=1 User data: ref=3 User data: deblock=1:0:0 User data: analyse=0x3:0x113 User data: me=hex User data: subme=7 User data: psy=1 User data: psy_rd=1.00:0.00 User data: mixed_ref=1 User data: me_range=16 User data: chroma_me=1 User data: trellis=1 User data: 8x8dct=1 User data: cqm=0 User data: deadzone=21,11 User data: fast_pskip=1 User data: chroma_qp_offset=-2 User data: threads=3 User data: lookahead_threads=1 User data: sliced_threads=0 User data: nr=0 User data: decimate=1 User data: interlaced=0 User data: bluray_compat=0 User data: constrained_intra=0 User data: bframes=3 User data: b_pyramid=2 User data: b_adapt=1 User data: b_bias=0 User data: direct=1 User data: weightb=1 User data: open_gop=0 User data: weightp=2 User data: keyint=240 User data: keyint_min=23 User data: scenecut=40 User data: intra_refresh=0 User data: rc_lookahead=40 User data: rc=2pass User data: mbtree=1 User data: bitrate=1619 User data: ratetol=1.0 User data: qcomp=0.60 User data: qpmin=0 User data: qpmax=69 User data: qpstep=4 User data: cplxblur=20.0 User data: qblur=0.5 User data: ip_ratio=1.40 User data: aq=1:1.00 SPS id: 0 Profile: [email protected] Num ref frames: 4 Aspect ratio: Square pixels Chroma format idc: YUV 4:2:0 PPS id: 0 (SPS: 0) Codifica entropica: CABAC Weighted prediction: P slices - explicit weighted prediction Weighted bipred idc: B slices - implicit weighted prediction 8x8dct: Sì Profile compliancy Profilo da testare: MTK PAL 6000 Risoluzione: 1280 x 720 > 720 x 576 Framerate: 23.976023 <> 25 Rapporto generato da AVInaptic (18-11-2007) in data 9 feb 2017, h 11:25:13

Ouija - L'Origine Del Male (2016) (by emi) ITA - ENG mkv 720p

Language: | Size: 1.39 GB | Seed: 26 | Leech: 2

Description:

Ouija - L'Origine Del Male (2016) (by emi) ITA - ENG mkv 720p Titolo originale:Ouija 2 Nazione:U.S.A. Anno:2016 Genere:Horror, Thriller Durata:99' Regia:Mike Flanagan Cast:Kate Siegel, Henry Thomas, Doug Jones, Elizabeth Reaser, Lin Shaye, Parker Mack, Sam Anderson, Alexis G. Zall, Lulu Wilson, Annalise Basso Produzione:Allspark Pictures, Blumhouse Productions, Hasbro, Platinum Dunes Distribuzione:Universal Pictures Italia Trama: Nella Los Angeles del 1965, una madre vedova e le sue due figlie introducono un nuovo trucco alle loro consuete frodi spiritiche per ravvivare l'attività di famiglia, finendo per attirare senza volerlo un autentico spirito maligno nella propria casa. Quando la figlia più giovane viene posseduta dall'implacabile entità, questa piccola famiglia dovrà fare i conti con paure inimmaginabili per poterla salvare e rispedire il suo possessore nell'aldilà. In Los Angeles in 1965, a widowed mother and her two daughters introduce a new trick to their usual spiritualistic frauds to revive the family business, only to unwittingly attract genuine evil spirit in their home. When the youngest daughter is possessed by the implacable entities, this small family will have to deal with unimaginable fears to be able to save and to send back its owner in the afterlife. Generale: ID univoco : 207743337285388479349971068505669371983 (0x9C49E951AC61E03420FE8B1A81B2084F) Nome completo : C:\Users\Ouija - L'Origine Del Male (2016) (by emi) ITA - ENG mkv 720p.mkv Formato : Matroska Versione formato : Version 4 / Version 2 Dimensione : 1,39 GiB Durata : 1 o 38 min Bitrate totale : 2.015 kb/s Data codifica : UTC 2017-02-09T19:29:11Z Creato con : HandBrake 1.0.1 2016122900 Compressore : Lavf57.7.2 / Lavf57.7.2 Video ID : 1 Formato : AVC Formato/Informazioni : Advanced Video Codec Profilo formato : [email protected] Impostazioni formato, CABAC : Si Impostazioni formato, ReFrames : 4 frame ID codec : V_MPEG4/ISO/AVC Durata : 1 o 38 min Bitrate : 1.207 kb/s Larghezza : 1.280 pixel Altezza : 690 pixel Rapporto aspetto visualizzazione : 1,85:1 Rapporto aspetto originale : 1,85:1 Modalità frame rate : Costante Frame rate : 23,976 (24000/1001) FPS Spazio colore : YUV Croma subsampling : 4:2:0 Profondità bit : 8 bit Tipo scansione : Progressivo Bit/(pixel*frame) : 0.057 Dimensione della traccia : 854MiB (60%) Compressore : x264 core 148 r2708 86b7198 Impostazioni compressione : cabac=1 / ref=2 / deblock=1:0:0 / analyse=0x1:0x111 / me=hex / subme=6 / psy=1 / psy_rd=1.00:0.00 / mixed_ref=1 / me_range=16 / chroma_me=1 / trellis=1 / 8x8dct=0 / cqm=0 / deadzone=21,11 / fast_pskip=1 / chroma_qp_offset=-2 / threads=12 / lookahead_threads=2 / sliced_threads=0 / nr=0 / decimate=1 / interlaced=0 / bluray_compat=0 / constrained_intra=0 / bframes=3 / b_pyramid=2 / b_adapt=1 / b_bias=0 / direct=1 / weightb=1 / open_gop=0 / weightp=1 / keyint=240 / keyint_min=24 / scenecut=40 / intra_refresh=0 / rc_lookahead=30 / rc=crf / mbtree=1 / crf=22.0 / qcomp=0.60 / qpmin=0 / qpmax=69 / qpstep=4 / vbv_maxrate=20000 / vbv_bufsize=25000 / crf_max=0.0 / nal_hrd=none / filler=0 / ip_ratio=1.40 / aq=1:1.00 Default : Si Forced : No colour_range : Limited Colori primari : BT.709 Caratteristiche trasferimento : BT.709 Coefficienti matrici : BT.709 Audio #1 ID : 2 Formato : AC-3 Formato/Informazioni : Audio Coding 3 Estensione modo : CM (complete main) Impostazioni formato, Endianness : Big ID codec : A_AC3 Durata : 1 o 38 min Modalità bitrate : Costante Bitrate : 384 kb/s Canali : 6 canali Posizione canali : Front: L C R, Side: L R, LFE Frequenza campionamento : 48,0 kHz Frame rate : 31,250 FPS (1536 spf) Modo compressione : Con perdita Ritardo video : -5 ms Dimensione della traccia : 272MiB (19%) Titolo : Surround Lingua : Italiano Default : Si Forced : No Audio #2 ID : 3 Formato : AC-3 Formato/Informazioni : Audio Coding 3 Estensione modo : CM (complete main) Impostazioni formato, Endianness : Big ID codec : A_AC3 Durata : 1 o 38 min Modalità bitrate : Costante Bitrate : 384 kb/s Canali : 6 canali Posizione canali : Front: L C R, Side: L R, LFE Frequenza campionamento : 48,0 kHz Frame rate : 31,250 FPS (1536 spf) Modo compressione : Con perdita Ritardo video : -5 ms Dimensione della traccia : 272MiB (19%) Titolo : Surround Lingua : Inglese Default : No Forced : No Testo #1 ID : 4 Formato : ASS ID codec : S_TEXT/ASS ID codec/Informazioni : Advanced Sub Station Alpha Modo compressione : Senza perdita Lingua : Italiano Default : Si Forced : Si Testo #2 ID : 5 Formato : ASS ID codec : S_TEXT/ASS ID codec/Informazioni : Advanced Sub Station Alpha Modo compressione : Senza perdita Lingua : Italiano Default : No Forced : No Testo #3 ID : 6 Formato : ASS ID codec : S_TEXT/ASS ID codec/Informazioni : Advanced Sub Station Alpha Modo compressione : Senza perdita Lingua : Inglese Default : No Forced : No

Moonwalkers (2015).H264.Italian.English.Ac3.5.1.sub.ita.eng.iCV-MIRCrew

Language: | Size: 1.47 GB | Seed: 50 | Leech: 37

Description:

Moonwalkers (2015).H264.Italian.English.Ac3.5.1.sub.ita.eng.iCV-MIRCrew [center] [color=red][b][img]http://s23.postimg.org/b9yhws27f/0sc_Del1.png[/img] [u]NO FOUND ONLY ORIGINAL RELEASE[/u] [img]http://i.imgur.com/GDNQx1Z.png[/img] My release is always in double track audio italian and Original audio for select it use VLC or dvd player home not use wmp Moonwalkers (2015) [img]https://extraimage.net/images/2017/02/12/96818eaaf9bff650736f15b39465d344.png[/img] [URL=http://www.imdb.com/title/tt2718440/][IMG]http://www.userlogos.org/files/logos/Sucka/imdb_new.png[/IMG][/URL] [img]http://i.imgur.com/fGu1rKv.png[/img] Titolo Originale Moonwalkers Paese Francia Anno 2015 Durata 96 Min Genere Commedia Regia Antoine Bardou-Jacquet. Sceneggiatura Dean Craig Casa Di Produzione Partizan Films, Nexus Factory, Potemkino Distribuzione Blue Swan Fotografia Glynn Speeckaert Montaggio Chris Gill Musiche Matthieu Sibony [img]http://i.imgur.com/W7kBqiE.png[/img] Ron Perlman, Rupert Grint, Robert Sheehan, Stephen Campbell Moore, Jeanne Abraham, Kerry Shale, Eric Lampaert, Jay Benedict, John Flanders, Tom Audenaert, Dan Poole. [img]http://i.imgur.com/bFK3ggF.png[/img] 1969: il governo americano ha bisogno delle riprese di un falso allunaggio per battere sul tempo i russi e manda a Londra un agente della CIA traumatizzato dal Vietnam perché convinca Kubrick a girarlo [img]http://i.imgur.com/48xHWWH.png[/img] What if Apollo 11 never actually made it? What if, in reality, Stanley Kubrick secretly shot the famous images of the moon landing in a studio, working for the US administration? This is the premise of a totally plausible conspiracy theory that takes us to swinging sixties London, where a stubborn CIA agent will never find Kubrick but instead is forced to team up with a lousy manager of a seedy rock band to develop the biggest con of all time, in this riotous, high-tempo action-comedy [img]http://i.imgur.com/K8bfNTy.png[/img] [img]https://extraimage.net/images/2017/02/12/1d2fcbc3cd37ac4b6833b8bf48d5c25c.png[/img] [img]https://extraimage.net/images/2017/02/12/ec93b0876bbb0bf54b622a8c8ab70c8d.png[/img] [img]https://extraimage.net/images/2017/02/12/607af60ac0b1b46cf3b91458a0c8a60f.png[/img] [img]https://extraimage.net/images/2017/02/12/c826d0989b3d5cfc8368de21c2e283ea.png[/img] [img]http://i.imgur.com/aVrMohH.png[/img] [spoiler] General Unique ID : 3146144963669364822330664894973650878 (0x25DECEC3954A5F0019306EED030A7BE) Complete name : Moonwalkers (2015).H264.ita.eng.sub.ita.eng.iCV-MIRCrew.mkv Format : Matroska Format version : Version 2 File size : 1.47 GiB Duration : 1h 36mn Overall bit rate : 2 181 Kbps Movie name : VISIT www.icv-crew.org Encoded date : UTC 2017-02-10 17:18:25 Writing application : Lavf54.63.100 Writing library : Lavf54.63.100 COPYRIGHT : robbyrs Video ID : 1 Format : AVC Format/Info : Advanced Video Codec Format profile : [email protected] Format settings, CABAC : Yes Format settings, ReFrames : 2 frames Codec ID : V_MPEG4/ISO/AVC Duration : 1h 36mn Bit rate : 1 280 Kbps Width : 720 pixels Height : 304 pixels Display aspect ratio : 2.40:1 Frame rate mode : Variable Frame rate : 23.976 fps Color space : YUV Chroma subsampling : 4:2:0 Bit depth : 8 bits Scan type : Progressive Bits/(Pixel*Frame) : 0.244 Stream size : 856 MiB (57%) Writing library : x264 core 130 r2273 Encoding settings : cabac=1 / ref=2 / deblock=1:0:0 / analyse=0x1:0x131 / me=hex / subme=7 / psy=1 / psy_rd=1.00:0.00 / mixed_ref=0 / me_range=16 / chroma_me=1 / trellis=1 / 8x8dct=0 / cqm=0 / deadzone=21,11 / fast_pskip=1 / chroma_qp_offset=-2 / threads=12 / lookahead_threads=2 / sliced_threads=0 / nr=0 / decimate=1 / interlaced=0 / bluray_compat=0 / constrained_intra=0 / bframes=3 / b_pyramid=0 / b_adapt=1 / b_bias=0 / direct=3 / weightb=1 / open_gop=0 / weightp=2 / keyint=230 / keyint_min=23 / scenecut=40 / intra_refresh=0 / rc_lookahead=40 / rc=2pass / mbtree=1 / bitrate=1280 / ratetol=1.0 / qcomp=0.60 / qpmin=10 / qpmax=69 / qpstep=4 / cplxblur=20.0 / qblur=0.5 / vbv_maxrate=24000 / vbv_bufsize=24000 / nal_hrd=none / ip_ratio=1.40 / aq=1:1.00 Language : Italian Default : Yes Forced : No DURATION : 01:36:22.360000000 NUMBER_OF_FRAMES : 138638 NUMBER_OF_BYTES : 7279516299 _STATISTICS_WRITING_APP : mkvmerge v8.7.0 ('All of the above') 64bit _STATISTICS_WRITING_DATE_UTC : 2017-02-07 17:29:00 _STATISTICS_TAGS : BPS DURATION NUMBER_OF_FRAMES NUMBER_OF_BYTES Audio #1 ID : 2 Format : AC-3 Format/Info : Audio Coding 3 Mode extension : CM (complete main) Codec ID : A_AC3 Duration : 1h 36mn Bit rate mode : Constant Bit rate : 448 Kbps Channel(s) : 6 channels Channel positions : Front: L C R, Side: L R, LFE Sampling rate : 48.0 KHz Bit depth : 16 bits Compression mode : Lossy Delay relative to video : 1mn 5s Stream size : 309 MiB (21%) Title : AC3 ITA Language : Italian Default : No Forced : No DURATION : 01:36:22.240000000 NUMBER_OF_FRAMES : 180695 NUMBER_OF_BYTES : 462579200 _STATISTICS_WRITING_APP : mkvmerge v8.7.0 ('All of the above') 64bit _STATISTICS_WRITING_DATE_UTC : 2017-02-07 17:29:00 _STATISTICS_TAGS : BPS DURATION NUMBER_OF_FRAMES NUMBER_OF_BYTES Audio #2 ID : 3 Format : AC-3 Format/Info : Audio Coding 3 Mode extension : CM (complete main) Codec ID : A_AC3 Duration : 1h 36mn Bit rate mode : Constant Bit rate : 448 Kbps Channel(s) : 6 channels Channel positions : Front: L C R, Side: L R, LFE Sampling rate : 48.0 KHz Bit depth : 16 bits Compression mode : Lossy Delay relative to video : 1mn 5s Stream size : 309 MiB (21%) Title : AC3 ENG Language : English Default : No Forced : No DURATION : 01:36:22.496000000 NUMBER_OF_FRAMES : 180703 NUMBER_OF_BYTES : 462599680 _STATISTICS_WRITING_APP : mkvmerge v8.7.0 ('All of the above') 64bit _STATISTICS_WRITING_DATE_UTC : 2017-02-07 17:29:00 _STATISTICS_TAGS : BPS DURATION NUMBER_OF_FRAMES NUMBER_OF_BYTES Text #1 ID : 4 Format : ASS Codec ID : S_TEXT/ASS Codec ID/Info : Advanced Sub Station Alpha Compression mode : Lossless Title : REGULAR Language : Italian Default : No Forced : No DURATION : 01:30:48.324000000 NUMBER_OF_FRAMES : 1284 NUMBER_OF_BYTES : 36799 _STATISTICS_WRITING_APP : mkvmerge v8.7.0 ('All of the above') 64bit _STATISTICS_WRITING_DATE_UTC : 2017-02-07 17:29:00 _STATISTICS_TAGS : BPS DURATION NUMBER_OF_FRAMES NUMBER_OF_BYTES Text #2 ID : 5 Format : UTF-8 Codec ID : S_TEXT/UTF8 Codec ID/Info : UTF-8 Plain Text Title : REGULAR Language : English Default : No Forced : No DURATION : 01:30:48.709000000 NUMBER_OF_FRAMES : 1301 NUMBER_OF_BYTES : 37850 _STATISTICS_WRITING_APP : mkvmerge v8.7.0 ('All of the above') 64bit _STATISTICS_WRITING_DATE_UTC : 2017-02-07 17:29:00 _STATISTICS_TAGS : BPS DURATION NUMBER_OF_FRAMES NUMBER_OF_BYTES Menu 00:00:00.000 : :A Big Night 00:07:01.017 : :Backup Plan 00:16:52.275 : :Getting Kubrick 00:25:18.864 : :A Low Profile 00:33:10.335 : :Serious Triuble 00:41:52.899 : :Best Film Idea 00:59:57.425 : :Creative Differences 01:08:03.635 : :Relaxed State 01:15:29.205 : :Phase Two 01:23:17.965 : :Crashing the Party 01:32:41.069 : :Credits [/spoiler] [/color][/b][/center]

Wolverine Anime 2011 The Complete Series Burntodisc

Language: | Size: 7.7 GB | Seed: 38 | Leech: 52

Description:

Logan is asked by his old friend, a cop from Japan, to help him take down Shingen Yashida's crime syndicate and save Mariko, Logan's lost love, from forced marriage arranged by her father Shingen. Yukio, a female assassin, helps him. DISCS IN SET: 1 EPISODES: 12 SIZE: DVD9 VIDEO CODEC: MPEG2 RESOLUTION: 720x480 ASPECT RATIO: NTSC 16:9 FRAMERATE: 29.97fps AUDIO: English 192kb/s SUBTITLES: None MENU: Yes CHAPTERS: Yes DISC COVER: Yes [url]http://www.imdb.com/title/tt1847521/[/url] [url]http://en.wikipedia.org/wiki/List_of_Marvel_Anime_episodes[/url]

Un ragazzo, un cane, due inseparabili amici (1975).H264.Italian.English.Ac3.5.sub.ita.iCV-MIRCrew

Language: | Size: 1.27 GB | Seed: 128 | Leech: 93

Description:

A Boy and His Dog - Apocalipse 2024 - Un ragazzo, un cane, due inseparabili amici (1975).H264.Italian.English.Ac3.5.sub.ita.iCV-MIRCrew [center] [color=red][b][img]http://extraimago.com/images/2016/07/16/oCo82IVa08d8.png[/img] [u]NO FOUND ONLY ORIGINAL RELEASE[/u] [img]http://i.imgur.com/GDNQx1Z.png[/img] My release is always in double track audio italian and Original audio for select it use VLC or dvd player home not use wmp Apocalipse 2024 - Un ragazzo, un cane, due inseparabili amici - A Boy and His Dog (1975) [img]https://extraimage.net/images/2017/02/12/92f2ff5d928375c8f9522fc454fcda3e.png[/img] [URL=http://www.imdb.com/title/tt0072730/][IMG]http://www.userlogos.org/files/logos/Sucka/imdb_new.png[/IMG][/URL] [img]http://i.imgur.com/Q5gAZRt.png[/img] Titolo originale A Boy and His Dog Paese di produzione Stati Uniti d'America Anno 1975 Durata 91 min Genere fantascienza Regia L.Q. Jones Soggetto Harlan Ellison Sceneggiatura L.Q. Jones Alvy Moore Wayne Cruseturner (non accreditato) Produttore L.Q. Jones Alvy Moore Fotografia John Arthur Morrill Montaggio Scott Conrad [img]http://i.imgur.com/Jtvgw7x.png[/img] Don Johnson: Vic Susanne Benton: Quilla Jane Holmes Alvy Moore: Dott. Moore Jason Robards: Lou Craddock Helene Winston: Mez Smith Michael Rupert: Gery [img]http://i.imgur.com/hL3n1m8.png[/img] Nell'Arizona post-apocalittica del 2024, dopo la quarta guerra mondiale, il giovane Vic riesce a comunicare telepaticamente con il suo cane Blood, con il quale interagisce soprattutto per cercare ragazze, che dopo l'apocalisse stanno nascoste, e anche per evitare che il giovane finisca nelle mire dei nomadi mutanti radioattivi.............. [img]http://i.imgur.com/MTp7cO6.png[/img] A post-apocalyptic tale based on a novella by Harlan Ellison. A boy communicates telepathically with his dog as they scavenge for food and sex, and they stumble into an underground society ................... [img]http://i.imgur.com/6TgqSmf.png[/img] [url=https://extraimage.net/image/2zav][img]https://extraimage.net/images/2017/02/12/4e4145c485db4e447c0ec42e9c947c37.th.png[/img][/url] [url=https://extraimage.net/image/2zau][img]https://extraimage.net/images/2017/02/12/f9dff222ef366f682f9690efce9018cd.th.png[/img][/url] [url=https://extraimage.net/image/2zaA][img]https://extraimage.net/images/2017/02/12/c80937ca3b8d934991767a3506d1c020.th.png[/img][/url] [img]http://i.imgur.com/t8N3Ia1.png[/img] [spoiler] General Unique ID : 238938499501050752541147955175960883725 (0xB3C1E1902304757D827E6413C828320D) Complete name : Apocalipse 2024 - Un ragazzo, un cane, due inseparabili amici - A Boy and His Dog (1975).mkv Format : Matroska Format version : Version 2 File size : 1.27 GiB Duration : 1h 26mn Overall bit rate : 2 109 Kbps Movie name : APOCALYPSE_2024.Title2 by www.icv-crew.org Encoded date : UTC 2017-02-10 16:41:27 Writing application : DVDFab 9.1.5.7 Writing library : libebml v0.7.8 + libmatroska v0.8.1 Video ID : 1 Format : AVC Format/Info : Advanced Video Codec Format profile : [email protected] Format settings, CABAC : Yes Format settings, ReFrames : 2 frames Codec ID : V_MPEG4/ISO/AVC Duration : 1h 26mn Bit rate : 1 235 Kbps Width : 720 pixels Height : 404 pixels Display aspect ratio : 16:9 Frame rate : 25.000 fps Color space : YUV Chroma subsampling : 4:2:0 Bit depth : 8 bits Scan type : Progressive Bits/(Pixel*Frame) : 0.170 Stream size : 764 MiB (59%) Writing library : x264 core Default : Yes Forced : No Color primaries : BT.601-6 525, BT.1358 525, BT.1700 NTSC, SMPTE 170M Transfer characteristics : BT.709-5, BT.1361 Matrix coefficients : BT.601-6 525, BT.1358 525, BT.1700 NTSC, SMPTE 170M Audio #1 ID : 2 Format : AC-3 Format/Info : Audio Coding 3 Mode extension : CM (complete main) Codec ID : A_AC3 Duration : 1h 26mn Bit rate mode : Constant Bit rate : 448 Kbps Channel(s) : 6 channels Channel positions : Front: L C R, Side: L R, LFE Sampling rate : 48.0 KHz Bit depth : 16 bits Compression mode : Lossy Stream size : 277 MiB (21%) Language : Italian Default : Yes Forced : No Audio #2 ID : 3 Format : AC-3 Format/Info : Audio Coding 3 Mode extension : CM (complete main) Codec ID : A_AC3 Duration : 1h 26mn Bit rate mode : Constant Bit rate : 192 Kbps Channel(s) : 2 channels Channel positions : Front: L R Sampling rate : 48.0 KHz Bit depth : 16 bits Compression mode : Lossy Stream size : 119 MiB (9%) Default : No Forced : No Audio #3 ID : 4 Format : AC-3 Format/Info : Audio Coding 3 Mode extension : CM (complete main) Codec ID : A_AC3 Duration : 1h 26mn Bit rate mode : Constant Bit rate : 192 Kbps Channel(s) : 2 channels Channel positions : Front: L R Sampling rate : 48.0 KHz Bit depth : 16 bits Compression mode : Lossy Stream size : 119 MiB (9%) Default : No Forced : No Text ID : 5 Format : VobSub Codec ID : S_VOBSUB Codec ID/Info : The same subtitle format used on DVDs Language : Italian Default : Yes Forced : No Menu 00:00:00.000 : en:(01)00:00:00:000 00:07:28.440 : en:(02)00:07:28:440 00:14:20.760 : en:(03)00:14:20:760 00:21:03.960 : en:(04)00:21:03:960 00:27:59.880 : en:(05)00:27:59:880 00:34:59.760 : en:(06)00:34:59:760 00:41:59.760 : en:(07)00:41:59:760 00:49:50.640 : en:(08)00:49:50:640 00:55:59.640 : en:(09)00:55:59:640 01:02:59.880 : en:(10)01:02:59:880 01:10:05.760 : en:(11)01:10:05:760 01:17:04.320 : en:(12)01:17:04:320 01:26:33.040 : en:(13)01:26:33:040 [/spoiler] [/color][/b][/center]

Wolverine And The X-Men Anime The Complete Series 2009 - Burntodisc

Language: | Size: 15.38 GB | Seed: 5 | Leech: 5

Description:

After an explosion at the school, the x-men went their separate ways. But, they must unite once again under the leadership of Wolverine to prevent an inevitable war while also dealing with present problem. DISCS IN SET: 2 EPISODES: 13 SIZE: DVD9 VIDEO CODEC: MPEG2 RESOLUTION: 720x480 ASPECT RATIO: NTSC 16:9 FRAMERATE: 29.97fps AUDIO: English 192kb/s SUBTITLES: None MENU: Yes CHAPTERS: Yes DISC COVER: Yes [url]http://www.imdb.com/title/tt0772145/[/url] [url]http://en.wikipedia.org/wiki/List_of_Wolverine_and_the_X-Men_episodes[/url]

The Model (2016).H264.Italian.English.Ac3.5.1.sub.ita.iCV-MIRCrew

Language: | Size: 1.65 GB | Seed: 801 | Leech: 80

Description:

The Model (2016).H264.Italian.English.Ac3.5.1.sub.ita.iCV-MIRCrew [center] [color=red][b][img]http://s23.postimg.org/b9yhws27f/0sc_Del1.png[/img] [u]NO FOUND ONLY ORIGINAL RELEASE[/u] [img]http://i.imgur.com/GDNQx1Z.png[/img] My release is always in double track audio italian and Original audio for select it use VLC or dvd player home not use wmp The Model (2016) [img]https://extraimage.net/images/2017/02/12/d4b45a065259b762333e9bfedb568b08.png[/img] [URL=http://www.imdb.com/title/tt4074364/][IMG]http://www.userlogos.org/files/logos/Sucka/imdb_new.png[/IMG][/URL] [img]http://i.imgur.com/fGu1rKv.png[/img] Original title: The Model Year: 2016 Running time: 105 min. Country: Denmark Director: Mads Matthiesen Screenwriter: Anders Frithiof August, Mads Matthiesen, Martin Zandvliet Cinematography: Petrus Sjövik Producer: Zentropa Entertainments Genre: Drama. Romanc [img]http://i.imgur.com/W7kBqiE.png[/img] Maria Palm, Ed Skrein, Yvonnick Muller, Claire Tran, Marco Ilsø, Dominic Allburn, Thierry Hancisse, David L. Price, Virgile Bramly, Aleksandra Yermak, Christian Abart, Elise Lissague, Mehdi Senoussi, Charlotte Tomaszewiska [img]http://i.imgur.com/bFK3ggF.png[/img] Emma (Maria Palm), top model che lotta per entrare nella scena della moda parigina, sviluppa un'ossessione fatale per il fotografo Shane White (Ed Skrein). [img]http://i.imgur.com/48xHWWH.png[/img] Emma, an emerging model, struggles to enter the Parisian fashion scene and develops a dangerous obsession for fashion photographer Shane White. [img]http://i.imgur.com/K8bfNTy.png[/img] [url=https://extraimage.net/image/2UWm][img]https://extraimage.net/images/2017/02/12/ebb30c790e04f75e0d518d7e4525dfa9.th.png[/img][/url] [url=https://extraimage.net/image/2UWR][img]https://extraimage.net/images/2017/02/12/04251adb716a6e35ae9d41f977d294cf.th.png[/img][/url] [url=https://extraimage.net/image/2UWi][img]https://extraimage.net/images/2017/02/12/5d658c591eed3c0218b2877f3602c041.th.png[/img][/url] [url=https://extraimage.net/image/2UWl][img]https://extraimage.net/images/2017/02/12/9b4ee9b6d682c9d7200c2a9a8116f52b.th.png[/img][/url] [img]http://i.imgur.com/aVrMohH.png[/img] [spoiler] General Unique ID : 74381544897541160676287118796114684048 (0x37F55D4D6F0CA09E091D8CF767D0E890) Complete name : The Model (2016).H264.ita.eng.sub.ita.iCV-MIRCrew.mkv Format : Matroska Format version : Version 2 File size : 1.65 GiB Duration : 1h 48mn Overall bit rate : 2 181 Kbps Movie name : VISIT www.icv-crew.org Encoded date : UTC 2017-02-10 19:07:25 Writing application : Lavf54.63.100 Writing library : Lavf54.63.100 COPYRIGHT : robbyrs Video ID : 1 Format : AVC Format/Info : Advanced Video Codec Format profile : [email protected] Format settings, CABAC : Yes Format settings, ReFrames : 2 frames Codec ID : V_MPEG4/ISO/AVC Duration : 1h 48mn Bit rate : 1 280 Kbps Width : 720 pixels Height : 388 pixels Display aspect ratio : 1.856 Frame rate mode : Variable Frame rate : 24.000 fps Color space : YUV Chroma subsampling : 4:2:0 Bit depth : 8 bits Scan type : Progressive Bits/(Pixel*Frame) : 0.191 Stream size : 960 MiB (57%) Writing library : x264 core 130 r2273 Encoding settings : cabac=1 / ref=2 / deblock=1:0:0 / analyse=0x1:0x131 / me=hex / subme=7 / psy=1 / psy_rd=1.00:0.00 / mixed_ref=0 / me_range=16 / chroma_me=1 / trellis=1 / 8x8dct=0 / cqm=0 / deadzone=21,11 / fast_pskip=1 / chroma_qp_offset=-2 / threads=12 / lookahead_threads=2 / sliced_threads=0 / nr=0 / decimate=1 / interlaced=0 / bluray_compat=0 / constrained_intra=0 / bframes=3 / b_pyramid=0 / b_adapt=1 / b_bias=0 / direct=3 / weightb=1 / open_gop=0 / weightp=2 / keyint=240 / keyint_min=24 / scenecut=40 / intra_refresh=0 / rc_lookahead=40 / rc=2pass / mbtree=1 / bitrate=1280 / ratetol=1.0 / qcomp=0.60 / qpmin=10 / qpmax=69 / qpstep=4 / cplxblur=20.0 / qblur=0.5 / vbv_maxrate=24000 / vbv_bufsize=24000 / nal_hrd=none / ip_ratio=1.40 / aq=1:1.00 Language : Italian Default : Yes Forced : No DURATION : 01:48:02.334000000 NUMBER_OF_FRAMES : 155576 NUMBER_OF_BYTES : 7764368037 _STATISTICS_WRITING_APP : mkvmerge v8.3.0 ('Over the Horizon') 64bit _STATISTICS_WRITING_DATE_UTC : 2017-02-08 20:10:18 _STATISTICS_TAGS : BPS DURATION NUMBER_OF_FRAMES NUMBER_OF_BYTES Audio #1 ID : 2 Format : AC-3 Format/Info : Audio Coding 3 Mode extension : CM (complete main) Codec ID : A_AC3 Duration : 1h 48mn Bit rate mode : Constant Bit rate : 448 Kbps Channel(s) : 6 channels Channel positions : Front: L C R, Side: L R, LFE Sampling rate : 48.0 KHz Bit depth : 16 bits Compression mode : Lossy Delay relative to video : 1mn 5s Stream size : 346 MiB (21%) Title : AC3 iTA Language : Italian Default : No Forced : No DURATION : 01:48:00.352000000 NUMBER_OF_FRAMES : 202511 NUMBER_OF_BYTES : 518428160 _STATISTICS_WRITING_APP : mkvmerge v8.3.0 ('Over the Horizon') 64bit _STATISTICS_WRITING_DATE_UTC : 2017-02-08 20:10:18 _STATISTICS_TAGS : BPS DURATION NUMBER_OF_FRAMES NUMBER_OF_BYTES Audio #2 ID : 3 Format : AC-3 Format/Info : Audio Coding 3 Mode extension : CM (complete main) Codec ID : A_AC3 Duration : 1h 48mn Bit rate mode : Constant Bit rate : 448 Kbps Channel(s) : 6 channels Channel positions : Front: L C R, Side: L R, LFE Sampling rate : 48.0 KHz Bit depth : 16 bits Compression mode : Lossy Delay relative to video : 1mn 5s Stream size : 346 MiB (21%) Title : AC3 ENG Language : English Default : No Forced : No DURATION : 01:48:02.368000000 NUMBER_OF_FRAMES : 202574 NUMBER_OF_BYTES : 518589440 _STATISTICS_WRITING_APP : mkvmerge v8.3.0 ('Over the Horizon') 64bit _STATISTICS_WRITING_DATE_UTC : 2017-02-08 20:10:18 _STATISTICS_TAGS : BPS DURATION NUMBER_OF_FRAMES NUMBER_OF_BYTES Text #1 ID : 4 Format : UTF-8 Codec ID : S_TEXT/UTF8 Codec ID/Info : UTF-8 Plain Text Title : FORCED iTA Language : Italian Default : Yes Forced : No DURATION : 00:15:18.916000000 NUMBER_OF_FRAMES : 5 NUMBER_OF_BYTES : 249 _STATISTICS_WRITING_APP : mkvmerge v8.3.0 ('Over the Horizon') 64bit _STATISTICS_WRITING_DATE_UTC : 2017-02-08 20:10:18 _STATISTICS_TAGS : BPS DURATION NUMBER_OF_FRAMES NUMBER_OF_BYTES Text #2 ID : 5 Format : UTF-8 Codec ID : S_TEXT/UTF8 Codec ID/Info : UTF-8 Plain Text Title : REGULAR iTA Language : Italian Default : No Forced : No DURATION : 01:41:23.083000000 NUMBER_OF_FRAMES : 849 NUMBER_OF_BYTES : 23918 _STATISTICS_WRITING_APP : mkvmerge v8.3.0 ('Over the Horizon') 64bit _STATISTICS_WRITING_DATE_UTC : 2017-02-08 20:10:18 _STATISTICS_TAGS : BPS DURATION NUMBER_OF_FRAMES NUMBER_OF_BYTES Menu 00:00:00.000 : :00:00:00.000 00:14:13.625 : :00:14:13.625 00:28:03.792 : :00:28:03.792 00:39:34.833 : :00:39:34.833 00:54:22.250 : :00:54:22.250 01:07:10.875 : :01:07:10.875 01:21:59.750 : :01:21:59.750 01:32:51.542 : :01:32:51.542 [/spoiler] [/color][/b][/center]

Festival di Sanremo 2017 - 5° Puntata 11 02 2017 [Serata Finale]

Language: | Size: 3.31 GB | Seed: 3 | Leech: 27

Description:

67° Festival della Canzone Italiana di Sanremo - Serata Finale La serata finale della 67ma edizione del Festival di Sanremo condotto da Carlo Conti insieme a Maria De Filippi vede il trionfo di Francesco Gabbani con la sua 'Occidentali's Karma'. Secondo posto per Fiorella Mannoia con il brano 'Che sia benedetta' , terzo posto per Ermal Meta con il brano 'Vietato morire'. Tra gli ospiti della serata Zucchero, Enrico Montesano, Alvaro Soler e Geppi Cucciari

Deadbeats Compilation Vol. 1 (2017) Upload By JayDeDeJay

Language: | Size: 70.37 MB | Seed: 265 | Leech: 9

Description:

Qualità Audio: MP3 320kbps Genere: Electronic Dance Music Tracce: 9