Search Top Tags














Rod Stewart - When We Were The New Boys (1998), [Mp3][Tnt]

Language: | Size: 96.2 MB | Seed: 1 | Leech: 2

Description:

Artist: Rod Stewart Title: When We Were The New Boys Year Of Release: 1998 Genre: Pop Rock, Hard Rock Label: |Warner Bros. Records Tracks: 10 CDs: 1 Format: Mp3 Quality: 320 kbps Included Scans: Si Archive Size: 96 Mb ---------- 01. Cigarettes And Alcohol [0:04:03.70] 02. Ooh La La [0:04:16.20] 03. Rocks [0:04:45.07] 04. Superstar [0:04:20.68] 05. Secret Heart [0:04:07.22] 06. Hotel Chambermaid [0:03:49.53] 07. Shelly My Love [0:03:38.05] 08. When We Were The New Boys [0:04:40.45] 09. Weak [0:04:37.05] 10. What Do You Want Me To Do [0:03:34.57]

Joao Gilberto - Voz e Violao [Flac][TntVillage]

Language: | Size: 125.68 MB | Seed: 40 | Leech: 20

Description:

[img]http://i.imgur.com/KUoTzgV.jpg[/img] Artist...............: Joao Gilberto Album................: Joao voz e violao Genre................: Bossanova Source...............: CD Year.................: 2000 Ripper...............: EAC (Secure mode) / LAME 3.92 & Asus CD-S520 Codec................: Free Lossless Audio Codec (FLAC) Version..............: reference libFLAC 1.3.1 20141125 Quality..............: Lossless, (avg. compression: 41 %) Channels.............: Stereo / 44100 HZ / 16 Bit Tags.................: VorbisComment Information..........: TntVillage Ripped by............: Leonenero on 06/02/2017 Posted by............: Leonenero on 07/02/2017 News Server..........: news.astraweb.com News Group(s)........: TNTVILLAGE Included.............: NFO, M3U, LOG, CUE Covers...............: Front Back CD --------------------------------------------------------------------- Tracklisting --------------------------------------------------------------------- 1. Joao Gilberto - Chega de Saudade [03:26] 2. Joao Gilberto - Desde que o Samba E Samba [03:54] 3. Joao Gilberto - Voce Vai Ver [02:56] 4. Joao Gilberto - Eclipse [03:04] 5. Joao Gilberto - Nao Vou pra Casa [02:56] 6. Joao Gilberto - Desafinado [03:27] 7. Joao Gilberto - Eu Vim da Bahia [02:34] 8. Joao Gilberto - Coracao Vagabundo [02:08] 9. Joao Gilberto - Da Cor do Pecado [02:29] 10. Joao Gilberto - Segredo [03:15] Playing Time.........: 30:13 Total Size...........: 125,13 MB Music, as all other arts, has creators, imitators and developers. Of the second category there is little to say; they basically jump the wagon and profit whatever they can from the creator, while the developer tries his best to make the original creation grow further. In Brazil, samba had been around for ages, but it took the genius of Bahia-born João Gilberto to develop the local beat and blend it with elements of cool jazz, thus creating a whole new style, Bossa Nova, which swept the planet during the late fifties and early sixties, and still influences a great number of musicians, from Charlie Byrd and Stan Getz in their time to George Michael and Tuck & Patty nowadays. Pray silence now, for the man who created the whole thing, with the support of Antonio Carlos Jobim (who ,against his own will took the credit for himself), Vinicius de Morais and others has just released a new studio album, eight years after 1992's "João" and three after the live "Eu Sei Que Vou Te Amar" (all titles, are, by the way, available in the U.S.). And this time, alas, he plays by himself. Just the man, his guitar and his voice, and no audience sounds. The album, properly titled "Joao Voz e Violao (Joao, Voice and Guitar )opens with Caetano Veloso-penned "Desde Que O Samba É Samba" (Ever Since Samba Was Samba). Veloso,also a son of Bahia, wrote the song in 1993 as a tribute to samba and Bossa-Nova. In João Gilberto's voice, the the lyric is taken to a whole new dimension: A tristeza é senhora/ Desde que o samba é samba é assim/ A lágrima clara sobre a pele escura A chuva fria que cai lá fora Solidão apavora Tudo demorando em ser tão ruim Mas há uma coisa no tanto agora em mim Cantando mando a tristeza embora... (Sadness is dominant/Ever since samba was samba it has been like that/the clear tear over the dark skin/The cold rain falling on the outside/Solitude is frightening/Bad things taking so long/ But there is something inside me/By singing I send sadness away...) Caetano Veloso,who produced the album, is an innovator in his own right; he was the co-founder of of yet another wave in Brazilian popular music which blended Bossa Nova and other elements of Brazilian sounds with the influence of late sixties psychedelics and came up, in 1968, with a whole new sound, labeled "tropicalism." With time,he became more and more refined in his songwriting, and João Gilberto's influence became more and more evident in his work, to the point of recording a rare Gilberto composition, "Você Esteve Com Meu Bem?" (Have You Been With My Sweetheart?", never recorded by its composer) in his 1996 "Fina Estampa En Vivo". Veloso and Gilberto are friends, and the latter was instrumental in Veloso's return from his politically enforced exile after three years in Europe. The album also contains two classics which are present on virtually every Bossa Nova or João Gilberto collection: Desafinado (Off-Key) and Chega de Saudade, which are both Tom Jobim co-compositions. The first was present in 1964's quadruple Grammy award winner Getz/Gilberto. The second one is considered by music historians the song that, in 1959, started the whole Bossa Nova wave. In this album, the songs are performed like Gilberto does onstage these days, with no accompaniment. I believe the singer and Veloso decided to re-make the two songs (specially "Chega de Saudade")in order to have a "proper" studio versions, since the earlier ones, recorded years ago, where too much in the musical format of the time, and Gilberto's guitar playing was not very well heard. There are, of course, the live version, but the applause somewhat damages the recording, specially when you're dealing with a very subtle vocalist and guitarist. The other tracks are equally interesting. My personal favorite is "Não Vou Para Casa"(I'm not Going Home), a humorous samba in which the singer is urged to go back home, but refuses to return "before the sun rises". Very good are also Tom Jobim's "Você Vai Ver"(You'll See) and another Veloso composition, "Coração Vagabundo"(Vagabond Heart). The only bad thing about the CD is that is is too short for the price; it has merely 35 minutes, which gives the listener a feeling of dissatisfaction as the album ends. The cover of the album shows a girl with her finger on her lips,requesting silence. It is a direct message to the public of Credicard Hall in São Paulo that booed Joao Gilberto during his 1999 performance, when, ever the perfectionist, complained of excessive feedback from the sound system. He reacted by showing his tongue to the public and left Caetano Veloso, who was also performing that night, alone on stage to finish the show. One can be almost sure that the idea for the cover came from Veloso. One fact that gives this CD great importance is the fact that many of the original Bossa Nova players are no longer in this world. Stan Getz passed away in 1991, Jobim in 1994, Vinicius de Morais in 1980 and Charlie Byrd left us recently. Of course they left us countless recordings of their music, but fresh work from them is very rare, as João Gilberto himself rarely does studio work. The album, yes, is short, but it is a very good addition to the collection of a listener of good music. A fine wine will go well with the album. A splendid time is guaranteed for all.

Festival di Sanremo 2017 - 4° Puntata 10 02 2017

Language: | Size: 2.95 GB | Seed: 0 | Leech: 8

Description:

67° Festival della Canzone Italiana di Sanremo - Quarta serata La quarta serata del 67° Festival di Sanremo condotta da Carlo Conti con Maria De Filippi. Lele vince tra le Nuove Proposte, mentre nella categoria dei Campioni non raggiungono la finale Al Bano, Giusy Ferreri, Gigi D'Alessio e Ron. Tra gli ospiti della serata: Virginia Raffaele, Luca Zingaretti, Giorgio Moroder, Robin Schulz, Marica Pellegrinelli e Antonella Clerici

Sausage.Party.Vita.Segreta.Di.Una.Salsiccia.2016.iTALiAN.AC3.BRRip.XviD-T4P3

Language: | Size: 1.47 GB | Seed: 138 | Leech: 74

Description:

Sausage Party: vita segreta di una salsiccia Titolo originale: Sausage Party Nazione: U.S.A. Anno: 2016 Genere: Animazione, Avventura, Commedia Durata: 83' Regia: Greg Tiernan, Conrad Vernon Cast (voci originali): Paul Rudd, Kristen Wiig, James Franco, Salma Hayek, David Krumholtz, Seth Rogen, Bill Hader, Jonah Hill, Edward Norton, Michael Cera, Danny McBride, Craig Robinson, Nick Kroll Produzione: Annapurna Pictures, Nitrogen Studios Canada, Point Grey Pictures, Sony Pictures Animation, Sony Pictures Entertainment Distribuzione: Warner Bros. Pictures Italia Data di uscita: 31 Ottobre 2016 (cinema) Trama: Una salsiccia in crisi esistenziale alla testa di un gruppo di prodotti da supermercato in missione per scoprire la verità su ciò che realmente accade quando vengono scelti e lasciano il negozio di alimentari, tra corridoi e strani incontri, non sarà semplice.

American.Pastoral.2016.iTALiAN.AC3.BRRip.XviD-T4P3

Language: | Size: 1.44 GB | Seed: 685 | Leech: 441

Description:

American Pastoral Titolo originale: American Pastoral Conosciuto anche come: Nazione: U.S.A. Anno: 2016 Genere: Drammatico Durata: 126' Regia: Ewan McGregor Cast: Ewan McGregor, Jennifer Connelly, Dakota Fanning, Uzo Aduba, Molly Parker, David Strathairn, Rupert Evans, Valorie Curry, Hannah Nordberg, Peter Riegert, Mark Hildreth, Emily Peachey, Ocean James, David Whalen, Julia Silverman Produzione: Lakeshore Entertainment Distribuzione: Eagle Pictures Data di uscita: 20 Ottobre 2016 (cinema) Trama: Seymour Levov detto “lo Svedese”, è un uomo che dalla vita ha avuto tutto: bellezza, carriera, soldi, una moglie ex Miss New Jersey e una bambina a lungo desiderata, ma il cui mondo pian piano va in pezzi quando la figlia ormai adolescente compie un atto terroristico che provoca una vittima. Com’è possibile che una tragedia di questo tipo sia accaduta proprio allo Svedese, la persona che per tutta la sua vita ha incarnato il Sogno Americano? Dove ha sbagliato?

Io, robot - I, Robot (2004 Ita/Eng) + EXTRA [1080p] [iCV-MIRCrew]

Language: | Size: 10.43 GB | Seed: 13 | Leech: 25

Description:

Titolo originale: I, Robot Nazionalità: USA Anno: 2004 Genere: azione, fantascienza, poliziesco, thriller Regia: Alex Proyas Durata: 115 min TRAMA: Il detective Del Spooner è chiamato a investigare sulla morte del dottor Miles Hogenmiller, un brillante scienziato della U.S. Robotics che stava lavorando a un nuovo tipo di robot, chiamato 'Sonny', dotato di un cervello simile a quello umano. Con l'aiuto della dottoressa Susan Calvin, psicologa esperta di intelligenze artificiali, deve cercare di svelare il mistero che si cela dietro quello che apparentemente sembra essere un omicidio commesso per mano di un robot... REPORT: http://freetexthost.com/b5fps5duzj EXTRA: In questa versione sono compresi gli extra: 1 - Day out of Days - i diari di produzione di Io Robot 2 - CGI e design 3 - Automi coscienti - comportamento dei robot 4 - Strumenti per creare il film 5 - Scene tagliate ed estese

Lego Star Wars The Complete Brick Saga So Far 2011 Burntodisc

Language: | Size: 7.82 GB | Seed: 12 | Leech: 7

Description:

The Force of Star Wars and the fun of LEGO combine in this series of irresistible all-ages animated adventures. DISCS IN SERIES: 1 EPISODES.......: 9 TOTAL SIZE...........: DVD9 VIDEO CODEC....: MPEG2 RESOLUTION.....: 720x480 ASPECT RATIO...: NTSC 16:9 FRAMERATE......: 23.976 fps AUDIO .........: English 256kb/s SUBTITLES......: None MENU...........: Yes CHAPTERS.......: Yes DISC COVER.....: Yes [url]http://www.imdb.com/title/tt2005268/[/url] [url]https://itunes.apple.com/us/tv-season/lego-star-wars-complete-brick/id870790975[/url] [url]https://en.wikipedia.org/wiki/Lego_Star_Wars#Films_and_videos[/url]

Norm of the North - Il Viaggio di Norm (2016) [DVD5 - Ita Eng 5.1 - Ita subs]

Language: | Size: 4.27 GB | Seed: 644 | Leech: 75

Description:

Titolo originale: Norm of the North Nazione: Usa, India Anno: 2016 Genere: Animazione, Avventura, Commedia Durata: 87' Regia: Trevor Wall Cast: Bill Nighy, Heather Graham, Rob Schneider, Ken Jeong, Loretta Devine Produzione: Lionsgate, Splash Entertainment, Telegael Distribuzione: Notorius Pictures (Italia) Data di uscita: Giovedì 04 Febbraio 2016 (cinema) Trama: Norm è un grande orso polare vegano che per proteggere il suo territorio nativo, insieme a tre simpatici lemming, dovrà combattere con un riccone spietato.

Jack Reacher: Never Go Back - 2 Punto di non ritorno (2016).H264.Italian.English.iCV-MIRCrew

Language: | Size: 1.75 GB | Seed: 187 | Leech: 67

Description:

Jack Reacher: Never Go Back - 2 Punto di non ritorno (2016).H264.Italian.English.Ac3.5.1.sub.ita.eng.iCV-MIRCrew [center] [color=red][b][img]http://s23.postimg.org/b9yhws27f/0sc_Del1.png[/img] [u]NO FOUND ONLY ORIGINAL RELEASE[/u] [img]http://i.imgur.com/GDNQx1Z.png[/img] My release is always in double track audio italian and Original audio for select it use VLC or dvd player home not use wmp Jack Reacher 2 Punto di non ritorno - Jack Reacher Never Go Back (2016) [img]https://extraimage.net/images/2017/02/10/fdbd35869b94c6519b6245f28753770b.png[/img] [URL=http://www.imdb.com/title/tt3393786/][IMG]http://www.userlogos.org/files/logos/Sucka/imdb_new.png[/IMG][/URL] [img]http://i.imgur.com/fGu1rKv.png[/img] DATA USCITA: 20 ottobre 2016 GENERE: Azione, Thriller, Drammatico ANNO: 2016 REGIA: Edward Zwick SCENEGGIATURA: Marshall Herskovitz, Edward Zwick FOTOGRAFIA: Oliver Wood MONTAGGIO: Billy Weber MUSICHE: Henry Jackman PRODUZIONE: Paramount Pictures, Skydance Productions, TC Productions DISTRIBUZIONE: Universal Pictures Italia PAESE: USA DURATA: 118 Min [img]http://i.imgur.com/W7kBqiE.png[/img] Tom Cruise, Cobie Smulders, Patrick Heusinger, Robert Knepper, Aldis Hodge, Danika Yarosh [img]http://i.imgur.com/bFK3ggF.png[/img] Jack Reacher (Tom Cruise) ritorna con il suo marchio di giustizia nel sequel Jack Reacher: Punto di non ritorno. Susan Turner (Cobie Smulders), maggiore dell'esercito che dirige la vecchia unità investigativa di Reacher, viene arrestata con l’accusa di spionaggio e Reacher, consapevole della sua innocenza................ [img]http://i.imgur.com/48xHWWH.png[/img] Jack Reacher must uncover the truth behind a major government conspiracy in order to clear his name. On the run as a fugitive from the law, Reacher uncovers a potential secret from his past that could change his life forever. [img]http://i.imgur.com/K8bfNTy.png[/img] [img]https://extraimage.net/images/2017/02/10/b759dc51f5dec0156060b803f2dd762b.png[/img] [img]https://extraimage.net/images/2017/02/10/99e79044fba8da10ac60b065330cbc2a.png[/img] [img]https://extraimage.net/images/2017/02/10/d65cf799ae362c22eae35de7c0df7d7f.png[/img] [img]http://i.imgur.com/aVrMohH.png[/img] [spoiler] General Unique ID : 187353854691026505352872915703805675183 (0x8CF30A3688063E03B3A89403915286AF) Complete name : Jack Reacher 2 Punto di non ritorno - Jack Reacher Never Go Back (2016).ita.eng.sub.ita.eng.iCV-MIRCrew.mkv Format : Matroska Format version : Version 2 File size : 1.75 GiB Duration : 1h 58mn Overall bit rate : 2 111 Kbps Movie name : VISIT www.icv-crew.org Encoded date : UTC 2017-01-17 05:54:59 Writing application : mkvmerge v5.4.0 ('Piper') built on Mar 10 2012 13:34:39 Writing library : Lavf54.63.100 COPYRIGHT : robbyrs Video ID : 1 Format : AVC Format/Info : Advanced Video Codec Format profile : [email protected] Format settings, CABAC : Yes Format settings, ReFrames : 2 frames Muxing mode : Header stripping Codec ID : V_MPEG4/ISO/AVC Duration : 1h 58mn Bit rate : 1 280 Kbps Width : 720 pixels Height : 300 pixels Display aspect ratio : 2.40:1 Original display aspect ratio : 2.40:1 Frame rate mode : Variable Frame rate : 24.000 fps Color space : YUV Chroma subsampling : 4:2:0 Bit depth : 8 bits Scan type : Progressive Bits/(Pixel*Frame) : 0.247 Stream size : 1.02 GiB (59%) Writing library : x264 core 130 r2273 Encoding settings : cabac=1 / ref=2 / deblock=1:0:0 / analyse=0x1:0x131 / me=hex / subme=7 / psy=1 / psy_rd=1.00:0.00 / mixed_ref=0 / me_range=16 / chroma_me=1 / trellis=1 / 8x8dct=0 / cqm=0 / deadzone=21,11 / fast_pskip=1 / chroma_qp_offset=-2 / threads=12 / lookahead_threads=2 / sliced_threads=0 / nr=0 / decimate=1 / interlaced=0 / bluray_compat=0 / constrained_intra=0 / bframes=3 / b_pyramid=0 / b_adapt=1 / b_bias=0 / direct=3 / weightb=1 / open_gop=0 / weightp=2 / keyint=240 / keyint_min=24 / scenecut=40 / intra_refresh=0 / rc_lookahead=40 / rc=2pass / mbtree=1 / bitrate=1280 / ratetol=1.0 / qcomp=0.60 / qpmin=10 / qpmax=69 / qpstep=4 / cplxblur=20.0 / qblur=0.5 / vbv_maxrate=24000 / vbv_bufsize=24000 / nal_hrd=none / ip_ratio=1.40 / aq=1:1.00 Language : English Default : Yes Forced : No Audio #1 ID : 2 Format : AC-3 Format/Info : Audio Coding 3 Mode extension : CM (complete main) Muxing mode : Header stripping Codec ID : A_AC3 Duration : 1h 58mn Bit rate mode : Constant Bit rate : 448 Kbps Channel(s) : 6 channels Channel positions : Front: L C R, Side: L R, LFE Sampling rate : 48.0 KHz Bit depth : 16 bits Compression mode : Lossy Delay relative to video : -42ms Stream size : 380 MiB (21%) Language : English Default : No Forced : No Audio #2 ID : 3 Format : AC-3 Format/Info : Audio Coding 3 Mode extension : CM (complete main) Muxing mode : Header stripping Codec ID : A_AC3 Duration : 1h 58mn Bit rate mode : Constant Bit rate : 384 Kbps Channel(s) : 2 channels Channel positions : Front: L R Sampling rate : 48.0 KHz Bit depth : 16 bits Compression mode : Lossy Delay relative to video : -5ms Stream size : 325 MiB (18%) Language : English Default : Yes Forced : No Text #1 ID : 4 Format : UTF-8 Codec ID : S_TEXT/UTF8 Codec ID/Info : UTF-8 Plain Text Default : No Forced : No Text #2 ID : 5 Format : UTF-8 Codec ID : S_TEXT/UTF8 Codec ID/Info : UTF-8 Plain Text Language : English Default : Yes Forced : No Text #3 ID : 6 Format : UTF-8 Codec ID : S_TEXT/UTF8 Codec ID/Info : UTF-8 Plain Text Default : No Forced : No Text #4 ID : 7 Format : UTF-8 Codec ID : S_TEXT/UTF8 Codec ID/Info : UTF-8 Plain Text Default : No Forced : No Menu 00:00:00.000 : :Chapter 1 00:06:59.000 : :Chapter 2 00:15:19.000 : :Chapter 3 00:20:33.000 : :Chapter 4 00:29:03.000 : :Chapter 5 00:34:34.000 : :Chapter 6 00:42:39.000 : :Chapter 7 00:49:27.000 : :Chapter 8 00:58:43.000 : :Chapter 9 01:03:09.000 : :Chapter 10 01:09:34.000 : :Chapter 11 01:15:04.000 : :Chapter 12 01:21:58.000 : :Chapter 13 01:27:06.000 : :Chapter 14 01:34:13.000 : :Chapter 15 01:46:43.000 : :Chapter 16 01:53:30.000 : :Chapter 17 [/spoiler] [/color][/b][/center]

Cenerentola - Cinderella (1950 Ita/Eng) + EXTRA [1080p] [iCV-MIRCrew]

Language: | Size: 6.55 GB | Seed: 2 | Leech: 1

Description:

Titolo originale: Cinderella Nazionalità: USA Anno: 1950 Genere: animazione, fiabesco, musicale, sentimentale Regia: Wilfred Jackson, Hamilton Luske, Clyde Geronimi Durata: 74 min Trama: La fiaba vede la giovane orfanella degradata al rango di serva per mano di una matrigna crudele e delle sue sorellastre Anastasia e Genoveffa. L'abitudine di sedere accanto alla cenere del focolare di casa le vale il titolo di "Cenerentola". Le angherie sono all'ordine del giorno, ma la protagonista sopporta con pazienza, complice una schiera di animaletti che le dispensano incoraggiamenti. L'occasione per un futuro migliore arriverà con un ricevimento indetto dal re..... Report: http://freetexthost.com/vkqz2e3rr0 Extra: In questa versione sono compresi gli extra: Introduzione di Diane Disney Miller Dietro le Quinte Disney - L edizione Speciale: 1 - La Vera Fata Smemorina 2 - Dietro la Magia - La nuova attrazione Fantasyland con le principesse Disney 3 - La Magia della Scarpetta di vetro - Una storia da Cenerentola 4 - Scena Iniziale Alternativa 2 - Rapunzel - Le incredibili Nozze Contenuti Speciali del Classico Originale: 1 - Scene Eliminate del Classico Originale 2 - Cinderella 3 - Canzoni non utilizzate 4 - Programmi Radio Dietro le quinte Disney del Classico Originale: 1 - Dalla Miseria alla Ricchezza - Il Making of di Cenerentola 2 - Come e nata Cenerentola 3 - Dalla Scrivania di Walt Un tributo ai nove veterani dei Disney Studio 4 - L arte di Mary Blair 5 - Comparazione Storyboard - Film - La Sequenza iniziale 6 - 1992 Cenerentola Prodotta da Laugh-o-Grams 7 - Estratto da The Mickey Mouse Club con Helene Stanley - 24-01-1956 8 - Trailer Cinematografici

a-ha - Stay On These Roads [Flac][TntVillage]

Language: | Size: 267.78 MB | Seed: 20 | Leech: 2

Description:

[img]http://i.imgur.com/OqMC8mV.jpg[/img] Artist...............: a-ha Album................: Stay On These Roads Genre................: Pop Source...............: CD Year.................: 1988 Ripper...............: EAC (Secure mode) / LAME 3.92 & Asus CD-S520 Codec................: Free Lossless Audio Codec (FLAC) Version..............: reference libFLAC 1.3.1 20141125 Quality..............: Lossless, (avg. compression: 61 %) Channels.............: Stereo / 44100 HZ / 16 Bit Tags.................: VorbisComment Information..........: TntVillage Ripped by............: Leonenero on 08/02/2017 Posted by............: Leonenero on 08/02/2017 News Server..........: news.astraweb.com News Group(s)........: TNTVILLAGE Included.............: NFO, M3U, LOG, CUE Covers...............: Front Back CD --------------------------------------------------------------------- Tracklisting --------------------------------------------------------------------- 1. a-ha - You'll End Up Crying [02:07] 2. a-ha - Stay On These Roads [04:45] 3. a-ha - The Blood That Moves The Body [04:06] 4. a-ha - Touchy! [04:33] 5. a-ha - This Alone Is Love [05:15] 6. a-ha - Hurry Home [04:37] 7. a-ha - The Living Daylights [04:47] 8. a-ha - There's Never A Forever Thing [02:51] 9. a-ha - Out Of Blue Comes Green [06:42] 10. a-ha - You Are The One [03:51] Playing Time.........: 43:40 Total Size...........: 267,37 MB Stay on These Roads was the band's third studio album. The album's peak on the Billboard 200 was 148. The album was another big hit by A-ha internationally, selling over 4 million copies worldwide. Stay on These Roads achieved Platinum status in Brazil and Gold in the UK, Switzerland, the Netherlands and Germany and Double Platinum status in France.The album reached #2 in the European top-100 albums sales chart. William Ruhlmann of AllMusic said "in the U.K., the album became the group's third straight to peak at number two, though it charted for a shorter period than the first two albums, and there were four Top 25 hits—the title track, 'The Blood That Moves the Body,' 'Touchy!,' and 'You Are the One'." Also included was A-ha's 1987 theme from the James Bond movie The Living Daylights, a U.K. number five that missed the U.S. charts. Lead single "Stay on These Roads", number one in Norway, was a hit across Europe, including top-five showings in the UK, France, Austria and Ireland and top-ten chartings in Germany, the Netherlands, Sweden and Switzerland. Stay on These Roads included three more hit singles, "The Blood That Moves The Body", "Touchy!" and "You Are the One", though a final single, "There's Never a Forever Thing", was released only in Brazil. None of the singles charted on the Billboard Hot 100.

Festival di Sanremo 2017 - 3° Puntata 09 02 2017

Language: | Size: 2.91 GB | Seed: 2 | Leech: 4

Description:

67° Festival della Canzone Italiana di Sanremo - Terza serata La terza serata del 67° Festival di Sanremo condotta da Carlo Conti con Maria De Filippi. Clementino, Giusy Ferreri, Bianca Atzei e Ron in finale. Fuori le coppie Nesli-Alice Paba e Raige e Giulia Luzi. E' il verdetto della terza serata di Sanremo 2017 dedicata alle cover. I 16 big già promossi si sono esibiti stasera in una rassegna amarcord che ha visto trionfare Ermal Meta con 'Amara Terra mia' di Modugno. Seconda Paola Turci con 'Un'emozione da poco'. Terzo Marco Masini, che ha omaggiato Faletti rivisitando 'Minchia signor tenente'. Ad aprire la kermesse la sfida tra i 4 'giovani' che ha decretato i nuovi finalisti di domani sera: Maldestro e Lele. Superospiti della serata Mika, LP, Luca e Paolo, Alessandro Gassman e Marco Giallini, Anouchka Delon e Annabelle Belmondo, l'Orquesta Reciclados Cateu-ra, e il Piccolo Coro "Mariele Ventre" dell'Antoniano I Anche in questa serata non può mancare la copertina di Mau-rizio Crozza, il collegamento con Rocco Tanica.

Abel.Il.Figlio.Del.Vento.2015.iTALiAN.AC3.DVDRip.XviD-T4P3

Language: | Size: 1.37 GB | Seed: 267 | Leech: 159

Description:

Abel - Il figlio del vento Titolo originale: Wie Brüder im Wind Conosciuto anche come: The Way of the Eagle, Brothers of the Wind Nazione: Austria Anno: 2015 Genere: Avventura, Drammatico Durata: 98' Regia: Gerardo Olivares, Otmar Penker Cast: Jean Reno, Manuel Camacho, Tobias Moretti, Eva Kuen Produzione: Terra Mater Factual Studios Distribuzione: Adler Entertainment Data di uscita: Giffoni Film Festival 2016 29 Settembre 2016 (cinema) Trama: L'aquilotto più forte è destinato a scacciare dal nido il fratello più debole: questo è solitamente ciò che accade quando due piccoli di aquila si trovano a condividere lo stesso nido. Spesso accade anche tra gli uomini che, a ferirli, siano proprio le persone più vicine. Lukas, infatti, soffre a causa della freddezza che il padre mostra nei suoi confronti successivamente alla dolorosa perdita della moglie, morta nel tentativo di salvare il piccolo Lukas da un incendio. Il bambino porta sulle sue giovani spalle il peso della morte della madre. La storia della nostra aquila ha inizio nel nido in cui è nata. L'aquilotto primogenito scaccia il fratello più debole dal nido condannandolo a morte certa una volta caduto nel bosco. Ma il destino dà una mano al piccolo rapace: Lukas trova l'aquilotto, lo chiama Abel e decide di prendersene cura in segreto, offrendogli tutto l'amore e la compagnia che gli sono invece negati a casa. Sarà pronto Lukas, quando arriverà il tempo di restituire Abel alla natura selvaggia dalla quale proviene, a cominciare una nuova vita?

Lego Star Wars Droid Tales Complete 2015 Burntodisc

Language: | Size: 4.18 GB | Seed: 19 | Leech: 15

Description:

Lego Star Wars: Droid Tales is a five-part Lego Star Wars television mini-series that premiered on Disney XD[1] on July 6, 2015. It is an animated comedy series depicting the stories and characters from the Star Wars saga. DISCS IN SERIES: 1 EPISODES: 5 TOTAL SIZE: DVD5 VIDEO CODEC: MPEG2 RESOLUTION: 720x480 ASPECT RATIO: NTSC 16:9 FRAMERATE: 29.97fps AUDIO: English 192kb/s SUBTITLES: En not hardcoded MENU: Yes CHAPTERS: Yes DISC COVER: Yes [url]http://www.imdb.com/title/tt4855868/episodes[/url] [url]https://en.wikipedia.org/wiki/Lego_Star_Wars:_Droid_Tales[/url]

Aerosmith - Greatest Hits (2008) (by emi)

Language: | Size: 225.33 MB | Seed: 49 | Leech: 15

Description:

mp3 a 192 kbps audio di qualità a 95 db Tracklist CD 1 01 - Devil's Got A New Disguise.mp3 (6.2 MB) 02 - Falling In Love (Is Hard On The Knees).mp3 (4.9 MB) 03 - I Don't Want To Miss A Thing (Pop Mix).mp3 (6.2 MB) 04 - Jaded.mp3 (5.1 MB) 05 - Janie's Got A Gun.mp3 (6.4 MB) 06 - Walk This Way (With Run D.M.C.).mp3 (5.2 MB) 07 - Crazy.mp3 (5.8 MB) 08 - Hole In My Soul.mp3 (8.6 MB) 09 - Love In An Elevator.mp3 (7.6 MB) 10 - Pink.mp3 (5.6 MB) 11 - Cryin'.mp3 (7.2 MB) 12 - Rag Doll.mp3 (6.2 MB) 13 - The Other Side.mp3 (5.8 MB) 14 - Amazing.mp3 (8.4 MB) 15 - Livin' On The Edge.mp3 (7.2 MB) 16 - Girls Of Summer.mp3 (4.6 MB) 17 - Lay It Down.mp3 (5.4 MB) 18 - Just Feel Better (Feat. Santana).mp3 (6.0 MB) CD 2 01 - Baby, Please Don't Go.mp3 (4.9 MB) 02 - Just Push Play (Radio Remix).mp3 (4.6 MB) 03 - Sedona Sunrise.mp3 (6.0 MB) 04 - Nine Lives.mp3 (5.7 MB) 05 - Angel's Eye.mp3 (4.8 MB) 06 - Sunshine.mp3 (5.2 MB) 07 - Full Circle.mp3 (7.1 MB) 08 - Can't Stop Messin'.mp3 (6.5 MB) 09 - Dude (Looks Like A Lady).mp3 (6.1 MB) 10 - Fly Away From Here.mp3 (7.1 MB) 11 - Theme From Spider Man (Album Version).mp3 (4.2 MB) 12 - What Kind Of Love Are You On.mp3 (4.7 MB) 13 - What It Takes.mp3 (7.3 MB) 14 - Walk On Water.mp3 (6.9 MB) 15 - Deuces Are Wild.mp3 (5.1 MB) 16 - Dream On.mp3 (6.3 MB) 17 - Hangman Jury.mp3 (7.7 MB) 18 - Blind Man.mp3 (5.6 MB) 19 - Angel.mp3 (7.1 MB)

Drifters S01e01-12 [720p - H264 - Jap Aac - HardSub Ita]

Language: | Size: 3.45 GB | Seed: 95 | Leech: 33

Description:

Drifters S01e01-12 [720p - H264 - Jap Aac - HardSub Ita] .: Trama :. Nel 1600 alla battaglia di Sekigahara il samurai Shimazu Toyohisa riesce a ferire mortalmente l'avversario Ii Naomasa, ma finisce anche lui per essere ferito gravemente. Mentre si allontana dal campo di battaglia, Toyohisa si ritrova improvvisamente in un corridoio dalle molte porte, sorvegliato da un uomo dall'aspetto di un impiegato che lo spedisce in una di queste porte. Toyohisa si risveglia in un mondo a lui sconosciuto, simile al Medioevo e popolato da umani ma anche da altre razze, come elfi, gnomi e draghi. Il mondo è flagellato da continue guerre fra due fazioni: Toyohisa, così come altri celebri guerrieri del nostro mondo, è stato scelto per combattere per una di esse, i "Drifters" e incontra altri due importanti figure storiche giapponesi: Oda Nobunaga e Nasu no Yoichi. I tre iniziano quindi a combattere contro la fazione avversaria, i brutali "Ends", che stanno conquistando l'intero continente. Ma anche la fazione avversaria usa celebri guerrieri del nostro mondo, provenienti da epoche e luoghi diversi... .: Scheda :. Titolo originale: Dorifutāzu (ドリフターズ) Anno: 7 ottobre – 23 dicembre 2016 Genere: Azione, Commedia, Fantasy, Splatter, Storico Studio: Hoods Entertainment Distribuzione: Giappone Tokyo MX, GYT, KBS, MBC, GBS / Italia Dynit, VVVVID Numero episodi: 12 (completa) Durata approssimativa: 24 minuti .: Dati tecnici del file :. Info sul file Nome: Drifters S01e01 - Fight song.mp4 Data: 1/01/2017 14:16:35 Dimensione: 308,508,949 bytes (294.217 MB) Info generiche Durata: 00:23:50 (1429.636666 s) Tipo di contenitore: MP4/MOV Major brand: ISO Base Media version 1 Compatible brands: JVT AVC Data creazione: 1/01/2017 16:41:39 UTC Data modifica: 1/01/2017 16:41:39 UTC Streams totali: 2 Tipo stream n. 1: video (avc1) {video} Tipo stream n. 2: audio (AAC Low complexity) {sound} Audio streams: 1 Dati rilevanti Risoluzione: 1280 x 720 Larghezza: multipla di 32 Altezza: multipla di 16 Traccia video Codec: avc1 Risoluzione: 1280 x 720 Frame aspect ratio: 16:9 = 1.777777 Pixel aspect ratio: 1:1 = 1 Display aspect ratio: 16:9 = 1.777777 Framerate: 23.976 fps Frames totali: 34277 Bitrate: 1598.349964 kbps Traccia audio Codec: AAC Low complexity Bitrate: 125.386145 kbps Canali: 2 Frequenza: 48000 Hz Info sulla codifica H.264 User data: x264 User data: core 116 r2019 9cc407d User data: H.264/MPEG-4 AVC codec User data: Copyleft 2003-2011 User data: http://www.videolan.org/x264.html User data: cabac=1 User data: ref=1 User data: deblock=1:0:0 User data: analyse=0x3:0x113 User data: me=hex User data: subme=7 User data: psy=1 User data: psy_rd=1.00:0.00 User data: mixed_ref=0 User data: me_range=16 User data: chroma_me=1 User data: trellis=1 User data: 8x8dct=1 User data: cqm=0 User data: deadzone=21,11 User data: fast_pskip=1 User data: chroma_qp_offset=-2 User data: threads=12 User data: sliced_threads=0 User data: nr=0 User data: decimate=1 User data: interlaced=0 User data: bluray_compat=0 User data: constrained_intra=0 User data: bframes=0 User data: weightp=2 User data: keyint=250 User data: keyint_min=23 User data: scenecut=40 User data: intra_refresh=0 User data: rc_lookahead=40 User data: rc=2pass User data: mbtree=1 User data: bitrate=1600 User data: ratetol=1.0 User data: qcomp=0.60 User data: qpmin=0 User data: qpmax=69 User data: qpstep=4 User data: cplxblur=20.0 User data: qblur=0.5 User data: ip_ratio=1.40 User data: aq=1:1.00 SPS id: 0 Profile: [email protected] Num ref frames: 1 Aspect ratio: Square pixels Chroma format idc: YUV 4:2:0 PPS id: 0 (SPS: 0) Codifica entropica: CABAC Weighted prediction: P slices - explicit weighted prediction Weighted bipred idc: No 8x8dct: Sì Profile compliancy Profilo da testare: MTK PAL 6000 Risoluzione: 1280 x 720 > 720 x 576 Framerate: 23.976 <> 25 Rapporto generato da AVInaptic (18-11-2007) in data 5 feb 2017, h 14:00:08

In.Guerra.Per.Amore.2016.iTALiAN.AC3.DVDRip.XviD-T4P3

Language: | Size: 1.37 GB | Seed: 439 | Leech: 134

Description:

In guerra per amore Titolo originale: In guerra per amore Nazione: Italia Anno: 2016 Genere: Drammatico Durata: 99' Regia: Pif Sito ufficiale: Cast: Pif, Matthew T. Reynolds, Miriam Leone, Stella Egitto, Andrea Di Stefano, David Kirk Traylor Produzione: Wildside Distribuzione: 01 Distribution Data di uscita: 27 Ottobre 2016 (cinema) Trama: 1943. Mentre il mondo è nel pieno della seconda guerra mondiale, Arturo vive la sua travagliata storia d'amore con Flora. I due si amano, ma lei è la promessa sposa del figlio di un importante boss di New York. Per poterla sposare, il nostro protagonista deve ottenere il sì del padre della sua amata che vive in un paesino siciliano. Arturo, che è un giovane squattrinato, ha un solo modo per raggiungere l'isola: arruolarsi nell'esercito americano che sta preparando lo sbarco in Sicilia, l'evento che cambierà per sempre la storia della Sicilia, dell'Italia e della Mafia.

Trolls.2016.iTALiAN.AC3.BRRip.XviD-T4P3

Language: | Size: 1.23 GB | Seed: 428 | Leech: 192

Description:

Trolls Titolo originale: Trolls Nazione: U.S.A. Anno: 2016 Genere: Animazione, Avventura, Famiglia Durata: 92' Regia: Mike Mitchell, Walt Dohrn Cast (voci originali): Anna Kendrick, James Corden, Justin Timberlake, Kunal Nayyar, Gwen Stefani, Russell Brand, Ron Funches Cast (voci italiane): Alessio Bernabei Produzione: DreamWorks Animation Distribuzione: 20th Century Fox Data di uscita: 27 Ottobre 2016 (cinema) Trama: Il film ci catapulta in un mondo fantastico e variopinto, popolato dagli ottimisti Trolls, sempre pronti a ballare e a cantare, e dai pessimisti Bergen, che sono felici solo quando divorano i Troll. Quando i Bergen invadono il villaggio dei Trolls, Poppy, la piccola Troll più allegra che sia mai esistita, si lancia in una missione per soccorrere i suoi amici al fianco di Branch, un Troll che a differenza degli altri, è terribilmente burbero e timoroso. Il loro viaggio è irto di avventure e di imprevisti e questo improbabile duo dovrà tollerarsi a lungo a vicenda, prima di riuscire a portare a termine la sua importante missione.

The.Accountant.2016.iTALiAN.AC3.BRRip.XviD-T4P3

Language: | Size: 1.42 GB | Seed: 22 | Leech: 190

Description:

The Accountant Titolo originale: The Accountant Nazione: U.S.A. Anno: 2016 Genere: Drammatico Durata: 128' Regia: Gavin O'Connor Cast: Anna Kendrick, Ben Affleck, Jon Bernthal, J.K. Simmons, Jeffrey Tambor, John Lithgow, Cynthia Addai-Robinson Produzione: Electric City Entertainment, Zero Gravity Management Distribuzione: Warner Bros. Pictures Italia Data di uscita: Roma 2016 - Selezione Ufficiale 27 Ottobre 2016 (cinema) Trama: Christian Wolff è un matematico autistico che ha più affinità con i numeri che con le persone. Lavora sotto copertura in uno studio di una piccola città di provincia, come contabile freelance per alcune delle organizzazioni criminali più pericolose del mondo. Messo sotto pressione da Ray King, capo della divisione anti-crimine del Dipartimento del Tesoro, Christian assume l’incarico di un nuovo cliente: una società di robotica d’avanguardia in cui un’ addetta alla contabilità ha scoperto un ammanco nei conti di milioni di dollari. Non appena Christian individua le falsificazioni dei documenti avvicinandosi alla verità, il numero delle vittime inizia ad aumentare.

Festival di Sanremo 2017 - 2° Puntata 08 02 2017

Language: | Size: 2.61 GB | Seed: 904 | Leech: 60

Description:

67° Festival della Canzone Italiana di Sanremo - Seconda serata Raiuno e Comune di Sanremo In diretta dal Teatro Ariston di Sanremo 67° Festival della Canzone Italiana

Bambi (1942 Ita/Eng) + EXTRA [1080p] [iCV-MIRCrew]

Language: | Size: 5.7 GB | Seed: 10 | Leech: 32

Description:

Titolo originale: Bambi Nazionalità: USA Anno: 1942 Genere: animazione, drammatico Regia: David Hand, James Algar, Bill Roberts, Norman Wright, Sam Armstrong, Paul Satterfield, Graham Heid Durata: 70 min Trama E' la storia di un cerbiatto, di nome Bambi, dalla nascita fino alla maturità. Bambi viene festeggiato dagli altri animali, che lo chiamano il principino, fin dalla nascita. Bambi gode della particolare amicizia del Tamburino, un leprotto svelto e vivace, che lo assiste nei suoi primi passi e che, insieme alla madre del cerbiatto, lo inizia a tutti i segreti della foresta e del prato. Bambi impara a conoscere ed a superare i pericoli e le difficoltà che intralciano la vita degli animali, finché un giorno ha il dolore di perdere la madre, uccisa dai cacciatori. A soccorrerlo sono il consiglio e l'aiuto del signore della foresta, un magnifico cervo avanzato negli anni e pieno di saggezza e di autorità, e l'amore per Faline, una giovane cerbiatta conosciuta mentre lui vagava per i prati sotto la guida della madre. Report http://freetexthost.com/eguruy1iyw In questa versione sono compresi gli extra: Introduzione di Diane Disney Miller Dietro le Quinte Disney - Edizione Speciale: 1 - Bambi - Scopri la stesura della Storia - Edizione rivisitata Scene Eliminate: 1 - Due Foglie 2 - Bambi intrappolato Canzone Eliminata: 1 - Rincitrullulito Contenuti Speciali del DVD: Scene Eliminate: 1 - Prato Invernale 2 - La prima neve di Bambi Dietro le quinte Disney: Making of di Bambi - Un Principe e Nato: 1 - Storia - Raccontare una Storia 2 - Personaggi - Disegnare la natura 3 - Attori - Dare la voce agli animali 4 - Art Design - La Foresta 5 - Musica - Sinfonie della natura 6 - Storia - Tornare all inizio 2 - I trucchi del mestiere 3 - Dentro agli archivi Disney 4 - Il vecchio mulino - cortometraggio 1937 5 - Trailer Cinematografico Originale (1942)

Imperium (2016).H264.Italian.English.Ac3.5.1.multisub.iCV-MIRCrew

Language: | Size: 1.64 GB | Seed: 5 | Leech: 158

Description:

Imperium (2016).H264.Italian.English.Ac3.5.1.multisub.iCV-MIRCrew [center] [color=red][b][img]http://s23.postimg.org/b9yhws27f/0sc_Del1.png[/img] [u]NO FOUND ONLY ORIGINAL RELEASE[/u] [img]http://i.imgur.com/GDNQx1Z.png[/img] My release is always in double track audio italian and Original audio for select it use VLC or dvd player home not use wmp Imperium (2016) [img]https://extraimage.net/images/2017/02/08/63aa55c1e0bd1c936abdffe3c44beea2.png[/img] [URL=http://www.imdb.com/title/tt4781612/][IMG]http://www.userlogos.org/files/logos/Sucka/imdb_new.png[/IMG][/URL] [img]http://i.imgur.com/fGu1rKv.png[/img] GENERE: Drammatico, Thriller ANNO: 2016 REGIA: Daniel Ragussis SCENEGGIATURA: Daniel Ragussis FOTOGRAFIA: Bobby Bukowski MONTAGGIO: Sara Corrigan MUSICHE: Will Bates PRODUZIONE: Atomic Features, Green-Light International, Sculptor Media PAESE: USA [img]http://i.imgur.com/W7kBqiE.png[/img] Daniel Radcliffe, Toni Collette, Burn Gorman, Nestor Carbonell, Pawel Szajda, Chris Sullivan, Tracy Letts, Sam Trammell [img]http://i.imgur.com/bFK3ggF.png[/img] Un agente dell'FBI inviato dal suo superiore a infiltrarsi in un feroce gruppo di white supremacists, i neonazisti americani. [img]http://i.imgur.com/48xHWWH.png[/img] Idealistic FBI agent Nate Foster goes undercover to take down a radical white supremacy terrorist group. The up-and-coming analyst must confront the challenge of sticking to a new identity while maintaining his real principles as he navigates the dangerous underworld of white supremacy [img]http://i.imgur.com/K8bfNTy.png[/img] [img]https://extraimage.net/images/2017/02/08/5ee8f9cf074b49e82de8946b1a9dde3f.png[/img] [img]https://extraimage.net/images/2017/02/08/e315b2cd29bf612e72eaf4b94fd6858e.png[/img] [img]https://extraimage.net/images/2017/02/08/701722b5b408e3d23b4c9e44360f2340.png[/img] [img]http://i.imgur.com/aVrMohH.png[/img] [spoiler] Generale ID univoco : 218132601263278035470868821614367332740 (0xA41ACF94A6F7A9EE9D9214E1E103D984) Nome completo : Imperium (2016).ita.eng.multisub.iCV-MIRCrew.mkv Formato : Matroska Versione formato : Version 2 Dimensione : 1,64 GiB Durata : 1o 48min Bitrate totale : 2.166 Kbps Data codifica : UTC 2017-02-08 16:49:54 / UTC 2017-02-08T16:12:26Z Creato con : mkvmerge v5.4.0 ('Piper') built on Mar 10 2012 13:34:39 Compressore : libebml v1.2.3 + libmatroska v1.3.0 / Lavf55.12.0 Attachments : 0scDel1.png Video ID : 1 Formato : AVC Formato/Informazioni : Advanced Video Codec Profilo formato : [email protected] Impostazioni formato, CABAC : Si Impostazioni formato, ReFrames : 4 frame Modo muxing : Header stripping ID codec : V_MPEG4/ISO/AVC Durata : 1o 48min Bitrate : 1.280 Kbps Larghezza : 720 pixel Altezza : 302 pixel By : www.icv-crew.org Rapporto aspetto visualizzazione : 2,40:1 Rapporto aspetto originale : 2,40:1 Modalità frame rate : Costante Frame rate : 23,976 (24000/1001) fps Spazio colore : YUV Croma subsampling : 4:2:0 Profondità bit : 8 bit Tipo scansione : Progressivo Bit/(pixel*frame) : 0.246 Dimensione della traccia : 953MiB (57%) Compressore : x264 core 142 r2479 dd79a61 Impostazioni compressione : cabac=1 / ref=1 / deblock=1:0:0 / analyse=0x1:0x111 / me=hex / subme=2 / psy=1 / psy_rd=1.00:0.00 / mixed_ref=0 / me_range=16 / chroma_me=1 / trellis=0 / 8x8dct=0 / cqm=0 / deadzone=21,11 / fast_pskip=1 / chroma_qp_offset=0 / threads=12 / lookahead_threads=2 / sliced_threads=0 / nr=0 / decimate=1 / interlaced=0 / bluray_compat=0 / constrained_intra=0 / bframes=3 / b_pyramid=2 / b_adapt=1 / b_bias=0 / direct=1 / weightb=1 / open_gop=0 / weightp=1 / keyint=240 / keyint_min=24 / scenecut=40 / intra_refresh=0 / rc_lookahead=10 / rc=abr / mbtree=1 / bitrate=1280 / ratetol=1.0 / qcomp=0.60 / qpmin=0 / qpmax=69 / qpstep=4 / vbv_maxrate=20000 / vbv_bufsize=25000 / nal_hrd=none / filler=0 / ip_ratio=1.40 / aq=1:1.00 Default : Si Forced : No colour_range : Limited Colori primari : BT.709 Caratteristiche trasferimento : BT.709 Coefficienti matrici : BT.709 Audio #1 ID : 2 Formato : AC-3 Formato/Informazioni : Audio Coding 3 Estensione modo : CM (complete main) Impostazioni formato, Endianness : Big Modo muxing : Header stripping ID codec : A_AC3 Durata : 1o 48min Modalità bitrate : Costante Bitrate : 448 Kbps Canali : 6 canali Posizione canali : Front: L C R, Side: L R, LFE Frequenza campionamento : 48,0 KHz Frame rate : 31,250 fps (1536 spf) Modo compressione : Con perdita Ritardo video : -83ms Dimensione della traccia : 348MiB (21%) Lingua : Italiano Default : Si Forced : No Audio #2 ID : 3 Formato : AC-3 Formato/Informazioni : Audio Coding 3 Estensione modo : CM (complete main) Impostazioni formato, Endianness : Big Modo muxing : Header stripping ID codec : A_AC3 Durata : 1o 48min Modalità bitrate : Costante Bitrate : 448 Kbps Canali : 6 canali Posizione canali : Front: L C R, Side: L R, LFE Frequenza campionamento : 48,0 KHz Frame rate : 31,250 fps (1536 spf) Modo compressione : Con perdita Ritardo video : -5ms Dimensione della traccia : 348MiB (21%) Titolo : Surround Lingua : Inglese Default : No Forced : No Testo #1 ID : 4 Formato : UTF-8 ID codec : S_TEXT/UTF8 ID codec/Informazioni : UTF-8 Plain Text Default : Si Forced : No Testo #2 ID : 5 Formato : UTF-8 ID codec : S_TEXT/UTF8 ID codec/Informazioni : UTF-8 Plain Text Default : No Forced : No Testo #3 ID : 6 Formato : ASS ID codec : S_TEXT/ASS ID codec/Informazioni : Advanced Sub Station Alpha Modo compressione : Senza perdita Lingua : Inglese Default : No Forced : No Testo #4 ID : 7 Formato : ASS ID codec : S_TEXT/ASS ID codec/Informazioni : Advanced Sub Station Alpha Modo compressione : Senza perdita Lingua : Inglese Default : No Forced : No Testo #5 ID : 8 Formato : ASS ID codec : S_TEXT/ASS ID codec/Informazioni : Advanced Sub Station Alpha Modo compressione : Senza perdita Lingua : Inglese Default : No Forced : No Menu 00:00:00.000 : :Chapter 1 00:07:07.343 : :Chapter 2 00:14:49.763 : :Chapter 3 00:21:11.728 : :Chapter 4 00:27:09.044 : :Chapter 5 00:33:24.127 : :Chapter 6 00:39:43.339 : :Chapter 7 00:46:01.091 : :Chapter 8 00:51:49.648 : :Chapter 9 00:57:56.723 : :Chapter 10 01:05:00.396 : :Chapter 11 01:11:59.982 : :Chapter 12 01:19:28.305 : :Chapter 13 01:26:43.781 : :Chapter 14 01:30:29.882 : :Chapter 15 01:38:49.673 : :Chapter 16 [/spoiler] [/color][/b][/center]

I Am Ali (2014).H264.Italian.English.Ac3.5.1.iCV-MIRCrew

Language: | Size: 1.59 GB | Seed: 3 | Leech: 70

Description:

I Am Ali (2014).H264.Italian.English.Ac3.5.1.iCV-MIRCrew [center] [color=red][b][img]http://s23.postimg.org/b9yhws27f/0sc_Del1.png[/img] [u]NO FOUND ONLY ORIGINAL RELEASE[/u] [img]http://i.imgur.com/GDNQx1Z.png[/img] My release is always in double track audio italian and Original audio for select it use VLC or dvd player home not use wmp I Am Ali (2014) [img]https://extraimage.net/images/2017/02/08/f86d499ca85f79e2c9f1c7ff2a353170.png[/img] [URL=http://www.imdb.com/title/tt4008652/][IMG]http://www.userlogos.org/files/logos/Sucka/imdb_new.png[/IMG][/URL] [img]http://i.imgur.com/fGu1rKv.png[/img] Titolo originale: I Am Ali Nazione,Anno: Gran Bretagna, USA 2014. Regia: Clare Lewins Genere: Film sportivo/Film biografico Durata: 01:51:32 [img]http://i.imgur.com/W7kBqiE.png[/img] Mike Tyson Tom Jones George Foreman Jim Brown [img]http://i.imgur.com/bFK3ggF.png[/img] Un accesso senza precedenti all'archivio personale dei 'giornali audio' di Muhammad Ali, così come le interviste e le testimonianze dalla sua cerchia di familiari e amici che vengono utilizzati per raccontare la leggenda della sua vita. [img]http://i.imgur.com/48xHWWH.png[/img] Unprecedented access to Muhammad Ali's personal archive of "audio journals" as well as interviews and testimonials from his inner circle of family and friends are used to tell the legend's life story. [img]http://i.imgur.com/K8bfNTy.png[/img] [img]https://extraimage.net/images/2017/02/08/a99859f150a0bc6b27d5ab4e07bb0fc9.png[/img] [img]https://extraimage.net/images/2017/02/08/462177dec27497ee0aa2b7999fda72d9.png[/img] [img]http://i.imgur.com/aVrMohH.png[/img] [spoiler] General Unique ID : 249502410422860798426526393055200217636 (0xBBB46A9574BEE9752D50ED782A990A24) Complete name : I Am Ali (2014).ita.eng.iCV-MIRCrew.mkv Format : Matroska Format version : Version 2 File size : 1.59 GiB Duration : 1h 51mn Overall bit rate : 2 043 Kbps Encoded date : UTC 2017-01-25T16:34:10Z Writing application : HandBrake 0.10.5 2016021100 Writing library : Lavf55.12.0 Video ID : 1 Format : AVC Format/Info : Advanced Video Codec Format profile : [email protected] Format settings, CABAC : Yes Format settings, ReFrames : 4 frames Codec ID : V_MPEG4/ISO/AVC Duration : 1h 51mn Bit rate : 1 280 Kbps Width : 688 pixels Height : 398 pixels Display aspect ratio : 16:9 Original display aspect ratio : 16:9 Frame rate mode : Variable Frame rate : 23.976 fps Color space : YUV Chroma subsampling : 4:2:0 Bit depth : 8 bits Scan type : Progressive Bits/(Pixel*Frame) : 0.195 Stream size : 985 MiB (60%) Writing library : x264 core 142 r2479 dd79a61 Encoding settings : cabac=1 / ref=1 / deblock=1:0:0 / analyse=0x1:0x111 / me=hex / subme=2 / psy=1 / psy_rd=1.00:0.00 / mixed_ref=0 / me_range=16 / chroma_me=1 / trellis=0 / 8x8dct=0 / cqm=0 / deadzone=21,11 / fast_pskip=1 / chroma_qp_offset=0 / threads=12 / lookahead_threads=3 / sliced_threads=0 / nr=0 / decimate=1 / interlaced=0 / bluray_compat=0 / constrained_intra=0 / bframes=3 / b_pyramid=2 / b_adapt=1 / b_bias=0 / direct=1 / weightb=1 / open_gop=0 / weightp=1 / keyint=240 / keyint_min=24 / scenecut=40 / intra_refresh=0 / rc_lookahead=10 / rc=abr / mbtree=1 / bitrate=1280 / ratetol=1.0 / qcomp=0.60 / qpmin=0 / qpmax=69 / qpstep=4 / vbv_maxrate=20000 / vbv_bufsize=25000 / nal_hrd=none / filler=0 / ip_ratio=1.40 / aq=1:1.00 Default : Yes Forced : No Color primaries : BT.709-5, BT.1361, IEC 61966-2-4, SMPTE RP177 Transfer characteristics : BT.709-5, BT.1361 Matrix coefficients : BT.709-5, BT.1361, IEC 61966-2-4 709, SMPTE RP177 Audio #1 ID : 2 Format : AC-3 Format/Info : Audio Coding 3 Mode extension : CM (complete main) Codec ID : A_AC3 Duration : 1h 51mn Bit rate mode : Constant Bit rate : 384 Kbps Channel(s) : 6 channels Channel positions : Front: L C R, Side: L R, LFE Sampling rate : 48.0 KHz Bit depth : 16 bits Compression mode : Lossy Delay relative to video : 1mn 5s Stream size : 306 MiB (19%) Title : Surround Language : Italian Default : Yes Forced : No Audio #2 ID : 3 Format : AC-3 Format/Info : Audio Coding 3 Mode extension : CM (complete main) Codec ID : A_AC3 Duration : 1h 51mn Bit rate mode : Constant Bit rate : 384 Kbps Channel(s) : 6 channels Channel positions : Front: L C R, Side: L R, LFE Sampling rate : 48.0 KHz Bit depth : 16 bits Compression mode : Lossy Delay relative to video : 1mn 5s Stream size : 306 MiB (19%) Title : Surround Language : English Default : No Forced : No [/spoiler] [/color][/b][/center]

Festival di Sanremo 2017 - 1° Puntata 07 02 2017

Language: | Size: 2.66 GB | Seed: 3 | Leech: 2

Description:

Al via la prima serata della 67° Edizione del Festival di Sanremo condotta da Carlo Conti insieme a Maria De Filippi. Sul palco undici dei 22 campioni in gara, a rischio eliminazione Clementino con il brano 'Ragazzi fuori', Ron con il brano 'L'ottava meraviglia' e Giusy Ferreri con il brano 'Fa talmente male'. Super-ospiti Tiziano Ferro e Ricky Martin

Zambot 3 S01e13-23 [H264 - Ita Aac]

Language: | Size: 3.15 GB | Seed: 36 | Leech: 6

Description:

Zambot 3 S01e13-23 [H264 - Ita Aac] .: Trama :. Kappei è il secondogenito dei Jin, una famiglia di pescatori che risiede in una piccola cittadina di mare ubicata nel golfo di Suruga (detto anche baia di Honshū); apparentemente conducono una vita del tutto normale e tranquilla, ma con l'arrivo improvviso degli invasori spaziali la verità di colpo si svela: i Jin sono in realtà una famiglia di alieni! I loro antenati, vistosi il pianeta natale Biar conquistato dalla furia delle malvagie armate Gaizok, decisero di rifugiarsi sulla Terra, del tutto simile al proprio luogo d'origine, e si stabilirono infine in Giappone: tutto ciò accadde durante l'epoca Edo. Più di un secolo dopo i loro discendenti rimasti sul pianeta - suddivisi nelle famiglia Jin, Kamie e Kamikita - devono affrontare di nuovo gli stessi avversari per cercare di salvare dalla distruzione almeno questa seconda patria; grazie all'aiuto di antichi documenti riescono a portar nuovamente alla luce le astronavi costruite e nascoste dai loro avi. Con queste attrezzature, e con l'aiuto delle rispettive macchine da guerra, s'impegnano a tenere a bada e a reagire al nemico. Una lotta dura, tra l'indifferenza - quando non aperta ostilità - dei terrestri e la spietatezza delle orde nemiche, che porterà i nostri eroi a sacrificarsi per la pace dell'universo. Solo i membri delle tre famiglie superstiti del pianeta Biar sembrano esser in grado di reagire agli attacchi portati dal malvagio Supremo Gaizok all'amato pianeta Terra... .: Scheda :. Titolo originale: Muteki chōjin Zambot 3 (天空のエスカフローネ 無敵超人サンボット3) Anno: Giappone 8 ottobre 1977 – 25 marzo 1978 / Italia 1981 Genere: Drammatico, Fantascienza, Mecha Studio: Sunrise Distribuzione: Giappone Nagoya, Broadcasting, Network / Italia Dynit, VVVVID, Telereporter, Super 3 Numero episodi: 23 (completa) Durata approssimativa: 22 minuti .: Dati tecnici del file :. Info sul file Nome: Zambot 3 S01e13 - La lunga strada del guerriero.mp4 Data: 28/01/2017 00:44:40 Dimensione: 308,431,690 bytes (294.143 MB) Info generiche Durata: 00:23:44 (1423.766 s) Tipo di contenitore: MP4/MOV Major brand: ISO Base Media version 512 Compatible brands: JVT AVC Data creazione: 27/01/2017 22:02:13 UTC Data modifica: 27/01/2017 22:02:13 UTC Streams totali: 2 Tipo stream n. 1: video (avc1) {VideoHandler} Tipo stream n. 2: audio (AAC Main) {SoundHandler} Audio streams: 1 Dati rilevanti Risoluzione: 720 x 540 Larghezza: multipla di 16 Altezza: multipla di 4 Traccia video Codec: avc1 Risoluzione: 720 x 540 Frame aspect ratio: 4:3 = 1.333333 Pixel aspect ratio: 1:1 = 1 Display aspect ratio: 4:3 = 1.333333 Framerate: 25 fps Frames totali: 35593 Bitrate: 1599.732509 kbps Traccia audio Codec: AAC Main Bitrate: 127.881484 kbps Canali: 2 Frequenza: 48000 Hz Info sulla codifica H.264 User data: x264 User data: core 148 r2721 User data: H.264/MPEG-4 AVC codec User data: Copyleft 2003-2016 User data: http://www.videolan.org/x264.html User data: cabac=1 User data: ref=2 User data: deblock=1:0:0 User data: analyse=0x1:0x131 User data: me=hex User data: subme=7 User data: psy=1 User data: psy_rd=1.00:0.00 User data: mixed_ref=0 User data: me_range=16 User data: chroma_me=1 User data: trellis=1 User data: 8x8dct=0 User data: cqm=0 User data: deadzone=21,11 User data: fast_pskip=1 User data: chroma_qp_offset=-2 User data: threads=12 User data: lookahead_threads=2 User data: sliced_threads=0 User data: nr=0 User data: decimate=1 User data: interlaced=0 User data: bluray_compat=0 User data: constrained_intra=0 User data: bframes=3 User data: b_pyramid=0 User data: b_adapt=1 User data: b_bias=0 User data: direct=0 User data: weightb=1 User data: open_gop=0 User data: weightp=2 User data: keyint=250 User data: keyint_min=25 User data: scenecut=40 User data: intra_refresh=0 User data: rc_lookahead=40 User data: rc=2pass User data: mbtree=1 User data: bitrate=1600 User data: ratetol=1.0 User data: qcomp=0.60 User data: qpmin=10 User data: qpmax=69 User data: qpstep=4 User data: cplxblur=20.0 User data: qblur=0.5 User data: vbv_maxrate=7500 User data: vbv_bufsize=24000 User data: nal_hrd=none User data: filler=0 User data: ip_ratio=1.40 User data: aq=3:1.00 SPS id: 0 Profile: [email protected] Num ref frames: 2 Aspect ratio: Square pixels Chroma format idc: YUV 4:2:0 PPS id: 0 (SPS: 0) Codifica entropica: CABAC Weighted prediction: P slices - explicit weighted prediction Weighted bipred idc: B slices - implicit weighted prediction 8x8dct: No Profile compliancy Profilo da testare: MTK PAL 6000 Risoluzione: Ok Framerate: Ok Rapporto generato da AVInaptic (18-11-2007) in data 28 gen 2017, h 11:45:02

J-Ax &amp;amp; Fedez - Comunisti Col Rolex (2017) (by emi)

Language: | Size: 81.31 MB | Seed: 62 | Leech: 8

Description:

mp3 a 192 kbps audio di qualità a 95 db Tracklist 01 - Assenzio (feat. Stash & Levante).mp3 (5.9 MB) 02 - Comunisti Col Rolex.mp3 (6.8 MB) 03 - Il Giorno E La Notte (feat. Giusy Ferreri).mp3 (4.9 MB) 04 - Senza Pagare.mp3 (4.6 MB) 05 - Fratelli Di Paglia.mp3 (5.0 MB) 06 - Tutto Il Mondo E' Periferia.mp3 (4.7 MB) 07 - Milano Intorno.mp3 (4.6 MB) 08 - Vorrei Ma Non Posto.mp3 (5.3 MB) 09 - L'Italia Per Me (feat. Sergio Sylvestre).mp3 (4.9 MB) 10 - Musica Del Cazzo.mp3 (5.0 MB) 11 - Piccole Cose (feat. Alessandra Amoroso).mp3 (5.1 MB) 12 - Cuore Nerd (feat. Alessia Cara).mp3 (3.9 MB) 13 - Anni Luce (feat. Nek).mp3 (4.6 MB) 14 - Meglio Tardi Che Noi (feat. Arisa).mp3 (4.7 MB) 15 - Allergia (feat. Loredana Bertè).mp3 (5.3 MB) 16 - Pieno Di Stronzi.mp3 (5.8 MB)

Gazebo - The Best Of (2002) (by emi)

Language: | Size: 106.04 MB | Seed: 20 | Leech: 2

Description:

mp3 a 192 kbps audio di qualità a 95 db Tracklist 01 - I Like Chopin (Single Edit).mp3 (5.8 MB) 02 - Lunatic.mp3 (5.6 MB) 03 - Love In Your Eyes.mp3 (10.9 MB) 04 - London-Paris.mp3 (5.6 MB) 05 - Masterpiece.mp3 (5.9 MB) 06 - I Like Chopin.mp3 (10.7 MB) 07 - Wrap The Rock.mp3 (4.5 MB) 08 - Midnight Cocktail.mp3 (7.2 MB) 09 - Telephone Mama.mp3 (7.9 MB) 10 - First!.mp3 (5.0 MB) 11 - Snowhite Memories.mp3 (6.2 MB) 12 - Alphabet.mp3 (6.1 MB) 13 - For Anita.mp3 (8.3 MB) 14 - Gimmick!.mp3 (4.9 MB) 15 - Solitaire.mp3 (6.4 MB) 16 - No Speed Control.mp3 (4.8 MB)

Ashlee K Thomas - Just Got Started (2014) (by emi)

Language: | Size: 44.29 MB | Seed: 21 | Leech: 5

Description:

mp3 a 192 kbps audio di qualità a 95 db Tracklist 01 - Ride Free.mp3 (4.7 MB) 02 - Motorcycles.mp3 (4.2 MB) 03 - Boulder.mp3 (4.8 MB) 04 - Running Wild.mp3 (3.8 MB) 05 - Moon Song.mp3 (4.7 MB) 06 - Losing Side.mp3 (4.7 MB) 07 - Panama.mp3 (4.7 MB) 08 - Who Else Can.mp3 (3.5 MB) 09 - What You're Doing Now.mp3 (4.5 MB) 10 - Simple Life.mp3 (4.7 MB)

Jack.Reacher.Punto.Di.Non.Ritorno.2016.iTALiAN.AC3.BRRip.XviD-T4P3

Language: | Size: 1.45 GB | Seed: 491 | Leech: 312

Description:

Jack Reacher - Punto di non ritorno Titolo originale: Jack Reacher: Never Go Back Conosciuto anche come: Jack Reacher 2, Jack Reacher: Never Look Back Nazione: U.S.A. Anno: 2016 Genere: Thriller, Azione, Drammatico Durata: 118' Regia: Edward Zwick Cast: Tom Cruise, Cobie Smulders, Robert Knepper, Aldis Hodge, Chase Savoie, Danika Yarosh, Holt McCallany, Sue-Lynn Ansari Produzione: Paramount Pictures, Skydance Productions, TC Productions Distribuzione: Universal Pictures Italia Data di uscita: 20 Ottobre 2016 (cinema) Trama: Susan Turner, maggiore dell'esercito che dirige la vecchia unità investigativa di Reacher, viene arrestata con l’accusa di spionaggio e Reacher, consapevole della sua innocenza, deve aiutarla ad uscire di prigione e scoprire la verità dietro una grande cospirazione del governo per proteggere i loro nomi e salvare le loro vite. Fuggitivo dalla legge, Reacher scopre un potenziale segreto del suo passato che potrebbe cambiare la sua vita per sempre.

Neruda.2016.iTALiAN.AC3.BRRip.XviD-T4P3

Language: | Size: 1.32 GB | Seed: 188 | Leech: 124

Description:

Neruda Titolo originale: Neruda Conosciuto anche come: Nazione: Argentina, Cile, Spagna, Francia Anno: 2016 Genere: Drammatico Durata: 107' Regia: Pablo Larraín Cast: Gael García Bernal, Luis Gnecco, Mercedes Morán, Pablo Derqui Produzione: AZ Films, Casting del Sur, Fabula Distribuzione: Good Films Data di uscita: 13 Ottobre 2016 (cinema) Trama: E’ il 1948 e la Guerra Fredda è arrivata anche in Cile. Al congresso, il Senatore Pablo Neruda accusa il governo di tradire il Partito Comunista e rapidamente viene messo sotto accusa dal Presidente Gonzalez Videla. Il Prefetto della Polizia, Oscar Peluchonneau, viene incaricato di arrestare il poeta. Neruda tenta di scappare dal paese assieme alla moglie, la pittrice Delia del Carril, e i due sono costretti a nascondersi. Traendo ispirazione dai drammatici eventi della sua vita di fuggitivo, Neruda scrive la sua epica raccolta di poesie, “Canto General”. Nel frattempo, in Europa, cresce la leggenda del poeta inseguito dal poliziotto, e alcuni artisti capitanati da Pablo Picasso iniziano a invocare la libertà per Neruda. Ciononostante, Neruda vede questa battaglia contro la sua nemesi Peluchonneau come un’opportunità per reinventare se stesso. Gioca con l’ispettore, lasciandogli indizi architettati per rendere più pericoloso e intimo il loro gioco tra ‘gatto e topo’. In questa vicenda del poeta perseguitato e del suo avversario implacabile, Neruda intravede per se stesso dei risvolti eroici: la possibilità, cioè, di diventare un simbolo di libertà, oltre che una leggenda della letteratura.