Search Top Tags














Collide.2016.720p.BluRay.x264-FOXM

Language: | Size: 829.51 MB | Seed: 7 | Leech: 9

Description:

Storyline To pay for his girlfriend's (Jones) medical emergency while abroad, Casey (Hoult) schemes to pull a drug heist for an eccentric gangster (Kingsley). After a failed attempt, he embarks across Europe on an action-packed chase in a race against time to save his girlfriend's life from being taken by an evil druglord (Hopkins). General Size : 829 MB Running Time: 1h 39min Genre: Action | Romance | Thriller Director: Eran Creevy Language: English | German Release Date: 4 August 2016 (Germany) http://www.imdb.com/title/tt2126235/ Video======= Video Format......: AAC Video Codec.......: x264 Frame Rate........: 23.000 fps Width.............: 1 280 Pixels Height............:  534 Audio======= Format..........: AAC Bitrate.........: 255 Kbps Channels........: 6 channels screenshot [img]http://foxm.to/images/1482998950image3.jpg[/img] [img]http://foxm.to/images/1482998950image1.jpg[/img] [/center]

Bad.Boys.II.2003.720p.BluRay.x264-FOXM

Language: | Size: 1.18 GB | Seed: 1 | Leech: 5

Description:

Storyline Narcotics cops Mike Lowrey (Will Smith) and Marcus Burnett (Martin Lawrence) head up a task force investigating the flow of ecstasy into Miami. Their search leads to a dangerous kingpin Johnny Tapia (Jordi Mollà), whose plan to control the city's drug traffic has touched off an underground war. Meanwhile, things get sexy between Mike and Syd (Gabrielle Union), Marcus's sister. General Size : 1.17 GB Running Time: 2h 27min Genre: Action | Comedy | Crime Director: Michael Bay Language: English Release Date: 18 July 2003 (USA) http://www.imdb.com/title/tt0172156/ Video======= Video Format......: AAC Video Codec.......: x264 Frame Rate........: 23.000 fps Width.............: 1 280 Pixels Height............:  536 Audio======= Format..........: AAC Bitrate.........: 255 Kbps Channels........: 6 channels screenshot [img]http://foxm.to/images/1482996677image3.jpg[/img] [img]http://foxm.to/images/1482996677image2.jpg[/img] [/center]

Big Stone Gap - I segreti di Big Stone Gap (2015).H264.Italian.English.Ac3.5.1.sub.ita.iCV-MIRCrew

Language: | Size: 1.57 GB | Seed: 976 | Leech: 94

Description:

Big Stone Gap - I segreti di Big Stone Gap (2015).H264.Italian.English.Ac3.5.1.sub.ita.iCV-MIRCrew [img]http://i.imgur.com/GDNQx1Z.png[/img] My release is always in double track audio italian and Original audio for select it use VLC or dvd player home not use wmp Big Stone Gap - I segreti di Big Stone Gap (2015) [img]http://extraimage.net/images/2016/12/28/f17888d8746ffd5ca7f5e6d78585f01e.png[/img] [URL=http://www.imdb.com/title/tt3254796/][IMG]http://www.userlogos.org/files/logos/Sucka/imdb_new.png[/IMG][/URL] [img]http://s19.postimage.org/bgh0za7kj/banner_scheda.gif[/img] Genere: Commedia, Romantico Nazione: Spagna - 2014 Formato: Colore Durata: 103 minuti Produzione: Altar Identity Studios Regia: Adriana Trigiani Sceneggiatura: Adriana Trigiani Musiche: John Leventhal Fotografia: Reynaldo Villalobos Scenografia: Eloise Crane Stammerjohn [img]http://s19.postimage.org/i9hdvjydv/banner_trama.gif[/img] Patrick Wilson, Ashley Judd, Jane Krakowski, Jenna Elfman, Whoopi Goldberg................... [img]http://s19.postimage.org/i9hdvjydv/banner_trama.gif[/img] A Big Stone Gap, cittadina mineraria della Virginia, Ave Maria Mulligan è ormai rassegnata a vivere una vita da zitella. Lavora nella farmacia di famiglia e si occupa di organizzare lo spettacolo all'aperto che si tiene ogni anno finché un giorno scopre un segreto di famiglia che modificherà la sua esistenza. [img]http://s19.postimage.org/nwdqt10wj/banner_storyline.gif[/img] In a small town nestled in the Appalachian Mountains of Virginia, self-proclaimed spinster Ave Maria Mulligan finds her life shaken up and forever changed after learning a long-buried family secret. [img]http://i.imgur.com/GgEl7ea.png[/img] [url=https://extraimage.net/image/2c9D][img]http://extraimage.net/images/2016/12/28/8c911e01dee53af2dea4fb031136f4c9.th.png[/img][/url] [url=https://extraimage.net/image/2c9F][img]http://extraimage.net/images/2016/12/28/740226582834bbec9a4fe5d29e46df3a.th.png[/img][/url] [url=https://extraimage.net/image/2c9H][img]http://extraimage.net/images/2016/12/28/d2c6aacd76d7815a211c8202f3a95540.th.png[/img][/url] [url=https://extraimage.net/image/2c9k][img]http://extraimage.net/images/2016/12/28/f7a6885a52de3904bfcbfe998c5b8e1b.th.png[/img][/url] [img]http://i.imgur.com/cWb6Z.gif[/img] [img]http://s19.postimage.org/f07k2tzo3/banner_dati_file.gif[/img] [spoiler] General Unique ID : 275833473422465698549286826728277131789 (0xCF8398388C80749DD88CEFBCDDBFC20D) Complete name : Big Stone Gap (2015).ita.eng.sub.ita.iCV-MIRCrew.mkv Format : Matroska Format version : Version 2 File size : 1.57 GiB Duration : 1h 43mn Overall bit rate : 2 176 Kbps Movie name : VISIT www.icv-crew.org Encoded date : UTC 2016-12-26 18:11:12 Writing application : Lavf54.63.100 Writing library : Lavf54.63.100 COPYRIGHT : robbyrs Video ID : 1 Format : AVC Format/Info : Advanced Video Codec Format profile : Main@L4.1 Format settings, CABAC : Yes Format settings, ReFrames : 2 frames Codec ID : V_MPEG4/ISO/AVC Duration : 1h 43mn Bit rate : 1 275 Kbps Width : 720 pixels Height : 390 pixels Display aspect ratio : 16:9 Frame rate mode : Variable Frame rate : 23.976 fps Color space : YUV Chroma subsampling : 4:2:0 Bit depth : 8 bits Scan type : Progressive Bits/(Pixel*Frame) : 0.189 Stream size : 912 MiB (57%) Writing library : x264 core 130 r2273 Encoding settings : cabac=1 / ref=2 / deblock=1:0:0 / analyse=0x1:0x131 / me=hex / subme=7 / psy=1 / psy_rd=1.00:0.00 / mixed_ref=0 / me_range=16 / chroma_me=1 / trellis=1 / 8x8dct=0 / cqm=0 / deadzone=21,11 / fast_pskip=1 / chroma_qp_offset=-2 / threads=12 / lookahead_threads=2 / sliced_threads=0 / nr=0 / decimate=1 / interlaced=0 / bluray_compat=0 / constrained_intra=0 / bframes=3 / b_pyramid=0 / b_adapt=1 / b_bias=0 / direct=3 / weightb=1 / open_gop=0 / weightp=2 / keyint=230 / keyint_min=23 / scenecut=40 / intra_refresh=0 / rc_lookahead=40 / rc=2pass / mbtree=1 / bitrate=1275 / ratetol=1.0 / qcomp=0.60 / qpmin=10 / qpmax=69 / qpstep=4 / cplxblur=20.0 / qblur=0.5 / vbv_maxrate=24000 / vbv_bufsize=24000 / nal_hrd=none / ip_ratio=1.40 / aq=1:1.00 Language : English Default : Yes Forced : No DURATION : 01:43:11.153000000 NUMBER_OF_FRAMES : 148439 NUMBER_OF_BYTES : 7044534389 _STATISTICS_WRITING_APP : mkvmerge v8.7.0 ('All of the above') 64bit _STATISTICS_WRITING_DATE_UTC : 2016-12-23 12:25:52 _STATISTICS_TAGS : BPS DURATION NUMBER_OF_FRAMES NUMBER_OF_BYTES Audio #1 ID : 2 Format : AC-3 Format/Info : Audio Coding 3 Mode extension : CM (complete main) Codec ID : A_AC3 Duration : 1h 43mn Bit rate mode : Constant Bit rate : 448 Kbps Channel(s) : 6 channels Channel positions : Front: L C R, Side: L R, LFE Sampling rate : 48.0 KHz Bit depth : 16 bits Compression mode : Lossy Delay relative to video : 1mn 5s Stream size : 331 MiB (21%) Language : Italian Default : Yes Forced : No DURATION : 01:43:11.232000000 NUMBER_OF_FRAMES : 193476 NUMBER_OF_BYTES : 346708992 _STATISTICS_WRITING_APP : mkvmerge v8.7.0 ('All of the above') 64bit _STATISTICS_WRITING_DATE_UTC : 2016-12-23 12:25:52 _STATISTICS_TAGS : BPS DURATION NUMBER_OF_FRAMES NUMBER_OF_BYTES Audio #2 ID : 3 Format : AC-3 Format/Info : Audio Coding 3 Mode extension : CM (complete main) Codec ID : A_AC3 Duration : 1h 43mn Bit rate mode : Constant Bit rate : 448 Kbps Channel(s) : 6 channels Channel positions : Front: L C R, Side: L R, LFE Sampling rate : 48.0 KHz Bit depth : 16 bits Compression mode : Lossy Delay relative to video : 1mn 5s Stream size : 331 MiB (21%) Title : AC3 ENG Language : English Default : No Forced : No DURATION : 01:43:11.168000000 NUMBER_OF_FRAMES : 193474 NUMBER_OF_BYTES : 495293440 _STATISTICS_WRITING_APP : mkvmerge v8.7.0 ('All of the above') 64bit _STATISTICS_WRITING_DATE_UTC : 2016-12-23 12:25:52 _STATISTICS_TAGS : BPS DURATION NUMBER_OF_FRAMES NUMBER_OF_BYTES Text ID : 4 Format : UTF-8 Codec ID : S_TEXT/UTF8 Codec ID/Info : UTF-8 Plain Text Title : Forced Language : Italian Default : Yes Forced : No DURATION : 01:25:06.811000000 NUMBER_OF_FRAMES : 7 NUMBER_OF_BYTES : 241 _STATISTICS_WRITING_APP : mkvmerge v8.7.0 ('All of the above') 64bit _STATISTICS_WRITING_DATE_UTC : 2016-12-23 12:25:52 _STATISTICS_TAGS : BPS DURATION NUMBER_OF_FRAMES NUMBER_OF_BYTES Menu 00:00:00.000 : :00:00:00.000 00:07:05.342 : :00:07:05.342 00:14:28.201 : :00:14:28.201 00:20:13.838 : :00:20:13.838 00:29:27.099 : :00:29:27.099 00:39:02.590 : :00:39:02.590 00:50:56.804 : :00:50:56.804 00:59:52.756 : :00:59:52.756 01:08:53.129 : :01:08:53.129 01:16:19.950 : :01:16:19.950 01:25:27.706 : :01:25:27.706 01:35:23.259 : :01:35:23.259 [/spoiler] [/color][/b][/center]

Hercules - Il guerriero - Extended (2014).H264.Italian.English.Ac3.5.1.sub.ita.eng.iCV-MIRCrew

Language: | Size: 1.54 GB | Seed: 80 | Leech: 71

Description:

Hercules - Il guerriero - Extended (2014).H264.Italian.English.Ac3.5.1.sub.ita.eng.iCV-MIRCrew [img]http://i.imgur.com/GDNQx1Z.png[/img] My release is always in double track audio italian and Original audio for select it use VLC or dvd player home not use wmp Hercules Il guerriero - Extended (2014) [img]http://extraimage.net/images/2016/12/28/50bbbf3807fbe4d57f663dac907db43f.png[/img] [URL=http://www.imdb.com/title/tt1267297/][IMG]http://www.userlogos.org/files/logos/Sucka/imdb_new.png[/IMG][/URL] [img]http://s19.postimage.org/bgh0za7kj/banner_scheda.gif[/img] Titolo originale Hercules Lingua originale inglese Paese di produzione Stati Uniti d'America Anno 2014 Durata 98 min (versione cinematografica) 101 min (versione estesa) Audio Dolby Digital, SDDS, Dolby Atmos Rapporto 2,35 : 1 Genere azione, avventura, fantastico, epico Regia Brett Ratner Soggetto Admira Wijaya e Steve Moore Sceneggiatura Ryan Condal, Evan Spiliotopoulos Produttore Sarah Aubrey, Beau Flynn, Barry Levine, Brett Ratner Produttore esecutivo Peter Berg, Jesse Berger, Ross Fanger, Stephen Jones Casa di produzione Film 44, Metro-Goldwyn-Mayer, Nimar Studios, Paramount Pictures, Radical Studios, Spyglass Entertainment Distribuzione (Italia) Universal Pictures Fotografia Dante Spinotti Montaggio Mark Helfrich Effetti speciali Csaba Bagossy, Florin Daniel Catrinoiu, Aaron Cox, Palagyi Fefe, Szilard Gergely, Gergely Glovotz, Gergely Laszlo, Declan O'Donnell, Dave Roddham, Péter Szlávi Musiche Fernando Velázquez, Johannes Vogel Scenografia Jean-Vincent Puzos [img]http://s19.postimage.org/i9hdvjydv/banner_trama.gif[/img] Dwayne Johnson: Hercules Ian McShane: Anfiarao John Hurt: re Cotys Rufus Sewell: Autolico Irina Shayk: Megara Joe Anderson: Finea Ingrid Bolsø Berdal: Atalanta Rebecca Ferguson: Ergenia Peter Mullan: generale Sitacle Tobias Santelmann: Reso Aksel Hennie: Tideo Barbara Palvin: Antimaca Reece Ritchie: Iolao Joseph Fiennes: re Euristeo Robert Maillet: boia Ian Whyte: capo dei Bessi [img]http://s19.postimage.org/i9hdvjydv/banner_trama.gif[/img] Hercules, nella leggenda un semidio figlio di Zeus ma in realtà un orfano ateniese, mortale ma dotato di una forza sovrumana, reduce dalle dodici fatiche affidategli dal re di Micene Euristeo per espiare il massacro della sua stessa famiglia, guida un gruppo di fedeli ed esperti mercenari: l'ironico veggente argivo Anfiarao, il ladro spartano Autolico, l'amazzone scitica Atalanta e il selvaggio e taciturno tebano Tideo, oltre al proprio nipote Iolao, promoter dell'eroe e cantore delle sue gesta. [img]http://s19.postimage.org/nwdqt10wj/banner_storyline.gif[/img] aving endured his legendary twelve labors, Hercules, the Greek demigod, has his life as a sword-for-hire tested when the King of Thrace and his daughter seek his aid in defeating a tyrannical warlord. [img]http://i.imgur.com/GgEl7ea.png[/img] [url=https://extraimage.net/image/2c9L][img]http://extraimage.net/images/2016/12/28/7b1920ca559617e6f0ee43e83bc0e58a.th.png[/img][/url] [url=https://extraimage.net/image/2c9y][img]http://extraimage.net/images/2016/12/28/1868ba5ab1393dde97c7dd4e341625eb.th.png[/img][/url] [url=http://extraimage.net/image/2c9Q][img]https://extraimage.net/images/2016/12/28/d6c646510a774f97db313f125695cf37.th.png[/img][/url] [url=https://extraimage.net/image/2c9R][img]http://extraimage.net/images/2016/12/28/f86165199f5e8c8910cfbd75358b1722.th.png[/img][/url] [url=https://extraimage.net/image/2c9m][img]http://extraimage.net/images/2016/12/28/d45461163a6000352791e4e5f051b8fc.th.png[/img][/url] [img]http://i.imgur.com/cWb6Z.gif[/img] [img]http://s19.postimage.org/f07k2tzo3/banner_dati_file.gif[/img] [spoiler] General Unique ID : 189225690579857979289000005146161319815 (0x8E5B8AD8FD889A1410BE966BB5E20F87) Complete name : Hercules Il guerriero - Extended (2014).Ita.eng.sub.ita.eng.iCV-MIRCrew.mkv Format : Matroska Format version : Version 2 File size : 1.54 GiB Duration : 1h 41mn Overall bit rate : 2 171 Kbps Movie name : VISIT www.icv-crew.org Encoded date : UTC 2014-11-26 23:13:54 Writing application : Lavf54.63.100 Writing library : Lavf54.63.100 COPYRIGHT : robbyrs Video ID : 1 Format : AVC Format/Info : Advanced Video Codec Format profile : Main@L4.1 Format settings, CABAC : Yes Format settings, ReFrames : 2 frames Codec ID : V_MPEG4/ISO/AVC Duration : 1h 41mn Bit rate : 1 270 Kbps Width : 688 pixels Height : 290 pixels Display aspect ratio : 2.40:1 Frame rate mode : Variable Frame rate : 23.976 fps Color space : YUV Chroma subsampling : 4:2:0 Bit depth : 8 bits Scan type : Progressive Bits/(Pixel*Frame) : 0.265 Stream size : 895 MiB (57%) Writing library : x264 core 130 r2273 Encoding settings : cabac=1 / ref=2 / deblock=1:0:0 / analyse=0x1:0x131 / me=hex / subme=7 / psy=1 / psy_rd=1.00:0.00 / mixed_ref=0 / me_range=16 / chroma_me=1 / trellis=1 / 8x8dct=0 / cqm=0 / deadzone=21,11 / fast_pskip=1 / chroma_qp_offset=-2 / threads=12 / lookahead_threads=2 / sliced_threads=0 / nr=0 / decimate=1 / interlaced=0 / bluray_compat=0 / constrained_intra=0 / bframes=3 / b_pyramid=0 / b_adapt=1 / b_bias=0 / direct=3 / weightb=1 / open_gop=0 / weightp=2 / keyint=230 / keyint_min=23 / scenecut=40 / intra_refresh=0 / rc_lookahead=40 / rc=2pass / mbtree=1 / bitrate=1270 / ratetol=1.0 / qcomp=0.60 / qpmin=10 / qpmax=69 / qpstep=4 / cplxblur=20.0 / qblur=0.5 / vbv_maxrate=24000 / vbv_bufsize=24000 / nal_hrd=none / ip_ratio=1.40 / aq=1:1.00 Default : Yes Forced : No DURATION : 01:41:35.673000000 NUMBER_OF_FRAMES : 146140 NUMBER_OF_BYTES : 2126999059 _STATISTICS_WRITING_APP : mkvmerge v7.3.0 ('Nouages') 64bit built on Oct 22 2014 18:53:34 _STATISTICS_WRITING_DATE_UTC : 2014-11-26 23:13:54 _STATISTICS_TAGS : BPS DURATION NUMBER_OF_FRAMES NUMBER_OF_BYTES Audio #1 ID : 2 Format : AC-3 Format/Info : Audio Coding 3 Mode extension : CM (complete main) Codec ID : A_AC3 Duration : 1h 41mn Bit rate mode : Constant Bit rate : 448 Kbps Channel(s) : 6 channels Channel positions : Front: L C R, Side: L R, LFE Sampling rate : 48.0 KHz Bit depth : 16 bits Compression mode : Lossy Delay relative to video : 1mn 5s Stream size : 326 MiB (21%) Language : Italian Default : Yes Forced : No DURATION : 01:41:36.160000000 NUMBER_OF_FRAMES : 190505 NUMBER_OF_BYTES : 341384960 _STATISTICS_WRITING_APP : mkvmerge v7.3.0 ('Nouages') 64bit built on Oct 22 2014 18:53:34 _STATISTICS_WRITING_DATE_UTC : 2014-11-26 23:13:54 _STATISTICS_TAGS : BPS DURATION NUMBER_OF_FRAMES NUMBER_OF_BYTES Audio #2 ID : 3 Format : AC-3 Format/Info : Audio Coding 3 Mode extension : CM (complete main) Codec ID : A_AC3 Duration : 1h 41mn Bit rate mode : Constant Bit rate : 448 Kbps Channel(s) : 6 channels Channel positions : Front: L C R, Side: L R, LFE Sampling rate : 48.0 KHz Bit depth : 16 bits Compression mode : Lossy Delay relative to video : 1mn 5s Stream size : 326 MiB (21%) Language : English Default : No Forced : No DURATION : 01:41:35.776000000 NUMBER_OF_FRAMES : 190493 NUMBER_OF_BYTES : 341363456 _STATISTICS_WRITING_APP : mkvmerge v7.3.0 ('Nouages') 64bit built on Oct 22 2014 18:53:34 _STATISTICS_WRITING_DATE_UTC : 2014-11-26 23:13:54 _STATISTICS_TAGS : BPS DURATION NUMBER_OF_FRAMES NUMBER_OF_BYTES Text #1 ID : 4 Format : ASS Codec ID : S_TEXT/ASS Codec ID/Info : Advanced Sub Station Alpha Compression mode : Lossless Language : Italian Default : No Forced : No DURATION : 01:35:33.043000000 NUMBER_OF_FRAMES : 969 NUMBER_OF_BYTES : 53133 _STATISTICS_WRITING_APP : mkvmerge v7.3.0 ('Nouages') 64bit built on Oct 22 2014 18:53:34 _STATISTICS_WRITING_DATE_UTC : 2014-11-26 23:13:54 _STATISTICS_TAGS : BPS DURATION NUMBER_OF_FRAMES NUMBER_OF_BYTES Text #2 ID : 5 Format : ASS Codec ID : S_TEXT/ASS Codec ID/Info : Advanced Sub Station Alpha Compression mode : Lossless Language : English Default : No Forced : No DURATION : 01:33:43.910000000 NUMBER_OF_FRAMES : 1159 NUMBER_OF_BYTES : 61180 _STATISTICS_WRITING_APP : mkvmerge v7.3.0 ('Nouages') 64bit built on Oct 22 2014 18:53:34 _STATISTICS_WRITING_DATE_UTC : 2014-11-26 23:13:54 _STATISTICS_TAGS : BPS DURATION NUMBER_OF_FRAMES NUMBER_OF_BYTES Menu 00:00:00.000 : :00:00:00.000 00:08:10.865 : :00:08:10.782 00:14:15.896 : :00:14:15.813 00:23:38.333 : :00:23:38.250 00:31:23.840 : :00:31:23.757 00:41:12.219 : :00:41:12.136 00:51:34.424 : :00:51:34.341 00:57:31.364 : :00:57:31.281 01:05:57.703 : :01:05:57.620 01:16:07.938 : :01:16:07.855 01:24:28.980 : :01:24:28.897 01:34:24.784 : :01:34:24.701 [/spoiler] [/color][/b][/center]

Frank (2014).H264.Italian.English.Ac3.5.1.sub.ita.iCV-MIRCrew

Language: | Size: 1.4 GB | Seed: 26 | Leech: 26

Description:

Frank (2014).H264.Italian.English.Ac3.5.1.sub.ita.iCV-MIRCrew [img]http://i.imgur.com/GDNQx1Z.png[/img] My release is always in double track audio italian and Original audio for select it use VLC or dvd player home not use wmp Frank (2014) [img]https://extraimage.net/images/2016/12/28/4e18dfd5c3566ddfab9b827d59acdcff.png[/img] [URL=http://www.imdb.com/title/tt1605717/][IMG]http://www.userlogos.org/files/logos/Sucka/imdb_new.png[/IMG][/URL] [img]http://s19.postimage.org/bgh0za7kj/banner_scheda.gif[/img] Titolo originale Frank Lingua originale inglese Paese di produzione Regno Unito, Irlanda Anno 2014 Durata 95 min Genere commedia, drammatico Regia Lenny Abrahamson Sceneggiatura Jon Ronson, Peter Straughan Casa di produzione Film4, Element Pictures, Runaway Fridge Productions, Indieproduction Distribuzione (Italia) I Wonder Pictures Fotografia James Mather Montaggio Nathan Nugent Musiche Stephen Rennicks [img]http://s19.postimage.org/i9hdvjydv/banner_trama.gif[/img] Michael Fassbender: Frank Domhnall Gleeson: Jon Maggie Gyllenhaal: Clara Scoot McNairy: Don Tess Harper: madre di Frank [img]http://s19.postimage.org/i9hdvjydv/banner_trama.gif[/img] Jon, un aspirante cantautore, assiste a una strana scena mentre cammina lungo la spiaggia della sua città: un uomo cerca di affogarsi e viene fermato dalle forze dell'ordine, per poi essere portato in ospedale. Sul luogo c'è anche Don, il quale spiega a Jon che l'uomo è il tastierista di gruppo sperimentale che gestisce, i Soronprfbs. Sentendo questo, Jon afferma di essere anche lui un tastierista e, poiché il gruppo ha un concerto in programma [img]http://s19.postimage.org/nwdqt10wj/banner_storyline.gif[/img] Jon, a young wanna-be musician, discovers he's bitten off more than he can chew when he joins an eccentric pop band led by the mysterious and enigmatic Frank. [img]http://i.imgur.com/GgEl7ea.png[/img] [url=https://extraimage.net/image/2c3p][img]http://extraimage.net/images/2016/12/28/407436fc6212276d8c255d6b3cdb08c9.th.png[/img][/url] [url=http://extraimage.net/image/2c3Y][img]https://extraimage.net/images/2016/12/28/ff4d754e9bcc3e5071fdf1d8910d1a5a.th.png[/img][/url] [url=http://extraimage.net/image/2c3r][img]https://extraimage.net/images/2016/12/28/2f99e0adb4ef3d83f7b45ebf2dd4ee86.th.png[/img][/url] [url=https://extraimage.net/image/2c3G][img]http://extraimage.net/images/2016/12/28/bfeac1abdaa9257cd1158f225b4928e3.th.png[/img][/url] [img]http://i.imgur.com/cWb6Z.gif[/img] [img]http://s19.postimage.org/f07k2tzo3/banner_dati_file.gif[/img] [spoiler] General Unique ID : 234321577047375815819043183358917199819 (0xB048B1B61E57CC1891E6A92333C3C7CB) Complete name : Frank (2014).H264.ita.eng.sub.ita.iCV-MIRCrew.mkv Format : Matroska Format version : Version 2 File size : 1.40 GiB Duration : 1h 32mn Overall bit rate : 2 178 Kbps Movie name : FRANK.Title2 Encoded date : UTC 2016-12-26 18:28:45 Writing application : DVDFab 9.1.5.7 Writing library : libebml v0.7.8 + libmatroska v0.8.1 Video ID : 1 Format : AVC Format/Info : Advanced Video Codec Format profile : High@L4.1 Format settings, CABAC : Yes Format settings, ReFrames : 2 frames Codec ID : V_MPEG4/ISO/AVC Duration : 1h 32mn Bit rate : 1 239 Kbps Width : 720 pixels Height : 300 pixels Display aspect ratio : 2.40:1 Frame rate : 25.000 fps Color space : YUV Chroma subsampling : 4:2:0 Bit depth : 8 bits Scan type : Progressive Bits/(Pixel*Frame) : 0.229 Stream size : 817 MiB (57%) Writing library : x264 core Default : Yes Forced : No Color primaries : BT.601-6 525, BT.1358 525, BT.1700 NTSC, SMPTE 170M Transfer characteristics : BT.709-5, BT.1361 Matrix coefficients : BT.601-6 525, BT.1358 525, BT.1700 NTSC, SMPTE 170M Audio #1 ID : 2 Format : AC-3 Format/Info : Audio Coding 3 Mode extension : CM (complete main) Codec ID : A_AC3 Duration : 1h 32mn Bit rate mode : Constant Bit rate : 448 Kbps Channel(s) : 6 channels Channel positions : Front: L C R, Side: L R, LFE Sampling rate : 48.0 KHz Bit depth : 16 bits Compression mode : Lossy Stream size : 296 MiB (21%) Language : Italian Default : Yes Forced : No Audio #2 ID : 3 Format : AC-3 Format/Info : Audio Coding 3 Mode extension : CM (complete main) Codec ID : A_AC3 Duration : 1h 32mn Bit rate mode : Constant Bit rate : 448 Kbps Channel(s) : 6 channels Channel positions : Front: L C R, Side: L R, LFE Sampling rate : 48.0 KHz Bit depth : 16 bits Compression mode : Lossy Stream size : 296 MiB (21%) Language : English Default : No Forced : No Text #1 ID : 4 Format : VobSub Codec ID : S_VOBSUB Codec ID/Info : The same subtitle format used on DVDs Language : Italian Default : Yes Forced : No Text #2 ID : 5 Format : VobSub Codec ID : S_VOBSUB Codec ID/Info : The same subtitle format used on DVDs Language : Italian Default : No Forced : No Menu 00:00:00.000 : en:(01)00:00:00:000 00:00:54.920 : en:(02)00:00:54:920 00:10:26.920 : en:(03)00:10:26:920 00:20:37.360 : en:(04)00:20:37:360 00:29:49.800 : en:(05)00:29:49:800 00:40:08.640 : en:(06)00:40:08:640 00:48:59.600 : en:(07)00:48:59:600 00:59:15.600 : en:(08)00:59:15:600 01:07:54.360 : en:(09)01:07:54:360 01:16:13.200 : en:(10)01:16:13:200 01:25:41.200 : en:(11)01:25:41:200 [/spoiler] [/color][/b][/center]

The Beatles - The World's Best (1968), [Mp3][TNT]

Language: | Size: 92.33 MB | Seed: 89 | Leech: 16

Description:

Artist: The Beatles Title: The World's Best Year Of Release: 1968 Genre: Pop, Rock'n'Roll Label: SR International Tracks: 16 CDs: 1 Format: Mp3 Quality: 320 kbps Included Scans: Si Archive Size: 93 Mb ---------- 1. Good Day Sunshine 2. All My Loving 3. Eight Days A Week 4. No Reply 5. Rock And Roll Music 6. A Hard Day's Night 7. I Should Have Known Better 8. And I Love Her 9. Things We Said Today 10. Michelle 11. Dr. Robert 12. Yellow Submarine 13. If I Fell 14. And Your Bird Can Sing 15. Girl 16. Eleanor Rigby

Ae.Dil.Hai.Mushkil.2016.Hindi.1080p.BluRay.x264-FOXM

Language: | Size: 2.24 GB | Seed: 7 | Leech: 4

Description:

Storyline A story about unrequited love - the shapes it takes, the ways it changes us and the exhilarating and often heartbreaking ride it takes us on. It is the journey of three characters, Ayan, Alizeh and Saba, as their lives intertwine and they navigate life, love and heartbreak. General Size : 2.23 GB Running Time: 2h 38min Genre: Drama | Romance | Musical Director: Karan Johar Language: Hindi Release Date: 28 October 2016 (India) http://www.imdb.com/title/tt4559006/ Video======= Video Format......: AAC Video Codec.......: x264 Frame Rate........: 23.000 fps Width.............: 1 920 Pixels Height............:  804 Audio======= Format..........: AAC Bitrate.........: 320 Kbps Channels........: 6 channels screenshot [img]http://foxm.to/images/1482821108image2.jpg[/img] [img]http://foxm.to/images/1482821108image1.jpg[/img] [/center]

Masha and the Bear - Masha e Orso - Amici per Sempre (2014) [DVD5 - Ita Ac3 2.0]

Language: | Size: 3.26 GB | Seed: 24 | Leech: 12

Description:

Titolo originale: Masha i Medved Nazione: Russia Anno: 2014 Genere: Animazione, Commedia Durata: 56' Regia: Ilia Trusov, Natalya Malgina, Vladislav Bayramgulov, Andrey Belyaev Art & Science Productions, LLC Distribuzione: Dall'Angelo Pictures (Italia) Sito Ufficiale: Data di uscita cinema: 23 Dicembre 2015 Trama: Liberamente ispirata ai personaggi della tradizione russa, Masha e Orso racconta le avventure della ragazzina vivace, intelligente, testarda e dall'energia inesauribile. Masha abita ai margini del bosco e attraverso un sentiero, va a trovare il suo amico, Orso. Orso vive nella sua casa dentro un albero dove, quando non c’è Masha, conduce una vita tranquilla e confortevole. Orso adora il miele, sa leggere e scrivere ed è abile nei giochi di prestigio. Masha è curiosa ed entusiasta di ogni scoperta e novità e con la sua intraprendenza finisce spesso per combinare guai. Orso sopporta i suoi capricci e pone sempre rimedio alle sue marachelle. Masha adora Orso e lui la ricambia con grande affetto, seppur talvolta cerchi di tenerla lontana o impegnata per avere un attimo di tranquillità, si mostra sempre paziente e protettivo e quando lei non è in giro, lui ne sente la mancanza. Episodi 1. Ciak si Gira 2. Supermasha 3. Un caso per Masha 4. 4. La Febbre del Ballo 5. Il Grido della Vittoria 6. Salto nel Passato 7. Va in onda il Varietà! 8. Ci vediamo presto

George Michael - Listen Without Prejudice [Flac][TntVillage]

Language: | Size: 317.37 MB | Seed: 15 | Leech: 2

Description:

[img]http://extraimago.com/images/2016/06/01/GeorgeMichaelFrontListenwithoutPrejudiceByTntVillage.jpg[/img] Artist ...............: George Michael Album ................: Listen Without Prejudice Genre ................: Pop Source ...............: CD Year .................: 1990 Ripper ...............: Exact Audio Copy (Secure mode) & Asus CD-S520 Codec ................: Free Lossless Audio Codec (FLAC) Version ..............: reference libFLAC 1.2.1 20070917 Quality ..............: Lossless, (avg. compression: 58 %) Channels .............: Stereo / 44100 HZ / 16 Bit Tags.................: VorbisComment Information..........: TntVillage Ripped by............: leonenero on 15/05/2013 Posted by............: leonenero on 16/05/2013 News Server..........: news.astraweb.com News Group(s)........: alt.binaries.sounds.flac.full_TntVillage Included .............: NFO, M3U, LOG, CUE Covers ...............: Front Back CD --------------------------------------------------------------------- Tracklisting --------------------------------------------------------------------- 1. Praying For Time [04.40] 2. Freedom 90 [06.30] 3. They Won't Go When I Go [05.06] 4. Something To Save [03.16] 5. Cowboys and Angels [07.12] 6. Don't Let the Sun Go Down on Me [05.46] 7. Waiting for That Day [04.50] 8. Mothers Pride [03.59] 9. Heal the Pain [04.42] 10. Soul Free [05.26] 11. Waiting (Reprise) [02.26] Playing Time .........: 53.59 Total Size ...........: 317,03 MB Throughout his entire career, his songwriting has always been unique, the haunting qualities of his voice have always been at the forefront of his melodies. Yet, he has only ever produced 3 albums, and his last real album was over 7 years ago. Where others of less talent, would produce new albums every 6 months or yearly, George evidentely can only release material when he has 'something to say'. For many, George is the aspirational singer, songwriter. No one has ever combined such unique songwriting skills with such an emotive and addictive voice. In many ways, this album contains tracks that are as good (Emotionally, Spiritually,) as can ever be produced, by anyone, anywhere. Consider this, George was only 17 when he wrote 'careless whisper', seems incredible how someone so young had the maturity and talent to write / compose such a timeless and effortless ballad. There seems to be 2 types of people in life, those that will look at a product, and appreciate its qualities, regardless of fashion or what mass popularity dictates. Or those that can only follow the mainstream, and go along with whatever is popular, good or, more usually, the very bad indeed. So, the title of this album is perfect, for me and many others, its without doubt one of the very, very finest peices of music ever recorded. For others, it contains G.Michael who was ultra popular with girls when in Wham! so they can never get seen even holding the cd. What does it take to change the essence of a man ?

ZZ Top - The Greatest Hits [Flac][TntVillage]

Language: | Size: 480.9 MB | Seed: 14 | Leech: 3

Description:

[img]http://extraimago.com/images/2016/02/18/ZZTOPGREATESTHITSFRONTBYTNTVILLAGE.jpg[/img] Artist...............: ZZ Top Album................: 1992 - Greatest Hits Genre................: TexasRock Source...............: CD Year.................: 1992 Ripper...............: EAC (Secure mode) / LAME 3.92 & Asus CD-S520 Codec................: Free Lossless Audio Codec (FLAC) Version..............: reference libFLAC 1.2.1 20070917 Quality..............: Lossless, (avg. compression: 65 %) Channels.............: Stereo / 44100 HZ / 16 Bit Tags.................: VorbisComment Information..........: TntVillage Ripped by............: Leonenero on 18/02/2016 Posted by............: Leonenero on 18/02/2016 News Server..........: news.astraweb.com News Group(s)........: TntVillage Included.............: NFO, M3U, LOG, CUE Covers...............: Front Back CD --------------------------------------------------------------------- Tracklisting --------------------------------------------------------------------- 1. ZZ Top - Gun Love [03:39] 2. ZZ Top - Got Me Under Pressure [04:00] 3. ZZ Top - Give It Up [03:29] 4. ZZ Top - Cheap Sunglasses [04:47] 5. ZZ Top - Sleeping Bag [04:03] 6. ZZ Top - Planet of Women [04:05] 7. ZZ Top - La Grange [03:52] 8. ZZ Top - Tube Snake Boogie [03:04] 9. ZZ Top - Legs (remix [04:31] 10. ZZ Top - Gimme All Your Lovin' [03:59] 11. ZZ Top - Sharp Dressed Ma [04:14] 12. ZZ Top - Rough Boy [04:52] 13. ZZ Top - Tush [02:15] 14. ZZ Top - My Head's in Mississippi [04:19] 15. ZZ Top - Pearl Necklace [04:05] 16. ZZ Top - I'm Bad, I'm Nationwide [04:46] 17. ZZ Top - Viva Las Vegas [04:46] 18. ZZ Top - Doubleback [03:55] Playing Time.........: 01:12:50 Total Size...........: 480,32 MB This Texas trio, comprised of Billy Gibbons, Dusty Hill, and Frank Beard KNOW HOW TO ROCK! This is an absolutely fabulous hits collection. It really should've been a 2 disc set, because these guys have had so many great songs that it is impossible to cram them all into one disc. The 80's rolled around, and ZZ experimented with the new technology, fusing keyboards and synthesizers with their legendary blues rock, and it was a formula that absolutely worked. If you liked the 80's version of ZZ, then you'll love this CD! I love all of their music, 70's, 80's, 90's and beyond. My fav's are the cuts from the Eliminator and Afterburner albums. Absolute fav tracks are 'Sharp Dressed Man', 'Gimme All Your Lovin', 'My Heads In Mississippi, 'Rough Boy' and the 70's hit 'La Grange'. Some of my other favs are missing, songs like 'Velcro Fly', 'TV Dinners', 'Stages' and the original version of 'Legs'. The version of 'Legs' in this collection is the re-mixed version(but is still a great song). This is still a 5-star collection that is worthy to be at the top of your music collection. Another great CD to get is their greatest hits package from the 70's "The Best Of ZZ Top". These guys are just plain cool, and they know how to rock!

Ae.Dil.Hai.Mushkil.2016.Hindi.720p.BluRay.x264-FOXM

Language: | Size: 1.12 GB | Seed: 1 | Leech: 1

Description:

Storyline A story about unrequited love - the shapes it takes, the ways it changes us and the exhilarating and often heartbreaking ride it takes us on. It is the journey of three characters, Ayan, Alizeh and Saba, as their lives intertwine and they navigate life, love and heartbreak. General Size : 1.11 GB Running Time: 2h 38min Genre: Drama | Romance | Musical Director: Karan Johar Language: Hindi Release Date: 28 October 2016 (India) http://www.imdb.com/title/tt4559006/ Video======= Video Format......: AAC Video Codec.......: x264 Frame Rate........: 23.000 fps Width.............: 1 280 Pixels Height............:  536 Audio======= Format..........: AAC Bitrate.........: 255 Kbps Channels........: 6 channels screenshot [img]http://foxm.to/images/1482821108image2.jpg[/img] [img]http://foxm.to/images/1482821108image1.jpg[/img] [/center]

A.Christmas.Tale.2008.1080p.BluRay.x264-FOXM

Language: | Size: 2.04 GB | Seed: 2 | Leech: 0

Description:

Storyline The Vuillard family gathers: Junon and Abel, a daughter Elizabeth and her son Paul, Henri and a girlfriend, Ivan, his wife Sylvia and their young sons, and cousin Simon. Six years before, Elizabeth paid Henri's debts and demanded he never see her again or visit their parents' home. Paul, at 16, has mental problems and faces a clinical exam. Junon learns she needs a bone marrow transplant if she's to live beyond a few months: thus the détente bringing all together. Two family members have compatible marrow, but the spats, fights, cruel words, drunken toasts, and somewhat civilized bad behavior threaten all; plus Junon may simply refuse treatment. Do we know ourselves? General Size :    2.03 GB Running Time: 2h 30min Genre: Comedy | Drama | Romance Director: Arnaud Desplechin Language: French Release Date: 21 May 2008 (France) http://www.imdb.com/title/tt0993789/ Video======= Video Format......: AAC Video Codec.......: x264 Frame Rate........: 23.000 fps Width.............: 1 916 Pixels Height............:  816 Audio======= Format..........: AAC Bitrate.........: 320 Kbps Channels........: 6 channels screenshot [img]http://foxm.to/images/1482774916image3.jpg[/img] [img]http://foxm.to/images/1482774916image2.jpg[/img] [/center]

Baked.in.Brooklyn.2016.1080p.BluRay.x264-FOXM

Language: | Size: 1.43 GB | Seed: 7 | Leech: 2

Description:

Storyline A recent college graduate (Brener) decides to sell marijuana on the streets of Manhattan after losing his job at a consulting firm. He soon meets the girl of his dreams (Daddario). With an unsupportive girlfriend, an increase of clienteles, and the growing threats of being caught or killed, he soon realizes he is in way over his head. General Size :   1.42 GB Running Time: 1h 26min Genre: Comedy | Crime | Drama Director: Rory Rooney Language: English Release Date: 14 October 2016 (USA) http://www.imdb.com/title/tt3138344/ Video======= Video Format......: AAC Video Codec.......: x264 Frame Rate........: 23.000 fps Width.............: 1 920 Pixels Height............:  1036 Audio======= Format..........: AAC Bitrate.........: 320 Kbps Channels........: 6 channels screenshot [img]http://foxm.to/images/1482756394image3.jpg[/img] [img]http://foxm.to/images/1482756394image2.jpg[/img] [/center]

Pawn Sacrifice - La Grande Partita (2014).H264.Italian.English.AC3.5.1.sub.ita.eng.iCV-MIRCrew

Language: | Size: 1.75 GB | Seed: 75 | Leech: 50

Description:

[img]http://i.imgur.com/GDNQx1Z.png[/img] My release is always in double track audio italian and Original audio for select it use VLC or dvd player home not use wmp La Grande Partita- Pawn Sacrifice (2014) [img]http://extraimage.net/images/2016/12/26/8d7b8ec880f316bd4ca5a2a3d20a2d7a.png[/img] [URL=http://www.imdb.com/title/tt1596345/][IMG]http://www.userlogos.org/files/logos/Sucka/imdb_new.png[/IMG][/URL] [img]http://s19.postimage.org/bgh0za7kj/banner_scheda.gif[/img] Titolo originale Pawn Sacrifice Paese di produzione Stati Uniti Anno 2014 Durata 114 min Genere drammatico, biografico Regia Edward Zwick Soggetto Steven Knight, Stephen J. Rivele, Christopher Wilkinson Sceneggiatura Steven Knight Produttore Gail Katz, Tobey Maguire Casa di produzione Gail Katz Productions MICA Entertainment Material Pictures PalmStar Entertainment PenLife Media Distribuzione (Italia) Eagle Pictures Fotografia Bradford Young Montaggio Steven Rosenblum Musiche James Newton Howard Scenografia Isabelle Guay [img]http://s19.postimage.org/i9hdvjydv/banner_trama.gif[/img] Tobey Maguire: Bobby Fischer Liev Schreiber: Boris Spassky Lily Rabe: Joan Fischer Peter Sarsgaard: William Lombardy Michael Stuhlbarg: Paul Marshall Sophie Nélisse: Joan da giovane Robin Weigert: Regina Fischer Evelyne Brochu: Donna Seamus Davey-Fitzpatrick: Bobby Fischer adolescente [img]http://s19.postimage.org/i9hdvjydv/banner_trama.gif[/img] Il campione di scacchi Bobby Fischer si prepara per la finale del titolo mondiale di scacchi in Islanda, dove affronterà il campione russo Boris Vasil'evič Spasskij. La loro sfida passerà alla storia come l'incontro del secolo. [img]http://s19.postimage.org/nwdqt10wj/banner_storyline.gif[/img] Set during the Cold War, American chess prodigy Bobby Fischer finds himself caught between two superpowers and his own struggles as he challenges the Soviet Empire. [img]http://i.imgur.com/GgEl7ea.png[/img] [url=https://extraimage.net/image/27YR][img]http://extraimage.net/images/2016/12/26/e7e8395edb5e36068009eed79bd71fdc.th.png[/img][/url] [url=http://extraimage.net/image/27YQ][img]https://extraimage.net/images/2016/12/26/19dbfcdb91cd189b40c156b5a9235c31.th.png[/img][/url] [url=http://extraimage.net/image/27Ym][img]https://extraimage.net/images/2016/12/26/2ef72209094f904e179703f9634bf9c9.th.png[/img][/url] [img]http://i.imgur.com/cWb6Z.gif[/img] [img]http://s19.postimage.org/f07k2tzo3/banner_dati_file.gif[/img] [spoiler] Generale ID univoco : 285997979361531676080643655141653289006 (0xD729350E3F8FF04988100FF1F4D9182E) Nome completo :La Grande Partita (2014).H264.ita.eng.sub.ita.eng.iCV-MIRCrew.mkv Formato : Matroska Versione formato : Version 2 Dimensione : 1,75 GiB Durata : 1o 55min Bitrate totale : 2.170 Kbps Film : VISIT www.icv-crew.org Data codifica : UTC 2016-12-25 00:43:26 / UTC 2016-12-25 00:43:26 Creato con : Lavf54.63.100 Compressore : Lavf54.63.100 / Lavf54.63.100 Copyright : robbyrs Video ID : 1 Formato : AVC Formato/Informazioni : Advanced Video Codec Profilo formato : Main@L4.1 Impostazioni formato, CABAC : Si Impostazioni formato, ReFrames : 2 frame ID codec : V_MPEG4/ISO/AVC Durata : 1o 55min Bitrate : 1.270 Kbps Larghezza : 720 pixel Altezza : 300 pixel Rapporto aspetto visualizzazione : 2,40:1 Modalità frame rate : Costante Frame rate : 23,976 (24000/1001) fps Spazio colore : YUV Croma subsampling : 4:2:0 Profondità bit : 8 bit Tipo scansione : Progressivo Bit/(pixel*frame) : 0.245 Dimensione della traccia : 1.019MiB (57%) Compressore : x264 core 130 r2273 Impostazioni compressione : cabac=1 / ref=2 / deblock=1:0:0 / analyse=0x1:0x131 / me=hex / subme=7 / psy=1 / psy_rd=1.00:0.00 / mixed_ref=0 / me_range=16 / chroma_me=1 / trellis=1 / 8x8dct=0 / cqm=0 / deadzone=21,11 / fast_pskip=1 / chroma_qp_offset=-2 / threads=12 / lookahead_threads=2 / sliced_threads=0 / nr=0 / decimate=1 / interlaced=0 / bluray_compat=0 / constrained_intra=0 / bframes=3 / b_pyramid=0 / b_adapt=1 / b_bias=0 / direct=3 / weightb=1 / open_gop=0 / weightp=2 / keyint=230 / keyint_min=23 / scenecut=40 / intra_refresh=0 / rc_lookahead=40 / rc=2pass / mbtree=1 / bitrate=1270 / ratetol=1.0 / qcomp=0.60 / qpmin=10 / qpmax=69 / qpstep=4 / cplxblur=20.0 / qblur=0.5 / vbv_maxrate=24000 / vbv_bufsize=24000 / nal_hrd=none / ip_ratio=1.40 / aq=1:1.00 Default : Si Forced : No Statistics Tags Issue : mkvmerge v8.7.0 ('All of the above') 64bit 2016-12-14 18:51:31 / Lavf54.63.100 2016-12-25 00:43:26 / UTC 2016-12-25 00:43:26 FromStats_BitRate : 7908139 FromStats_Duration : 01:55:43.937000000 FromStats_FrameCount : 166488 FromStats_StreamSize : 6864202968 Audio #1 ID : 2 Formato : AC-3 Formato/Informazioni : Audio Coding 3 Estensione modo : CM (complete main) Impostazioni formato, Endianness : Big ID codec : A_AC3 Durata : 1o 55min Modalità bitrate : Costante Bitrate : 448 Kbps Canali : 6 canali Posizione canali : Front: L C R, Side: L R, LFE Frequenza campionamento : 48,0 KHz Frame rate : 31,250 fps (1536 spf) Profondità bit : 16 bit Modo compressione : Con perdita Ritardo video : -5ms Dimensione della traccia : 371MiB (21%) Lingua : Italiano Default : No Forced : No Statistics Tags Issue : mkvmerge v8.7.0 ('All of the above') 64bit 2016-12-14 18:51:31 / Lavf54.63.100 2016-12-25 00:43:26 / UTC 2016-12-25 00:43:26 FromStats_BitRate : 640000 FromStats_Duration : 01:55:37.920000000 FromStats_FrameCount : 216810 FromStats_StreamSize : 555033600 Audio #2 ID : 3 Formato : AC-3 Formato/Informazioni : Audio Coding 3 Estensione modo : CM (complete main) Impostazioni formato, Endianness : Big ID codec : A_AC3 Durata : 1o 55min Modalità bitrate : Costante Bitrate : 448 Kbps Canali : 6 canali Posizione canali : Front: L C R, Side: L R, LFE Frequenza campionamento : 48,0 KHz Frame rate : 31,250 fps (1536 spf) Profondità bit : 16 bit Modo compressione : Con perdita Ritardo video : -5ms Dimensione della traccia : 371MiB (21%) Lingua : Inglese Default : No Forced : No Statistics Tags Issue : mkvmerge v8.7.0 ('All of the above') 64bit 2016-12-14 18:51:31 / Lavf54.63.100 2016-12-25 00:43:26 / UTC 2016-12-25 00:43:26 FromStats_BitRate : 1508999 FromStats_Duration : 01:55:43.947000000 FromStats_FrameCount : 650995 FromStats_StreamSize : 1309801940 Testo #1 ID : 4 Formato : UTF-8 ID codec : S_TEXT/UTF8 ID codec/Informazioni : UTF-8 Plain Text Titolo : Forced Lingua : Italiano Default : Si Forced : No Statistics Tags Issue : mkvmerge v8.7.0 ('All of the above') 64bit 2016-12-14 18:51:31 / Lavf54.63.100 2016-12-25 00:43:26 / UTC 2016-12-25 00:43:26 FromStats_BitRate : 5 FromStats_Duration : 01:45:54.389000000 FromStats_FrameCount : 127 FromStats_StreamSize : 4151 Testo #2 ID : 5 Formato : UTF-8 ID codec : S_TEXT/UTF8 ID codec/Informazioni : UTF-8 Plain Text Titolo : Regolari Lingua : Italiano Default : No Forced : No Statistics Tags Issue : mkvmerge v8.7.0 ('All of the above') 64bit 2016-12-14 18:51:31 / Lavf54.63.100 2016-12-25 00:43:26 / UTC 2016-12-25 00:43:26 FromStats_BitRate : 56 FromStats_Duration : 01:46:35.805000000 FromStats_FrameCount : 1108 FromStats_StreamSize : 45245 Testo #3 ID : 6 Formato : UTF-8 ID codec : S_TEXT/UTF8 ID codec/Informazioni : UTF-8 Plain Text Titolo : Regular Lingua : Inglese Default : No Forced : No Statistics Tags Issue : mkvmerge v8.7.0 ('All of the above') 64bit 2016-12-14 18:51:31 / Lavf54.63.100 2016-12-25 00:43:26 / UTC 2016-12-25 00:43:26 FromStats_BitRate : 57 FromStats_Duration : 01:46:25.796000000 FromStats_FrameCount : 1270 FromStats_StreamSize : 45970 Menu 00:00:00.000 : :00:00:00.000 00:07:05.342 : :00:07:05.342 00:14:28.201 : :00:14:28.201 00:20:13.838 : :00:20:13.838 00:29:27.099 : :00:29:27.099 00:39:02.590 : :00:39:02.590 00:50:56.804 : :00:50:56.804 00:59:52.756 : :00:59:52.756 01:08:53.129 : :01:08:53.129 01:16:19.950 : :01:16:19.950 01:25:27.706 : :01:25:27.706 01:35:23.259 : :01:35:23.259 01:47:10.200 : :01:47:10:200 [/spoiler] [/color][/b][/center]

Pawn Sacrifice - La Grande Partita (2014) Portable.Mp4.Italian.English.Aac.iCV-MIRCrew

Language: | Size: 683.17 MB | Seed: 20 | Leech: 6

Description:

[img]http://i.imgur.com/GDNQx1Z.png[/img] My release is always in double track audio italian and Original audio for select it use VLC or dvd player home not use wmp La Grande Partita- Pawn Sacrifice (2014) Portable mp4 [img]https://extraimage.net/images/2016/12/26/41c5da4e3e69a303d5751272153cfcaa.png[/img] [URL=http://www.imdb.com/title/tt1596345/][IMG]http://www.userlogos.org/files/logos/Sucka/imdb_new.png[/IMG][/URL] [img]http://s19.postimage.org/bgh0za7kj/banner_scheda.gif[/img] Titolo originale Pawn Sacrifice Paese di produzione Stati Uniti Anno 2014 Durata 114 min Genere drammatico, biografico Regia Edward Zwick Soggetto Steven Knight, Stephen J. Rivele, Christopher Wilkinson Sceneggiatura Steven Knight Produttore Gail Katz, Tobey Maguire Casa di produzione Gail Katz Productions MICA Entertainment Material Pictures PalmStar Entertainment PenLife Media Distribuzione (Italia) Eagle Pictures Fotografia Bradford Young Montaggio Steven Rosenblum Musiche James Newton Howard Scenografia Isabelle Guay [img]http://s19.postimage.org/i9hdvjydv/banner_trama.gif[/img] Tobey Maguire: Bobby Fischer Liev Schreiber: Boris Spassky Lily Rabe: Joan Fischer Peter Sarsgaard: William Lombardy Michael Stuhlbarg: Paul Marshall Sophie Nélisse: Joan da giovane Robin Weigert: Regina Fischer Evelyne Brochu: Donna Seamus Davey-Fitzpatrick: Bobby Fischer adolescente [img]http://s19.postimage.org/i9hdvjydv/banner_trama.gif[/img] Il campione di scacchi Bobby Fischer si prepara per la finale del titolo mondiale di scacchi in Islanda, dove affronterà il campione russo Boris Vasil'evič Spasskij. La loro sfida passerà alla storia come l'incontro del secolo. [img]http://s19.postimage.org/nwdqt10wj/banner_storyline.gif[/img] Set during the Cold War, American chess prodigy Bobby Fischer finds himself caught between two superpowers and his own struggles as he challenges the Soviet Empire. [img]http://i.imgur.com/GgEl7ea.png[/img] [img]https://extraimage.net/images/2016/12/26/b80de518edfb846b32ae581b94c6bf5d.png[/img] [img]https://extraimage.net/images/2016/12/26/5fa912a965ab4f5ac0c1fd194991f25d.png[/img] [img]https://extraimage.net/images/2016/12/26/c78a0da0e154d9dce8a066f270ad838d.png[/img] [img]http://i.imgur.com/cWb6Z.gif[/img] [img]http://s19.postimage.org/f07k2tzo3/banner_dati_file.gif[/img] [spoiler] Generale Nome completo : La Grande Partita- Pawn Sacrifice (2014).mp4.ita.eng.iCV-MIRCrew.mp4 Formato : MPEG-4 Profilo formato : Base Media ID codec : isom (isom/iso2/avc1/mp41) Dimensione : 683MiB Durata : 1o 55min Modo bitrate generale : Variabile Bitrate totale : 825 Kbps Film : VISIT www.icv-crew.org Data codifica : UTC 2016-12-25 18:58:11 Data : UTC 2016-12-25 18:58:11 Creato con : Lavf54.63.100 Copyright : robbyrs Video ID : 1 Formato : AVC Formato/Informazioni : Advanced Video Codec Profilo formato : Main@L4.1 Impostazioni formato, CABAC : Si Impostazioni formato, ReFrames : 2 frame ID codec : avc1 ID codec/Informazioni : Advanced Video Coding Durata : 1o 55min Bitrate : 500 Kbps Larghezza : 320 pixel Altezza : 132 pixel Rapporto aspetto visualizzazione : 2,40:1 Modalità frame rate : Costante Frame rate : 23,976 (24000/1001) fps Spazio colore : YUV Croma subsampling : 4:2:0 Profondità bit : 8 bit Tipo scansione : Progressivo Bit/(pixel*frame) : 0.494 Dimensione della traccia : 414MiB (61%) Compressore : x264 core 130 r2273 Impostazioni compressione : cabac=1 / ref=2 / deblock=1:0:0 / analyse=0x1:0x131 / me=hex / subme=7 / psy=1 / psy_rd=1.00:0.00 / mixed_ref=0 / me_range=16 / chroma_me=1 / trellis=1 / 8x8dct=0 / cqm=0 / deadzone=21,11 / fast_pskip=1 / chroma_qp_offset=-2 / threads=12 / lookahead_threads=1 / sliced_threads=0 / nr=0 / decimate=1 / interlaced=0 / bluray_compat=0 / constrained_intra=0 / bframes=3 / b_pyramid=0 / b_adapt=1 / b_bias=0 / direct=3 / weightb=1 / open_gop=0 / weightp=2 / keyint=230 / keyint_min=23 / scenecut=40 / intra_refresh=0 / rc_lookahead=40 / rc=2pass / mbtree=1 / bitrate=500 / ratetol=1.0 / qcomp=0.60 / qpmin=10 / qpmax=69 / qpstep=4 / cplxblur=20.0 / qblur=0.5 / vbv_maxrate=24000 / vbv_bufsize=24000 / nal_hrd=none / ip_ratio=1.40 / aq=1:1.00 Data codifica : UTC 2016-12-25 18:58:11 Data : UTC 2016-12-25 18:58:11 Audio #1 ID : 2 Formato : AAC Formato/Informazioni : Advanced Audio Codec Profilo formato : LC ID codec : 40 Durata : 1o 55min Duration_LastFrame : -4ms Modalità bitrate : Costante Bitrate : 128 Kbps Canali : 2 canali Posizione canali : Front: L R Frequenza campionamento : 44,1 KHz Frame rate : 43,066 fps (1024 spf) Modo compressione : Con perdita Dimensione della traccia : 106MiB (15%) Lingua : Italiano Default : Si Alternate group : 1 Data codifica : UTC 2016-12-25 18:58:11 Data : UTC 2016-12-25 18:58:11 Audio #2 ID : 3 Formato : AAC Formato/Informazioni : Advanced Audio Codec Profilo formato : LC ID codec : 40 Durata : 1o 55min Duration_LastFrame : -4ms Modalità bitrate : Variabile Bitrate : 192 Kbps Canali : 2 canali Posizione canali : Front: L R Frequenza campionamento : 44,1 KHz Frame rate : 43,066 fps (1024 spf) Modo compressione : Con perdita Dimensione della traccia : 157MiB (23%) Lingua : Inglese Default : Si Alternate group : 1 Data codifica : UTC 2016-12-25 18:58:11 Data : UTC 2016-12-25 18:58:11 Menu 00:00:00.000 : 00:00:00.000 00:07:05.342 : 00:07:05.342 00:14:28.201 : 00:14:28.201 00:20:13.838 : 00:20:13.838 00:29:27.099 : 00:29:27.099 00:39:02.590 : 00:39:02.590 00:50:56.804 : 00:50:56.804 00:59:52.756 : 00:59:52.756 01:08:53.129 : 01:08:53.129 01:16:19.950 : 01:16:19.950 01:25:27.706 : 01:25:27.706 01:35:23.259 : 01:35:23.259 01:47:10.200 : 01:47:10:200 [/spoiler] [/color][/b][/center]

Lets.Be.Evil.2016.1080p.BluRay.x264-FOXM

Language: | Size: 1.71 GB | Seed: 7 | Leech: 1

Description:

http://FOXM.TO ------------------------------------------------------------------------------------------------------------------------------------------- Get all FOXM newest releases first at FOXM website http://foxm.to/film?id=261 Also there you will find a list of upcoming uploads, account registration and an effective movie search. ------------------------------------------------------------------------------------------------------------------------------------------- http://www.imdb.com/title/tt3655682/ IMDB RATING: 6.4 #1 Video FORMAT.......................: MP4 CODEC........................: X264 GENRE........................: Horror, Sci-Fi, Thriller FILE SIZE....................: 1.70 GB RESOLUTION...................: 1920*808 FRAME RATE...................: 23.976 fps LANGUAGE.....................: English SUBTITLES....................: NONE RUNTIME......................: 1h 22min #2 Audio Format :.....................: AAC Mode : ......................: 16 Channel(s)...................: 5.1 channels Bit rate.....................: 320 kbps Audio sample rate............: 48 kHz Summary: A vision of augmented reality. Screenshots [img]http://foxm.to/images/1482756619image1.jpg[/img] [img]http://foxm.to/images/1482756619image2.jpg[/img] [img]http://foxm.to/images/1482756619image3.jpg[/img] ------------------------------------------------------------------------------------------------------------------------------------------- http://FOXM.TO -------------------------------------------------------------------------------------------------------------------------------------------

Vicky.Donor.2012.Hindi.720p.BluRay.x264-FOXM

Language: | Size: 1.14 GB | Seed: 605 | Leech: 11

Description:

Storyline Dr. Baldev Chaddha (Anu Kapoor), a well qualified fertility expert, runs a fertility clinic and a sperm bank in Dariyaganj, New Delhi, that guarantees a high quality and specialized sperm for the purpose. Unfortunately he has more failed cases to his credit than successes. A healthy, high performing donor is the need of the hour. Vicky Arora (Ayushmann Khurrana), a young, good-looking, Punjabi boy from Lajpat Nagar, is the only son and of no financial support to Dolly, a widow, who runs a small beauty parlor from home. As luck would have it, a small brawl in the colony brings Dr Chaddha and Vicky, face to face, where Chaddha, concludes that Vicky could be THAT donor he has been looking for. From here on, Chaddha's days and nights are spent in convincing Vicky to become a donor till he finally gives in. Vicky finds his love interest in Ashima Roy (Yami Gautam), a pretty Bengali girl, who works in a Bank. But soon there hunky dory world comes crashing down because of Vicky's past as a ... General Size :   1.13 GB Running Time: 2h 6min Genre: Comedy | Drama | Romance Director: Shoojit Sircar Language: Hindi Release Date: 20 April 2012 (India) http://www.imdb.com/title/tt2317337/ Video======= Video Format......: AAC Video Codec.......: x264 Frame Rate........: 23.000 fps Width.............: 1 280 Pixels Height............:  544 Audio======= Format..........: AAC Bitrate.........: 255 Kbps Channels........: 6 channels screenshot [img]http://foxm.to/images/1482761554image3.jpg[/img] [img]http://foxm.to/images/1482761554image2.jpg[/img] [/center]

Baked.in.Brooklyn.2016.720p.BluRay.x264-FOXM

Language: | Size: 893.05 MB | Seed: 5 | Leech: 0

Description:

Storyline A recent college graduate (Brener) decides to sell marijuana on the streets of Manhattan after losing his job at a consulting firm. He soon meets the girl of his dreams (Daddario). With an unsupportive girlfriend, an increase of clienteles, and the growing threats of being caught or killed, he soon realizes he is in way over his head. General Size :    892 MB Running Time: 1h 26min Genre: Comedy | Crime | Drama Director: Rory Rooney Language: English Release Date: 14 October 2016 (USA) http://www.imdb.com/title/tt3138344/ Video======= Video Format......: AAC Video Codec.......: x264 Frame Rate........: 23.000 fps Width.............: 1 280 Pixels Height............:  692 Audio======= Format..........: AAC Bitrate.........: 320 Kbps Channels........: 6 channels screenshot [img]http://foxm.to/images/1482756394image3.jpg[/img] [img]http://foxm.to/images/1482756394image2.jpg[/img] [/center]

Lets.Be.Evil.2016.720p.BluRay.x264-FOXM

Language: | Size: 904.8 MB | Seed: 9 | Leech: 1

Description:

http://FOXM.TO ------------------------------------------------------------------------------------------------------------------------------------------- Get all FOXM newest releases first at FOXM website http://foxm.to/film?id=261 Also there you will find a list of upcoming uploads, account registration and an effective movie search. ------------------------------------------------------------------------------------------------------------------------------------------- http://www.imdb.com/title/tt3655682/ IMDB RATING: 6.4 #1 Video FORMAT.......................: MP4 CODEC........................: X264 GENRE........................: Horror, Sci-Fi, Thriller FILE SIZE....................: 904 MB RESOLUTION...................: 1280*720 FRAME RATE...................: 23.976 fps LANGUAGE.....................: English SUBTITLES....................: NONE RUNTIME......................: 1h 22min #2 Audio Format :.....................: AAC Mode : ......................: 16 Channel(s)...................: 5.1 channels Bit rate.....................: 320 kbps Audio sample rate............: 48 kHz Summary: A vision of augmented reality. Screenshots [img]http://foxm.to/images/1482756619image1.jpg[/img] [img]http://foxm.to/images/1482756619image2.jpg[/img] [img]http://foxm.to/images/1482756619image3.jpg[/img] ------------------------------------------------------------------------------------------------------------------------------------------- http://FOXM.TO -------------------------------------------------------------------------------------------------------------------------------------------

Mystic Game 2016 DTS ITA RUS 1080i BluRay x264-BLUWORLD mkv ---[www.btsone.cc]---

Language: | Size: 8.3 GB | Seed: 0 | Leech: 0

Description:

TRAMA: Alex è un adolescente in cerca del suo posto del mondo. Un giorno, pur essendo scettico in materia, si ritrova a partecipare ad un programma di magia al posto di un concorrente ritiratosi dopo esser caduto in un misterioso stato di trance. Durante il programma però succede qualcosa di inaspettato: una forza occulta si impossessa di Alex che inconsapevolmente compie un antico maleficio ai danni di Tanya, una ragazza presente in sala. Da quel momento le vite di Alex e Tanya sono legate indissolubilmente: minacciati da presenze soprannaturali, antichissimi demoni e vittime dello scontro secolare tra due maghi ostinati a conquistare il dominio delle arti occulte, i due giovani dovranno lottare per riportare l’equilibrio nelle loro vite e la pace nel mondo reale. Sarà l’amore la magia più potente? STORYLINE: Aleks is a charming adventurer who substitutes for a contestant shaman who dropped out at the shooting of a high-rated television show, popular among psychics. He repeats a prophecy on the air that he overheard backstage. He foretells that someone in the audience is doomed to everlasting solitude and that her nearest and dearest will turn their backs on her. Aleks has no idea that what's been going on is no coincidence: he has become involved in a long-standing rivalry between two powerful wizards. These psychics have drawn him into a dangerous, mystical game with no rules. Strange events start to take place in the life of Tanya (Diana Pozharskaya), the girl Aleks "cursed" at the show. Aleks tries to assure her there is no "curse" at all, and slowly falls in love with her. Still more signs manifest showing the prophecy is true, and it begins to threaten Tanya's life. To save himself and Tanya, Aleks is forced to find a way out of this mystical mess. SCHEDA FILM: Titolo Originale Misticheskaya Komediya Paese Russia Anno 2016 Durata 90 Min Genere Avventura, Fantasy Regia Artyom Aksenenko Sceneggiatura Vyacheslav Lisnevskiy Casa Di Produzione Kinodanz Distribuzione (Italia) Blue Swan ATTORI: Sergey Burunov, Svetlana Golovina, Ekaterina Kabak, Kirill Kozakov, Semyon Lopatin, Andrey Perunov, Alexander Petrov, Diana Pozharskaya, Yuliya Sules, Veronika Vernadskaya, Aleksey Voronin, Denis Yasik. http://www.imdb.com/title/tt5178170/ REPORT AVINAPTIC: [ Info sul file ] Nome: Mystic.Game.2016.DTS.ITA.RUS.1080i.BluRay.x264-BLUWORLD.mkv Data: Tue, 20 Dec 2016 14:55:14 +0100 Dimensione: 8,914,271,306 bytes (8501.311594 MiB) [ Magic ] Tipo file: data [ Info generiche ] Durata: 01:20:00 (4799.979 s) Contenitore: matroska Production date: Tue, 20 Dec 2016 14:44:43 +0100 Totale tracce: 6 Traccia n. 1: video (V_MPEG4/ISO/AVC) {und} Traccia n. 2: audio (A_DTS) [Ita. DTS 1510 Kbps] {ita} Traccia n. 3: audio (A_AC3) [Ita. AC3 640 Kbps] {ita} Traccia n. 4: audio (A_DTS) [Rus. DTS 1510 Kbps] {rus} Traccia n. 5: subtitle (S_TEXT/UTF8) [Sub. Ita. Forced] {ita} Traccia n. 6: subtitle (S_TEXT/UTF8) [Sub. Ita.] {ita} Muxing library: libebml v1.3.4 + libmatroska v1.4.5 Writing application: mkvmerge v9.6.0 ('Slave To Your Mind') 32bit [ Dati rilevanti ] Risoluzione: 1920 x 1080 Larghezza: multipla di 32 Altezza: multipla di 8 DRF medio: 26.050175 Deviazione standard: 3.392846 Media pesata dev. std.: 3.331996 [ Traccia video ] Codec ID: V_MPEG4/ISO/AVC Risoluzione: 1920 x 1080 Frame aspect ratio: 16:9 = 1.777778 Pixel aspect ratio: 1:1 = 1 Display aspect ratio: 16:9 = 1.777778 Framerate: 25 fps Dimensione stream: 6,717,199,805 bytes (6406.020932 MiB) Durata: 01:20:00 (4799.96 s) Bitrate (bs): 11195.426304 kbps Qf: 0.215961 [ Traccia audio nr. 1 ] Codec ID: A_DTS Freq. campionamento: 48000 Hz Canali: 6 Dimensione campioni: 16-bit Dimensione stream: 905,396,044 bytes (863.452953 MiB) Tipo di bitstream (bs): DTS Frames (bs): 449,998 Durata: 01:20:00 (4799.978667 s) Chunk-aligned (bs): Sì Bitrate (bs): 1536 kbps CBR Freq. campionamento (bs): 48000 Hz Modo (bs): C + L + R+ SL+SR Final skip (bs): 68 bytes [ Traccia audio nr. 2 ] Codec ID: A_AC3 Freq. campionamento: 48000 Hz Canali: 6 Dimensione stream: 383,997,440 bytes (366.208496 MiB) Tipo di bitstream (bs): AC3 Frames (bs): 149,999 Durata: 01:20:00 (4799.968 s) Chunk-aligned (bs): Sì Bitrate (bs): 640 kbps CBR Freq. campionamento (bs): 48000 Hz Modo (bs): 3 front, 2 rear, 1 LFE [ Traccia audio nr. 3 ] Codec ID: A_DTS Freq. campionamento: 48000 Hz Canali: 6 Dimensione campioni: 16-bit Dimensione stream: 905,396,044 bytes (863.452953 MiB) Tipo di bitstream (bs): DTS Frames (bs): 449,998 Durata: 01:20:00 (4799.978667 s) Chunk-aligned (bs): Sì Bitrate (bs): 1536 kbps CBR Freq. campionamento (bs): 48000 Hz Modo (bs): C + L + R+ SL+SR Final skip (bs): 68 bytes [ Bitstream video ] Tipo di bitstream: MPEG-4 Part 10 User data: x264 | core 148 r2744 b97ae06 | H.264/MPEG-4 AVC codec User data: Copyleft 2003-2016 | http://www.videolan.org/x264.html | cabac=1 User data: ref=4 | deblock=1:0:0 | analyse=0x3:0x113 | me=hex | subme=8 | psy=1 User data: psy_rd=1.00:0.00 | mixed_ref=1 | me_range=16 | chroma_me=1 User data: trellis=2 | 8x8dct=1 | cqm=0 | deadzone=21,11 | fast_pskip=1 User data: chroma_qp_offset=-2 | threads=12 | lookahead_threads=2 User data: sliced_threads=0 | nr=0 | decimate=1 | interlaced=0 User data: bluray_compat=0 | constrained_intra=0 | bframes=3 | b_pyramid=0 User data: b_adapt=1 | b_bias=0 | direct=3 | weightb=1 | open_gop=0 | weightp=2 User data: keyint=250 | keyint_min=25 | scenecut=40 | intra_refresh=0 User data: rc_lookahead=50 | rc=2pass | mbtree=1 | bitrate=11200 | ratetol=1.0 User data: qcomp=0.60 | qpmin=0 | qpmax=69 | qpstep=4 | cplxblur=20.0 User data: qblur=0.5 | vbv_maxrate=62500 | vbv_bufsize=62500 | nal_hrd=vbr User data: filler=0 | ip_ratio=1.40 | aq=1:1.00 SPS id: 0 Profile: High@L4.1 Num ref frames: 4 Aspect ratio: Square pixels Chroma format: YUV 4:2:0 PPS id: 0 (SPS: 0) Tipo di codifica entropica: CABAC Weighted prediction: P slices - explicit weighted prediction Weighted bipred idc: B slices - implicit weighted prediction 8x8dct: Sì Totale frames: 119,999 Drop/delay frames: 0 Frames corrotti: 0 P-slices: 57568 ( 47.974 %) ########## B-slices: 59830 ( 49.859 %) ########## I-slices: 2601 ( 2.168 %) SP-slices: 0 ( 0.000 %) SI-slices: 0 ( 0.000 %) [ Analisi DRF ] DRF nedio: 26.050175 deviazione standard: 3.392846 max DRF: 32 DRF=1: 2 ( 0.002 %) DRF=2: 0 ( 0.000 %) DRF=3: 1 ( 0.001 %) DRF=4: 0 ( 0.000 %) DRF=5: 12 ( 0.010 %) DRF=6: 0 ( 0.000 %) DRF=7: 0 ( 0.000 %) DRF=8: 0 ( 0.000 %) DRF=9: 0 ( 0.000 %) DRF=10: 2 ( 0.002 %) DRF=11: 3 ( 0.003 %) DRF=12: 10 ( 0.008 %) DRF=13: 16 ( 0.013 %) DRF=14: 24 ( 0.020 %) DRF=15: 54 ( 0.045 %) DRF=16: 178 ( 0.148 %) DRF=17: 397 ( 0.331 %) DRF=18: 630 ( 0.525 %) DRF=19: 1192 ( 0.993 %) DRF=20: 2925 ( 2.438 %) DRF=21: 6222 ( 5.185 %) # DRF=22: 8668 ( 7.223 %) # DRF=23: 11298 ( 9.415 %) ## DRF=24: 11166 ( 9.305 %) ## DRF=25: 10000 ( 8.333 %) ## DRF=26: 9550 ( 7.958 %) ## DRF=27: 10563 ( 8.803 %) ## DRF=28: 11110 ( 9.258 %) ## DRF=29: 12837 ( 10.698 %) ## DRF=30: 12813 ( 10.678 %) ## DRF=31: 8522 ( 7.102 %) # DRF=32: 1803 ( 1.503 %) DRF>32: 0 ( 0.000 %) P-slices DRF medio: 25.624288 P-slices deviazione std.: 3.289886 P-slices max DRF: 32 B-slices DRF medio: 26.58459 B-slices deviazione std.: 3.372192 B-slices max DRF: 32 I-slices DRF medio: 23.183391 I-slices deviazione std.: 3.339413 I-slices max DRF: 31 [ Conformità al profilo ] Profilo selezionato: MTK PAL 6000 Risoluzione: 1920 x 1080 > 720 x 576 Framerate: Ok Buffer underflow: 00:00:15 (frame 372) Buffer underflow: 00:00:15 (frame 378) Buffer underflow: 00:00:16 (frame 397) Buffer underflow: 00:00:17 (frame 415) Buffer underflow: 00:00:17 (frame 431) Buffer underflow: 00:00:18 (frame 448) Buffer underflow: 00:00:18 (frame 461) Buffer underflow: 00:00:19 (frame 469) Buffer underflow: 00:00:25 (frame 628) Buffer underflow: 00:00:25 (frame 636) Buffer underflow: 00:00:26 (frame 644) Buffer underflow: 00:00:26 (frame 649) Buffer underflow: 00:00:26 (frame 655) Buffer underflow: 00:00:26 (frame 661) Buffer underflow: 00:00:27 (frame 668) Buffer underflow: 00:00:27 (frame 673) Buffer underflow: 00:00:27 (frame 678) Buffer underflow: 00:00:27 (frame 683) Buffer underflow: 00:00:27 (frame 687) Buffer underflow: 00:00:28 (frame 692) Errore: Troppe violazioni [ Edition entry ] UID: 4501048351774369182 Nascosto: No Selezionato di default: No Playlist: No Capitoli: 00:00:00,000-00:06:49,720: (01)00:00:00:000 {eng} 00:06:49,720-00:13:57,600: (02)00:06:49:720 {eng} 00:13:57,600-00:20:40,840: (03)00:13:57:600 {eng} 00:20:40,840-00:28:13,520: (04)00:20:40:840 {eng} 00:28:13,520-00:35:37,880: (05)00:28:13:520 {eng} 00:35:37,880-00:42:11,680: (06)00:35:37:880 {eng} 00:42:11,680-00:48:49,560: (07)00:42:11:680 {eng} 00:48:49,560-00:55:03,640: (08)00:48:49:560 {eng} 00:55:03,640-01:01:43,160: (09)00:55:03:640 {eng} 01:01:43,160-01:10:00,560: (10)01:01:43:160 {eng} 01:10:00,560-01:16:18,080: (11)01:10:00:560 {eng} 01:16:18,080-01:20:00,000: (12)01:16:18:080 {eng} 01:20:00,000-01:19:59,979: (13)01:20:00:000 {eng} Rapporto creato da AVInaptic (18-12-2011) in data 20-12-2016 14:59:50 +-+-+-+-+ +-+-+-+-+-+-+-+-+ +-+-+ +-+-+-+-+-+-+-+-+ |B|u|o|n| |d|o|w|n|l|o|a|d| |d|a| |B|L|U|W|O|R|L|D| +-+-+-+-+ +-+-+-+-+-+-+-+-+ +-+-+ +-+-+-+-+-+-+-+-+

Man In The Dark 2016 iTALiAN BDRiP XviD-HDi avi ---[www.btsone.cc]--- (1)

Language: | Size: 1.49 GB | Seed: 0 | Leech: 0

Description:

Titolo originale: Don't Breathe GENERE: Horror , Thriller ANNO: 2016 PAESE: USA DURATA: 88 Min REGIA: Fede Alvarez ATTORI: Jane Levy, Dylan Minnette, Daniel Zovatto, Stephen Lang SCREENSHOT SCREENSHOT SCREENSHOT Alcuni ragazzi si introducono nella casa di un uomo cieco per commettere un crimine. Considerando le condizioni del padrone di casa i giovani sono convinti che si tratterà di una passeggiata, ma le cose non andranno come previsto.

Aquarius.2016.1080p.BluRay.x264-FOXM

Language: | Size: 2.05 GB | Seed: 4 | Leech: 2

Description:

Storyline Clara, a 65 year old widow and retired music critic, was born into a wealthy and traditional family in Recife, Brazil. She is the last resident of the Aquarius, an original two-story building, built in the 1940s, in the upper-class, seaside Boa Viagem Avenue, Recife. All the neighboring apartments have already been acquired by a company which has other plans for that plot. Clara has pledged to only leave her place upon her death, and will engage in a cold war of sorts with the company. This tension both disturbs Clara and gives her that edge on her daily routine. It also gets her thinking about her loved ones, her past and her future. General Size :    2.05 GB Running Time: 2h 22min Genre: Drama | Family | Thriller Director: Kleber Mendonça Filho Language: Portuguese Release Date: 1 September 2016 (Brazil) http://www.imdb.com/title/tt5221584/ Video======= Video Format......: AAC Video Codec.......: x264 Frame Rate........: 23.000 fps Width.............: 1 920 Pixels Height............:  804 Audio======= Format..........: AAC Bitrate.........: 320 Kbps Channels........: 6 channels screenshot [img]http://foxm.to/images/1482662378image2.jpg[/img] [img]http://foxm.to/images/1482662378image1.jpg[/img] [/center]

Toni.Erdmann.2016.1080p.BluRay.x264-FOXM

Language: | Size: 2.66 GB | Seed: 12 | Leech: 1

Description:

http://FOXM.TO ------------------------------------------------------------------------------------------------------------------------------------------- Get all FOXM newest releases first at  FOXM website http://foxm.to/film?id=259 Also there you will find a list of upcoming uploads, account registration and an effective movie search. ------------------------------------------------------------------------------------------------------------------------------------------- http://www.imdb.com/title/tt4048272/ IMDB RATING: 8.2 #1 Video FORMAT.......................: MP4 CODEC........................: X264 GENRE........................:  Comedy, Drama FILE SIZE....................: 2.65 GB RESOLUTION...................: 1920*808 FRAME RATE...................: 23.976 fps LANGUAGE.....................: English SUBTITLES....................: NONE RUNTIME......................: 2h 43min #2 Audio Format :.....................: AAC Mode : ......................: 16 Channel(s)...................: 5.1 channels Bit rate.....................: 320 kbps Audio sample rate............: 48 kHz Summary: A father tries to reconnect with his adult daughter. Screenshots [img]http://foxm.to/images/1482687090image1.jpg[/img] [img]http://foxm.to/images/1482687090image2.jpg[/img] [img]http://foxm.to/images/1482687090image3.jpg[/img] ------------------------------------------------------------------------------------------------------------------------------------------- http://FOXM.TO -------------------------------------------------------------------------------------------------------------------------------------------

Toni.Erdmann.2016.720p.BluRay.x264-FOXM

Language: | Size: 1.23 GB | Seed: 10 | Leech: 0

Description:

http://FOXM.TO ------------------------------------------------------------------------------------------------------------------------------------------- Get all FOXM newest releases first at FOXM website http://foxm.to/film?id=259 Also there you will find a list of upcoming uploads, account registration and an effective movie search. ------------------------------------------------------------------------------------------------------------------------------------------- http://www.imdb.com/title/tt4048272/ IMDB RATING: 8.2 #1 Video FORMAT.......................: MP4 CODEC........................: X264 GENRE........................: Comedy, Drama FILE SIZE....................: 1.22 GB RESOLUTION...................: 1280*720 FRAME RATE...................: 23.976 fps LANGUAGE.....................: English SUBTITLES....................: NONE RUNTIME......................: 2h 43min #2 Audio Format :.....................: AAC Mode : ......................: 16 Channel(s)...................: 5.1 channels Bit rate.....................: 320 kbps Audio sample rate............: 48 kHz Summary: A father tries to reconnect with his adult daughter. Screenshots [img]http://foxm.to/images/1482687090image1.jpg[/img] [img]http://foxm.to/images/1482687090image2.jpg[/img] [img]http://foxm.to/images/1482687090image3.jpg[/img] ------------------------------------------------------------------------------------------------------------------------------------------- http://FOXM.TO -------------------------------------------------------------------------------------------------------------------------------------------

Claudio Sander - Samba Influenciado [Flac][TntVillage]

Language: | Size: 318.94 MB | Seed: 22 | Leech: 11

Description:

[img]http://i1083.photobucket.com/albums/j389/leomarco1/Front_5.jpg[/img] Artist...............: Claudio Sander Album................: Samba Influenciado Genre................: Samba Jazz Source...............: CD Year.................: 2010 Ripper...............: EAC (Secure mode) / LAME 3.92 & Asus CD-S520 Codec................: Free Lossless Audio Codec (FLAC) Version..............: reference libFLAC 1.2.1 20070917 Quality..............: Lossless, (avg. compression: 63 %) Channels.............: Stereo / 44100 HZ / 16 Bit Tags.................: VorbisComment Information..........: TntVillage Ripped by............: Leonenero on 24/12/2016 Posted by............: Leonenero on 24/12/2016 News Server..........: news.astraweb.com News Group(s)........: TntVillage Included.............: NFO, MD5, PLS, M3U, LOG, CUE Covers...............: Front Back CD --------------------------------------------------------------------- Tracklisting --------------------------------------------------------------------- 1. Claudio Sander - Pent Up House [04:18] 2. Claudio Sander - Samambaio [05:13] 3. Claudio Sander - Fotografia [06:51] 4. Claudio Sander - Rumo Rio [04:37] 5. Claudio Sander - Chuva e Fantasia [04:57] 6. Claudio Sander - O Bêbo [03:47] 7. Claudio Sander - Reencontro [05:51] 8. Claudio Sander - Rapaz do Bem [04:47] 9. Claudio Sander - Serra do Mar [06:20] 10. Claudio Sander - Telefone [03:31] Playing Time.........: 50:17 Total Size...........: 318,57 MB Strumental brasilian Jazz

Aquarius.2016.720p.BluRay.x264-FOXM

Language: | Size: 1.03 GB | Seed: 3 | Leech: 0

Description:

Storyline Clara, a 65 year old widow and retired music critic, was born into a wealthy and traditional family in Recife, Brazil. She is the last resident of the Aquarius, an original two-story building, built in the 1940s, in the upper-class, seaside Boa Viagem Avenue, Recife. All the neighboring apartments have already been acquired by a company which has other plans for that plot. Clara has pledged to only leave her place upon her death, and will engage in a cold war of sorts with the company. This tension both disturbs Clara and gives her that edge on her daily routine. It also gets her thinking about her loved ones, her past and her future. General Size :    1.02 GB Running Time: 2h 22min Genre: Drama | Family | Thriller Director: Kleber Mendonça Filho Language: Portuguese Release Date: 1 September 2016 (Brazil) http://www.imdb.com/title/tt5221584/ Video======= Video Format......: AAC Video Codec.......: x264 Frame Rate........: 23.000 fps Width.............: 1 280 Pixels Height............:  536 Audio======= Format..........: AAC Bitrate.........: 255 Kbps Channels........: 6 channels screenshot [img]http://foxm.to/images/1482662378image2.jpg[/img] [img]http://foxm.to/images/1482662378image1.jpg[/img] [/center]

The.Accountant.2016.1080p.BluRay.x264-FOXM

Language: | Size: 1.79 GB | Seed: 1 | Leech: 1

Description:

http://FOXM.TO ------------------------------------------------------------------------------------------------------------------------------------------- Get all FOXM newest releases first at  FOXM website http://foxm.to/film?id=257 Also there you will find a list of upcoming uploads, account registration and an effective movie search. ------------------------------------------------------------------------------------------------------------------------------------------- http://www.imdb.com/title/tt2140479/ IMDB RATING: 7.5 #1 Video FORMAT.......................: MP4 CODEC........................: X264 GENRE........................:  Action, Crime, Drama FILE SIZE....................: 1.78 GB RESOLUTION...................: 1920*808 FRAME RATE...................: 23.976 fps LANGUAGE.....................: English SUBTITLES....................: NONE RUNTIME......................: 2h 8min #2 Audio Format :.....................: AAC Mode : ......................: 16 Channel(s)...................: 5.1 channels Bit rate.....................: 320 kbps Audio sample rate............: 48 kHz Summary: As a math savant uncooks the books for a new client, the Treasury Department closes in on his activities and the body count starts to rise. Screenshots [img]http://foxm.to/images/1482595100image1.jpg[/img] [img]http://foxm.to/images/1482595100image2.jpg[/img] [img]http://foxm.to/images/1482595100image3.jpg[/img] ------------------------------------------------------------------------------------------------------------------------------------------- http://FOXM.TO -------------------------------------------------------------------------------------------------------------------------------------------

The.Accountant.2016.720p.BluRay.x264-FOXM

Language: | Size: 1009.71 MB | Seed: 2 | Leech: 0

Description:

http://FOXM.TO ------------------------------------------------------------------------------------------------------------------------------------------- Get all FOXM newest releases first at FOXM website http://foxm.to/film?id=257 Also there you will find a list of upcoming uploads, account registration and an effective movie search. ------------------------------------------------------------------------------------------------------------------------------------------- http://www.imdb.com/title/tt2140479/ IMDB RATING: 7.5 #1 Video FORMAT.......................: MP4 CODEC........................: X264 GENRE........................: Action, Crime, Drama FILE SIZE....................: 1009 MB RESOLUTION...................: 1280*720 FRAME RATE...................: 23.976 fps LANGUAGE.....................: English SUBTITLES....................: NONE RUNTIME......................: 2h 8min #2 Audio Format :.....................: AAC Mode : ......................: 16 Channel(s)...................: 5.1 channels Bit rate.....................: 320 kbps Audio sample rate............: 48 kHz Summary: As a math savant uncooks the books for a new client, the Treasury Department closes in on his activities and the body count starts to rise. Screenshots [img]http://foxm.to/images/1482595100image1.jpg[/img] [img]http://foxm.to/images/1482595100image2.jpg[/img] [img]http://foxm.to/images/1482595100image3.jpg[/img] ------------------------------------------------------------------------------------------------------------------------------------------- http://FOXM.TO -------------------------------------------------------------------------------------------------------------------------------------------

War Dogs - Trafficanti (2016).H264.Italian.English.Ac3.5.1.sub.ita.eng.iCV-MIRCrew

Language: | Size: 1.73 GB | Seed: 123 | Leech: 34

Description:

War Dogs - Trafficanti (2016).H264.Italian.English.Ac3.5.1.sub.ita.eng.iCV-MIRCrew [img]http://i.imgur.com/GDNQx1Z.png[/img] My release is always in double track audio italian and Original audio for select it use VLC or dvd player home not use wmp Trafficanti - War Dogs (2016) [img]http://extraimage.net/images/2016/12/24/e6a49892d78e70690d0401934ced9141.png[/img] [URL=http://www.imdb.com/title/tt2005151/][IMG]http://www.userlogos.org/files/logos/Sucka/imdb_new.png[/IMG][/URL] [img]http://s19.postimage.org/bgh0za7kj/banner_scheda.gif[/img] DATA USCITA: 15 settembre 2016 GENERE: Commedia , Drammatico , Thriller , Azione ANNO: 2016 REGIA: Todd Phillips SCENEGGIATURA: Stephen Chin, Todd Phillips, Jason Smilovic FOTOGRAFIA: Lawrence Sher MONTAGGIO: Jeff Groth MUSICHE: Cliff Martinez PRODUZIONE: Green Hat Films, Mark Gordon Company DISTRIBUZIONE: Warner Bros. PAESE: USA DURATA: 149 Min [img]http://s19.postimage.org/i9hdvjydv/banner_trama.gif[/img] Jonah Hill, Miles Teller, Ana de Armas, Bradley Cooper, Shaun Toub, Barry Livingston, Brenda Koo, JB Blanc, Said Faraj [img]http://s19.postimage.org/i9hdvjydv/banner_trama.gif[/img] Ispirato ad una storia vera, Trafficanti segue le vicende di due amici di Miami poco più che ventenni durante il periodo della prima Guerra in Iraq, che sfruttando un'iniziativa semisconosciuta del governo, iniziano una piccola attività relativa a contratti dell’esercito U.S.A.. [img]http://s19.postimage.org/nwdqt10wj/banner_storyline.gif[/img] Based on the true story of two young men, David Packouz and Efraim Diveroli, who won a $300 million contract from the Pentagon to arm America's allies in Afghanistan. [img]http://i.imgur.com/GgEl7ea.png[/img] [url=https://extraimage.net/image/2s6D][img]http://extraimage.net/images/2016/12/24/3c067274848ba2218c822e2f9632f852.th.png[/img][/url] [url=https://extraimage.net/image/2s65][img]http://extraimage.net/images/2016/12/24/4a786cd0d5bb982ee53dc134c6ab9aac.th.png[/img][/url] [url=https://extraimage.net/image/2s6H][img]http://extraimage.net/images/2016/12/24/d0e55b3d229412b44ffe2096b03d46c5.th.png[/img][/url] [url=https://extraimage.net/image/2s6k][img]http://extraimage.net/images/2016/12/24/80281ba4d0857fd706a85bb97c58a445.th.png[/img][/url] [img]http://i.imgur.com/cWb6Z.gif[/img] [img]http://s19.postimage.org/f07k2tzo3/banner_dati_file.gif[/img] [spoiler] General Unique ID : 233849275496458849809267407883349582696 (0xAFEDBB7274628E6ABD520C812ED4E368) Complete name : Trafficanti - War Dogs (2016).H264.ita.eng.sub.ita.eng.iCV-MIRCrew.mkv Format : Matroska Format version : Version 2 File size : 1.73 GiB Duration : 1h 54mn Overall bit rate : 2 171 Kbps Movie name : VISIT www.icv-crew.org Encoded date : UTC 2016-12-19 13:25:33 Writing application : Lavf54.63.100 Writing library : Lavf54.63.100 COPYRIGHT : robbyrs Video ID : 1 Format : AVC Format/Info : Advanced Video Codec Format profile : Main@L4.1 Format settings, CABAC : Yes Format settings, ReFrames : 2 frames Codec ID : V_MPEG4/ISO/AVC Duration : 1h 54mn Bit rate : 1 270 Kbps Width : 720 pixels Height : 300 pixels Display aspect ratio : 2.40:1 Frame rate mode : Variable Frame rate : 23.976 fps Color space : YUV Chroma subsampling : 4:2:0 Bit depth : 8 bits Scan type : Progressive Bits/(Pixel*Frame) : 0.245 Stream size : 1 007 MiB (57%) Writing library : x264 core 130 r2273 Encoding settings : cabac=1 / ref=2 / deblock=1:0:0 / analyse=0x1:0x131 / me=hex / subme=7 / psy=1 / psy_rd=1.00:0.00 / mixed_ref=0 / me_range=16 / chroma_me=1 / trellis=1 / 8x8dct=0 / cqm=0 / deadzone=21,11 / fast_pskip=1 / chroma_qp_offset=-2 / threads=12 / lookahead_threads=2 / sliced_threads=0 / nr=0 / decimate=1 / interlaced=0 / bluray_compat=0 / constrained_intra=0 / bframes=3 / b_pyramid=0 / b_adapt=1 / b_bias=0 / direct=3 / weightb=1 / open_gop=0 / weightp=2 / keyint=230 / keyint_min=23 / scenecut=40 / intra_refresh=0 / rc_lookahead=40 / rc=2pass / mbtree=1 / bitrate=1270 / ratetol=1.0 / qcomp=0.60 / qpmin=10 / qpmax=69 / qpstep=4 / cplxblur=20.0 / qblur=0.5 / vbv_maxrate=24000 / vbv_bufsize=24000 / nal_hrd=none / ip_ratio=1.40 / aq=1:1.00 Language : English Default : Yes Forced : No DURATION : 01:54:12.846000000 NUMBER_OF_FRAMES : 164304 NUMBER_OF_BYTES : 7379997396 _STATISTICS_WRITING_APP : mkvmerge v8.7.0 ('All of the above') 64bit _STATISTICS_WRITING_DATE_UTC : 2016-12-13 10:45:55 _STATISTICS_TAGS : BPS DURATION NUMBER_OF_FRAMES NUMBER_OF_BYTES Audio #1 ID : 2 Format : AC-3 Format/Info : Audio Coding 3 Mode extension : CM (complete main) Codec ID : A_AC3 Duration : 1h 54mn Bit rate mode : Constant Bit rate : 448 Kbps Channel(s) : 6 channels Channel positions : Front: L C R, Side: L R, LFE Sampling rate : 48.0 KHz Bit depth : 16 bits Compression mode : Lossy Delay relative to video : 1mn 5s Stream size : 366 MiB (21%) Language : Italian Default : Yes Forced : No DURATION : 01:54:12.896000000 NUMBER_OF_FRAMES : 214153 NUMBER_OF_BYTES : 548231680 _STATISTICS_WRITING_APP : mkvmerge v8.7.0 ('All of the above') 64bit _STATISTICS_WRITING_DATE_UTC : 2016-12-13 10:45:55 _STATISTICS_TAGS : BPS DURATION NUMBER_OF_FRAMES NUMBER_OF_BYTES Audio #2 ID : 3 Format : AC-3 Format/Info : Audio Coding 3 Mode extension : CM (complete main) Codec ID : A_AC3 Duration : 1h 54mn Bit rate mode : Constant Bit rate : 448 Kbps Channel(s) : 6 channels Channel positions : Front: L C R, Side: L R, LFE Sampling rate : 48.0 KHz Bit depth : 16 bits Compression mode : Lossy Delay relative to video : 1mn 5s Stream size : 366 MiB (21%) Language : English Default : No Forced : No DURATION : 01:54:12.897000000 NUMBER_OF_FRAMES : 642459 NUMBER_OF_BYTES : 1292628100 _STATISTICS_WRITING_APP : mkvmerge v8.7.0 ('All of the above') 64bit _STATISTICS_WRITING_DATE_UTC : 2016-12-13 10:45:55 _STATISTICS_TAGS : BPS DURATION NUMBER_OF_FRAMES NUMBER_OF_BYTES Text #1 ID : 4 Format : UTF-8 Codec ID : S_TEXT/UTF8 Codec ID/Info : UTF-8 Plain Text Title : FORCED Language : Italian Default : Yes Forced : No DURATION : 01:53:17.665000000 NUMBER_OF_FRAMES : 33 NUMBER_OF_BYTES : 824 _STATISTICS_WRITING_APP : mkvmerge v8.7.0 ('All of the above') 64bit _STATISTICS_WRITING_DATE_UTC : 2016-12-13 10:45:55 _STATISTICS_TAGS : BPS DURATION NUMBER_OF_FRAMES NUMBER_OF_BYTES Text #2 ID : 5 Format : UTF-8 Codec ID : S_TEXT/UTF8 Codec ID/Info : UTF-8 Plain Text Title : NON UDENTI Language : Italian Default : No Forced : No DURATION : 01:53:19.333000000 NUMBER_OF_FRAMES : 1965 NUMBER_OF_BYTES : 64063 _STATISTICS_WRITING_APP : mkvmerge v8.7.0 ('All of the above') 64bit _STATISTICS_WRITING_DATE_UTC : 2016-12-13 10:45:55 _STATISTICS_TAGS : BPS DURATION NUMBER_OF_FRAMES NUMBER_OF_BYTES Text #3 ID : 6 Format : UTF-8 Codec ID : S_TEXT/UTF8 Codec ID/Info : UTF-8 Plain Text Title : NON UDENTI Language : English Default : No Forced : No DURATION : 01:53:19.334000000 NUMBER_OF_FRAMES : 1936 NUMBER_OF_BYTES : 65455 _STATISTICS_WRITING_APP : mkvmerge v8.7.0 ('All of the above') 64bit _STATISTICS_WRITING_DATE_UTC : 2016-12-13 10:45:55 _STATISTICS_TAGS : BPS DURATION NUMBER_OF_FRAMES NUMBER_OF_BYTES Menu 00:00:00.000 : :00:00:00.000 00:10:13.780 : :00:10:13.780 00:19:00.931 : :00:19:00.931 00:30:21.111 : :00:30:21.111 00:40:02.525 : :00:40:02.525 00:50:56.178 : :00:50:56.178 00:59:34.362 : :00:59:34.362 01:10:59.380 : :01:10:59.380 01:20:08.929 : :01:20:08.929 01:32:06.020 : :01:32:06.020 01:39:36.220 : :01:39:36.220 01:48:19.118 : :01:48:19.118 [/spoiler] [/color][/b][/center]

The.Birth.Of.A.Nation.2016.1080p.BluRay.x264-FOXM

Language: | Size: 1.83 GB | Seed: 1 | Leech: 1

Description:

http://FOXM.TO ------------------------------------------------------------------------------------------------------------------------------------------- Get all FOXM newest releases first at  FOXM website http://foxm.to/film?id=256 Also there you will find a list of upcoming uploads, account registration and an effective movie search. ------------------------------------------------------------------------------------------------------------------------------------------- http://www.imdb.com/title/tt4196450/ IMDB RATING: 5.8 #1 Video FORMAT.......................: MP4 CODEC........................: X264 GENRE........................:  Biography, Drama, History FILE SIZE....................: 1.83 GB RESOLUTION...................: 1920*808 FRAME RATE...................: 23.976 fps LANGUAGE.....................: English SUBTITLES....................: NONE RUNTIME......................: 2h #2 Audio Format :.....................: AAC Mode : ......................: 16 Channel(s)...................: 5.1 channels Bit rate.....................: 320 kbps Audio sample rate............: 48 kHz Summary: Nat Turner, a literate slave and preacher in the antebellum South, orchestrates an uprising. Screenshots [img]http://foxm.to/images/1482583667image1.jpg[/img] [img]http://foxm.to/images/1482583667image2.jpg[/img] [img]http://foxm.to/images/1482583667image3.jpg[/img] ------------------------------------------------------------------------------------------------------------------------------------------- http://FOXM.TO -------------------------------------------------------------------------------------------------------------------------------------------