Search Top Tags














Blair.Witch.2016.720p.BluRay.x264-FOXM

Language: | Size: 685.4 MB | Seed: 6 | Leech: 0

Description:

Storyline After discovering a video showing what he believes to be his vanished sister Heather, James and a group of friends head to the forest believed to be inhabited by the Blair Witch. General Size :   685 MB Running Time: 1h 29min Genre: Drama | Horror | Thriller Director: Adam Wingard Language: English Release Date: 16 September 2016 (USA) http://www.imdb.com/title/tt1540011/ Video======= Video Format......: AAC Video Codec.......: x264 Frame Rate........: 23.000 fps Width.............: 1 280 Pixels Height............:  692 Audio======= Format..........: AAC Bitrate.........: 255 Kbps Channels........: 6 channels screenshot [img]http://foxm.to/images/1482311337image2.jpg[/img] [img]http://foxm.to/images/1482311337image3.jpg[/img] [/center]

Middle.School.The.Worst.Years.of.My.Life.2016.720p.BluRay.x264-FOXM

Language: | Size: 763.83 MB | Seed: 505 | Leech: 9

Description:

http://FOXM.TO ------------------------------------------------------------------------------------------------------------------------------------------- Get all FOXM newest releases first at FOXM website http://foxm.to/film?id=249 Also there you will find a list of upcoming uploads, account registration and an effective movie search. ------------------------------------------------------------------------------------------------------------------------------------------- http://www.imdb.com/title/tt4981636/ IMDB RATING: 6.4 #1 Video FORMAT.......................: MP4 CODEC........................: X264 GENRE........................: Comedy, Drama, Family FILE SIZE....................: 763 MB RESOLUTION...................: 1280*720 FRAME RATE...................: 23.976 fps LANGUAGE.....................: English SUBTITLES....................: NONE RUNTIME......................: 1h 31min #2 Audio Format :.....................: AAC Mode : ......................: 16 Channel(s)...................: 5.1 channels Bit rate.....................: 320 kbps Audio sample rate............: 48 kHz Summary: Imaginative quiet teenager Rafe Katchadorian is tired of his middle school's obsession with the rules at the expense of any and all creativity. Desperate to shake things up, Rafe and his best friends have come up with a plan: break every single rule in the school and let the students run wild. Screenshots [img]http://foxm.to/images/1482305857image1.jpg[/img] [img]http://foxm.to/images/1482305857image2.jpg[/img] [img]http://foxm.to/images/1482305857image3.jpg[/img] ------------------------------------------------------------------------------------------------------------------------------------------- http://FOXM.TO -------------------------------------------------------------------------------------------------------------------------------------------

Middle.School.The.Worst.Years.of.My.Life.2016.1080p.BluRay.x264-FOXM

Language: | Size: 763.83 MB | Seed: 555 | Leech: 25

Description:

http://FOXM.TO ------------------------------------------------------------------------------------------------------------------------------------------- Get all FOXM newest releases first at FOXM website http://foxm.to/film?id=249 Also there you will find a list of upcoming uploads, account registration and an effective movie search. ------------------------------------------------------------------------------------------------------------------------------------------- http://www.imdb.com/title/tt4981636/ IMDB RATING: 6.4 #1 Video FORMAT.......................: MP4 CODEC........................: X264 GENRE........................: Comedy, Drama, Family FILE SIZE....................: 763 MB RESOLUTION...................: 1280*720 FRAME RATE...................: 23.976 fps LANGUAGE.....................: English SUBTITLES....................: NONE RUNTIME......................: 1h 31min #2 Audio Format :.....................: AAC Mode : ......................: 16 Channel(s)...................: 5.1 channels Bit rate.....................: 320 kbps Audio sample rate............: 48 kHz Summary: Imaginative quiet teenager Rafe Katchadorian is tired of his middle school's obsession with the rules at the expense of any and all creativity. Desperate to shake things up, Rafe and his best friends have come up with a plan: break every single rule in the school and let the students run wild. Screenshots [img]http://foxm.to/images/1482305857image1.jpg[/img] [img]http://foxm.to/images/1482305857image2.jpg[/img] [img]http://foxm.to/images/1482305857image3.jpg[/img] ------------------------------------------------------------------------------------------------------------------------------------------- http://FOXM.TO -------------------------------------------------------------------------------------------------------------------------------------------

Who.Am.I.No.System.Is.Safe.2014.720p.x265.HEVC.SUB.ENG.ITA

Language: | Size: 728.25 MB | Seed: 0 | Leech: 0

Description:

Benjamin Engel, a hacker from Berlin, is sitting in an interrogation room. The officer incharge tells Hanne Lindberg, the Head of the Cyber Division of Europol that Benjamin asked for her, to do the interrogation and that he has information regarding FRI3NDS, a notorious hacking group of four members connected to the Russian cyber mafia, and MRX, an infamous hacker known around Darknet, and tells her that he could give them both to Hanne if he listens to her. Having no choice, Hanne sits down. IMDb : http://www.imdb.com/title/tt3042408/ General Format : Matroska Format version : Version 2 File size : 728 MiB Duration : 1h 41mn Overall bit rate : 1 002 Kbps Writing application : HandBrake 0.10.5 2016021100 Writing library : Lavf55.12.0 / Lavf55.12.0 Video ID : 1 Format : HEVC Format/Info : High Efficiency Video Coding Format profile : Main@L3.1@Main Codec ID : V_MPEGH/ISO/HEVC Duration : 1h 41mn Width : 1 280 pixels Height : 536 pixels Display aspect ratio : 2.40:1 Frame rate mode : Constant Frame rate : 25.000 fps Color space : YUV Chroma subsampling : 4:2:0 Bit depth : 8 bits Writing library : x265 1.9:[Windows][GCC 4.9.0][64 bit] 8bit Encoding settings : wpp / ctu=64 / min-cu-size=8 / max-tu-size=32 / tu-intra-depth=1 / tu-inter-depth=1 / me=1 / subme=2 / merange=57 / no-rect / no-amp / max-merge=2 / temporal-mvp / no-early-skip / rdpenalty=0 / no-tskip / no-tskip-fast / strong-intra-smoothing / no-lossless / no-cu-lossless / no-constrained-intra / no-fast-intra / open-gop / no-temporal-layers / interlace=0 / keyint=250 / min-keyint=25 / scenecut=40 / rc-lookahead=20 / lookahead-slices=0 / bframes=4 / bframe-bias=0 / b-adapt=2 / ref=3 / limit-refs=3 / no-limit-modes / weightp / no-weightb / aq-mode=1 / qg-size=32 / aq-strength=1.00 / cbqpoffs=0 / crqpoffs=0 / rd=3 / psy-rd=2.00 / rdoq-level=0 / psy-rdoq=0.00 / signhide / deblock / sao / no-sao-non-deblock / b-pyramid / cutree / no-intra-refresh / rc=2 / pass / bitrate=900 / qcomp=0.60 / qpmin=0 / qpmax=51 / qpstep=4 / cplxblur=20.0 / qblur=0.5 / ipratio=1.40 / pbratio=1.30 Default : Yes Forced : No Color range : Limited Color primaries : BT.709 Transfer characteristics : BT.709 Matrix coefficients : BT.709 Audio ID : 2 Format : AAC Format/Info : Advanced Audio Codec Format profile : LC Codec ID : A_AAC Duration : 1h 41mn Channel(s) : 2 channels Channel positions : Front: L R Sampling rate : 48.0 KHz Frame rate : 46.875 fps (1024 spf) Compression mode : Lossy Delay relative to video : -21ms Title : Stereo Default : Yes Forced : No Text #1 ID : 3 Format : ASS Codec ID : S_TEXT/ASS Codec ID/Info : Advanced Sub Station Alpha Compression mode : Lossless Language : English Default : Yes Forced : No Text #2 ID : 4 Format : ASS Codec ID : S_TEXT/ASS Codec ID/Info : Advanced Sub Station Alpha Compression mode : Lossless Language : Italian Default : No Forced : No HOME FULL HOME PAGE DMCA CONTACT 133

Ae Dil Hai Mushkil 2016 Hindi 720p HD RIP ghoshben

Language: | Size: 1.59 GB | Seed: 8 | Leech: 10

Description:

A story about unrequited love. The journey of three characters, Ayan, Alizeh, and Saba. IMDb : http://www.imdb.com/title/tt4559006/ Video ID : 1 Format : AVC Format/Info : Advanced Video Codec Format profile : High@L4.1 Format settings, CABAC : Yes Format settings, ReFrames : 8 frames Codec ID : V_MPEG4/ISO/AVC Duration : 2 h 36 min Bit rate : 2 291 kb/s Width : 1 280 pixels Height : 544 pixels Display aspect ratio : 2.35:1 Frame rate mode : Constant Frame rate : 23.976 (24000/1001) FPS Audio ID : 2 Format : AC-3 Format/Info : Audio Coding 3 Mode extension : CM (complete main) Format settings, Endianness : Big Codec ID : A_AC3 Duration : 2 h 36 min Bit rate mode : Constant Bit rate : 448 kb/s Channel(s) : 6 channels Channel positions : Front: L C R, Side: L R, LFE Sampling rate : 48.0 kHz

Escobar: Paradise Lost - Escobar (2014).BRrip.XviD - Italian.English.iCV-MIRCrew

Language: | Size: 1.81 GB | Seed: 542 | Leech: 299

Description:

[img]http://i.imgur.com/GDNQx1Z.png[/img] My release is always in double track audio italian and Original audio for select it use VLC or dvd player home not use wmp Escobar: Paradise Lost - Escobar (2014) [img]https://extraimage.net/images/2016/12/20/f80a4a9edd8afbaf1bb83bf317c51785.png[/img] [URL=http://www.imdb.com/title/tt2515030/][IMG]http://www.userlogos.org/files/logos/Sucka/imdb_new.png[/IMG][/URL] [img]http://s19.postimage.org/bgh0za7kj/banner_scheda.gif[/img] DATA USCITA: 25 agosto 2016 GENERE: Thriller , Drammatico ANNO: 2014 REGIA: Andrea Di Stefano SCENEGGIATURA: Andrea Di Stefano FOTOGRAFIA: Luis David Sansans MONTAGGIO: Maryline Monthieux MUSICHE: Max Richter PRODUZIONE: Chapter 2 DISTRIBUZIONE: Good Films PAESE: Francia, Spagna, Belgio DURATA: 120 Min [img]http://s19.postimage.org/i9hdvjydv/banner_trama.gif[/img] Benicio Del Toro, Josh Hutcherson, Brady Corbet, Carlos Bardem, Claudia Traisac, Ana Girardot [img]http://s19.postimage.org/i9hdvjydv/banner_trama.gif[/img] Nick pensa di aver trovato il paradiso quando raggiunge il fratello in Colombia. Una laguna turchese, una spiaggia d'avorio, onde perfette - è un sogno per questo giovane surfista canadese. Poi incontra Maria, una splendida ragazza colombiana. [img]http://s19.postimage.org/nwdqt10wj/banner_storyline.gif[/img] In Colombia, a young surfer meets the woman of his dreams - and then he meets her uncle, Pablo Escobar. [img]http://i.imgur.com/GgEl7ea.png[/img] [url=https://extraimage.net/image/2ndI][img]http://extraimage.net/images/2016/12/20/6fc1b705b27f5ed64b84daec7b406d0f.th.png[/img][/url] [url=https://extraimage.net/image/2ndl][img]http://extraimage.net/images/2016/12/20/a1b8a04f539e7cd3e75d4bf388f16395.th.png[/img][/url] [url=https://extraimage.net/image/2ndd][img]http://extraimage.net/images/2016/12/20/1de4ae7d4a0928599a65c52e5097b285.th.png[/img][/url] [img]http://i.imgur.com/cWb6Z.gif[/img] [img]http://s19.postimage.org/f07k2tzo3/banner_dati_file.gif[/img] [spoiler] General Complete name : Avengers Grimm (2015).ita.eng.Sub.eng.iCV-MIRCrew.avi Format : AVI Format/Info : Audio Video Interleave File size : 1.44 GiB Duration : 1h 25mn Overall bit rate : 2 410 Kbps Movie name : www.icv-crew.org Writing application : VirtualDubMod 1.5.10.2 (build 2540/release) Writing library : VirtualDubMod build 2540/release Video ID : 0 Format : MPEG-4 Visual Format profile : Simple@L3 Format settings, BVOP : No Format settings, QPel : No Format settings, GMC : No warppoints Format settings, Matrix : Default (H.263) Codec ID : XVID Codec ID/Hint : XviD Duration : 1h 25mn Bit rate : 1 500 Kbps Width : 720 pixels Height : 404 pixels Display aspect ratio : 16:9 Frame rate : 23.976 fps Color space : YUV Chroma subsampling : 4:2:0 Bit depth : 8 bits Scan type : Progressive Compression mode : Lossy Bits/(Pixel*Frame) : 0.215 Stream size : 917 MiB (62%) Writing library : XviD 64 Audio #1 ID : 1 Format : AC-3 Format/Info : Audio Coding 3 Mode extension : CM (complete main) Codec ID : 2000 Duration : 1h 25mn Bit rate mode : Constant Bit rate : 448 Kbps Channel(s) : 6 channels Channel positions : Front: L C R, Side: L R, LFE Sampling rate : 48.0 KHz Bit depth : 16 bits Compression mode : Lossy Stream size : 274 MiB (19%) Alignment : Split accross interleaves Interleave, duration : 42 ms (1.00 video frame) Interleave, preload duration : 500 ms Audio #2 ID : 2 Format : AC-3 Format/Info : Audio Coding 3 Mode extension : CM (complete main) Codec ID : 2000 Duration : 1h 25mn Bit rate mode : Constant Bit rate : 448 Kbps Channel(s) : 6 channels Channel positions : Front: L C R, Side: L R, LFE Sampling rate : 48.0 KHz Bit depth : 16 bits Compression mode : Lossy Stream size : 274 MiB (19%) Alignment : Split accross interleaves Interleave, duration : 42 ms (1.00 video frame) Interleave, preload duration : 500 ms [/spoiler] [/color][/b][/center]

Dressed to Kill - Vestito per uccidere - Unrated (1980).H264 Italian.English.iCV-MIRCrew

Language: | Size: 1.32 GB | Seed: 2 | Leech: 2

Description:

[img]http://i.imgur.com/GDNQx1Z.png[/img] My release is always in double track audio italian and Original audio for select it use VLC or dvd player home not use wmp Vestito per uccidere - Dressed to Kill - Unrated (1980) [img]https://extraimage.net/images/2016/12/20/4b6232b39afd6091a0383bf7a5022997.png[/img] [URL=http://www.imdb.com/title/tt0080661/][IMG]http://www.userlogos.org/files/logos/Sucka/imdb_new.png[/IMG][/URL] [img]http://s19.postimage.org/bgh0za7kj/banner_scheda.gif[/img] Premi Saturn Awards 1981: miglior attrice (Angie Dickinson) Titolo originale Dressed to Kill Paese di produzione Stati Uniti Anno 1980 Durata 105 min Genere thriller Regia Brian De Palma Soggetto Brian De Palma Sceneggiatura Brian De Palma Produttore George Litto Fotografia Ralf Bode Montaggio Jerry Greenberg Musiche Pino Donaggio Scenografia Gary Brink Costumi Gary Jones, Ann Roth Trucco Joseph Cranzano, Tony Lloyd (per Michael Caine) [img]http://s19.postimage.org/i9hdvjydv/banner_trama.gif[/img] Michael Caine: Dr. Robert Elliott/Bobbi Angie Dickinson: Kate Miller Keith Gordon: Peter Miller Nancy Allen: Liz Blake Dennis Franz: Detective Marino David Margulies: Dr. Levy [img]http://s19.postimage.org/i9hdvjydv/banner_trama.gif[/img] Kate Miller è una casalinga sessualmente frustrata in terapia presso lo psichiatra newyorkese Robert Elliott. Durante una seduta presso lo studio del dottore, Kate tenta di sedurlo, ma Elliott rifiuta la sua proposta. Più tardi la donna si reca ad una mostra al Metropolitan e viene intensamente attratta da un misterioso straniero anch'egli in visita al museo [img]http://s19.postimage.org/nwdqt10wj/banner_storyline.gif[/img] A mysterious blonde woman kills one of a psychiatrist's patients, and then goes after the high-class call girl who witnessed the murder. [img]http://i.imgur.com/GgEl7ea.png[/img] [url=https://extraimage.net/image/2ni2][img]http://extraimage.net/images/2016/12/20/725bca8139e87a9eaab306f83b42b4d3.th.png[/img][/url] [url=https://extraimage.net/image/2niw][img]http://extraimage.net/images/2016/12/20/5df08fcc0b9ba56157f6ce85405989ff.th.png[/img][/url] [url=https://extraimage.net/image/2niN][img]http://extraimage.net/images/2016/12/20/d14bd793fbf4b0ea6c5269e82be34d60.th.png[/img][/url] [url=https://extraimage.net/image/2niT][img]http://extraimage.net/images/2016/12/20/bfd41e27bc9bf5ded02a10bfd053fc7c.th.png[/img][/url] [url=https://extraimage.net/image/2nij][img]http://extraimage.net/images/2016/12/20/304f7120e30f4e3c34bbc2aed7997508.th.png[/img][/url] [url=https://extraimage.net/image/2nin][img]http://extraimage.net/images/2016/12/20/96dc702965938abba0adca1cadee7a17.th.png[/img][/url] [url=https://extraimage.net/image/2nis][img]http://extraimage.net/images/2016/12/20/1606b4b6041ac83e0312b34a0131daf0.th.png[/img][/url] [img]http://i.imgur.com/cWb6Z.gif[/img] [img]http://s19.postimage.org/f07k2tzo3/banner_dati_file.gif[/img] [spoiler] General Unique ID : 197336379239380833967780589565710242918 (0x94759AAC28339C99BC9ACF5E08E51466) Complete name : Vestito per uccidere - Dressed to Kill - Unrated (1980).H264.ita.eng.iCV-MIRCrew.mkv Format : Matroska Format version : Version 2 File size : 1.32 GiB Duration : 1h 45mn Overall bit rate : 1 799 Kbps Encoded date : UTC 2016-12-18T16:19:09Z Writing application : mkvmerge v5.4.0 ('Piper') built on Mar 10 2012 13:34:39 Writing library : Lavf55.12.0 Video ID : 1 Format : AVC Format/Info : Advanced Video Codec Format profile : Main@L4.0 Format settings, CABAC : Yes Format settings, ReFrames : 4 frames Muxing mode : Header stripping Codec ID : V_MPEG4/ISO/AVC Duration : 1h 45mn Bit rate : 1 270 Kbps Width : 720 pixels Height : 306 pixels Display aspect ratio : 2.35:1 Frame rate mode : Variable Frame rate : 23.976 fps Color space : YUV Chroma subsampling : 4:2:0 Bit depth : 8 bits Scan type : Progressive Bits/(Pixel*Frame) : 0.240 Stream size : 941 MiB (70%) Writing library : x264 core 142 r2479 dd79a61 Encoding settings : cabac=1 / ref=1 / deblock=1:0:0 / analyse=0x1:0x111 / me=hex / subme=2 / psy=1 / psy_rd=1.00:0.00 / mixed_ref=0 / me_range=16 / chroma_me=1 / trellis=0 / 8x8dct=0 / cqm=0 / deadzone=21,11 / fast_pskip=1 / chroma_qp_offset=0 / threads=3 / lookahead_threads=1 / sliced_threads=0 / nr=0 / decimate=1 / interlaced=0 / bluray_compat=0 / constrained_intra=0 / bframes=3 / b_pyramid=2 / b_adapt=1 / b_bias=0 / direct=1 / weightb=1 / open_gop=0 / weightp=1 / keyint=240 / keyint_min=24 / scenecut=40 / intra_refresh=0 / rc_lookahead=10 / rc=abr / mbtree=1 / bitrate=1270 / ratetol=1.0 / qcomp=0.60 / qpmin=0 / qpmax=69 / qpstep=4 / vbv_maxrate=20000 / vbv_bufsize=25000 / nal_hrd=none / filler=0 / ip_ratio=1.40 / aq=1:1.00 Default : Yes Forced : No Color primaries : BT.709-5, BT.1361, IEC 61966-2-4, SMPTE RP177 Transfer characteristics : BT.709-5, BT.1361 Matrix coefficients : BT.709-5, BT.1361, IEC 61966-2-4 709, SMPTE RP177 Audio #1 ID : 2 Format : AC-3 Format/Info : Audio Coding 3 Mode extension : CM (complete main) Muxing mode : Header stripping Codec ID : A_AC3 Duration : 1h 45mn Bit rate mode : Constant Bit rate : 256 Kbps Channel(s) : 2 channels Channel positions : Front: L R Sampling rate : 48.0 KHz Bit depth : 16 bits Compression mode : Lossy Delay relative to video : -5ms Stream size : 192 MiB (14%) Title : Stereo Language : Italian Default : No Forced : No Audio #2 ID : 3 Format : AC-3 Format/Info : Audio Coding 3 Mode extension : CM (complete main) Muxing mode : Header stripping Codec ID : A_AC3 Duration : 1h 45mn Bit rate mode : Constant Bit rate : 256 Kbps Channel(s) : 2 channels Channel positions : Front: L R Sampling rate : 48.0 KHz Bit depth : 16 bits Compression mode : Lossy Delay relative to video : -5ms Stream size : 192 MiB (14%) Title : Stereo Language : English Default : Yes Forced : No Text #1 ID : 4 Format : VobSub Muxing mode : zlib Codec ID : S_VOBSUB Codec ID/Info : The same subtitle format used on DVDs Language : English Default : No Forced : No Text #2 ID : 5 Format : VobSub Muxing mode : zlib Codec ID : S_VOBSUB Codec ID/Info : The same subtitle format used on DVDs Language : Spanish Default : No Forced : No Text #3 ID : 6 Format : VobSub Muxing mode : zlib Codec ID : S_VOBSUB Codec ID/Info : The same subtitle format used on DVDs Language : French Default : No Forced : No [/spoiler] [/color][/b][/center]

Alice in Chains - MTV Unplugged [Flac][TntVillage]

Language: | Size: 457.06 MB | Seed: 892 | Leech: 56

Description:

[img]http://i1083.photobucket.com/albums/j389/leomarco1/FRONT_1.jpg[/img] Artist...............: Alice In Chains Album................: MTV Unplugged Genre................: Rock Grunge Source...............: CD Year.................: 1996 Ripper...............: EAC (Secure mode) / LAME 3.92 & Asus CD-S520 Codec................: Free Lossless Audio Codec (FLAC) Version..............: reference libFLAC 1.2.1 20070917 Quality..............: Lossless, (avg. compression: 64 %) Channels.............: Stereo / 44100 HZ / 16 Bit Tags.................: VorbisComment Information..........: TntVillage Ripped by............: Leonenero on 18/12/2016 Posted by............: Leonenero on 19/12/2016 News Server..........: news.astraweb.com News Group(s)........: TntVillage Included.............: NFO, MD5, M3U, LOG, CUE Covers...............: Front Back CD --------------------------------------------------------------------- Tracklisting --------------------------------------------------------------------- 1. Alice In Chains - Would? [03:52] 2. Alice In Chains - Frogs [07:29] 3. Alice In Chains - Over Now [07:13] 4. Alice In Chains - Killer Is Me [05:23] 5. Alice In Chains - Nutshell [04:56] 6. Alice In Chains - Brother [05:27] 7. Alice In Chains - No Excuses [04:57] 8. Alice In Chains - Sludge Factory [04:35] 9. Alice In Chains - Down In A Hole [05:48] 10. Alice In Chains - Angry Chair [04:36] 11. Alice In Chains - Rooster [06:34] 12. Alice In Chains - Got Me Wrong [05:06] 13. Alice In Chains - Heaven Beside You [05:28] Playing Time.........: 01:11:29 Total Size...........: 456,81 MB Between the end of 1993 and a performance for MTV Unplugged in the spring of 1996, Alice in Chains performed no concerts -- they didn't even support the release of their eponymous third album with a minor tour. There's a variety of reasons for their inactivity -- primarily it's due to the health of certain members -- but the lack of concerts made the Unplugged performance seem special. During the concert, Alice in Chains drew from their three albums and two EPs, offering new, more reflective arrangements for harder songs like "Would?" and virtually re-creating the original versions of "Got Me Wrong" and "No Excuses." Throughout the album, the group sounds tight and professional -- on the basis of this performance, it's hard to believe that they hadn't played together for nearly three years -- but it doesn't offer anything that the albums don't already. The acoustic arrangements of the harder songs sound like novelties, and the rest sound like rehashes of their previous work, only without much energy. Again, it's a case of an Unplugged album that is designed to attract the band's core audience, which makes it a fairly entertaining effort that is essentially just an official bootleg.

The Keys to the House - Le Chiavi di Casa (2004) [DVD9 - Ita 5.1 - Eng Fra NUIta subs]

Language: | Size: 7.18 GB | Seed: 23 | Leech: 13

Description:

Titolo originale: Le Chiavi di Casa Nazione: Italia, Germania, Francia Anno: 2004 Genere: Drammatico Durata: 116' Regia: Gianni Amelio Sito Ufficiale: Cast: Kim Rossi Stuart, Charlotte Rampling, Alla Faerovich, Pierfrancesco Favino, Manuel Katzy Distribuzione: 01 Distribution Data di uscita: Venerdì 10 Dicembre 2004 (cinema) Trama: Gianni (Kim Rossi Stuart) è un giovane padre che ha abbandonato il figlio Paolo subito dopo la nascita. Il bambino (Andrea Rossi) è nato affetto da handicap, mentre la giovane compagna di Gianni è morta di parto. Quindici anni dopo l'uomo decide di fare la conoscenza del figlio: l'occasione è data da un viaggio per portare il ragazzo in una clinica di Berlino per seguire alcune terapie. Durante il soggiorno nella città tedesca, Gianni farà la conoscenza di Nicole (Charlotte Rampling), una donna matura con una figlia affetta da handicap, che gli farà capire la grandezza dell'impegno che lo attende. Anche grazie a Nicole, Gianni e Paolo impareranno a conoscersi a fondo e a confrontarsi, ma alla fine sarà Paolo a confortare il padre.

Teit.Meista.Kauniin.2016.1080p.BluRay.x264-FOXM

Language: | Size: 1.98 GB | Seed: 304 | Leech: 60

Description:

http://FOXM.TO ------------------------------------------------------------------------------------------------------------------------------------------- Get all FOXM newest releases first at FOXM website http://foxm.to/film?id=248 Also there you will find a list of upcoming uploads, account registration and an effective movie search. ------------------------------------------------------------------------------------------------------------------------------------------- http://www.imdb.com/title/tt5032492/ IMDB RATING: 7.0 #1 Video FORMAT.......................: MP4 CODEC........................: X264 GENRE........................: Biography, Drama, Music FILE SIZE....................: 1.98 GB RESOLUTION...................: 1920*808 FRAME RATE...................: 23.976 fps LANGUAGE.....................: Finnish SUBTITLES....................: NONE RUNTIME......................: 2h 2min #2 Audio Format :.....................: AAC Mode : ......................: 16 Channel(s)...................: 5.1 channels Bit rate.....................: 320 kbps Audio sample rate............: 48 kHz Summary: The story of Finnish punk rock band Apulanta. Screenshots [img]http://foxm.to/images/1482222710image1.jpg[/img] [img]http://foxm.to/images/1482222710image2.jpg[/img] [img]http://foxm.to/images/1482222710image3.jpg[/img] ------------------------------------------------------------------------------------------------------------------------------------------- http://FOXM.TO -------------------------------------------------------------------------------------------------------------------------------------------

Teit.Meista.Kauniin.2016.720p.BluRay.x264-FOXM

Language: | Size: 953.35 MB | Seed: 2 | Leech: 0

Description:

http://FOXM.TO ------------------------------------------------------------------------------------------------------------------------------------------- Get all FOXM newest releases first at FOXM website http://foxm.to/film?id=248 Also there you will find a list of upcoming uploads, account registration and an effective movie search. ------------------------------------------------------------------------------------------------------------------------------------------- http://www.imdb.com/title/tt5032492/ IMDB RATING: 7.0 #1 Video FORMAT.......................: MP4 CODEC........................: X264 GENRE........................: Biography, Drama, Music FILE SIZE....................: 953 MB RESOLUTION...................: 1280*720 FRAME RATE...................: 23.976 fps LANGUAGE.....................: Finnish SUBTITLES....................: NONE RUNTIME......................: 2h 2min #2 Audio Format :.....................: AAC Mode : ......................: 16 Channel(s)...................: 5.1 channels Bit rate.....................: 320 kbps Audio sample rate............: 48 kHz Summary: The story of Finnish punk rock band Apulanta. Screenshots [img]http://foxm.to/images/1482222710image1.jpg[/img] [img]http://foxm.to/images/1482222710image2.jpg[/img] [img]http://foxm.to/images/1482222710image3.jpg[/img] ------------------------------------------------------------------------------------------------------------------------------------------- http://FOXM.TO -------------------------------------------------------------------------------------------------------------------------------------------

I.Am.Not.A.Serial.Killer.2016.1080p.BluRay.x264-FOXM

Language: | Size: 1.61 GB | Seed: 389 | Leech: 85

Description:

Storyline In a small Midwestern town, a troubled teen with homicidal tendencies must hunt down and destroy a supernatural killer whilst keeping his own inner demons at bay. General Size :   1.60 GB Running Time: 1h 44min Genre: Drama | Horror | Thriller Director: Billy O'Brien Language: English Release Date: 26 August 2016 (USA) http://www.imdb.com/title/tt4303340/ Video======= Video Format......: AAC Video Codec.......: x264 Frame Rate........: 23.000 fps Width.............: 1 920 Pixels Height............:  1080 Audio======= Format..........: AAC Bitrate.........: 320 Kbps Channels........: 6 channels screenshot [img]http://foxm.to/images/1482100717image3.jpg[/img] [img]http://foxm.to/images/1482100717image2.jpg[/img] [/center]

Cj7.2008.1080p.BluRay.x264-FOXM

Language: | Size: 1.43 GB | Seed: 542 | Leech: 19

Description:

Storyline A poor Chinese laborer learns important lessons after his son gets a strange new toy. General Size :   1.43 GB Running Time: 1h 26min Genre: Comedy | Family | Sci-Fi Director: Stephen Chow Language: Cantonese Release Date: 31 January 2008 (Hong Kong) http://www.imdb.com/title/tt0940709/ Video======= Video Format......: AAC Video Codec.......: x264 Frame Rate........: 23.000 fps Width.............: 1 920 Pixels Height............:  800 Audio======= Format..........: AAC Bitrate.........: 320 Kbps Channels........: 6 channels screenshot [img]http://foxm.to/images/1482127561image3.jpg[/img] [img]http://foxm.to/images/1482127561image1.jpg[/img] [/center]

Cj7.2008.720p.BluRay.x264-FOXM

Language: | Size: 858.29 MB | Seed: 396 | Leech: 22

Description:

Storyline A poor Chinese laborer learns important lessons after his son gets a strange new toy. General Size :   858 MB Running Time: 1h 26min Genre: Comedy | Family | Sci-Fi Director: Stephen Chow Language: Cantonese Release Date: 31 January 2008 (Hong Kong) http://www.imdb.com/title/tt0940709/ Video======= Video Format......: AAC Video Codec.......: x264 Frame Rate........: 23.000 fps Width.............: 1 280 ixels Height............:  536 Audio======= Format..........: AAC Bitrate.........: 255 Kbps Channels........: 6 channels screenshot [img]http://foxm.to/images/1482127561image3.jpg[/img] [img]http://foxm.to/images/1482127561image1.jpg[/img] [/center]

Toto - Super Hits [Flac][TntVillage]

Language: | Size: 317.7 MB | Seed: 242 | Leech: 74

Description:

[img]http://extraimago.com/images/2016/08/06/c32bb00c32482cc428a8b29b5d222fe3.jpg[/img] Artist...............: Toto Album................: Super Hits Genre................: Pop/Rock Source...............: CD Year.................: 2001 Ripper...............: Exact Audio Copy (Secure mode) & Asus CD-S520 Codec................: Free Lossless Audio Codec (FLAC) Version..............: reference libFLAC 1.2.1 20070917 Quality..............: Lossless, (avg. compression: 70 %) Channels.............: Stereo / 44100 HZ / 16 Bit Tags.................: VorbisComment Information..........: TntVillage Ripped by............: leonenero on 22/08/2013 Posted by............: leonenero on 23/08/2013 News Server..........: news.astraweb.com News Group(s)........: alt.binaries.sounds.flac.full_TntVillage Included.............: NFO, M3U, LOG, CUE Covers...............: Front Back CD --------------------------------------------------------------------- Tracklisting --------------------------------------------------------------------- 1. Hold the Line [03.57] 2. Rosanna [05.30] 3. Africa [04.55] 4. Georgy Porgy [04.09] 5. Live for Today [04.01] 6. 99 [05.12] 7. Without Your Love [04.34] 8. St. George and the Dragon [04.43] 9. Isolation [04.05] 10. I'll Be Over You [03.51] Playing Time.........: 45.02 Total Size...........: 317,50 MB I bought this on a whim a while ago as I heard Rosanna playing in a shop while I browsed and it brought back so many memories and then I couldn't get it out of my head! It took me a while to track down but I'm so glad I found this CD as I remembered so many of the songs from back in the day. My favourites are still Rosanna and Africa but there are 10 classics on here and this CD is now a firm favourite.

I.Am.Not.A.Serial.Killer.2016.720p.BluRay.x264-FOXM

Language: | Size: 861.96 MB | Seed: 885 | Leech: 85

Description:

http://FOXM.TO ------------------------------------------------------------------------------------------------------------------------------------------- Get all FOXM newest releases first at FOXM website http://foxm.to/film?id=246 Also there you will find a list of upcoming uploads, account registration and an effective movie search. ------------------------------------------------------------------------------------------------------------------------------------------- http://www.imdb.com/title/tt4303340/ IMDB RATING: 6.2 #1 Video FORMAT.......................: MP4 CODEC........................: X264 GENRE........................: Drama, Horror, Thriller FILE SIZE....................: 861 MB RESOLUTION...................: 1280*720 FRAME RATE...................: 23.976 fps LANGUAGE.....................: English SUBTITLES....................: NONE RUNTIME......................: 1h 44min #2 Audio Format :.....................: AAC Mode : ......................: 16 Channel(s)...................: 5.1 channels Bit rate.....................: 320 kbps Audio sample rate............: 48 kHz Summary: In a small Midwestern town, a troubled teen with homicidal tendencies must hunt down and destroy a supernatural killer whilst keeping his own inner demons at bay. Screenshots [img]http://foxm.to/images/1482100717image1.jpg[/img] [img]http://foxm.to/images/1482100717image2.jpg[/img] [img]http://foxm.to/images/1482100717image3.jpg[/img] ------------------------------------------------------------------------------------------------------------------------------------------- http://FOXM.TO -------------------------------------------------------------------------------------------------------------------------------------------

Azymuth - Butterfly [Flac][TntVillage]

Language: | Size: 291.66 MB | Seed: 612 | Leech: 46

Description:

[img]http://i1083.photobucket.com/albums/j389/leomarco1/Azymuth%20TntVillage%20Butterfly%20Front.jpg[/img] Artist...............: Azymuth Album................: Butterfly Genre................: Fusion Source...............: CD Year.................: 2008 Ripper...............: EAC (Secure mode) / LAME 3.92 & Asus CD-S520 Codec................: Free Lossless Audio Codec (FLAC) Version..............: reference libFLAC 1.2.1 20070917 Quality..............: Lossless, (avg. compression: 65 %) Channels.............: Stereo / 44100 HZ / 16 Bit Tags.................: VorbisComment Information..........: TntVillage Ripped by............: Leonenero on 13/12/2016 Posted by............: Leonenero on 14/12/2016 News Server..........: news.astraweb.com News Group(s)........: TntVillage Included.............: NFO, MD5, PLS, M3U, LOG, CUE Covers...............: Front Back CD --------------------------------------------------------------------- Tracklisting --------------------------------------------------------------------- 1. Azymuth - Next summer in Rio [05:00] 2. Azymuth - Butterfly [04:49] 3. Azymuth - Os Cara la [04:53] 4. Azymuth - Meu doce amigo [03:41] 5. Azymuth - Caititu [02:23] 6. Azymuth - Avenida Rio Branco [05:21] 7. Azymuth - New dawn [04:45] 8. Azymuth - Triagem [03:41] 9. Azymuth - Hole in one [04:02] 10. Azymuth - Morning [05:53] Playing Time.........: 44:33 Total Size...........: 291,41 MB The musicianship is the usual Azymuth excellence, but the group must be experienceing some "writers block" and covering Herbie Hancocks "Butterfly" only solidifies that point. There are no Azymuth classics here, Meu Dolce Amigo.......eh, the rest, not even close. Like their "Carioca" release, this is not one to play introducing the group to your friends.

Sneekweek.2016.1080p.BluRay.x264-FOXM

Language: | Size: 1.91 GB | Seed: 479 | Leech: 75

Description:

Storyline Six friends go to party for a week during the "Sneekweek". But they are haunted by a secret from their past. General Size :   1.91 GB Running Time: 1h 48min Genre: Comedy | Mystery | Thriller Director: Martijn Heijne Language: Dutch Release Date: 21 January 2016 (Netherlands) http://www.imdb.com/title/tt4849176/ Video======= Video Format......: AAC Video Codec.......: x264 Frame Rate........: 23.000 fps Width.............: 1 920 pixels Height............:  808 Audio======= Format..........: AAC Bitrate.........: 320 Kbps Channels........: 6 channels screenshot [img]http://foxm.to/images/1482076595image2.jpg[/img] [img]http://foxm.to/images/1482076595image1.jpg[/img] [/center]

Term Life - Tempo Limite (2016).H264.Italian.English.Ac3.5.1.sub.ita.eng.iCV-MIRCrew

Language: | Size: 1.41 GB | Seed: 3 | Leech: 6

Description:

[img]http://i.imgur.com/GDNQx1Z.png[/img] My release is always in double track audio italian and Original audio for select it use VLC or dvd player home not use wmp Tempo Limite - Term Life (2016) [img]http://extraimage.net/images/2016/12/18/5f489f1c75a379923562e4b2dcfeb9a8.png[/img] [URL=http://www.imdb.com/title/tt2978102/][IMG]http://www.userlogos.org/files/logos/Sucka/imdb_new.png[/IMG][/URL] [img]http://i.imgur.com/fGu1rKv.png[/img] Regia: Peter Billingsley Musica: Dave Porter Scritto da: Nick Thornborrow Sceneggiatura: A.J. Lieberman Durata: 93 min. Genere: Thriller Paese: USA Anno: 2016 [img]http://i.imgur.com/W7kBqiE.png[/img] Vince Vaughn, Hailee Steinfeld, Jonathan Banks, Shea Whigham, Jon Favreau, Taraji P. Henson, Bill Paxton, William Levy, Daniel Bernhardt, Cécile De France, Terrence Howard, Annabeth Gish, Mike Epps, Jordi Mollà, Anna Colwell [img]http://i.imgur.com/bFK3ggF.png[/img] Protagonista della storia è Nick Barrow, specializzato nella progettazione rapine e trucchi, che vende al miglior offerente. Quando una delle sue rapine va male, le persone coinvolte lo vogliono morto, dal boss della mafia ai killer a pagamento ai poliziotti corrotti. [img]http://i.imgur.com/48xHWWH.png[/img] A guy wanted around town by various hit men hopes to stay alive long enough for his life insurance policy to kick in and pay out for his estranged daughter. ............. [img]http://i.imgur.com/K8bfNTy.png[/img] [url=https://extraimage.net/image/2j9z][img]http://extraimage.net/images/2016/12/18/fca94431c3e7d2075f38d65a3f8f410e.th.png[/img][/url] [url=https://extraimage.net/image/2j9U][img]http://extraimage.net/images/2016/12/18/7248682b830a3f4c59327cde9d8aafab.th.png[/img][/url] [url=https://extraimage.net/image/2j90][img]http://extraimage.net/images/2016/12/18/2675b60a268fe0f363ed79fe3eee4c3c.th.png[/img][/url] [img]http://i.imgur.com/aVrMohH.png[/img] [spoiler] General Unique ID : 79756306397548228885738493465006230973 (0x3C008180FD5AE7696FD6E3C9A9D8CDBD) Complete name : Tempo Limite - Term Life (2016).H264.ita.eng.sub.ita.eng.iCV-MIRCrew.mkv Format : Matroska Format version : Version 2 File size : 1.41 GiB Duration : 1h 32mn Overall bit rate : 2 171 Kbps Movie name : VISIT www.icv-crew.org Encoded date : UTC 2016-12-05 18:37:53 Writing application : Lavf54.63.100 Writing library : Lavf54.63.100 COPYRIGHT : robbyrs Video ID : 1 Format : AVC Format/Info : Advanced Video Codec Format profile : Main@L4.1 Format settings, CABAC : Yes Format settings, ReFrames : 2 frames Codec ID : V_MPEG4/ISO/AVC Duration : 1h 32mn Bit rate : 1 270 Kbps Width : 720 pixels Height : 300 pixels Display aspect ratio : 2.40:1 Frame rate mode : Variable Frame rate : 23.976 fps Color space : YUV Chroma subsampling : 4:2:0 Bit depth : 8 bits Scan type : Progressive Bits/(Pixel*Frame) : 0.245 Stream size : 817 MiB (57%) Writing library : x264 core 130 r2273 Encoding settings : cabac=1 / ref=2 / deblock=1:0:0 / analyse=0x1:0x131 / me=hex / subme=7 / psy=1 / psy_rd=1.00:0.00 / mixed_ref=0 / me_range=16 / chroma_me=1 / trellis=1 / 8x8dct=0 / cqm=0 / deadzone=21,11 / fast_pskip=1 / chroma_qp_offset=-2 / threads=12 / lookahead_threads=2 / sliced_threads=0 / nr=0 / decimate=1 / interlaced=0 / bluray_compat=0 / constrained_intra=0 / bframes=3 / b_pyramid=0 / b_adapt=1 / b_bias=0 / direct=3 / weightb=1 / open_gop=0 / weightp=2 / keyint=230 / keyint_min=23 / scenecut=40 / intra_refresh=0 / rc_lookahead=40 / rc=2pass / mbtree=1 / bitrate=1270 / ratetol=1.0 / qcomp=0.60 / qpmin=10 / qpmax=69 / qpstep=4 / cplxblur=20.0 / qblur=0.5 / vbv_maxrate=24000 / vbv_bufsize=24000 / nal_hrd=none / ip_ratio=1.40 / aq=1:1.00 Language : Italian Default : Yes Forced : No DURATION : 01:32:44.559000000 NUMBER_OF_FRAMES : 133416 NUMBER_OF_BYTES : 7192798428 _STATISTICS_WRITING_APP : mkvmerge v8.7.0 ('All of the above') 64bit _STATISTICS_WRITING_DATE_UTC : 2016-12-02 16:41:36 _STATISTICS_TAGS : BPS DURATION NUMBER_OF_FRAMES NUMBER_OF_BYTES Audio #1 ID : 2 Format : AC-3 Format/Info : Audio Coding 3 Mode extension : CM (complete main) Codec ID : A_AC3 Duration : 1h 32mn Bit rate mode : Constant Bit rate : 448 Kbps Channel(s) : 6 channels Channel positions : Front: L C R, Side: L R, LFE Sampling rate : 48.0 KHz Bit depth : 16 bits Compression mode : Lossy Delay relative to video : 1mn 5s Stream size : 297 MiB (21%) Language : Italian Default : Yes Forced : No DURATION : 01:32:44.608000000 NUMBER_OF_FRAMES : 173894 NUMBER_OF_BYTES : 311618048 _STATISTICS_WRITING_APP : mkvmerge v8.7.0 ('All of the above') 64bit _STATISTICS_WRITING_DATE_UTC : 2016-12-02 16:41:36 _STATISTICS_TAGS : BPS DURATION NUMBER_OF_FRAMES NUMBER_OF_BYTES Audio #2 ID : 3 Format : AC-3 Format/Info : Audio Coding 3 Mode extension : CM (complete main) Codec ID : A_AC3 Duration : 1h 32mn Bit rate mode : Constant Bit rate : 448 Kbps Channel(s) : 6 channels Channel positions : Front: L C R, Side: L R, LFE Sampling rate : 48.0 KHz Bit depth : 16 bits Compression mode : Lossy Delay relative to video : 1mn 5s Stream size : 297 MiB (21%) Language : English Default : No Forced : No DURATION : 01:32:44.640000000 NUMBER_OF_FRAMES : 173895 NUMBER_OF_BYTES : 445171200 _STATISTICS_WRITING_APP : mkvmerge v8.7.0 ('All of the above') 64bit _STATISTICS_WRITING_DATE_UTC : 2016-12-02 16:41:36 _STATISTICS_TAGS : BPS DURATION NUMBER_OF_FRAMES NUMBER_OF_BYTES Text #1 ID : 4 Format : UTF-8 Codec ID : S_TEXT/UTF8 Codec ID/Info : UTF-8 Plain Text Title : REGULAR iTA Language : Italian Default : No Forced : No DURATION : 01:27:28.623000000 NUMBER_OF_FRAMES : 1220 NUMBER_OF_BYTES : 32571 _STATISTICS_WRITING_APP : mkvmerge v8.7.0 ('All of the above') 64bit _STATISTICS_WRITING_DATE_UTC : 2016-12-02 16:41:36 _STATISTICS_TAGS : BPS DURATION NUMBER_OF_FRAMES NUMBER_OF_BYTES Text #2 ID : 5 Format : UTF-8 Codec ID : S_TEXT/UTF8 Codec ID/Info : UTF-8 Plain Text Title : NON UDENTI ENG Language : English Default : No Forced : No DURATION : 01:29:20.939000000 NUMBER_OF_FRAMES : 1488 NUMBER_OF_BYTES : 44410 _STATISTICS_WRITING_APP : mkvmerge v8.7.0 ('All of the above') 64bit _STATISTICS_WRITING_DATE_UTC : 2016-12-02 16:41:36 _STATISTICS_TAGS : BPS DURATION NUMBER_OF_FRAMES NUMBER_OF_BYTES Menu 00:00:00.000 : :Chapter 1 00:07:30.241 : :Chapter 2 00:13:04.951 : :Chapter 3 00:19:25.623 : :Chapter 4 00:24:38.811 : :Chapter 5 00:28:01.680 : :Chapter 6 00:32:49.467 : :Chapter 7 00:37:35.044 : :Chapter 8 00:42:13.197 : :Chapter 9 00:46:56.981 : :Chapter 10 00:50:42.456 : :Chapter 11 00:55:20.067 : :Chapter 12 00:58:37.305 : :Chapter 13 01:03:44.112 : :Chapter 14 01:07:57.949 : :Chapter 15 01:14:37.848 : :Chapter 16 01:19:45.781 : :Chapter 17 01:21:29.635 : :Chapter 18 01:25:30.083 : :Chapter 19 01:27:32.205 : :Chapter 20 [/spoiler] [/color][/b][/center]

Sneekweek.2016.720p.BluRay.x264-FOXM

Language: | Size: 935.65 MB | Seed: 216 | Leech: 65

Description:

Storyline Six friends go to party for a week during the "Sneekweek". But they are haunted by a secret from their past. General Size :   935 MB Running Time: 1h 48min Genre: Comedy | Mystery | Thriller Director: Martijn Heijne Language: Dutch Release Date: 21 January 2016 (Netherlands) http://www.imdb.com/title/tt4849176/ Video======= Video Format......: AAC Video Codec.......: x264 Frame Rate........: 23.000 fps Width.............: 1 280 pixels Height............:  536 Audio======= Format..........: AAC Bitrate.........: 192 Kbps Channels........: 6 channels screenshot [img]http://foxm.to/images/1482076595image2.jpg[/img] [img]http://foxm.to/images/1482076595image1.jpg[/img] [/center]

Zone of the Dead - Apocalypse Of The Dead (2009).H264.Italian.English.Ac3.5.1.iCV-MIRCrew

Language: | Size: 1.2 GB | Seed: 1 | Leech: 0

Description:

[img]http://i.imgur.com/GDNQx1Z.png[/img] My release is always in double track audio italian and Original audio for select it use VLC or dvd player home not use wmp Apocalypse Of The Dead - Zone of the Dead (2009) [img]http://extraimage.net/images/2016/12/18/2e0e649e40f43c8e9f2f36e05936c7c4.png[/img] [URL=http://www.imdb.com/title/tt1191971/][IMG]http://www.userlogos.org/files/logos/Sucka/imdb_new.png[/IMG][/URL] [img]http://s19.postimage.org/bgh0za7kj/banner_scheda.gif[/img] Titolo originale: Zone of the Dead Paese: Serbia, Italia, Spagna Anno: 2009 Genere: Horror Durata: 96 Min Regia: Milan Konjevic, Milan Todorovic Musica composta da: Stefano Caprioli Sceneggiatura: Milan Konjevic Scritto da: Milan Todorovic, Vukota Brajovic [img]http://s19.postimage.org/i9hdvjydv/banner_trama.gif[/img] Ken Foree, Kristina Klebe, Emilio Roso, Miodrag Krstovic, Vukota Brajovic, Steve Agnew, Nenad Ciric, Marko Janjic, Ariadna Cabrol [img]http://s19.postimage.org/i9hdvjydv/banner_trama.gif[/img] Due agenti dell'Interpol, Mortimer Reyes e Mina Milius, hanno ricevuto l'incarico di scortare un pericoloso criminale (Emilio Roso) fuori dalle prigioni di Belgrado. Durante il tragitto giungono a Pancevo, città in cui un virus batteriologico ha trasformato gli abitanti in famelici zombie, alla disperata ricerca di carne umana [img]http://s19.postimage.org/nwdqt10wj/banner_storyline.gif[/img] A police-escorted prisoner transport supervised by Interpol sets off to Belgrade. The route leads the transport through Pancevo, where they encounter an ecological disaster and infected people who are trying to kill them. Interpol agents Mortimer Reyes and Mina Milius soon realize that their only chance for escape from the zombie hordes lies. [img]http://i.imgur.com/GgEl7ea.png[/img] [url=https://extraimage.net/image/2jbE][img]http://extraimage.net/images/2016/12/18/ae1ebef7ff57c722aad6afff7de646bb.th.png[/img][/url] [url=https://extraimage.net/image/2jb1][img]http://extraimage.net/images/2016/12/18/032b0e01c9210380fc5d5f1c0b4f894d.th.png[/img][/url] [url=http://extraimage.net/image/2jbO][img]https://extraimage.net/images/2016/12/18/4151acfec9ae37ffb9db69639b1663e1.th.png[/img][/url] [img]http://i.imgur.com/cWb6Z.gif[/img] [img]http://s19.postimage.org/f07k2tzo3/banner_dati_file.gif[/img] [spoiler] General Unique ID : 181129217877321483700717693905930753657 (0x884437EC6D459894EA867AE6B6C71679) Complete name : Apocalypse Of The Dead (2009).ita.eng.sub.ita.iCV-MIRCrew.mkv Format : Matroska Format version : Version 2 File size : 1.20 GiB Duration : 1h 36mn Overall bit rate : 1 783 Kbps Movie name : Visit www.icv-crew.org Encoded date : UTC 2016-08-21 09:49:25 Writing application : Lavf54.63.100 Writing library : Lavf54.63.100 Video ID : 1 Format : AVC Format/Info : Advanced Video Codec Format profile : Main@L4.1 Format settings, CABAC : Yes Format settings, ReFrames : 2 frames Codec ID : V_MPEG4/ISO/AVC Duration : 1h 36mn Nominal bit rate : 1 250 Kbps Width : 688 pixels Height : 370 pixels Display aspect ratio : 1.851 Original display aspect ratio : 1.852 Frame rate mode : Variable Frame rate : 25.000 fps Color space : YUV Chroma subsampling : 4:2:0 Bit depth : 8 bits Scan type : Progressive Bits/(Pixel*Frame) : 0.196 Writing library : x264 core 130 r2273 Encoding settings : cabac=1 / ref=2 / deblock=1:0:0 / analyse=0x1:0x131 / me=hex / subme=7 / psy=1 / psy_rd=1.00:0.00 / mixed_ref=0 / me_range=16 / chroma_me=1 / trellis=1 / 8x8dct=0 / cqm=0 / deadzone=21,11 / fast_pskip=1 / chroma_qp_offset=-2 / threads=12 / lookahead_threads=2 / sliced_threads=0 / nr=0 / decimate=1 / interlaced=0 / bluray_compat=0 / constrained_intra=0 / bframes=3 / b_pyramid=0 / b_adapt=1 / b_bias=0 / direct=3 / weightb=1 / open_gop=0 / weightp=2 / keyint=250 / keyint_min=25 / scenecut=40 / intra_refresh=0 / rc_lookahead=40 / rc=abr / mbtree=1 / bitrate=1250 / ratetol=1.0 / qcomp=0.60 / qpmin=10 / qpmax=69 / qpstep=4 / vbv_maxrate=24000 / vbv_bufsize=24000 / nal_hrd=none / ip_ratio=1.40 / aq=1:1.00 Language : Italian Default : Yes Forced : Yes DURATION : 01:36:34.040000000 NUMBER_OF_FRAMES : 144851 NUMBER_OF_BYTES : 550478498 _STATISTICS_WRITING_APP : mkvmerge v9.1.0 ('Little Earthquakes') 64bit _STATISTICS_WRITING_DATE_UTC : 2016-04-30 18:07:42 _STATISTICS_TAGS : BPS DURATION NUMBER_OF_FRAMES NUMBER_OF_BYTES Audio #1 ID : 2 Format : AC-3 Format/Info : Audio Coding 3 Mode extension : CM (complete main) Codec ID : A_AC3 Duration : 1h 36mn Bit rate mode : Constant Bit rate : 448 Kbps Channel(s) : 6 channels Channel positions : Front: L C R, Side: L R, LFE Sampling rate : 48.0 KHz Bit depth : 16 bits Compression mode : Lossy Delay relative to video : 1mn 5s Stream size : 309 MiB (25%) Language : Italian Default : Yes Forced : Yes DURATION : 01:36:34.048000000 NUMBER_OF_FRAMES : 181064 NUMBER_OF_BYTES : 324466688 _STATISTICS_WRITING_APP : mkvmerge v9.1.0 ('Little Earthquakes') 64bit _STATISTICS_WRITING_DATE_UTC : 2016-04-30 18:07:42 _STATISTICS_TAGS : BPS DURATION NUMBER_OF_FRAMES NUMBER_OF_BYTES Audio #2 ID : 3 Format : AAC Format/Info : Advanced Audio Codec Format profile : LC Codec ID : A_AAC Duration : 1h 36mn Channel(s) : 2 channels Channel positions : Front: L R Sampling rate : 48.0 KHz Compression mode : Lossy Language : English Default : No Forced : No DURATION : 01:36:34.027000000 NUMBER_OF_FRAMES : 271595 NUMBER_OF_BYTES : 60514821 _STATISTICS_WRITING_APP : mkvmerge v9.1.0 ('Little Earthquakes') 64bit _STATISTICS_WRITING_DATE_UTC : 2016-04-30 18:07:42 _STATISTICS_TAGS : BPS DURATION NUMBER_OF_FRAMES NUMBER_OF_BYTES Text ID : 4 Format : UTF-8 Codec ID : S_TEXT/UTF8 Codec ID/Info : UTF-8 Plain Text Title : Italiano forced (VUOTO) Language : Italian Default : Yes Forced : No DURATION : 00:00:01.292000000 NUMBER_OF_FRAMES : 1 NUMBER_OF_BYTES : 0 _STATISTICS_WRITING_APP : mkvmerge v9.1.0 ('Little Earthquakes') 64bit _STATISTICS_WRITING_DATE_UTC : 2016-04-30 18:07:42 _STATISTICS_TAGS : BPS DURATION NUMBER_OF_FRAMES NUMBER_OF_BYTES Menu 00:00:00.000 : :VIVERE 00:16:30.240 : :GAS 00:29:52.320 : :OSTAGGIO 00:45:36.480 : :FUORI USO 00:58:06.240 : :INFETTO 01:12:14.880 : :SOPRAVVIVERE [/spoiler] [/color][/b][/center]

Central Intelligence - Una spia e mezzo (2016).H264.Italian.English.Ac3.5.1.sub.ita.eng.iCV-MIRCrew

Language: | Size: 1.64 GB | Seed: 2 | Leech: 10

Description:

[img]http://i.imgur.com/GDNQx1Z.png[/img] My release is always in double track audio italian and Original audio for select it use VLC or dvd player home not use wmp Una spia e mezzo - Central Intelligence (2016) [img]http://extraimage.net/images/2016/12/18/18da8263c2fc1cef34892259410b54c4.png[/img] [URL=http://www.imdb.com/title/tt1489889/][IMG]http://www.userlogos.org/files/logos/Sucka/imdb_new.png[/IMG][/URL] [img]http://s19.postimage.org/bgh0za7kj/banner_scheda.gif[/img] DATA USCITA: 14 luglio 2016 GENERE: Azione , Commedia ANNO: 2016 REGIA: Rawson Marshall Thurber SCENEGGIATURA: David Stassen, Rawson Marshall Thurber FOTOGRAFIA: Barry Peterson MONTAGGIO: Michael L. Sale MUSICHE: Ludwig Goransson, Theodore Shapiro PRODUZIONE: New Line Cinema, Bluegrass Films, Principato-Young Entertainment DISTRIBUZIONE: Universal Pictures PAESE: USA DURATA: 107 Min [img]http://s19.postimage.org/i9hdvjydv/banner_trama.gif[/img] Dwayne Johnson, Kevin Hart, Ike Barinholtz, Aaron Paul, Amy Ryan, Megan Park, Ryan Hansen, Danielle Nicolet [img]http://s19.postimage.org/i9hdvjydv/banner_trama.gif[/img] Quello che una volta era vittima di bullismo a scuola è diventato poi un letale agente della CIA. Alle prese con un caso top secret, decide di avvalersi dell'aiuto di un suo ex compagno di scuola diventato ormai un semplice impiegato dopo i "gloriosi" tempi del college. [img]http://s19.postimage.org/nwdqt10wj/banner_storyline.gif[/img] After he reconnects with an awkward pal from high school through Facebook, a mild-mannered accountant is lured into the world of international espionage. [img]http://i.imgur.com/GgEl7ea.png[/img] [url=https://extraimage.net/image/2jhk][img]http://extraimage.net/images/2016/12/18/7bd23db9a0e825874581d96d356cf513.th.png[/img][/url] [url=https://extraimage.net/image/2jhH][img]http://extraimage.net/images/2016/12/18/65545e1203e70ca4f7cf24d551d917bc.th.png[/img][/url] [url=https://extraimage.net/image/2jho][img]http://extraimage.net/images/2016/12/18/d4d678133f6578597937e69c60e255de.th.png[/img][/url] [img]http://i.imgur.com/cWb6Z.gif[/img] [img]http://s19.postimage.org/f07k2tzo3/banner_dati_file.gif[/img] [spoiler] General Unique ID : 258691780741237487761274550614689214193 (0xC29E398542A25A4F7CD2EDEE050E6EF1) Complete name : Una Spia e Mezzo - Central Intelligence (2016).H264.ita.eng.sub.ita.eng.iCV-MIRCrew.mkv Format : Matroska Format version : Version 2 File size : 1.64 GiB Duration : 1h 47mn Overall bit rate : 2 181 Kbps Movie name : VISIT www.icv-crew.org Encoded date : UTC 2016-12-01 21:26:46 Writing application : Lavf54.63.100 Writing library : Lavf54.63.100 COPYRIGHT : robbyrs Video ID : 1 Format : AVC Format/Info : Advanced Video Codec Format profile : Main@L4.1 Format settings, CABAC : Yes Format settings, ReFrames : 2 frames Codec ID : V_MPEG4/ISO/AVC Duration : 1h 47mn Bit rate : 1 280 Kbps Width : 720 pixels Height : 300 pixels Display aspect ratio : 2.40:1 Frame rate mode : Variable Frame rate : 23.976 fps Color space : YUV Chroma subsampling : 4:2:0 Bit depth : 8 bits Scan type : Progressive Bits/(Pixel*Frame) : 0.247 Stream size : 956 MiB (57%) Writing library : x264 core 130 r2273 Encoding settings : cabac=1 / ref=2 / deblock=1:0:0 / analyse=0x1:0x131 / me=hex / subme=7 / psy=1 / psy_rd=1.00:0.00 / mixed_ref=0 / me_range=16 / chroma_me=1 / trellis=1 / 8x8dct=0 / cqm=0 / deadzone=21,11 / fast_pskip=1 / chroma_qp_offset=-2 / threads=12 / lookahead_threads=2 / sliced_threads=0 / nr=0 / decimate=1 / interlaced=0 / bluray_compat=0 / constrained_intra=0 / bframes=3 / b_pyramid=0 / b_adapt=1 / b_bias=0 / direct=3 / weightb=1 / open_gop=0 / weightp=2 / keyint=230 / keyint_min=23 / scenecut=40 / intra_refresh=0 / rc_lookahead=40 / rc=2pass / mbtree=1 / bitrate=1280 / ratetol=1.0 / qcomp=0.60 / qpmin=10 / qpmax=69 / qpstep=4 / cplxblur=20.0 / qblur=0.5 / vbv_maxrate=24000 / vbv_bufsize=24000 / nal_hrd=none / ip_ratio=1.40 / aq=1:1.00 Language : Italian Default : Yes Forced : No DURATION : 01:47:37.660000000 NUMBER_OF_FRAMES : 154829 NUMBER_OF_BYTES : 8047966774 _STATISTICS_WRITING_APP : mkvmerge v8.3.0 ('Over the Horizon') 64bit _STATISTICS_WRITING_DATE_UTC : 2016-10-28 23:44:40 _STATISTICS_TAGS : BPS DURATION NUMBER_OF_FRAMES NUMBER_OF_BYTES Audio #1 ID : 2 Format : AC-3 Format/Info : Audio Coding 3 Mode extension : CM (complete main) Codec ID : A_AC3 Duration : 1h 47mn Bit rate mode : Constant Bit rate : 448 Kbps Channel(s) : 6 channels Channel positions : Front: L C R, Side: L R, LFE Sampling rate : 48.0 KHz Bit depth : 16 bits Compression mode : Lossy Delay relative to video : 1mn 5s Stream size : 345 MiB (21%) Title : AC3 iTA Language : Italian Default : No Forced : No DURATION : 01:47:37.728000000 NUMBER_OF_FRAMES : 201804 NUMBER_OF_BYTES : 516618240 _STATISTICS_WRITING_APP : mkvmerge v8.3.0 ('Over the Horizon') 64bit _STATISTICS_WRITING_DATE_UTC : 2016-10-28 23:44:40 _STATISTICS_TAGS : BPS DURATION NUMBER_OF_FRAMES NUMBER_OF_BYTES Audio #2 ID : 3 Format : AC-3 Format/Info : Audio Coding 3 Mode extension : CM (complete main) Codec ID : A_AC3 Duration : 1h 47mn Bit rate mode : Constant Bit rate : 448 Kbps Channel(s) : 6 channels Channel positions : Front: L C R, Side: L R, LFE Sampling rate : 48.0 KHz Bit depth : 16 bits Compression mode : Lossy Delay relative to video : 1mn 5s Stream size : 345 MiB (21%) Title : AC3 ENG Language : English Default : No Forced : No DURATION : 01:47:37.728000000 NUMBER_OF_FRAMES : 201804 NUMBER_OF_BYTES : 516618240 _STATISTICS_WRITING_APP : mkvmerge v8.3.0 ('Over the Horizon') 64bit _STATISTICS_WRITING_DATE_UTC : 2016-10-28 23:44:40 _STATISTICS_TAGS : BPS DURATION NUMBER_OF_FRAMES NUMBER_OF_BYTES Text #1 ID : 4 Format : UTF-8 Codec ID : S_TEXT/UTF8 Codec ID/Info : UTF-8 Plain Text Title : FORCED iTA Language : Italian Default : Yes Forced : No DURATION : 01:46:21.876000000 NUMBER_OF_FRAMES : 48 NUMBER_OF_BYTES : 1375 _STATISTICS_WRITING_APP : mkvmerge v8.3.0 ('Over the Horizon') 64bit _STATISTICS_WRITING_DATE_UTC : 2016-10-28 23:44:40 _STATISTICS_TAGS : BPS DURATION NUMBER_OF_FRAMES NUMBER_OF_BYTES Text #2 ID : 5 Format : UTF-8 Codec ID : S_TEXT/UTF8 Codec ID/Info : UTF-8 Plain Text Title : REGULAR iTA Language : Italian Default : No Forced : No DURATION : 01:46:21.876000000 NUMBER_OF_FRAMES : 2038 NUMBER_OF_BYTES : 60341 _STATISTICS_WRITING_APP : mkvmerge v8.3.0 ('Over the Horizon') 64bit _STATISTICS_WRITING_DATE_UTC : 2016-10-28 23:44:40 _STATISTICS_TAGS : BPS DURATION NUMBER_OF_FRAMES NUMBER_OF_BYTES Text #3 ID : 6 Format : UTF-8 Codec ID : S_TEXT/UTF8 Codec ID/Info : UTF-8 Plain Text Title : REGULAR ENG Language : English Default : No Forced : No DURATION : 01:45:58.227000000 NUMBER_OF_FRAMES : 2382 NUMBER_OF_BYTES : 72984 _STATISTICS_WRITING_APP : mkvmerge v8.3.0 ('Over the Horizon') 64bit _STATISTICS_WRITING_DATE_UTC : 2016-10-28 23:44:40 _STATISTICS_TAGS : BPS DURATION NUMBER_OF_FRAMES NUMBER_OF_BYTES Menu 00:00:00.000 : :00:00:00.000 00:09:12.051 : :00:09:12.051 00:20:11.752 : :00:20:11.752 00:30:31.079 : :00:30:31.079 00:43:21.766 : :00:43:21.766 00:52:42.493 : :00:52:42.493 00:58:09.861 : :00:58:09.861 01:10:12.458 : :01:10:12.458 01:18:36.754 : :01:18:36.754 01:28:56.289 : :01:28:56.289 01:39:32.258 : :01:39:32.258 [/spoiler] [/color][/b][/center]

Minority Report (2002).H264.Italian.English.Ac3.5.1.sub.ita.eng.iCV-MIRCrew

Language: | Size: 2.21 GB | Seed: 2 | Leech: 0

Description:

[img]http://i.imgur.com/GDNQx1Z.png[/img] My release is always in double track audio italian and Original audio for select it use VLC or dvd player home not use wmp Minority Report (2002) [img]https://extraimage.net/images/2016/12/18/551eb5b70362c70019974cf0a31e0ea4.png[/img] [URL=http://www.imdb.com/title/tt0181689/][IMG]http://www.userlogos.org/files/logos/Sucka/imdb_new.png[/IMG][/URL] [img]http://s19.postimage.org/bgh0za7kj/banner_scheda.gif[/img] Titolo originale Minority Report Paese di produzione Stati Uniti d'America Anno 2002 Durata 146 min Rapporto 2,40:1 Genere fantascienza Regia Steven Spielberg Soggetto dall'omonimo racconto di Philip K. Dick Sceneggiatura Scott Frank, Jon Cohen Produttore Jan de Bont, Gerald R. Molen, Walter F. Parkes, Bonnie Curtis Produttore esecutivo Michael Doven, Gary Goldman, Ronald Shusett, Sergio Mimica-Gezzan Casa di produzione Twentieth Century Fox, DreamWorks SKG, Cruise/Wagner Productions, Blue Tulip Productions, Blue Tulip Productions, Amblin Entertainment Distribuzione (Italia) Twentieth Century Fox Fotografia Janusz Kaminski Montaggio Michael Kahn Effetti speciali Industrial Light & Magic Musiche John Williams Scenografia Anne Kuljian [img]http://s19.postimage.org/i9hdvjydv/banner_trama.gif[/img] Tom Cruise: Detective John Anderton Colin Farrell: Detective Danny Witwer Samantha Morton: Agatha Max von Sydow: Direttore Lamar Burgess Patrick Kilpatrick: Ufficiale Knott Lois Smith: Iris Hineman Peter Stormare: Dr. Solomon Eddie Tim Blake Nelson: Gideon Steve J. Harris: Jad Kathryn Morris: Lara Anderton Mike Binder: Leo F. Crow Neal McDonough: Fletcher Daniel London: Wally [img]http://s19.postimage.org/i9hdvjydv/banner_trama.gif[/img] Nel 2054 la città di Washington ha cancellato gli omicidi da ormai 6 anni grazie a un sistema chiamato Precrimine. Basandosi sulle premonizioni di tre individui dotati di poteri extrasensoriali di precognizione amplificati, detti Precog, la polizia riesce a impedire gli omicidi prima che essi avvengano e ad arrestare i potenziali "colpevoli". In questo modo non viene punito il fatto (che non avviene), bensì l'intenzione di compierlo e che porterebbe a concretizzarlo: è un sistema delicato, osteggiato da molti, che però sembra funzionare senza intoppi. [img]http://s19.postimage.org/nwdqt10wj/banner_storyline.gif[/img] In a future where a special police unit is able to arrest murderers before they commit their crimes, an officer from that unit is himself accused of a future murder. [img]http://i.imgur.com/GgEl7ea.png[/img] [url=https://extraimage.net/image/2jhN][img]https://extraimage.net/images/2016/12/18/0f70f627cd94a0b9c2617a9e0597da41.th.png[/img][/url] [url=https://extraimage.net/image/2jhT][img]https://extraimage.net/images/2016/12/18/6f654e93c4b75557e8a01a6339972f6c.th.png[/img][/url] [url=https://extraimage.net/image/2jhj][img]https://extraimage.net/images/2016/12/18/c7c823be8138f57e4947af8d61b05d80.th.png[/img][/url] [img]http://i.imgur.com/cWb6Z.gif[/img] [img]http://s19.postimage.org/f07k2tzo3/banner_dati_file.gif[/img] [spoiler] General Unique ID : 261192316747753230957747462400523622603 (0xC47FCF76D28EF263B4BEBB1D1FBFD8CB) Complete name : Minority Report (2002).H264.ita.eng.sub.ita.eng.iCV-MIRCrew.mkv Format : Matroska Format version : Version 2 File size : 2.21 GiB Duration : 2h 25mn Overall bit rate : 2 181 Kbps Movie name : Minority Report (2002) Encoded date : UTC 2016-12-12T21:32:27Z Writing application : HandBrake 0.10.5 2016021100 Writing library : Lavf55.12.0 Video ID : 1 Format : AVC Format/Info : Advanced Video Codec Format profile : Main@L4.0 Format settings, CABAC : Yes Format settings, ReFrames : 4 frames Codec ID : V_MPEG4/ISO/AVC Duration : 2h 25mn Bit rate : 1 280 Kbps Width : 688 pixels Height : 288 pixels Display aspect ratio : 2.40:1 Original display aspect ratio : 2.40:1 Frame rate mode : Variable Frame rate : 23.976 fps Color space : YUV Chroma subsampling : 4:2:0 Bit depth : 8 bits Scan type : Progressive Bits/(Pixel*Frame) : 0.269 Stream size : 1.26 GiB (57%) Writing library : x264 core 142 r2479 dd79a61 Encoding settings : cabac=1 / ref=1 / deblock=1:0:0 / analyse=0x1:0x111 / me=hex / subme=2 / psy=1 / psy_rd=1.00:0.00 / mixed_ref=0 / me_range=16 / chroma_me=1 / trellis=0 / 8x8dct=0 / cqm=0 / deadzone=21,11 / fast_pskip=1 / chroma_qp_offset=0 / threads=3 / lookahead_threads=1 / sliced_threads=0 / nr=0 / decimate=1 / interlaced=0 / bluray_compat=0 / constrained_intra=0 / bframes=3 / b_pyramid=2 / b_adapt=1 / b_bias=0 / direct=1 / weightb=1 / open_gop=0 / weightp=1 / keyint=240 / keyint_min=24 / scenecut=40 / intra_refresh=0 / rc_lookahead=10 / rc=2pass / mbtree=1 / bitrate=1280 / ratetol=1.0 / qcomp=0.60 / qpmin=0 / qpmax=69 / qpstep=4 / cplxblur=20.0 / qblur=0.5 / vbv_maxrate=20000 / vbv_bufsize=25000 / nal_hrd=none / filler=0 / ip_ratio=1.40 / aq=1:1.00 Default : Yes Forced : No Color primaries : BT.709-5, BT.1361, IEC 61966-2-4, SMPTE RP177 Transfer characteristics : BT.709-5, BT.1361 Matrix coefficients : BT.709-5, BT.1361, IEC 61966-2-4 709, SMPTE RP177 Audio #1 ID : 2 Format : AC-3 Format/Info : Audio Coding 3 Mode extension : CM (complete main) Codec ID : A_AC3 Duration : 2h 25mn Bit rate mode : Constant Bit rate : 448 Kbps Channel(s) : 6 channels Channel positions : Front: L C R, Side: L R, LFE Sampling rate : 48.0 KHz Bit depth : 16 bits Compression mode : Lossy Delay relative to video : 1mn 5s Stream size : 465 MiB (21%) Language : Italian Default : Yes Audio #2 ID : 3 Format : AC-3 Format/Info : Audio Coding 3 Mode extension : CM (complete main) Codec ID : A_AC3 Duration : 2h 25mn Bit rate mode : Constant Bit rate : 448 Kbps Channel(s) : 6 channels Channel positions : Front: L C R, Side: L R, LFE Sampling rate : 48.0 KHz Bit depth : 16 bits Compression mode : Lossy Delay relative to video : 1mn 5s Stream size : 465 MiB (21%) Title : Surround Language : English Default : No Text #1 ID : 4 Format : ASS Codec ID : S_TEXT/ASS Codec ID/Info : Advanced Sub Station Alpha Compression mode : Lossless Language : Italian Default : No Forced : No Text #2 ID : 5 Format : ASS Codec ID : S_TEXT/ASS Codec ID/Info : Advanced Sub Station Alpha Compression mode : Lossless Language : Italian Default : No Forced : No Text #3 ID : 6 Format : ASS Codec ID : S_TEXT/ASS Codec ID/Info : Advanced Sub Station Alpha Compression mode : Lossless Language : English Default : No Forced : No Menu 00:00:00.000 : :00:00:00.000 00:06:47.156 : :00:06:47.073 00:14:50.264 : :00:14:49.889 00:21:13.146 : :00:21:13.022 00:24:43.774 : :00:24:43.691 00:29:46.117 : :00:29:46.034 00:37:09.602 : :00:37:09.519 00:42:42.560 : :00:42:42.477 00:51:42.057 : :00:51:41.974 00:55:18.690 : :00:55:18.607 00:59:57.468 : :00:59:57.385 01:04:04.674 : :01:04:04.591 01:09:42.011 : :01:09:41.928 01:17:00.824 : :01:17:00.658 01:22:21.645 : :01:22:21.562 01:27:57.981 : :01:27:57.898 01:35:42.528 : :01:35:42.445 01:39:08.859 : :01:39:08.776 01:49:06.289 : :01:49:06.206 01:54:02.085 : :01:54:02.002 02:01:28.781 : :02:01:28.531 02:06:43.179 : :02:06:43.095 02:13:11.900 : :02:13:11.817 02:15:40.716 : :02:15:40.632 [/spoiler] [/color][/b][/center]

In.a.Valley.of.Violence.2016.LIMITED.1080p.BluRay.x264-FOXM

Language: | Size: 1.77 GB | Seed: 101 | Leech: 94

Description:

http://FOXM.TO ------------------------------------------------------------------------------------------------------------------------------------------- Get all FOXM newest releases first at  FOXM website http://foxm.to/film?id=243 Also there you will find a list of upcoming uploads, account registration and an effective movie search. ------------------------------------------------------------------------------------------------------------------------------------------- http://www.imdb.com/title/tt3608930/ IMDB RATING: 6.1 #1 Video FORMAT.......................: MP4 CODEC........................: X264 GENRE........................: Western FILE SIZE....................: 1.76 GB RESOLUTION...................: 1920*808 FRAME RATE...................: 23.976 fps LANGUAGE.....................: English SUBTITLES....................: NONE RUNTIME......................: 1h 44min #2 Audio Format :.....................: AAC Mode : ......................: 16 Channel(s)...................: 5.1 channels Bit rate.....................: 320 kbps Audio sample rate............: 48 kHz Summary: A mysterious stranger and a random act of violence drag a town of misfits and nitwits into the bloody crosshairs of revenge. Screenshots [img]http://foxm.to/images/1482033413image1.jpg[/img] [img]http://foxm.to/images/1482033413image2.jpg[/img] [img]http://foxm.to/images/1482033413image3.jpg[/img] ------------------------------------------------------------------------------------------------------------------------------------------- http://FOXM.TO -------------------------------------------------------------------------------------------------------------------------------------------

In.a.Valley.of.Violence.2016.LIMITED.720p.BluRay.x264-FOXM

Language: | Size: 805.71 MB | Seed: 32 | Leech: 68

Description:

http://FOXM.TO ------------------------------------------------------------------------------------------------------------------------------------------- Get all FOXM newest releases first at FOXM website http://foxm.to/film?id=243 Also there you will find a list of upcoming uploads, account registration and an effective movie search. ------------------------------------------------------------------------------------------------------------------------------------------- http://www.imdb.com/title/tt3608930/ IMDB RATING: 6.1 #1 Video FORMAT.......................: MP4 CODEC........................: X264 GENRE........................: Western FILE SIZE....................: 805 MB RESOLUTION...................: 1280*720 FRAME RATE...................: 23.976 fps LANGUAGE.....................: English SUBTITLES....................: NONE RUNTIME......................: 1h 44min #2 Audio Format :.....................: AAC Mode : ......................: 16 Channel(s)...................: 5.1 channels Bit rate.....................: 320 kbps Audio sample rate............: 48 kHz Summary: A mysterious stranger and a random act of violence drag a town of misfits and nitwits into the bloody crosshairs of revenge. Screenshots [img]http://foxm.to/images/1482033413image1.jpg[/img] [img]http://foxm.to/images/1482033413image2.jpg[/img] [img]http://foxm.to/images/1482033413image3.jpg[/img] ------------------------------------------------------------------------------------------------------------------------------------------- http://FOXM.TO -------------------------------------------------------------------------------------------------------------------------------------------

Denial.2016.LIMITED.1080p.BluRay.x264-FOXM

Language: | Size: 1.66 GB | Seed: 61 | Leech: 32

Description:

http://FOXM.TO ------------------------------------------------------------------------------------------------------------------------------------------- Get all FOXM newest releases first at  FOXM website http://foxm.to/film?id=242 Also there you will find a list of upcoming uploads, account registration and an effective movie search. ------------------------------------------------------------------------------------------------------------------------------------------- http://www.imdb.com/title/tt4645330/ IMDB RATING: 6.4 #1 Video FORMAT.......................: MP4 CODEC........................: X264 GENRE........................:   Biography, Drama, History FILE SIZE....................: 1.65 GB RESOLUTION...................: 1920*808 FRAME RATE...................: 23.976 fps LANGUAGE.....................: English SUBTITLES....................: NONE RUNTIME......................: 1h 49min #2 Audio Format :.....................: AAC Mode : ......................: 16 Channel(s)...................: 5.1 channels Bit rate.....................: 320 kbps Audio sample rate............: 48 kHz Summary: Acclaimed writer and historian Deborah E. Lipstadt must battle for historical truth to prove the Holocaust actually occurred when David Irving, a renowned denier, sues her for libel. Screenshots [img]http://foxm.to/images/1481966582image1.jpg[/img] [img]http://foxm.to/images/1481966582image2.jpg[/img] [img]http://foxm.to/images/1481966582image3.jpg[/img] ------------------------------------------------------------------------------------------------------------------------------------------- http://FOXM.TO -------------------------------------------------------------------------------------------------------------------------------------------

Various Artists - Dancer Of The 90's (2015) (by emi)

Language: | Size: 750.02 MB | Seed: 3 | Leech: 128

Description:

mp3 a 192 kbps audio di qualità a 95 db Tracklist CD 1 01 - Masterboy - Is This The Love (Radio Edit).mp3 (5.3 MB) 02 - Real McCoy - Love & Devotion.mp3 (5.6 MB) 03 - Magic Affair - Omen III (Single Edit).mp3 (5.6 MB) 04 - Ace Of Base - Life Is A Flower (Extended Version).mp3 (8.1 MB) 05 - MC Sar & The Real McCoy - It's On You (Extended Mix).mp3 (8.1 MB) 06 - Fun factory - Celebration.mp3 (5.8 MB) 07 - Centory - Take It To The Limit (Radio Version).mp3 (5.8 MB) 08 - Double You - Dancing With An Angel (Radio Mix).mp3 (5.4 MB) 09 - Darkness - In My Dreams (Radio Mix).mp3 (5.4 MB) 10 - Technotronic feat.Ya Kid K - Move To The Rhythm.mp3 (5.0 MB) 11 - Livin´ Joy - Don't Stop Movin'.mp3 (5.1 MB) 12 - Captain Hollywood Project - Flying High (Radio Mix).mp3 (5.4 MB) 13 - K Da Cruz - Take Me To The Stars (Radio Edit).mp3 (5.4 MB) 14 - 2 Unlimited - No Limit.mp3 (5.0 MB) 15 - Cappella - Tell Me The Way (High Fashion Edit).mp3 (4.8 MB) 16 - Corona - Try Me Out.mp3 (4.9 MB) 17 - Yamboo - Fiesta De La Noche (The Sailor Dance) (Radio - Edit).mp3 (5.4 MB) 18 - Snap! - The Power (7'' Version).mp3 (5.4 MB) CD 2 01 - Cool Cut - Please Let Me Know (Radio Version).mp3 (5.1 MB) 02 - Captain Hollywood Project - More And More.mp3 (8.9 MB) 03 - Amber - This Is Your Night (Radio Mix).mp3 (5.3 MB) 04 - Loft - It's Raining Again.mp3 (6.7 MB) 05 - Culture Beat - Inside Out (Dance Mix).mp3 (8.3 MB) 06 - Me & My - Dub-I-Dub.mp3 (4.8 MB) 07 - Masterboy - Land Of Dreaming.mp3 (5.0 MB) 08 - Ace Of Base - The Sign (Long Version).mp3 (6.7 MB) 09 - Dr.Alban - It's My Life (Radio Edit).mp3 (5.7 MB) 10 - Magic Affair - World Of Freedom (Radio Version).mp3 (5.6 MB) 11 - Fun Factory - Close To You.mp3 (6.5 MB) 12 - 2 Brothers On The 4th Floor - Can't Help Myself (Extended Radio Mix).mp3 (7.5 MB) 13 - The KLF - Justified & Ancient (Stand By The Jams).mp3 (5.2 MB) 14 - La Bouche - Be My Lover.mp3 (5.7 MB) 15 - Prince Ital Joe feat. Marky Mark - Babylon (Extended Version).mp3 (7.1 MB) 16 - Decadence - Latin Lover (Extended Version).mp3 (7.9 MB) 17 - Real McCoy - Run Away.mp3 (5.8 MB) CD 3 01 - Modern Talking - You're My Heart, You're My Soul.mp3 (5.4 MB) 02 - Mr.President - Coco Jamboo (Radio Version).mp3 (5.2 MB) 03 - Prince Ital Joe feat. Marky Mark - Happy People (Long Version).mp3 (8.3 MB) 04 - Ace Of Base - Wheel Of Fortune (12'' Mix).mp3 (7.7 MB) 05 - Loft - Love Is Magic.mp3 (7.1 MB) 06 - DJ Bobo - Love Is All Around (Extended Mix I).mp3 (7.8 MB) 07 - Dr.Alban - Let The Beat Go On (Short).mp3 (5.8 MB) 08 - Coolio feat. VL - Gangsta's Paradise.mp3 (5.7 MB) 09 - Tony Di Bart - Turn Your Love Around.mp3 (5.9 MB) 10 - B.G.The Prince Of Rap - The Colour Of My Dreams.mp3 (5.6 MB) 11 - 2 Raff - Don't Stop The Music (Radio Cut).mp3 (4.9 MB) 12 - Fun Factory - Don't Go Away (Extended Walk).mp3 (7.0 MB) 13 - Love Message - Love Message (Radio Edit).mp3 (5.4 MB) 14 - E-Type - Set The World Of Fire.mp3 (5.3 MB) 15 - Snap! - Welcome To Tomorrow (Are You Ready).mp3 (6.1 MB) 16 - Spike - Never Gonna Give You Up (Radio Mix).mp3 (4.9 MB) 17 - Captain Hollywood Project - Only With You (Radio Mix).mp3 (5.5 MB) 18 - Corona - The Rhythm Of The Night.mp3 (6.2 MB) CD 4 01 - Masterboy - Everybody Needs Somebody (Single Edit).mp3 (5.6 MB) 02 - Savage - Don't You Want Me (Radio Version).mp3 (5.5 MB) 03 - 2 Unlimited - Maximum Overdrive (Extendet).mp3 (7.5 MB) 04 - Loft - Mallorca (Extended Beach Mix).mp3 (8.3 MB) 05 - Twenty 4 Seven - Is It Love (Single Mix).mp3 (5.6 MB) 06 - C&C Music Factory - Gonna Make You Sweat (Everybody Dance Now).mp3 (5.8 MB) 07 - Corona - Baby Baby (Lee Marrow Radio Mix).mp3 (5.4 MB) 08 - Masterboy - Show Me The Colours.mp3 (5.1 MB) 09 - Culture Beat - Mr. Vain (Vain Mix).mp3 (9.2 MB) 10 - Captain Jack - Captain Jack (Short Mix).mp3 (5.9 MB) 11 - Technotronic - Get Up - Before The Night Is Over (The Sequel).mp3 (5.2 MB) 12 - Fun Factory - I Wanna B With U (B On The Floor Extended).mp3 (6.6 MB) 13 - Odyssey - Into The Light (Radio Edit).mp3 (5.4 MB) 14 - Ice MC - It's A Rainy Day.mp3 (6.0 MB) 15 - DJ Bobo - Let The Dream Come True (Radio Mix).mp3 (5.7 MB) 16 - Le Click - Tonight Is The Night.mp3 (5.6 MB) 17 - Prince Ital Joe feat. Marky Mark - United.mp3 (8.4 MB) CD 5 01 - Technotronic - Pump Up The Jam (Original Single Mix).mp3 (5.1 MB) 02 - 2 Brothers On The 4th.Floor - Dreams (Will Come Alive).mp3 (6.2 MB) 03 - Real McCoy - Another Night.mp3 (5.6 MB) 04 - Paradiso - Bailando (Radio Version).mp3 (5.4 MB) 05 - Eiffel 65 - Blue (Da Ba Dee).mp3 (6.7 MB) 06 - DJ Company - Hey everybody (Radio Edit).mp3 (6.0 MB) 07 - Max-A-Million - Everybody's Groovin (20 fingers Radio Edit).mp3 (5.1 MB) 08 - Masterboy - Generation Of Love.mp3 (5.2 MB) 09 - Sirius - This Is My Life (Radio Version).mp3 (5.4 MB) 10 - Loft - Summer Summer.mp3 (5.8 MB) 11 - Culture Beat - No Deeper Meaning (Club Mix).mp3 (9.3 MB) 12 - Alexia - Me And You (Extended Euromix).mp3 (9.5 MB) 13 - Corona - I Don't Wanna Be A Star.mp3 (4.6 MB) 14 - U96 - Heaven.mp3 (5.2 MB) 15 - C-Block - Time Is Tickin' Away (Extended Mix).mp3 (7.2 MB) 16 - Cappella - U Got 2 Let The Music.mp3 (5.2 MB) 17 - Ice MC - Think About The Way (Radio Mix).mp3 (6.2 MB) CD 6 01 - Active - Let The Rhythm Take Control (Radio Mix).mp3 (5.1 MB) 02 - Daisy Dee - Just Jump (Single Mix).mp3 (5.4 MB) 03 - Unit - Live It Up (Airplay Mix).mp3 (5.4 MB) 04 - Haddaway - Life (Radio Edit).mp3 (6.1 MB) 05 - Pharao - I Show You Secrets (Radio Version).mp3 (6.0 MB) 06 - Masterboy - I Got To Give It Up.mp3 (5.1 MB) 07 - Haddaway - Rock My Heart (Extended Mix).mp3 (8.4 MB) 08 - DNA & Suzanne Vega - Tom´s Diner (12´ Version).mp3 (7.7 MB) 09 - Real McCoy - Automatic Lover.mp3 (5.4 MB) 10 - Snap! - Rhythm Is A Dancer (7'' Original Version).mp3 (5.3 MB) 11 - B.G.The Prince Of Rap - This Beat Is Hot (Original Edit).mp3 (5.9 MB) 12 - Ice MC - Dark Night Rider.mp3 (6.0 MB) 13 - Cappella - Move It Up.mp3 (5.8 MB) 14 - Technotronic - Rockin' Over The Beat (LP Version).mp3 (8.2 MB) 15 - Centory - Point Of No Return (Radio Version).mp3 (6.3 MB) 16 - 2 Unlimited - No One (Unlimited RMX Extended).mp3 (7.7 MB) 17 - Pharao - There Is A Star (Radiostar Videomix).mp3 (5.6 MB) 18 - Loft - Hold On.mp3 (5.2 MB) CD 7 01 - Haddaway - What Is Love (Original 7'' Mix).mp3 (6.4 MB) 02 - Bellini - Samba De Janeiro (Radio Edit).mp3 (4.1 MB) 03 - Cappella - U Got 2 Know (Extended Club Mix).mp3 (7.5 MB) 04 - Masterboy - Mister Feeling.mp3 (5.5 MB) 05 - Maxx - Get-A-Way.mp3 (5.4 MB) 06 - B.G.The Prince Of Rap - The Power Of Rhythm (Reworked Original Clubmix).mp3 (8.8 MB) 07 - La Bouche - Sweet Dreams.mp3 (4.9 MB) 08 - Cappella - U & Me.mp3 (4.7 MB) 09 - DJ Bobo - Somebody Dance With Me.mp3 (7.4 MB) 10 - Fun Factory - Take Your Chance.mp3 (5.6 MB) 11 - Basic Element - The Promice Man (Extended Club Mix).mp3 (10.1 MB) 12 - C B Milton - Hold On (Euro Edit).mp3 (5.7 MB) 13 - Dr.Alban - Look Who's Talking (long 12'' mix).mp3 (7.6 MB) 14 - Intermission feat. Lori G. - Six Days (Extended Version).mp3 (7.6 MB) 15 - Basic Element - Leave It Behind (Extended Version).mp3 (8.0 MB) 16 - Alexia - Number One.mp3 (5.4 MB) 17 - Samira - The Rain (Radio Swing Mix).mp3 (5.2 MB)

Azymuth - Águia nao Come mosca [Flac][TntVillage]

Language: | Size: 213.02 MB | Seed: 27 | Leech: 16

Description:

[img]http://i1083.photobucket.com/albums/j389/leomarco1/Azymuth%20Agui%20nao%20come%20mosca%20Front.jpg[/img] Artist...............: Azymuth Album................: Aguia Nao Come Mosca Genre................: Jazz Source...............: CD Year.................: 1977 Ripper...............: EAC (Secure mode) / LAME 3.92 & Asus CD-S520 Codec................: Free Lossless Audio Codec (FLAC) Version..............: reference libFLAC 1.2.1 20070917 Quality..............: Lossless, (avg. compression: 56 %) Channels.............: Stereo / 44100 HZ / 16 Bit Tags.................: VorbisComment Information..........: TntVillage Ripped by............: Leonenero on 13/12/2016 Posted by............: Leonenero on 14/12/2016 News Server..........: news.astraweb.com News Group(s)........: TntVillage Included.............: NFO, MD5, PLS, M3U, LOG, CUE Covers...............: Front Back CD --------------------------------------------------------------------- Tracklisting --------------------------------------------------------------------- 1. Azymuth - Águia Negra X Dragão Negro [02:27] 2. Azymuth - Vôo Sobre O Horizonte [03:38] 3. Azymuth - Águia Não Come Mosca [03:27] 4. Azymuth - Despertar [04:54] 5. Azymuth - Tarde [05:24] 6. Azymuth - Circo Marimbondo [02:25] 7. Azymuth - Tamborim, Cuica, Ganzá, Berimbau [05:01] 8. Azymuth - A Presa [03:41] 9. Azymuth - A Caça [03:02] 10. Azymuth - Falcon Love Call (Armazén Nº2) [03:52] Playing Time.........: 37:55 Total Size...........: 212,83 MB Their second album Aguia Nao Come Mosca was an even bigger success.It was also released within the USA and Japan on Atlantic Records, bringing Azymuth much welcomed international attention. This CD led to a world signing with the North American jazz label Milestone Records. To the band this was something of a total surprise as they were just playing their own music, which they saw as MPB(Musica Popular Brasileira) with a touch of jazz .

Zagor Speciale Collezione Storica a Colori 13 La Luna degli Scheletri [Cbr - ITA]

Language: | Size: 167.95 MB | Seed: 55 | Leech: 0

Description:

[b]LA LUNA DEGLI SCHELETRI [/b]Zagor Speciale Collezione Storica a Colori Volume 13 [b]ITA | 276 pagg | PDF | 172 Mb [/b]

Denial.2016.LIMITED.720p.BluRay.x264-FOXM

Language: | Size: 730.57 MB | Seed: 218 | Leech: 45

Description:

http://FOXM.TO ------------------------------------------------------------------------------------------------------------------------------------------- Get all FOXM newest releases first at FOXM website http://foxm.to/film?id=242 Also there you will find a list of upcoming uploads, account registration and an effective movie search. ------------------------------------------------------------------------------------------------------------------------------------------- http://www.imdb.com/title/tt4645330/ IMDB RATING: 6.4 #1 Video FORMAT.......................: MP4 CODEC........................: X264 GENRE........................: Biography, Drama, History FILE SIZE....................: 730 MB RESOLUTION...................: 1280*720 FRAME RATE...................: 23.976 fps LANGUAGE.....................: English SUBTITLES....................: NONE RUNTIME......................: 1h 49min #2 Audio Format :.....................: AAC Mode : ......................: 16 Channel(s)...................: 5.1 channels Bit rate.....................: 320 kbps Audio sample rate............: 48 kHz Summary: Acclaimed writer and historian Deborah E. Lipstadt must battle for historical truth to prove the Holocaust actually occurred when David Irving, a renowned denier, sues her for libel. Screenshots [img]http://foxm.to/images/1481966582image1.jpg[/img] [img]http://foxm.to/images/1481966582image2.jpg[/img] [img]http://foxm.to/images/1481966582image3.jpg[/img] ------------------------------------------------------------------------------------------------------------------------------------------- http://FOXM.TO -------------------------------------------------------------------------------------------------------------------------------------------