Search Top Tags














Adguard 6.1.312.1629 + Patch

Language: | Size: 47.19 MB | Seed: 607 | Leech: 38

Description:

Adguard is a unique program that has all the necessary features for the best web experience. First of all, itâ?™s an ad blocker. Adguard lets you fully enjoy the Internet without any distractions. Watch the videos you want to watch, not annoying pre-rolls, and browse websites for content not tons of banners. Adguard gives you freedom of choice and saves your nerves. It also makes the Internet a safer place: blocks the loading of dangerous websites, speeds up the page loading, secures your privacy and much more. Works perfectly with all browsers! What can Adguard do? Ad Blocker. Blocking of all kinds of ads, high-quality filtering of traffic on the background. Ads are removed even before pages are loaded in the browser. Browsing Security. Protection from phishing and malicious websites. Adguard checks every page for any malicious content using our databases, and blocks requests from potentially dangerous ones. Stealth Mode. This module will not allow anyone to track your activities on the Internet. Blocking of third-parties cookies, hiding IP address and other features for protection of your personal data. Parental Control. Protection of children online. Blocks access to inappropriate websites, removes obscene materials from search results and much more. After installing Adguard you simply get clean, safe and fast browsing. Thatâ?™s just a different web surfing experience. Why Adguard? Adguard works in all browsers. Safari, Chrome — you name it. No exceptions. Easy to install. A couple of clicks, and your PC is protected from ads. You donâ?™t have to struggle with overcomplicated settings — just surf the net and Adguard will do all the work. Blocking video ads. Any video ad, on any site — Adguard will block it. Application filtering. Adguard blocks ads of any kinds and not only in all browsers, but in programs as well! Even in Windows UI applications (apps from Windows Store). Adguard has intuitive and simple UI with such additional features like Adguard Assistant, Filter editor and Filtering log. Daily ad filters and phishing databases updates. New in version 6: – Adguard user interface has been completely redesigned. Now has a modern Adguard “tile” design. – Adguard been translated into many languages. This includes a user interface assistant Adguard, filters, etc. – The positions of the application window is now saved and restored when you restart the application. – in the notification menu redesigned, improved availability of different options through the notification area. – The interface of the new version is much more friendly to blind users or users with low vision. – The speed of the user interface and loading speed were significantly optimized memory consumption greatly reduced. – Now, when you first start Adguard shows the welcome screen for you to determine Adguard and briefly telling about its capabilities. – Upgrading to a new version of Adguard 5 is now possible and does not lead to a loss of settings. – New ability to change the channel updates on “Beta” and get all the beta updates, including updates Assistant and extensions. – Anti tracking – a new module has been added. It protects your personal information online in various ways, including blocking cookies external sources, hiding IP addresses, and much more. – Improved support for application filtering. Now Adguard automatically detects the applications installed on your computer and offers filtering them. This applies to the Windows app store. – Editor filters and filtration magazine have been completely redesigned. You will find a fresh design and improved functionality. – You can now use the new search feature throughout the program for any keyword by typing it in the text box in the upper right corner. – Now you can add any filter to the URL or set the path to a local file on your computer, and Adguard will automatically track it changes. – Extensions were made into a separate module that can be turned on and off as a whole. – Security custom extensions has been greatly improved. – numerous additions and improvements to the filtering process were made, separately worth noting the support of the new rules and modifiers accelerate filtration. – Many other changes, which are impossible to list all the changes in the list.

Acronis True Image 2017 New Generation 21.0.0.6116 Multilingual + Activator

Language: | Size: 499.3 MB | Seed: 46 | Leech: 5

Description:

Protect everything with full image backup on Windows and Mac: the operating system, programs, settings, files, and boot information. Back up to external drives, NAS devices, network shares, and cloud with just two clicks. Back up phones and tablets: iPhone, iPad and Android devices. Back up Facebook. Remotely back up for others anywhere in the world. Manage from a touch-friendly online dashboard. And much more! Fast The fastest full image backup in the industry. Easy Just two clicks to start a full image backup. Backup is just the first step to complete data protection Protect everything with full image backup on Windows and Mac: the operating system, programs, settings, files, and boot information. Back up to external drives, NAS devices, network shares, and the cloud. Back up phones and tablets. Back up Facebook. Remotely back up for others. Full image and file backup are essential, but they are just the first step to protect against increasingly complex threats. Acronis Active Protection™ Protect your data from loss due to the growing threat of ransomware. Windows-only feature. Acronis Notary™ The first consumer data protection product to use blockchain technology to ensure a file’s authenticity. Acronis ASign™ Need one or more digital signatures on a document and a authenticated audit trail? Backup Features: – Full image back up – File and Folder backup – Disk cloning – Multiple backup plans – Bare-metal recovery – Touch-friendly UI Cloud Features: – Dual protection – Manage backup plans remotely – Ultra-fast upload – End-to-end encryption & Password – Web access from any device – Retention and versioning policies Mobile Features: – Back up your data – Wireless backup to local computer – Cloud backup – Multiple device backup – Restore a single file – Migrate from iOS to Android and from Android to iOS What’s New in Acronis True Image 2017 New Generation: – Acronis Active Protection™ – Acronis Notary™ – Mobile backup encryption – Mobile backup to Windows and MacOS – Facebook backup encryption – View mobile backups on Windows and Mac – Acronis ASign Digital Signatures – Facebook recovery System Requirements: – Windows 7 SP1 (all editions) – Windows 8 (all editions) – Windows 8.1 (all editions) – Windows Home Server 2011 – Windows 10 (including Anniversary Update)

Acoustica Mixcraft Pro Studio 8.0 Build 380 Multilingual + Keygen

Language: | Size: 541.8 MB | Seed: 154 | Leech: 30

Description:

OS: Windows XP, Windows Vista, Windows 7 (32 or 64 bit), Windows 8 (32 or 64 bit), or Windows 10 (32 or 64 bit) Mixcraft Pro Studio on MAC OSX: Mixcraft is a Windows based product that can be used on a Macintosh computer running bootcamp Languages: English, Chinese Traditional and Simplified, Dutch, French, German, Indonesian, Italian, Japanese, Norwegian, Portuguese, Russian, Spanish, Swedish, Turkish, Danish Usage: see included readme file Changes in Mixcraft 8 Mixcraft 8 is driven by a new, lightning-fast sound engine, featuring advanced audio and MIDI routing, native sidechaining, and Audio Control, an innovative new feature allowing audio signals to control instrument and effect parameters. Comprehensive support has been added for VST3 plug-ins and MP4 video, both must-have formats in professional studio environments. Mixcraft 8 is packed with high-end features including live performance panel recording, nested submixes, track grouping, and so much more. Integrated Melodyne Tuning Software Celemonyâ?™s groundbreaking Melodyne tuning software sets the standard as the most natural-sounding and easiest to use vocal tuning software available. Mixcraft 8 Pro Studio takes it one step further by integrating Melodyne Essential directly into Mixcraftâ?™s clip sound edit window (and eliminating time-consuming audio “transfers”). Whether youâ?™re simply touching up intonation, or moving notes to wildly alter performances, vocal pitch editing has never been easier! Stunning Synths Mixcraft 8 Pro Studio adds painstakingly modeled virtual analog and digital professional synthesizers. Memorymoon is a spot-on recreation of the Moog Memorymoogâ?™s crushing analog fatness. ME80 Version 2 is a killer model of the classic Yamaha CS-80 synthesizer, now with a gorgeous new user interface and a whole new sound engine. Kastelheimer Veldberg XD is new virtual analog synthesizer based on algorithms from hardware VA synthesizers with immense programming possibilities – a veritable goldmine of powerful analog and digital timbres! Peerless Piano Pianissimo is an incredibly playable and realistic virtual piano. Combining 250 MB of high quality Steinway™ Model D piano samples with advanced physical modeling, Pianissimo recreates the warmth, response, and playability of a real grand piano. With modeled sympathetic resonance, incidental mechanical hammer sounds, remarkable tonal control and velocity response, 256 voices of polyphony, and incredibly low CPU usage, Pianissimo Virtual Piano lends an air of class and realism to any project. Superior Mastering Tools Your tracks will reach a new level of audio fidelity with an awesome array of mastering plug-ins. Add a professional sheen with iZotope Mastering Essentials suite. EQ to perfection with TB Parametric EQ or GSXL4070 Parametric, replicating the equalizer section of one of the worldâ?™s most coveted mixing consoles. Impart analog tape compression and punch with Ferox Tape Emulator. Create banginâ?™ dance remixes with SideKick6 Sidechaining Compressor. Vacuum Tube Virtuosity Who doesnâ?™t love the warm, smooth sound of tubes? Mixcraft 8 Pro Studio delivers a knockout punch of tube-modeled effects with the Pentode Audio Series featuring the VTC-1 Vacuum Tube Compressor, TRW-1 Vacuum Tube Triode Warmer, PSEQ-1 Vacuum Tube Passive EQ, and VBE-1 Vacuum Tube Bass Enhancer. Treblecream smoothes harsh high frequencies to perfection, while FAT+ combines analog warmth, vacuum-tube distortion, and tape saturation into a single effect for enormous-sounding tracks. Innovative Sound Shapers Recreate the grunge of 8-bit video games and 12-bit samplers with TimeMachine Bit Crusher. Build lush, three-dimensional sonic spaces with Fusion Fieldâ?™s convolution reverb technology. Inspire sonic anarchy with Dubshox Multi-Band Distortion, featuring over 40 types of distortion and shapers. Recreate the warm, smooth, trippy textures of early tape-based delay systems with the VTD-42 Psychedelic Delay.

ACDSee Ultimate 10.3 Build 894 (x64) + Keygen

Language: | Size: 150.32 MB | Seed: 560 | Leech: 64

Description:

As an all-in-one digital asset manager and editor with layers, ACDSee Ultimate 10 boldly proclaims that you no longer need to purchase and run multiple applications to achieve your organizational and image editing goals. Combining GPU-accelerated adjustment layers, RAW editing, hundreds of filters and adjustments, and workflow-expediting tools perfected over decades, ACDSee Ultimate 10 Crack makes it easy to create professional-grade photography, original advertising, innovative graphics, and powerful art imagery. ACDSee Ultimate License Key Top Features: • Develop Mode • Digital Asset Management • Non-Destructive Editing with Adjustment Layers • Automate with Ease • Distortion Doctoring with Lens Correction • Strong and Agile • Advanced Lighting Technology • Spectrum of Color Control • Your Blank Canvas • Secondary Monitor Support • Improved speed and performance, with GPU-enriched Develop mode and Layered Editor • Increased stability • Updated lens correction profiles • Easier access to color palette for Layered Editor • Improved lens detection https://1.bp.blogspot.com/-Na-SCQoisTY/WKnAPBvyJQI/AAAAAAAAAgI/zoiVFJ9x3MQqALLXmL00ecaoxhrLp2rrwCLcB/s400/ACDSee-Ultimate-10.0.0.839-x64-Crack-By-Computer-Media-1.png https://www.sadeempc.com/wp-content/uploads/2016/07/ACDSee-Ultimate-10-License-Key.png System Requirements: – Microsoft® Windows® 7 (SP1), Windows® 8, Windows® 8.1 & Windows® 10 (64-bit editions only) – Microsoft® Internet Explorer® 9+ – Microsoft® DirectX® 10 or higher – Windows Media® Player 9.0

ACDSee Pro 10.3 Build 675 (x86x64) + Patch & Keygen

Language: | Size: 267.64 MB | Seed: 746 | Leech: 50

Description:

ACDSee Pro Portable You Can Use It In Any System Without Installing Then Even You Can Also Run It From USB Device. ACDSee Pro Loaded with everything you need to bring out the best in your images, ACDSee Pro 10 Portable gives you effortless digital asset management and hundreds of non-destructive adjustments for the enhancement and control of your image production. Blaze through all of the essential tasks of your photography workflow with this solid, GPU-enriched member of the ACDSee family. Top Features: • Develop Mode • Pixel Targeting • Automate Your Adjustments • Chronicle Your Process • Extended Editing Capabilities with Photoshop™ Plugin Support • Your Instant Start • No Aimless Searching • Organize for the Win • Distortion Doctoring with Lens Correction • Take Your Lighting out of the Dark Ages • Improved stabilitys • Updated lens correction profiles • Improved lens detection • Beefed up speed and performance, with GPU-enhanced Develop mode https://www.sadeempc.com/wp-content/uploads/2016/07/ACDSee-Pro-10-Crack-Patch-Keygen-License-Key-e1473853928289.png https://www.sadeempc.com/wp-content/uploads/2016/07/ACDSee-Pro-10-Full-Version-Crack-e1473853865758.png Whats New ? System Requirements: Hardware Intel® Pentium® III / AMD Athlon processor or equivalent (Intel® Pentium® 4 / AMD Athlon XP or equivalent recommended) 512 MB RAM (1 GB RAM recommended) 310 MB free hard drive space (1 GB recommended) High Color display adapter at 1024 x 768 resolution (1280 x 1024 recommended) Software: Microsoft® Windows® 7 (SP1), Windows® 8, Windows® 8.1 & Windows® 10 Microsoft® Internet Explorer® 9+ Microsoft® DirectX® 9.0c Windows Media® Player 9.0

La Spia - A Most Wanted Man 2014 .DVDRip.Aac.Ita.Eng.x264

Language: | Size: 2.01 GB | Seed: 44 | Leech: 13

Description:

Un film di Anton Corbijn. Con Philip Seymour Hoffman, Robin Wright, Rachel McAdams, Willem Dafoe, Daniel Brühl. continua» Titolo originale A Most Wanted Man. Thriller, durata 122 min. - Germania, Gran Bretagna, USA 2014. - Notorious Pictures uscita giovedì 30 ottobre 2014. Ad Amburgo e all'indomani degli attentati terroristici dell'undici settembre, Issa Karpov, un povero diavolo di origine russo-cecena, approda nel porto deciso a recuperare il denaro che suo padre, uno spietato criminale di guerra, ha accumulato impunemente. Allertati i servizi segreti tedeschi e americani, spetta a Günther Bachmann scoprire se Issa Karpov è un innocente coinvolto in una storia più grande di lui o un pericoloso terrorista pronto a fare esplodere Amburgo. Cinico e deluso col vizio dell'alcol e della solitudine, Bachmann non può sbagliare e deve riscattare un passato e un fallimento pesante. Costretto suo malgrado a lavorare con un agente americano, con cui sembra nascere un'intesa sentimentale e professionale, Günther Bachmann è deciso a distinguere il bene dal male e a consegnare alla giustizia soltanto i cattivi, quelli che si nascondono dietro una mitezza e una filantropia di facciata.

A Scanner Darkly - Un oscuro scrutare

Language: | Size: 1.46 GB | Seed: 21 | Leech: 7

Description:

A Scanner Darkly - Un oscuro scrutare Un film di Richard Linklater. Con Rory Cochrane, Robert Downey Jr., Mitch Baker, Keanu Reeves, Sean Allen. continua» Titolo originale A Scanner Darkly. Fantascienza, durata 100 min. - USA 2006. uscita venerdì 20 ottobre 2006. Fred Arctor è un agente della narcotici nascosto dentro una tuta disindividuante e infiltrato in un gruppo di consumatori abituali di Sostanza D, un acido che brucia il cervello e provoca allucinazioni. La tuta cangiante protegge la sua vera identità e la mutua in Bob Arctor, compagno di una schizzatissima brigata di tossici dislocati a Orange County, in California. Incaricato di sorvegliare un trafficante di droga e il suo giro di affari, Fred/Bob finisce per spiare se stesso, sempre più instabile per l'assunzione della sostanza D. L'abuso lo conduce alla schizofrenia, sviluppando una doppia personalità. Denunciato da Barris, un drogato informatore, ai suoi ambigui superiori di polizia, Fred/Bob finisce in una comunità di recupero ai confini col Messico, dove scoprirà che tutto è connesso: chi controlla produce e diffonde.

9 - Nine - 2009

Language: | Size: 4.47 GB | Seed: 46 | Leech: 21

Description:

Un film di Shane Acker. Con Elijah Wood, Jennifer Connelly, Christopher Plummer, Crispin Glover, Martin Landau. continua» Animazione, Ratings: Kids+13, durata 79 min. - USA 2009. - Universal Pictures MYMONETRO 9 * * * 1/2 - valutazione media: 3,70 su 20 recensioni di critica, pubblico e dizionari Nel futuro le macchine si rivolteranno contro di noi che le abbiamo create. L'intelligenza artificiale raggiungerà un livello di consapevolezza tale da generare pensiero indipendente e una conseguente ostilità verso la razza umana. Lo abbiamo visto accadere mille volte al cinema, quello che non avevamo mai visto era invece quello che succede dopo la grande guerra tra uomini e robot, quando non ci sono più sopravvissuti. Da lì prende le mosse

7 Below - ITA 2012

Language: | Size: 1.37 GB | Seed: 4 | Leech: 1

Description:

Seven Below Un film di Kevin Carraway. Con Val Kilmer, Ving Rhames, Luke Goss, Bonnie Somerville, Matt Barr. continua» Horror, - USA 2012. La storia è incentrata su un gruppo di estranei intrappolati in una casa nel bosco priva di dimensione spazio-temporale in cui avvenne un terribile evento esattamente 100 anni prima

Snowden.2016.iTALiAN.AC3.BRRip.XviD-T4P3

Language: | Size: 1.73 GB | Seed: 4 | Leech: 0

Description:

Snowden Titolo originale: Snowden Nazione: U.S.A. Anno: 2016 Genere: Thriller, Drammatico, Biografico Durata: 134' Regia: Oliver Stone Cast: Joseph Gordon-Levitt, Shailene Woodley, Scott Eastwood, Melissa Leo, Nicolas Cage, Tom Wilkinson, Timothy Olyphant, Zachary Quinto, Ben Schnetzer, Rhys Ifans, Joely Richardson, Jaymes Butler Produzione: Endgame Entertainment, KrautPack Entertainment, Onda Entertainment, Sacha Inc. Distribuzione: Bim Distribuzione Data di uscita: Roma 2016 - Selezione Ufficiale 24 Novembre 2016 (cinema) Trama: Nel 2013 Edward Snowden lascia con discrezione il suo impiego alla National Security Agency e vola ad Hong Kong per incontrare i giornalisti Glenn Greenwald e Ewen MacAskill, e la regista Laura Poitras, allo scopo di rivelare i giganteschi programmi di sorveglianza informatica elaborati dal governo degli Stati Uniti. Consulente esperto di informatica, legato da un impegno di massima segretezza, Ed ha scoperto che una montagna virtuale di dati viene registrata tracciando ogni forma di comunicazione digitale, non solo relativa a governi stranieri e a potenziali gruppi di terroristi, ma anche a quella di normali cittadini americani. Disilluso rispetto al suo lavoro nel mondo dell'intelligence, Snowden raccoglie meticolosamente centinaia di migliaia di documenti segreti per dimostrare la portata della violazione dei diritti in atto. Lasciando la donna che ama, Lindsay Mills, Ed trova il coraggio di agire spinto dai principi in cui crede. Snowden racconta in modo inedito la storia di Edward Snowden, analizzando le motivazioni che hanno trasformato un giovane patriota ansioso di servire il suo Paese in uno storico delatore, e ponendo domande provocatorie riguardo a quali libertà saremmo disposti a rinunciare per consentire ai nostri governi di proteggerci.

Papa Francisco - Wake Up [Flac][TntVillage]

Language: | Size: 274.61 MB | Seed: 24 | Leech: 31

Description:

[img]https://extraimage.net/images/2017/03/08/fb55bb3eda38c6c791bbb71ac7c352ce.jpg[/img] Artist...............: Papa Francisco Album................: Wake up Genre................: Gospel Source...............: CD Year.................: 2015 Ripper...............: EAC (Secure mode) / LAME 3.92 & Asus CD-S520 Codec................: Free Lossless Audio Codec (FLAC) Version..............: reference libFLAC 1.3.1 20141125 Quality..............: Lossless, (avg. compression: 48 %) Channels.............: Stereo / 44100 HZ / 16 Bit Tags.................: VorbisComment Information..........: TntVillage Ripped by............: Leonenero on 08/03/2017 Posted by............: Leonenero on 08/03/2017 News Server..........: news.astraweb.com News Group(s)........: TNTVILLAGE Included.............: NFO, M3U, LOG, CUE Covers...............: Front Back CD [+Bookled] --------------------------------------------------------------------- Tracklisting --------------------------------------------------------------------- 1. Papa Francisco - Santa famiglia de Nazareth [05:12] 2. Papa Francisco - Fazei o que ele vos disser! [03:31] 3. Papa Francisco - Annuntio vobis gaudium magnum [06:55] 4. Papa Francisco - Salve Regina [05:19] 5. Papa Francisco - Cuidar el planeta [04:48] 6. Papa Francisco - Porqué sufren los niños [05:22] 7. Papa Francisco - Non lasciatevi rubare la speranza [03:59] 8. Papa Francisco - ¡La iglesia no puede ser una ONG! [04:51] 9. Papa Francisco - Wake up! Go! Go! Forward! [05:14] 10. Papa Francisco - ¡La fe es entera, no se licúa! [04:34] 11. Papa Francisco - Pace! Fratelli! [05:54] Playing Time.........: 55:45 Total Size...........: 271,71 MB Wake Up! Music Album with His Words and Prayers is a progressive rock album by Pope Francis released on 27 November 2015 on Believe Digital. The album is formed of speeches by Pope Francis recorded in numerous locations worldwide between 2013–15 with accompanying music tracks of prayers and hymns by various Italian artists and producers. Production Under the art direction of Don Giulio Neroni, who also curated other albums for Popes John Paul II and Benedict XVI, various Italian artists and producers also contributed to the music like Giorgio Kriegsch, Mite Balduzzi, Giuseppe Dati, Lorenzo Piscopo, the orchestral director Dino Doni, and former member of Italian progressive rock band Le Orme Tony Pagliuca. The album will be released through the Believe Digital label. The album sets papal prayers and speeches to pop, rock, and classical music. The lyrics are varyingly Spanish, Portuguese or Italian, although the title track "Wake Up! Go! Go! Forward!" is in English. While most of the music is described by Rolling Stone as "New Age neoclassicism" not unlike the work of Vangelis or Kitaro, "Wake Up! Go! Go! Forward!" is identified as "the most rocking". Reception Tom Maxwell of Aljazeera America states "Musically, the album is similar to but more animated than what one would hear during a yoga class or massage session" and that "What might be most noteworthy about Wake Up! is how groundbreaking it is. ... For such a figure [as the pope] to release an album of music at all is scarcely precedented, much less one that incorporates popular musical forms of the last few decades." Entertainment reporter Chi Chi Izundu on BBC Newsbeat expressed the opinion that some of the album "has the vibe of 80s rock", and another part is "hauntingly beautiful" and that the album is "all in all, a very pleasant listen". Helen Brown in The Telegraph calls it a "mellow, accessible album" and states "Proceeds go to help refugees at a time when displaced people are struggling to find room at the inn. Whatever your stance on the Catholic Church, or its leader, I suspect Pope Francis has made a good call here. At a time of increasingly inflamed religious emotions, the world could use a little Holy chill out

La.Verita.Negata.2016.iTALiAN.AC3.DVDRip.XviD-T4P3

Language: | Size: 1.35 GB | Seed: 4 | Leech: 0

Description:

La verità negata Titolo originale: Denial Conosciuto anche come: Nazione: U.S.A., Regno Unito Anno: 2016 Genere: Drammatico, Biografico Durata: 100' Regia: Mick Jackson Cast: Rachel Weisz, Andrew Scott, Timothy Spall, Tom Wilkinson, Mark Gatiss, Harriet Walter, Jack Lowden, Alex Jennings, Caren Pistorius, Andrea Deck, Maximilian Befort Produzione: Krasnoff/Foster Entertainment, Participant Media, Shoebox Films Distribuzione: Cinema Data di uscita: Roma 2016 - Selezione Ufficiale 17 Novembre 2016 (cinema) Trama: David Irving, apprezzato storico militare, desta scalpore e polemiche quando inizia a citare lo pseudoscientifico rapporto Leuchter come prova della falsità dell’Olocausto. La storica Deborah Lipstadt lo etichetta come negazionista nel libro “Denying the Holocaust” e lui la cita in giudizio per diffamazione. Poiché l’onere della prova, secondo la legge inglese sulla diffamazione, spetta all’accusato, tocca alla Lipstadt e ai suoi legali dover dimostrare che uno degli eventi più gravi e significativi del ventesimo secolo è tutt’altro che un’invenzione.

Frank Zappa - Joe's Camouflage (2014), [Mp3][Tnt]

Language: | Size: 110.75 MB | Seed: 17 | Leech: 0

Description:

Artist: Frank Zappa Title: Joe's Camouflage Year Of Release: 2014 Genre: Rock Label: Vaulternative Records Tracks: 15 CDs: 1 Format: Mp3 Quality: 320 kbps Included Scans: Si Archive Size: 110 Mb ----------- 01 - Phyniox (Take 1) 02 - T'Mershi Duween 03 - Reeny Ra 04 - ''Who Do You Think You Are'' 05 - ''Slack 'Em All Down'' 06 - Honey, Don't You Want A Man Like Me 07 - The Illinois Enema Bandit 08 - Sleep Dirt - In Rehearsal 09 - Black Napkins 10 - Take Your Clothes Off When You Dance 11 - Denny & Froggy Relate 12 - ''Choose Your Foot'' 13 - Any Downers 14 - Phyniox (Take 2) 15 - ''I Heard A Note!''

Sherlock Holmes - The Devil's Daughter - DevoiDRip

Language: | Size: 8.18 GB | Seed: 853 | Leech: 41

Description:

Sherlock Holmes - The Devil's Daughter - DevoiDRip Nothing Ripped or Deleted Crack by CPY

Mechanic: Resurrection (2016).H264.Italian.English.Ac3.5.1.sub.ita.eng.iCV-MIRCrew

Language: | Size: 1.42 GB | Seed: 1 | Leech: 2

Description:

Mechanic: Resurrection (2016).H264.Italian.English.Ac3.5.1.sub.ita.eng.iCV-MIRCrew [center] [color=red][b][img]http://s23.postimg.org/b9yhws27f/0sc_Del1.png[/img] [u]NO FOUND ONLY ORIGINAL RELEASE[/u] [img]http://i.imgur.com/GDNQx1Z.png[/img] My release is always in double track audio italian and Original audio for select it use VLC or dvd player home not use wmp Mechanic: Resurrection (2016) [img]https://extraimage.net/images/2017/03/08/2536b6749349f856a28d221892378343.png[/img] [URL=http://www.imdb.com/title/tt3522806/][IMG]http://www.userlogos.org/files/logos/Sucka/imdb_new.png[/IMG][/URL] [img]http://i.imgur.com/fGu1rKv.png[/img] DATA USCITA: 24 novembre 2016 GENERE: Azione, Thriller ANNO: 2016 REGIA: Dennis Gansel SCENEGGIATURA: Philip Shelby FOTOGRAFIA: Daniel Gottschalk MONTAGGIO: Ueli Christen, Michael J. Duthie, Todd E. Miller MUSICHE: Mark Isham PRODUZIONE: Chartoff-Winkler Productions, Davis-Films, ME2 Productions DISTRIBUZIONE: Eagle Pictures PAESE: USA DURATA: 98 Min [img]http://i.imgur.com/W7kBqiE.png[/img] Jason Statham, Jessica Alba, Tommy Lee Jones, Michelle Yeoh, Sam Hazeldine, Raicho Vasilev, John Cenatiempo, Aaron Brumfield [img]http://i.imgur.com/bFK3ggF.png[/img] Arthur Bishop (Jason Statham) è tra i sicari più richiesti al mondo: meticoloso, non sbaglia un colpo ed è specializzato nel far sembrare gli assassinii dei normali incidenti. Anche se uscito dal "business" Arthur sarà costretto a tornarci per un'ultima missione: completare una serie di omicidi, uccidendo gli ................. [img]http://i.imgur.com/48xHWWH.png[/img] Arthur Bishop thought he had put his murderous past behind him when his most formidable foe kidnaps the love of his life. Now he is forced to travel the globe to complete three impossible assassinations, and do what he does best, make them look like accidents. [img]http://i.imgur.com/K8bfNTy.png[/img] [img]https://extraimage.net/images/2017/03/08/2498244a644861c6501eccf78eebefcd.png[/img] [img]https://extraimage.net/images/2017/03/08/93d1a31c4731ab2ec32576ae02a3d4eb.png[/img] [img]https://extraimage.net/images/2017/03/08/18495fb1be823946e1804827bf32c462.png[/img] [img]http://i.imgur.com/aVrMohH.png[/img] [spoiler] General Unique ID : 226741351629396237047258140870749058791 (0xAA94CBBE5BC16B46357DBE66C07DF6E7) Complete name : Mechanic Resurrection (2016).H264.ita.eng.sub.ita.eng.iCV-MIRCrew.mkv Format : Matroska Format version : Version 2 File size : 1.42 GiB Duration : 1h 38mn Overall bit rate : 2 060 Kbps Movie name : VISIT www.icv-crew.org Encoded date : UTC 2017-03-07 17:37:08 Writing application : Lavf54.63.100 Writing library : Lavf54.63.100 COPYRIGHT : robbyrs Video ID : 1 Format : AVC Format/Info : Advanced Video Codec Format profile : [email protected] Format settings, CABAC : Yes Format settings, ReFrames : 2 frames Codec ID : V_MPEG4/ISO/AVC Duration : 1h 38mn Bit rate : 1 290 Kbps Width : 720 pixels Height : 304 pixels Display aspect ratio : 2.40:1 Frame rate mode : Variable Frame rate : 23.976 fps Color space : YUV Chroma subsampling : 4:2:0 Bit depth : 8 bits Scan type : Progressive Bits/(Pixel*Frame) : 0.246 Stream size : 880 MiB (61%) Writing library : x264 core 130 r2273 Encoding settings : cabac=1 / ref=2 / deblock=1:0:0 / analyse=0x1:0x131 / me=hex / subme=7 / psy=1 / psy_rd=1.00:0.00 / mixed_ref=0 / me_range=16 / chroma_me=1 / trellis=1 / 8x8dct=0 / cqm=0 / deadzone=21,11 / fast_pskip=1 / chroma_qp_offset=-2 / threads=12 / lookahead_threads=2 / sliced_threads=0 / nr=0 / decimate=1 / interlaced=0 / bluray_compat=0 / constrained_intra=0 / bframes=3 / b_pyramid=0 / b_adapt=1 / b_bias=0 / direct=3 / weightb=1 / open_gop=0 / weightp=2 / keyint=230 / keyint_min=23 / scenecut=40 / intra_refresh=0 / rc_lookahead=40 / rc=2pass / mbtree=1 / bitrate=1290 / ratetol=1.0 / qcomp=0.60 / qpmin=10 / qpmax=69 / qpstep=4 / cplxblur=20.0 / qblur=0.5 / vbv_maxrate=24000 / vbv_bufsize=24000 / nal_hrd=none / ip_ratio=1.40 / aq=1:1.00 Language : Italian Default : Yes Forced : No Audio #1 ID : 2 Format : AC-3 Format/Info : Audio Coding 3 Mode extension : CM (complete main) Codec ID : A_AC3 Duration : 1h 38mn Bit rate mode : Constant Bit rate : 384 Kbps Channel(s) : 6 channels Channel positions : Front: L C R, Side: L R, LFE Sampling rate : 48.0 KHz Bit depth : 16 bits Compression mode : Lossy Delay relative to video : 1mn 5s Stream size : 270 MiB (19%) Language : Italian Default : Yes Forced : No Audio #2 ID : 3 Format : AC-3 Format/Info : Audio Coding 3 Mode extension : CM (complete main) Codec ID : A_AC3 Duration : 1h 38mn Bit rate mode : Constant Bit rate : 384 Kbps Channel(s) : 6 channels Channel positions : Front: L C R, Side: L R, LFE Sampling rate : 48.0 KHz Bit depth : 16 bits Compression mode : Lossy Delay relative to video : 1mn 5s Stream size : 270 MiB (19%) Language : English Default : No Forced : No Text #1 ID : 4 Format : UTF-8 Codec ID : S_TEXT/UTF8 Codec ID/Info : UTF-8 Plain Text Language : Italian Default : Yes Forced : Yes Text #2 ID : 5 Format : UTF-8 Codec ID : S_TEXT/UTF8 Codec ID/Info : UTF-8 Plain Text Language : Italian Default : No Forced : No Text #3 ID : 6 Format : UTF-8 Codec ID : S_TEXT/UTF8 Codec ID/Info : UTF-8 Plain Text Language : English Default : No Forced : No Menu 00:00:00.000 : :00:00:00.000 00:06:24.968 : :00:06:24.875 00:11:41.034 : :00:11:40.875 00:18:20.641 : :00:18:20.625 00:25:53.594 : :00:25:53.583 00:31:45.904 : :00:31:45.875 00:38:19.297 : :00:38:19.250 00:43:23.351 : :00:43:23.333 00:49:10.573 : :00:49:10.500 00:54:06.869 : :00:54:06.833 00:59:56.510 : :00:59:56.500 01:05:36.558 : :01:05:36.542 01:10:11.541 : :01:10:11.500 01:14:38.307 : :01:14:38.167 01:20:51.096 : :01:20:51.083 01:31:23.436 : :01:31:23.333 [/spoiler] [/color][/b][/center]

Animali.Notturni.2016.iTALiAN.AC3.BRRip.XviD-T4P3

Language: | Size: 1.26 GB | Seed: 4 | Leech: 0

Description:

Animali notturni Titolo originale: Nocturnal Animals Conosciuto anche come: Nazione: U.S.A. Anno: 2016 Genere: Drammatico, Thriller Durata: 112' Regia: Tom Ford Cast: Amy Adams, Jake Gyllenhaal, Aaron Taylor-Johnson, Armie Hammer, Isla Fisher, Michael Shannon, Kristin Bauer van Straten, Karl Glusman, Ellie Bamber, Lee Benton Produzione: Focus Features, Universal Pictures Distribuzione: Universal Pictures Italia Data di uscita: Venezia 2016 - In Concorso 17 Novembre 2016 (cinema) Trama: Susan Morrow vive una vita straordinariamente privilegiata ma poco appagante con suo marito Hutton Morrow. Durante un fine settimana in cui Hutton è fuori per uno dei suoi troppo frequenti viaggi d’affari, Susan riceve un inaspettato pacchetto che è stato lasciato nella sua cassetta delle lettere. E’ un romanzo, Animali Notturni, scritto dal suo ex marito Edward Sheffield, con cui lei non ha più contatti da anni. L’appunto di Edward che accompagna il manoscritto esorta Susan a leggere il romanzo e a mettersi poi in contatto con lui quando lui verrà in visita in città. A letto da sola, di notte, Susan comincia a leggere. Il romanzo è dedicato a lei... ma il suo contenuto è violento e devastante. Edward racconta la storia di Tony Hastings. Mentre viaggiano in macchina, di notte, lungo un isolato tratto di strada in Texas, Tony e la sua famiglia vengono attaccati da un trio di ladri d’auto, spinti fuori strada e costretti a uno scontro provocato dal capo della gang, Ray Marcus, un tipo con maniere inquietantemente insinuanti. Tony è inerme mentre la sua famiglia viene rapita davanti ai suoi occhi e lui viene abbandonato a piedi in mezzo al nulla. Con l’arrivo del giorno, Tony riesce a raggiungere la polizia per chiedere aiuto e il caso viene preso in carico dal laconico Tenente Bobby Andes. Andes crea un forte legame con Tony, che è sconvolto e distrutto, e si dedica anima e corpo alla ricerca dei sospettati quando le più grandi paure di Tony diventano realtà... Colpita dal romanzo di Edward, Susan non può fare a meno di ripensare ai momenti più intimi della sua storia d’amore con l’autore. Nel tentativo di guardarsi dentro, oltre la superficie patinata della sua vita e del suo lavoro, Susan vede il libro sempre più chiaramente come una vendetta, una storia che la costringe a rivalutare le scelte che ha fatto e risveglia in lei un amore che temeva perduto - mentre la storia procede verso una resa dei conti che riguarderà sia l'eroe del romanzo che lei stessa.

Ma Ma -Tutto andra bene (2015).H264.Italian.Spanish.Ac3.5.1.sub.ita.eng.iCV-MIRCrew

Language: | Size: 1.71 GB | Seed: 1 | Leech: 6

Description:

Ma Ma Tutto andra bene (2015).H264.Italian.Spanish.Ac3.5.1.sub.ita.eng.iCV-MIRCrew [center] [color=red][b][img]http://s23.postimg.org/b9yhws27f/0sc_Del1.png[/img] [u]NO FOUND ONLY ORIGINAL RELEASE[/u] [img]http://i.imgur.com/GDNQx1Z.png[/img] My release is always in double track audio italian and Original audio for select it use VLC or dvd player home not use wmp ENGLISH SUBTITLE INSIDE Ma Ma - Tutto andra bene (2015) [img]https://extraimage.net/images/2017/03/07/6594da4f3a5f44c31a60d21ddb9e21ec.png[/img] [URL=http://www.imdb.com/title/tt3480886/][IMG]http://www.userlogos.org/files/logos/Sucka/imdb_new.png[/IMG][/URL] [img]http://i.imgur.com/fGu1rKv.png[/img] GENERE: Drammatico ANNO: 2015 REGIA: Julio Medem SCENEGGIATURA: Julio Medem FOTOGRAFIA: Kiko de la Rica MONTAGGIO: Iván Aledo, Julio Medem, Yago Muñiz MUSICHE: Eduardo Cruz, Alberto Iglesias PRODUZIONE: Backup Media, Ma Ma Películas AIE, Mare Nostrum Productions DISTRIBUZIONE: I Wonder Pictures PAESE: Spagna, Francia DURATA: 111 Min [img]http://i.imgur.com/W7kBqiE.png[/img] Penélope Cruz, Silvia Abascal, Luis Tosar, Alex Brendemühl, Asier Etxeandia, Elena Carranza [img]http://i.imgur.com/bFK3ggF.png[/img] Magda è un'insegnante che ha da poco perso il lavoro e a cui viene diagnosticato per ben due volte un cancro al seno. La prima volta il cancro è curabile, la seconda il verdetto non lascia scampo: il cancro è tornato e non è più curabile. La vicenda si svolge nella crisi economica e nell'anno in cui la Spagna è Campione d'Europa.............. [img]http://i.imgur.com/48xHWWH.png[/img] In the aftermath of a tragedy a woman, Magda, reacts with a surge of newfound life that engulfs her circle of family and friends. [img]http://i.imgur.com/K8bfNTy.png[/img] [url=https://extraimage.net/image/2pBA][img]https://extraimage.net/images/2017/03/07/9bfd0b8589412114c300cb84769a47b6.th.png[/img][/url] [url=https://extraimage.net/image/2pBW][img]https://extraimage.net/images/2017/03/07/2359793a16d2c7bfb2db74263d0f80ef.th.png[/img][/url] [url=https://extraimage.net/image/2pBf][img]https://extraimage.net/images/2017/03/07/3e08680211797a106911cbbb980c3173.th.png[/img][/url] [url=https://postimage.org/index.php?lang=italian]upload immagini gratis[/url] [img]http://i.imgur.com/aVrMohH.png[/img] [spoiler] General Unique ID : 133032078768605469700229378432785363384 (0x64150BE14B19B3345F6E5F73B2DEB1B8) Complete name : Ma Ma Tutto andra bene (2015).H264.ita.spa.sub.ita.eng.iCV-MIRCrew.mkv Format : Matroska Format version : Version 2 File size : 1.71 GiB Duration : 1h 51mn Overall bit rate : 2 191 Kbps Movie name : VISIT www.icv-crew.org Encoded date : UTC 2017-03-06 09:09:26 Writing application : Lavf54.63.100 Writing library : Lavf54.63.100 COPYRIGHT : robbyrs Video ID : 1 Format : AVC Format/Info : Advanced Video Codec Format profile : [email protected] Format settings, CABAC : Yes Format settings, ReFrames : 2 frames Codec ID : V_MPEG4/ISO/AVC Duration : 1h 51mn Bit rate : 1 290 Kbps Width : 720 pixels Height : 304 pixels Display aspect ratio : 2.35:1 Original display aspect ratio : 2.35:1 Frame rate mode : Variable Frame rate : 23.976 fps Color space : YUV Chroma subsampling : 4:2:0 Bit depth : 8 bits Scan type : Progressive Bits/(Pixel*Frame) : 0.246 Stream size : 1 000 MiB (57%) Writing library : x264 core 130 r2273 Encoding settings : cabac=1 / ref=2 / deblock=1:0:0 / analyse=0x1:0x131 / me=hex / subme=7 / psy=1 / psy_rd=1.00:0.00 / mixed_ref=0 / me_range=16 / chroma_me=1 / trellis=1 / 8x8dct=0 / cqm=0 / deadzone=21,11 / fast_pskip=1 / chroma_qp_offset=-2 / threads=12 / lookahead_threads=2 / sliced_threads=0 / nr=0 / decimate=1 / interlaced=0 / bluray_compat=0 / constrained_intra=0 / bframes=3 / b_pyramid=0 / b_adapt=1 / b_bias=0 / direct=3 / weightb=1 / open_gop=0 / weightp=2 / keyint=230 / keyint_min=23 / scenecut=40 / intra_refresh=0 / rc_lookahead=40 / rc=2pass / mbtree=1 / bitrate=1290 / ratetol=1.0 / qcomp=0.60 / qpmin=10 / qpmax=69 / qpstep=4 / cplxblur=20.0 / qblur=0.5 / vbv_maxrate=24000 / vbv_bufsize=24000 / nal_hrd=none / ip_ratio=1.40 / aq=1:1.00 Default : Yes Forced : No DURATION : 01:51:38.912000000 NUMBER_OF_FRAMES : 160613 NUMBER_OF_BYTES : 7266748369 _STATISTICS_WRITING_APP : mkvmerge v8.7.0 ('All of the above') 64bit _STATISTICS_WRITING_DATE_UTC : 2017-02-19 10:24:12 _STATISTICS_TAGS : BPS DURATION NUMBER_OF_FRAMES NUMBER_OF_BYTES Audio #1 ID : 2 Format : AC-3 Format/Info : Audio Coding 3 Mode extension : CM (complete main) Codec ID : A_AC3 Duration : 1h 51mn Bit rate mode : Constant Bit rate : 448 Kbps Channel(s) : 6 channels Channel positions : Front: L C R, Side: L R, LFE Sampling rate : 48.0 KHz Bit depth : 16 bits Compression mode : Lossy Delay relative to video : 1mn 5s Stream size : 358 MiB (20%) Title : AC3 ITA Language : Italian Default : Yes Forced : No DURATION : 01:51:39.072000000 NUMBER_OF_FRAMES : 209346 NUMBER_OF_BYTES : 375148032 _STATISTICS_WRITING_APP : mkvmerge v8.7.0 ('All of the above') 64bit _STATISTICS_WRITING_DATE_UTC : 2017-02-19 10:24:12 _STATISTICS_TAGS : BPS DURATION NUMBER_OF_FRAMES NUMBER_OF_BYTES Audio #2 ID : 3 Format : AC-3 Format/Info : Audio Coding 3 Mode extension : CM (complete main) Codec ID : A_AC3 Duration : 1h 51mn Bit rate mode : Constant Bit rate : 448 Kbps Channel(s) : 6 channels Channel positions : Front: L C R, Side: L R, LFE Sampling rate : 48.0 KHz Bit depth : 16 bits Compression mode : Lossy Delay relative to video : 1mn 5s Stream size : 358 MiB (20%) Title : AC3 SPA Language : Spanish Default : No Forced : No DURATION : 01:51:39.040000000 NUMBER_OF_FRAMES : 209345 NUMBER_OF_BYTES : 535923200 _STATISTICS_WRITING_APP : mkvmerge v8.7.0 ('All of the above') 64bit _STATISTICS_WRITING_DATE_UTC : 2017-02-19 10:24:12 _STATISTICS_TAGS : BPS DURATION NUMBER_OF_FRAMES NUMBER_OF_BYTES Text #1 ID : 4 Format : UTF-8 Codec ID : S_TEXT/UTF8 Codec ID/Info : UTF-8 Plain Text Title : FORCED Language : Italian Default : Yes Forced : No DURATION : 01:40:42.463000000 NUMBER_OF_FRAMES : 4 NUMBER_OF_BYTES : 66 _STATISTICS_WRITING_APP : mkvmerge v8.7.0 ('All of the above') 64bit _STATISTICS_WRITING_DATE_UTC : 2017-02-19 10:24:12 _STATISTICS_TAGS : BPS DURATION NUMBER_OF_FRAMES NUMBER_OF_BYTES Text #2 ID : 5 Format : UTF-8 Codec ID : S_TEXT/UTF8 Codec ID/Info : UTF-8 Plain Text Title : REGULAR Language : English Default : No Forced : No DURATION : 01:48:10.275000000 NUMBER_OF_FRAMES : 1107 NUMBER_OF_BYTES : 34980 _STATISTICS_WRITING_APP : mkvmerge v8.7.0 ('All of the above') 64bit _STATISTICS_WRITING_DATE_UTC : 2017-02-19 10:24:12 _STATISTICS_TAGS : BPS DURATION NUMBER_OF_FRAMES NUMBER_OF_BYTES Menu 00:00:00.000 : :00:00:00.000 00:07:05.342 : :00:07:05.342 00:14:28.201 : :00:14:28.201 00:20:13.838 : :00:20:13.838 00:29:27.099 : :00:29:27.099 00:39:02.590 : :00:39:02.590 00:50:56.804 : :00:50:56.804 00:59:52.756 : :00:59:52.756 01:08:53.129 : :01:08:53.129 01:16:19.950 : :01:16:19.950 01:25:27.706 : :01:25:27.706 01:35:23.259 : :01:35:23.259 01:47:10.200 : :01:47:10:200 [/spoiler] [/color][/b][/center]

The Taking of Tiger Mountain - Tiger Mountain (2014).H264.Italian.Chn.Ac3.5.1.iCV-MIRCrew

Language: | Size: 2.17 GB | Seed: 1 | Leech: 17

Description:

The Taking of Tiger Mountain - Tiger Mountain (2014).H264.Italian.Chn.Ac3.5.1.sub.ita.NUita.eng.iCV-MIRCrew [center] [color=red][b][img]http://s23.postimg.org/b9yhws27f/0sc_Del1.png[/img] [u]NO FOUND ONLY ORIGINAL RELEASE[/u] [img]http://i.imgur.com/GDNQx1Z.png[/img] My release is always in double track audio italian and Original audio for select it use VLC or dvd player home not use wmp ENGLISH SUBTITLE INSIDE Tiger Mountain - The Taking of Tiger Mountain (2014) [url=https://postimg.org/image/mc81n8dln/][img]https://s9.postimg.org/yqutnk53z/image.png[/img][/url] [URL=http://www.imdb.com/title/tt3950078/][IMG]http://www.userlogos.org/files/logos/Sucka/imdb_new.png[/IMG][/URL] [img]http://i.imgur.com/fGu1rKv.png[/img] Genere: Avventura Durata: 141 minuti Regista: Tsui Hark Genere: Avventura , azione Uscita ORIG: 24 dicembre 2014 [img]http://i.imgur.com/W7kBqiE.png[/img] Zhang Hanyu, Kenny Lindsay [img]http://i.imgur.com/bFK3ggF.png[/img] Una piccola squadra di soldati selezionati compie una spedizione sulle montagne innevate, alla ricerca di un pericoloso gruppo di banditi. [img]http://i.imgur.com/48xHWWH.png[/img] A story focusing on a conflict between a People's Liberation Army squad and a bandit gang in north-east China during the Chinese revolution. . [img]http://i.imgur.com/K8bfNTy.png[/img] [url=https://postimg.org/image/jqxvlyyu3/][img]https://s9.postimg.org/45gk20mvz/vlcsnap_2017_03_07_15h25m26s308.png[/img][/url] [url=https://postimg.org/image/v4kex69cr/][img]https://s9.postimg.org/z0xqt5ucf/vlcsnap_2017_03_07_15h25m58s141.png[/img][/url] [url=https://postimg.org/image/ei2uo3gez/][img]https://s9.postimg.org/w84j94tzz/vlcsnap_2017_03_07_15h26m22s468.png[/img][/url] [url=https://postimage.org/index.php?lang=italian]upload immagini gratis[/url] [img]http://i.imgur.com/aVrMohH.png[/img] [spoiler] General Unique ID : 58629828270020689334488883208056131483 (0x2C1BB1B66EC2885C943B6A46D5EECF9B) Complete name : Tiger Mountain (2014).H264.ita.chn.sub.ita.NUita.eng.iCV-MIRCrew.mkv Format : Matroska Format version : Version 2 File size : 2.17 GiB Duration : 2h 23mn Overall bit rate : 2 176 Kbps Movie name : VISIT www.icv-crew.org Encoded date : UTC 2017-02-25 19:11:17 Writing application : Lavf54.63.100 Writing library : Lavf54.63.100 COPYRIGHT : robbyrs Video ID : 1 Format : AVC Format/Info : Advanced Video Codec Format profile : [email protected] Format settings, CABAC : Yes Format settings, ReFrames : 2 frames Codec ID : V_MPEG4/ISO/AVC Duration : 2h 23mn Bit rate : 1 280 Kbps Width : 720 pixels Height : 384 pixels Display aspect ratio : 1.854 Original display aspect ratio : 1.853 Frame rate mode : Variable Frame rate : 24.000 fps Color space : YUV Chroma subsampling : 4:2:0 Bit depth : 8 bits Scan type : Progressive Bits/(Pixel*Frame) : 0.193 Stream size : 1.24 GiB (57%) Writing library : x264 core 130 r2273 Encoding settings : cabac=1 / ref=2 / deblock=1:0:0 / analyse=0x1:0x131 / me=hex / subme=7 / psy=1 / psy_rd=1.00:0.00 / mixed_ref=0 / me_range=16 / chroma_me=1 / trellis=1 / 8x8dct=0 / cqm=0 / deadzone=21,11 / fast_pskip=1 / chroma_qp_offset=-2 / threads=12 / lookahead_threads=2 / sliced_threads=0 / nr=0 / decimate=1 / interlaced=0 / bluray_compat=0 / constrained_intra=0 / bframes=3 / b_pyramid=0 / b_adapt=1 / b_bias=0 / direct=3 / weightb=1 / open_gop=0 / weightp=2 / keyint=240 / keyint_min=24 / scenecut=40 / intra_refresh=0 / rc_lookahead=40 / rc=2pass / mbtree=1 / bitrate=1280 / ratetol=1.0 / qcomp=0.60 / qpmin=10 / qpmax=69 / qpstep=4 / cplxblur=20.0 / qblur=0.5 / vbv_maxrate=24000 / vbv_bufsize=24000 / nal_hrd=none / ip_ratio=1.40 / aq=1:1.00 Language : Italian Default : Yes Forced : No DURATION : 02:22:41.209000000 NUMBER_OF_FRAMES : 205469 NUMBER_OF_BYTES : 13278128817 _STATISTICS_WRITING_APP : mkvmerge v8.7.0 ('All of the above') 64bit _STATISTICS_WRITING_DATE_UTC : 2017-01-27 18:45:32 _STATISTICS_TAGS : BPS DURATION NUMBER_OF_FRAMES NUMBER_OF_BYTES Audio #1 ID : 2 Format : AC-3 Format/Info : Audio Coding 3 Mode extension : CM (complete main) Codec ID : A_AC3 Duration : 2h 23mn Bit rate mode : Constant Bit rate : 448 Kbps Channel(s) : 6 channels Channel positions : Front: L C R, Side: L R, LFE Sampling rate : 48.0 KHz Bit depth : 16 bits Compression mode : Lossy Delay relative to video : 1mn 5s Stream size : 459 MiB (21%) Title : AC3 ITA Language : Italian Default : Yes Forced : No DURATION : 02:23:05.088000000 NUMBER_OF_FRAMES : 268284 NUMBER_OF_BYTES : 480764928 _STATISTICS_WRITING_APP : mkvmerge v8.7.0 ('All of the above') 64bit _STATISTICS_WRITING_DATE_UTC : 2017-01-27 18:45:32 _STATISTICS_TAGS : BPS DURATION NUMBER_OF_FRAMES NUMBER_OF_BYTES Audio #2 ID : 3 Format : AC-3 Format/Info : Audio Coding 3 Mode extension : CM (complete main) Codec ID : A_AC3 Duration : 2h 23mn Bit rate mode : Constant Bit rate : 448 Kbps Channel(s) : 6 channels Channel positions : Front: L C R, Side: L R, LFE Sampling rate : 48.0 KHz Bit depth : 16 bits Compression mode : Lossy Delay relative to video : 1mn 5s Stream size : 459 MiB (21%) Title : AC3 CHI Language : Chinese Default : No Forced : No DURATION : 02:22:41.280000000 NUMBER_OF_FRAMES : 267540 NUMBER_OF_BYTES : 684902400 _STATISTICS_WRITING_APP : mkvmerge v8.7.0 ('All of the above') 64bit _STATISTICS_WRITING_DATE_UTC : 2017-01-27 18:45:32 _STATISTICS_TAGS : BPS DURATION NUMBER_OF_FRAMES NUMBER_OF_BYTES Text #1 ID : 4 Format : UTF-8 Codec ID : S_TEXT/UTF8 Codec ID/Info : UTF-8 Plain Text Title : FORCED Language : Italian Default : Yes Forced : No DURATION : 02:13:59.482000000 NUMBER_OF_FRAMES : 8 NUMBER_OF_BYTES : 286 _STATISTICS_WRITING_APP : mkvmerge v8.7.0 ('All of the above') 64bit _STATISTICS_WRITING_DATE_UTC : 2017-01-27 18:45:32 _STATISTICS_TAGS : BPS DURATION NUMBER_OF_FRAMES NUMBER_OF_BYTES Text #2 ID : 5 Format : UTF-8 Codec ID : S_TEXT/UTF8 Codec ID/Info : UTF-8 Plain Text Title : NON UDENTI Language : Italian Default : No Forced : No DURATION : 02:13:40.750000000 NUMBER_OF_FRAMES : 1514 NUMBER_OF_BYTES : 60281 _STATISTICS_WRITING_APP : mkvmerge v8.7.0 ('All of the above') 64bit _STATISTICS_WRITING_DATE_UTC : 2017-01-27 18:45:32 _STATISTICS_TAGS : BPS DURATION NUMBER_OF_FRAMES NUMBER_OF_BYTES Text #3 ID : 6 Format : UTF-8 Codec ID : S_TEXT/UTF8 Codec ID/Info : UTF-8 Plain Text Title : REGULAR Language : Italian Default : No Forced : No DURATION : 02:13:09.085000000 NUMBER_OF_FRAMES : 921 NUMBER_OF_BYTES : 44004 _STATISTICS_WRITING_APP : mkvmerge v8.7.0 ('All of the above') 64bit _STATISTICS_WRITING_DATE_UTC : 2017-01-27 18:45:32 _STATISTICS_TAGS : BPS DURATION NUMBER_OF_FRAMES NUMBER_OF_BYTES Text #4 ID : 7 Format : UTF-8 Codec ID : S_TEXT/UTF8 Codec ID/Info : UTF-8 Plain Text Title : REGULAR Language : English Default : No Forced : No DURATION : 02:13:59.084000000 NUMBER_OF_FRAMES : 1673 NUMBER_OF_BYTES : 37414 _STATISTICS_WRITING_APP : mkvmerge v8.7.0 ('All of the above') 64bit _STATISTICS_WRITING_DATE_UTC : 2017-01-27 18:45:32 _STATISTICS_TAGS : BPS DURATION NUMBER_OF_FRAMES NUMBER_OF_BYTES Menu 00:00:00.000 : :00:00:00.000 00:07:05.342 : :00:07:05.342 00:14:28.201 : :00:14:28.201 00:20:13.838 : :00:20:13.838 00:29:27.099 : :00:29:27.099 00:39:02.590 : :00:39:02.590 00:50:56.804 : :00:50:56.804 00:59:52.756 : :00:59:52.756 01:08:53.129 : :01:08:53.129 01:16:19.950 : :01:16:19.950 01:25:27.706 : :01:25:27.706 01:35:23.259 : :01:35:23.259 01:45:16.300 : :01:45:16:300 01:55:01.150 : :01:55:01:150 02:05:00.150 : :02:05:00:150 [/spoiler] [/color][/b][/center]

The Automatic - Not Accepted Anywhere (2006) (by emi)

Language: | Size: 57.31 MB | Seed: 903 | Leech: 50

Description:

mp3 a 192 kbps audio di qualità a 95 db Tracklist 01 - That's What She Said.mp3 (4.6 MB) 02 - Raoul.mp3 (5.5 MB) 03 - You Shout You Shout You Shout You Shout.mp3 (4.3 MB) 04 - Recover.mp3 (4.1 MB) 05 - Monster.mp3 (5.2 MB) 06 - Lost At Home.mp3 (4.9 MB) 07 - Keep Your Eyes Peeled.mp3 (4.3 MB) 08 - Seriously... I Hate You Guys.mp3 (4.9 MB) 09 - On The Campaign Trail.mp3 (4.3 MB) 10 - Team Drama.mp3 (4.5 MB) 11 - By My Side.mp3 (5.3 MB) 12 - Rats.mp3 (5.2 MB)

Cinquanta sbavature di nero [XviD - Ita Ac3]

Language: | Size: 1.16 GB | Seed: 80 | Leech: 9

Description:

Christian Black è un imprenditore di colore arricchitosi col traffico di droga. Hannah Steele una studentessa di letteratura inglese che si guadagna da vivere come commessa in un negozio di ferramenta. Quando un'amica le chiede di sostituirla nell'intervista al giovane manager, i due si incontrano e ne nasce presto un ingaggio sessuo-amoroso che prevede maldestre pratiche di sadismo in un rapporto contrattualizzato tra dominatore e sottomessa. L'idea, sulla carta, poteva risultare vincente. Prendere uno dei casi editoriali e cinematografici di maggior successo degli ultimi anni, portare a caricatura i cliché di un soggetto erotico già parodico di suo, scritturare due interpreti di origine afroamericana a cui affidare la parte dei protagonisti e trarne spunto per aggiungere una sana dose di satira sociale. Il titolo è azzeccato: Fifty Shades of Black, 'Cinquanta sfumature di nero', che in Italia diventa 'sbavature' per non confonderlo col sequel della saga che in originale suona invece Fifty Shades Darker, effetto domino esemplare dei danni prodotti dalla titolatura nostrana. Un'operazione che avrebbe potuto funzionare se la materia grigia, appunto, fosse stata quella dei ZAZ o di altri che, come Jim Abrahams e i fratelli Zucker, hanno fatto la fortuna passata del genere parodistico-demenziale. Diverso il caso in cui la firma è di Mike Tiddes, assistito ancora una volta da Marlon Wayans davanti e oltre la macchina da presa in qualità di sceneggiatore-produttore assieme a Rick Alvarez, gli stessi che ci hanno regalato la doppietta di Ghost Movie, un nome un programma. ----- Titolo Originale: Fifty Shades of Black Nazionalità: Stati Uniti Anno: 2016 Data di uscita: 18 Febbraio 2016 Genere: Commedia Regia: Mike Tiddes Produzione: Rick Alvarez, Marlon Wayans Distribuzione: M2 Pictures Dimensione del file: 1.15 Gb Formato del file: Avi

Fai bei sogni (2016).H264.Italian.Ac3.5.1.sub.ita.iCV-MIRCrew

Language: | Size: 1.6 GB | Seed: 2 | Leech: 29

Description:

Fai bei sogni (2016).H264.Italian.Ac3.5.1.sub.ita.iCV-MIRCrew [center] [color=#00BFFF][b][img]http://s23.postimg.org/b9yhws27f/0sc_Del1.png[/img] [u]NO FOUND ONLY ORIGINAL RELEASE[/u] [img]http://i.imgur.com/GDNQx1Z.png[/img] My release is always in double track audio italian and Original audio for select it use VLC or dvd player home not use wmp Fai bei sogni (2016) [img]https://extraimage.net/images/2017/03/06/b43a5259dd6d14a7e4f16c078954484b.png[/img] [URL=http://www.imdb.com/title/tt4746506/][IMG]http://www.userlogos.org/files/logos/Sucka/imdb_new.png[/IMG][/URL] [img]http://i.imgur.com/fGu1rKv.png[/img] DATA USCITA: 10 novembre 2016 GENERE: Drammatico ANNO: 2016 REGIA: Marco Bellocchio FOTOGRAFIA: Daniele Ciprì MONTAGGIO: Francesca Calvelli MUSICHE: Carlo Crivelli PRODUZIONE: IBC Movie, Kavac Film, Rai Cinema DISTRIBUZIONE: 01 Distribution PAESE: Italia, Francia DURATA: 134 Min [img]http://i.imgur.com/W7kBqiE.png[/img] Valerio Mastandrea, Bérénice Bejo, Fabrizio Gifuni, Guido Caprino, Barbara Ronchi, Miriam Leone, Nicolò Cabras, Dario Dal Pero , Arianna Scommegna, Bruno Torrisi, Manuela Mandracchia, Giulio Brogi, Emmanuelle Devos, Roberto Di Francesco, Fausto Russo Alesi, Pier Giorgio Bellocchio, Piera Degli Esposti, Roberto Herlitzka [img]http://i.imgur.com/bFK3ggF.png[/img] E' la storia di una difficile ricerca della verità e allo stesso tempo la paura di scoprirla. La mattina del 31 dicembre 1969, Massimo, nove anni appena, trova suo padre nel corridoio sorretto da due uomini: sua madre è morta............... [img]http://i.imgur.com/48xHWWH.png[/img] Massimo's idyllic childhood is shattered by the death of his mother. Years later, he is forced to relive his traumatic past and compassionate doctor Elisa could help him open up and confront his childhood wounds. [img]http://i.imgur.com/K8bfNTy.png[/img] [url=https://extraimage.net/image/2pcG][img]https://extraimage.net/images/2017/03/06/540cb251052150e869c19da6682e5621.th.png[/img][/url] [url=https://extraimage.net/image/2pcr][img]https://extraimage.net/images/2017/03/06/81c41c6b4e0eddba36197ab11e076fcc.th.png[/img][/url] [url=https://extraimage.net/image/2pcP][img]https://extraimage.net/images/2017/03/06/baf7ae447e60b3656b58cc62a8c3530d.th.png[/img][/url] [img]http://i.imgur.com/aVrMohH.png[/img] [spoiler] General Unique ID : 183908308353898936170162921775777997969 (0x8A5B73A9B10938010A570688B6D46491) Complete name : Fai bei sogni (2016).H264.ita.sub.ita.iCV-MIRCrew.mkv Format : Matroska Format version : Version 2 File size : 1.60 GiB Duration : 2h 11mn Overall bit rate : 1 741 Kbps Movie name : VISIT www.icv-crew.org Encoded date : UTC 2017-03-04 10:53:56 Writing application : Lavf54.63.100 Writing library : Lavf54.63.100 COPYRIGHT : robbyrs Video ID : 1 Format : AVC Format/Info : Advanced Video Codec Format profile : [email protected] Format settings, CABAC : Yes Format settings, ReFrames : 2 frames Codec ID : V_MPEG4/ISO/AVC Duration : 2h 11mn Bit rate : 1 290 Kbps Width : 720 pixels Height : 300 pixels Display aspect ratio : 2.40:1 Frame rate mode : Variable Frame rate : 23.976 fps Color space : YUV Chroma subsampling : 4:2:0 Bit depth : 8 bits Scan type : Progressive Bits/(Pixel*Frame) : 0.249 Stream size : 1.15 GiB (72%) Writing library : x264 core 130 r2273 Encoding settings : cabac=1 / ref=2 / deblock=1:0:0 / analyse=0x1:0x131 / me=hex / subme=7 / psy=1 / psy_rd=1.00:0.00 / mixed_ref=0 / me_range=16 / chroma_me=1 / trellis=1 / 8x8dct=0 / cqm=0 / deadzone=21,11 / fast_pskip=1 / chroma_qp_offset=-2 / threads=12 / lookahead_threads=2 / sliced_threads=0 / nr=0 / decimate=1 / interlaced=0 / bluray_compat=0 / constrained_intra=0 / bframes=3 / b_pyramid=0 / b_adapt=1 / b_bias=0 / direct=3 / weightb=1 / open_gop=0 / weightp=2 / keyint=230 / keyint_min=23 / scenecut=40 / intra_refresh=0 / rc_lookahead=40 / rc=2pass / mbtree=1 / bitrate=1290 / ratetol=1.0 / qcomp=0.60 / qpmin=10 / qpmax=69 / qpstep=4 / cplxblur=20.0 / qblur=0.5 / vbv_maxrate=24000 / vbv_bufsize=24000 / nal_hrd=none / ip_ratio=1.40 / aq=1:1.00 Language : Italian Default : Yes Forced : No DURATION : 02:11:19.872000000 NUMBER_OF_FRAMES : 188928 NUMBER_OF_BYTES : 7617339727 _STATISTICS_WRITING_APP : mkvmerge v8.7.0 ('All of the above') 64bit _STATISTICS_WRITING_DATE_UTC : 2017-02-24 07:44:07 _STATISTICS_TAGS : BPS DURATION NUMBER_OF_FRAMES NUMBER_OF_BYTES Audio ID : 2 Format : AC-3 Format/Info : Audio Coding 3 Mode extension : CM (complete main) Codec ID : A_AC3 Duration : 2h 11mn Bit rate mode : Constant Bit rate : 448 Kbps Channel(s) : 2 channels Channel positions : Front: L R Sampling rate : 48.0 KHz Bit depth : 16 bits Compression mode : Lossy Delay relative to video : 1mn 5s Stream size : 421 MiB (26%) Title : AC3 ITA Language : Italian Default : No Forced : No DURATION : 02:11:19.904000000 NUMBER_OF_FRAMES : 246247 NUMBER_OF_BYTES : 630392320 _STATISTICS_WRITING_APP : mkvmerge v8.7.0 ('All of the above') 64bit _STATISTICS_WRITING_DATE_UTC : 2017-02-24 07:44:07 _STATISTICS_TAGS : BPS DURATION NUMBER_OF_FRAMES NUMBER_OF_BYTES Text ID : 3 Format : ASS Codec ID : S_TEXT/ASS Codec ID/Info : Advanced Sub Station Alpha Compression mode : Lossless Title : REGULAR Language : Italian Default : No Forced : No DURATION : 02:02:59.247000000 NUMBER_OF_FRAMES : 1063 NUMBER_OF_BYTES : 35805 _STATISTICS_WRITING_APP : mkvmerge v8.7.0 ('All of the above') 64bit _STATISTICS_WRITING_DATE_UTC : 2017-02-24 07:44:07 _STATISTICS_TAGS : BPS DURATION NUMBER_OF_FRAMES NUMBER_OF_BYTES Menu 00:00:00.000 : :00:00:00.000 00:07:05.342 : :00:07:05.342 00:14:28.201 : :00:14:28.201 00:20:13.838 : :00:20:13.838 00:29:27.099 : :00:29:27.099 00:39:02.590 : :00:39:02.590 00:50:56.804 : :00:50:56.804 00:59:52.756 : :00:59:52.756 01:08:53.129 : :01:08:53.129 01:16:19.950 : :01:16:19.950 01:25:27.706 : :01:25:27.706 01:35:23.259 : :01:35:23.259 01:45:16.300 : :01:45:16:300 01:55:01.150 : :01:55:01:150 02:05:00.150 : :02:05:00:150 [/spoiler] [/color][/b][/center]

Land Of Mine - Sotto la sabbia - Under sandet (2015).H264.Italian.Ger.Ac3.5.1iCV-MIRCrew

Language: | Size: 1.55 GB | Seed: 1 | Leech: 50

Description:

Land Of Mine - Sotto la sabbia - Under sandet (2015).H264.Italian.Ger.Ac3.5.1.sub.ita.eng.iCV-MIRCrew [center] [color=red][b][img]http://s23.postimg.org/b9yhws27f/0sc_Del1.png[/img] [u]NO FOUND ONLY ORIGINAL RELEASE[/u] [img]http://i.imgur.com/GDNQx1Z.png[/img] My release is always in double track audio italian and Original audio for select it use VLC or dvd player home not use wmp ENGLISH SUBTITLE INSIDE Land Of Mine - Sotto la sabbia (2015) [img]https://extraimage.net/images/2017/03/06/ccaedb368f192640341f1e0f3482c384.png[/img] [URL=http://www.imdb.com/title/tt3841424/][IMG]http://www.userlogos.org/files/logos/Sucka/imdb_new.png[/IMG][/URL] [img]http://i.imgur.com/fGu1rKv.png[/img] Riconoscimenti 2015 - Tokyo International Film Festival Miglior attore a Roland Møller e Louis Hofmann (ex eaquo) 2016 - Premio Bodil Miglior film Miglior attore a Roland Møller Miglior attore non protagonista a Louis Hofmann 2016 - Göteborg Film Festival Dragon Award per il miglior film nordico Scandinavian Locations Award 2016 - National Board of Review Awards Migliori cinque film stranieri 2017 - Premio Oscar Candidatura per il Miglior film straniero Louis Hofmann e Roland Møller in una scena del film Titolo originale Under Sandet Lingua originale danese, tedesco Paese di produzione Danimarca, Germania Anno 2015 Durata 100 min Genere drammatico Regia Martin Zandvliet Sceneggiatura Martin Zandvliet Produttore Malte Grunert, Mikael Chr. Rieks Casa di produzione Nordisk Film, Amusement Park Films Distribuzione (Italia) Notorious Pictures Fotografia Camilla Hjelm Knudsen Montaggio Per Sandholt, Molly Malene Stensgaard Musiche Sune Martin [img]http://i.imgur.com/W7kBqiE.png[/img] Roland Møller: Sergente Rasmussen Mikkel Følsgaard: Tenente Ebbe Laura Bro: Karin Louis Hofmann: Sebastian Schumann Joel Basman: Helmut Morbach Oskar Bökelmann: Ludwig Haffke Emil Buschow: Werner Lessner Leon Seidel: Wilhelm Hahn Karl Alexander Seider: Manfred Maximilian Beck: August Kluger August Carter: Rodolf Selke Tim Bulow: Hermann Marklein Alexander Rasch: Friedrich Schnurr Julius Kochinke: Johann Wolff [img]http://i.imgur.com/bFK3ggF.png[/img] Nei giorni successivi la resa della Germania nel maggio 1945, un gruppo di giovani prigionieri di guerra tedeschi viene inviato dalle autorità danesi lungo i confini della Danimarca con l'ordine di rimuovere più di due milioni di mine che i tedeschi avevano sotterrato nella sabbia lungo la costa. Con le loro mani nude i ragazzi sono costretti a svolgere questo pericoloso compito sotto la guida del sergente danese Carl Leopold Rasmussen [img]http://i.imgur.com/48xHWWH.png[/img] In post-World War II Denmark, a group of young German POWs is forced to clear a beach of thousands of land mines under the watch of a Danish Sergeant who slowly learns to appreciate their plight. . [img]http://i.imgur.com/K8bfNTy.png[/img] [url=https://extraimage.net/image/2p7u][img]https://extraimage.net/images/2017/03/06/08b213f544fe685a42e96a70ec8fbb35.th.png[/img][/url] [url=https://extraimage.net/image/2p7V][img]https://extraimage.net/images/2017/03/06/fc56cc68c3c9bb570f57536c66304ce6.th.png[/img][/url] [url=https://extraimage.net/image/2p7v][img]https://extraimage.net/images/2017/03/06/8d4e2167457cda2d09b0ae09762fbd59.th.png[/img][/url] [img]http://i.imgur.com/aVrMohH.png[/img] [spoiler] General Unique ID : 217728252653974593420566408410199476100 (0xA3CCEFA7B15F13E6946946975E6BC784) Complete name : Land Of Mine - Sotto la sabbia (2015).H264.Ita.Ger.sub.ita.eng.iCV-MIRCrew.mkv Format : Matroska Format version : Version 2 File size : 1.55 GiB Duration : 1h 41mn Overall bit rate : 2 191 Kbps Movie name : VISIT www.icv-crew.org Encoded date : UTC 2017-03-04 16:15:37 Writing application : Lavf54.63.100 Writing library : Lavf54.63.100 COPYRIGHT : robbyrs Video ID : 1 Format : AVC Format/Info : Advanced Video Codec Format profile : [email protected] Format settings, CABAC : Yes Format settings, ReFrames : 2 frames Codec ID : V_MPEG4/ISO/AVC Duration : 1h 41mn Bit rate : 1 290 Kbps Width : 716 pixels Height : 300 pixels Display aspect ratio : 2.40:1 Frame rate mode : Variable Frame rate : 24.000 fps Color space : YUV Chroma subsampling : 4:2:0 Bit depth : 8 bits Scan type : Progressive Bits/(Pixel*Frame) : 0.250 Stream size : 908 MiB (57%) Writing library : x264 core 130 r2273 Encoding settings : cabac=1 / ref=2 / deblock=1:0:0 / analyse=0x1:0x131 / me=hex / subme=7 / psy=1 / psy_rd=1.00:0.00 / mixed_ref=0 / me_range=16 / chroma_me=1 / trellis=1 / 8x8dct=0 / cqm=0 / deadzone=21,11 / fast_pskip=1 / chroma_qp_offset=-2 / threads=12 / lookahead_threads=2 / sliced_threads=0 / nr=0 / decimate=1 / interlaced=0 / bluray_compat=0 / constrained_intra=0 / bframes=3 / b_pyramid=0 / b_adapt=1 / b_bias=0 / direct=3 / weightb=1 / open_gop=0 / weightp=2 / keyint=240 / keyint_min=24 / scenecut=40 / intra_refresh=0 / rc_lookahead=40 / rc=2pass / mbtree=1 / bitrate=1290 / ratetol=1.0 / qcomp=0.60 / qpmin=10 / qpmax=69 / qpstep=4 / cplxblur=20.0 / qblur=0.5 / vbv_maxrate=24000 / vbv_bufsize=24000 / nal_hrd=none / ip_ratio=1.40 / aq=1:1.00 Language : Italian Default : Yes Forced : Yes DURATION : 01:41:22.875000000 NUMBER_OF_FRAMES : 145989 NUMBER_OF_BYTES : 4979941038 _STATISTICS_WRITING_APP : mkvmerge v9.2.0 ('Photograph') 64bit _STATISTICS_WRITING_DATE_UTC : 2016-07-08 07:59:13 _STATISTICS_TAGS : BPS DURATION NUMBER_OF_FRAMES NUMBER_OF_BYTES Audio #1 ID : 2 Format : AC-3 Format/Info : Audio Coding 3 Mode extension : CM (complete main) Codec ID : A_AC3 Duration : 1h 41mn Bit rate mode : Constant Bit rate : 448 Kbps Channel(s) : 6 channels Channel positions : Front: L C R, Side: L R, LFE Sampling rate : 48.0 KHz Bit depth : 16 bits Compression mode : Lossy Delay relative to video : 1mn 5s Stream size : 325 MiB (20%) Language : Italian Default : Yes Forced : Yes DURATION : 01:41:22.902000000 NUMBER_OF_FRAMES : 570272 NUMBER_OF_BYTES : 1147387264 _STATISTICS_WRITING_APP : mkvmerge v9.2.0 ('Photograph') 64bit _STATISTICS_WRITING_DATE_UTC : 2016-07-08 07:59:13 _STATISTICS_TAGS : BPS DURATION NUMBER_OF_FRAMES NUMBER_OF_BYTES Audio #2 ID : 3 Format : AC-3 Format/Info : Audio Coding 3 Mode extension : CM (complete main) Codec ID : A_AC3 Duration : 1h 41mn Bit rate mode : Constant Bit rate : 448 Kbps Channel(s) : 6 channels Channel positions : Front: L C R, Side: L R, LFE Sampling rate : 48.0 KHz Bit depth : 16 bits Compression mode : Lossy Delay relative to video : 1mn 5s Stream size : 325 MiB (20%) Language : German Default : No Forced : No DURATION : 01:41:22.912000000 NUMBER_OF_FRAMES : 190091 NUMBER_OF_BYTES : 486632960 _STATISTICS_WRITING_APP : mkvmerge v9.2.0 ('Photograph') 64bit _STATISTICS_WRITING_DATE_UTC : 2016-07-08 07:59:13 _STATISTICS_TAGS : BPS DURATION NUMBER_OF_FRAMES NUMBER_OF_BYTES Text #1 ID : 4 Format : UTF-8 Codec ID : S_TEXT/UTF8 Codec ID/Info : UTF-8 Plain Text Title : Italiano SDH Language : Italian Default : No Forced : No DURATION : 01:32:36.334000000 NUMBER_OF_FRAMES : 879 NUMBER_OF_BYTES : 27672 _STATISTICS_WRITING_APP : mkvmerge v9.2.0 ('Photograph') 64bit _STATISTICS_WRITING_DATE_UTC : 2016-07-08 07:59:13 _STATISTICS_TAGS : BPS DURATION NUMBER_OF_FRAMES NUMBER_OF_BYTES Text #2 ID : 5 Format : UTF-8 Codec ID : S_TEXT/UTF8 Codec ID/Info : UTF-8 Plain Text Title : Italiano forced (VUOTO) Language : Italian Default : Yes Forced : No DURATION : 00:00:01.000000000 NUMBER_OF_FRAMES : 1 NUMBER_OF_BYTES : 0 _STATISTICS_WRITING_APP : mkvmerge v9.2.0 ('Photograph') 64bit _STATISTICS_WRITING_DATE_UTC : 2016-07-08 07:59:13 _STATISTICS_TAGS : BPS DURATION NUMBER_OF_FRAMES NUMBER_OF_BYTES Menu 00:00:00.000 : :Capitolo 01 00:01:38.042 : :Capitolo 02 00:07:02.958 : :Capitolo 03 00:11:25.667 : :Capitolo 04 00:18:15.958 : :Capitolo 05 00:22:58.875 : :Capitolo 06 00:28:15.375 : :Capitolo 07 00:34:04.250 : :Capitolo 08 00:39:08.458 : :Capitolo 09 00:45:48.458 : :Capitolo 10 00:51:09.250 : :Capitolo 11 00:56:47.000 : :Capitolo 12 01:03:13.917 : :Capitolo 13 01:07:33.125 : :Capitolo 14 01:13:37.667 : :Capitolo 15 01:18:17.042 : :Capitolo 16 01:20:26.542 : :Capitolo 17 01:25:22.167 : :Capitolo 18 01:31:34.083 : :Capitolo 19 01:35:51.500 : :Capitolo 20 [/spoiler] [/color][/b][/center]

Mechanic.Resurrection.2016.iTALiAN.AC3.BRRip.XviD-T4P3

Language: | Size: 1.42 GB | Seed: 4 | Leech: 0

Description:

Mechanic: Resurrection Titolo originale: Mechanic: Resurrection Conosciuto anche come: Mechanic 2 Nazione: Francia, U.S.A. Anno: 2016 Genere: Azione, Thriller Durata: 98' Regia: Dennis Gansel Cast: Jason Statham, Jessica Alba, Tommy Lee Jones, Michelle Yeoh, Sam Hazeldine, John Cenatiempo, Toby Eddington, Femi Elufowoju Jr., Anteo Quintavalle, Yayaying Rhatha Phongam, Bonnie Zellerbach Produzione: Chartoff-Winkler Productions, Davis-Films, ME2 Productions Distribuzione: Eagle Pictures Data di uscita: 24 Novembre 2016 (cinema) Trama: Il lavoro di un meccanico non finisce mai. Dopo aver inscenato anni prima la sua morte a seguito di una grande esplosione, Arthur Bishop è convinto di essere finalmente uscito dal mondo dei sicari. L’obiettivo è una vita ritirata e nel pieno anonimato. Ma Bishop non è riuscito a ingannare tutti. Qualcuno sa che lui è ancora vivo, qualcuno di molto vicino a lui. Lo spietato uomo d’affari Crain ha bisogno dell’aiuto di un sicario che possa far apparire le morti delle sue vittime come degli incidenti. Crain è l’unico che ancora conosce i segreti della vecchia vita di Bishop e farà di tutto per tirare fuori “il meccanico” dal suo isolamento e usufruire dei suoi unici servizi. In una situazione normale, Bishop non avrebbe preso inconsiderazione questa possibilità, in quanto le minacce non intaccano di certo la sua decisione. Questo però è un nemico particolare, perché sa quale carta giocare per spingere Bishop ad accettare le sue richieste: la salvezza di una donna misteriosa per cui Bishop prova dei sentimenti. Senza altra via di uscita, Bishop accetta di tornare ancora una volta in quel mondo che aveva così dolorosamente cercato di lasciarsi alle spalle. Questa volta il suo compito prevede l’eliminazione di tre sgradevoli obiettivi, protetti da livelli altissimi di sicurezza, incluso uno dei maggiori trafficanti d’armi del mondo. Bishop dovrà girare il pianeta al fine portare a termine il suo compito per amore di una donna. Se però riuscisse a scoprire come questi tre uomini siano collegati tra loro e perché il suo datore di lavoro li vuole eliminare, potrebbe trovare la leva che gli occorre per rivoltare la situazione a sfavore di questo uomo crudele che per il momento ha in mano le carte migliori. Per la prima volta nella sua professione il meccanico ha una nuova motivazione per completare il suo lavoro. Perché questa volta si tratta di affari molto, molto personali...

Matrix (1999 Ita/Eng) + EXTRA [1080p] [Team mulnic]

Language: | Size: 13.88 GB | Seed: 1 | Leech: 1

Description:

Titolo originale: The Matrix Nazionalità: Stati Uniti d'America, Australia Anno: 1999 Genere: fantascienza, azione Regia: Larry e Andy Wachowski Durata: 136 min Cast: Keanu Reeves: Thomas A. Anderson, noto come "Neo" Laurence Fishburne: Morpheus Carrie-Anne Moss: Trinity Hugo Weaving: agente Smith Joe Pantoliano: Cypher Julian Arahanga: Apoc Tim Cortent: Dozer Marcus Chong: Tank Matt Doran: Mouse Gloria Foster: l'Oracolo Belinda McClory: Switch Paul Goddard: agente Brown Robert Taylor: agente Jones Rex Linn: agente Donner Ada Nicodemou: DuJour Trama: Un hacker di nome Neo, grazie all'aiuto del misterioso Morpheus, scopre che quella per lui è la "realtà" non è altro che un facciata, un mondo virtuale creato dal super computer Matrix per controllare gli esseri umani. Ma Morpheus è convinto che Neo sia il prescelto di cui parla un'antica profezia, e che sarà in grado di guidare la rivoluzione contro Matrix. Report: http://freetexthost.com/1popp5qddg Note: Il Team mulnic è stata una crew fondata da nicola939 e multi che aveva come solo scopo quello di soddisfare le richieste di film fatte dagli utenti. La presente release è alla memoria di multi, mio grande compagno di avventure, a lui va tutta la mia riconoscenza. Extra: In questa versione sono compresi gli extra: 1 - Dentro la storia 1 - Commenti 1 - Introduzione scritta dei fratelli Wachowski 2 - The Matrix revisited 2.2.50 3 - Dietro le quinte 1 - Inizio sequenza 42.58 2 - La realizzazione del film 25.50 3 - La danza del maestro: la coreografia di Yuen Wo Ping 5.48 4 - La lotta nel bagno e la parete bagnata 3.15 5 - Ragazza in rosso 0.46 6 - Wabash e Lake 2.36 7 - Agente a terra 1.32 8 - C'è dell'altro 3.09 4 - Segui il coniglio bianco 1 - Inizio sequenza 23.01 2 - Trinity fugge 1.06 3 - Pod 2.24 4 - Kung fu 3.57 5 - Il muro 2.04 6 - La lotta nel bagno 2.05 7 - L'atrio dell'edificio governativo 4.08 8 - Il tetto dell'edificio governativo 2.35 9 - Elicottero 1.02 10 - Metropolitana 3.35 5 - Prendi la pillola rossa 1 - Inizio sequenza 17.42 2 - Che cos'è bullet time? 6.15 3 - L'idea 11.27 2 - Inserti audio 1 - Rock is dead 3.19 3 - Trailer 1 - Teaser 0.59 2 - Trailer 2.27 3 - Spot TV 1 - Inizio sequenza 3.46 2 - Manson 0.32 3 - Reality 0.32 4 - Forget everything 0.32 5 - Mistery 0.32 6 - Buckle up 0.17 7 - The Answer 0.32 8 - Kung fu 0.32 9 - Whoa 0.17

MasterChef Italia S06e21-22 Versione 720p [SATRip - 720p - H264 - Ita Aac] HDTVRip

Language: | Size: 3.21 GB | Seed: 770 | Leech: 207

Description:

Full Title: MasterChef Italia S06e19-20 Versione 720p [SATRip - 720p - H264 - Ita Aac] HDTVRip Descrizione: .: Scheda della serie :. Anno: 2011-in corso Genere: Talent Show Regia: Umberto Spinazzola Cast: Bruno Barbieri; Carlo Cracco; Joe Bastianich; Antonino Cannavacciuolo .: Descrizione :. Dopo un anno di famelica attesa prende il via la sesta stagione di MasterChef Italia. I fornelli della cucina più famosa della TV stanno per riaccendersi. Inizia la nuova stagione MasterChef con i giudici riconfermati Bruno Barbieri, Joe Bastianich, Antonino Cannavacciuolo e Carlo Cracco.

Emmerson Nogueira - Acustica 3cd [Flac][TntVillage]

Language: | Size: 1.27 GB | Seed: 31 | Leech: 55

Description:

[img]https://extraimage.net/images/2017/03/04/e84dc6054eedee32950ce1b7585591f1.jpg[/img] Artist: Emmerson Nogueira Title Of Album: Acustico [3CD Box] Year: 2001,2002,2003 Genre: Rock Source: CD Quality: FLAC + Cue + M3U8 + Log + Cover [Front] [img]https://extraimage.net/images/2017/03/04/f4e5156dd019acb2fae38a35ee20f7a9.jpg[/img] CD 1 1. Emmerson Nogueira - Smoke On The Water [03:53] 2. Emmerson Nogueira - I Want to Break Free [03:24] 3. Emmerson Nogueira - Dust In The Wind [02:39] 4. Emmerson Nogueira - Tears In Heaven [04:21] 5. Emmerson Nogueira - Every Breath You Take [03:27] 6. Emmerson Nogueira - Horse With No Name [03:48] 7. Emmerson Nogueira - Mrs. Robinson [03:54] 8. Emmerson Nogueira - Have You Ever Seen The Rain [02:40] 9. Emmerson Nogueira - Holding Back The Years [04:12] 10. Emmerson Nogueira - Give a Little Bit [02:58] 11. Emmerson Nogueira - Listen to The Music [03:31] 12. Emmerson Nogueira - Unchain My Heart [03:26] 13. Emmerson Nogueira - Show Me The Way [03:45] 14. Emmerson Nogueira - Hotel California [05:12] 15. Emmerson Nogueira - Wish You Were Here [03:56] 16. Emmerson Nogueira - Emotion [04:12] 17. Emmerson Nogueira - Forever Young [02:55] 18. Emmerson Nogueira - Roxanne [03:24] 19. Emmerson Nogueira - Kayleigh [03:48] 20. Emmerson Nogueira - Owner Of a Lonely Heart [03:59] Playing Time.........: 01:13:31 Total Size...........: 443,74 MB [img]https://extraimage.net/images/2017/03/04/f6bb6deeaedb11876aacbbac9c1f2c6b.jpg[/img] CD 2 1. Emmerson Nogueira - Tom Sawyer [03:23] 2. Emmerson Nogueira - Long Train Runnin' [02:57] 3. Emmerson Nogueira - Blowin' In The Wind [03:50] 4. Emmerson Nogueira - Follow You Follow Me [04:03] 5. Emmerson Nogueira - Crazy [04:29] 6. Emmerson Nogueira - You've Got A Friend [04:58] 7. Emmerson Nogueira - Ventura Highway [03:28] 8. Emmerson Nogueira - All My Love [05:12] 9. Emmerson Nogueira - Mercedes Benz [02:45] 10. Emmerson Nogueira - Every Little Thing She Does Is Magic[03:10] 11. Emmerson Nogueira - Africa [04:27] 12. Emmerson Nogueira - More Than Words [03:53] 13. Emmerson Nogueira - The Boxer [04:33] 14. Emmerson Nogueira - The Logical Song [03:08] 15. Emmerson Nogueira - Ticket To Ride [03:23] 16. Emmerson Nogueira - Wild World [04:15] 17. Emmerson Nogueira - I Don't Wanna Talk About It [04:06] 18. Emmerson Nogueira - Skyline Pigeon [04:04] Playing Time.........: 01:10:12 Total Size...........: 447,12 MB [img]https://extraimage.net/images/2017/03/04/4d5ef143b5e0dbbdc024921183dd177c.jpg[/img] CD 3 1. Emmerson Nogueira - Radio Ga Ga [04:50] 2. Emmerson Nogueira - I Heard It Through the Grapevine [03:21] 3. Emmerson Nogueira - Heaven [04:18] 4. Emmerson Nogueira - I Still Haven't Found What I'm Looking For[04:00] 5. Emmerson Nogueira - It's Raining Again [03:53] 6. Emmerson Nogueira - Diamonds On The Inside [04:48] 7. Emmerson Nogueira - My Sweet Lord [04:34] 8. Emmerson Nogueira - Rosanna [03:40] 9. Emmerson Nogueira - Money [03:13] 10. Emmerson Nogueira - Sailing [04:19] 11. Emmerson Nogueira - Baby I Love Your Way [05:00] 12. Emmerson Nogueira - Happy Man [03:16] 13. Emmerson Nogueira - Against All Odds (Take a Look at Me Now)[03:12] 14. Emmerson Nogueira - Ordinary World [04:07] 15. Emmerson Nogueira - Everybody Wants to Rule the World [04:16] 16. Emmerson Nogueira - Overkill [03:29] Playing Time.........: 01:04:23 Total Size...........: 408,87 MB

Legend (2015).H264.Italian.English.Ac3.5.1.sub.ita.iCV-MIRCrew

Language: | Size: 2.01 GB | Seed: 116 | Leech: 86

Description:

Legend (2015).H264.Italian.English.Ac3.5.1.sub.ita.iCV-MIRCrew [center] [color=red][b][img]http://s23.postimg.org/b9yhws27f/0sc_Del1.png[/img] [u]NO FOUND ONLY ORIGINAL RELEASE[/u] [img]http://i.imgur.com/GDNQx1Z.png[/img] My release is always in double track audio italian and Original audio for select it use VLC or dvd player home not use wmp Legend (2015) [img]https://anonimag.es/i/we1c6b.png[/img] [URL=http://www.imdb.com/title/tt3569230/][IMG]http://www.userlogos.org/files/logos/Sucka/imdb_new.png[/IMG][/URL] [img]http://i.imgur.com/fGu1rKv.png[/img] DATA USCITA: 03 marzo 2016 GENERE: Thriller, Drammatico ANNO: 2015 REGIA: Brian Helgeland SCENEGGIATURA: Brian Helgeland FOTOGRAFIA: Dick Pope MONTAGGIO: Peter McNulty MUSICHE: Carter Burwell PRODUZIONE: Cross Creek Pictures, Working Title Films DISTRIBUZIONE: 01 Distribution PAESE: Gran Bretagna DURATA: 131 Min [img]http://i.imgur.com/W7kBqiE.png[/img] Tom Hardy, Taron Egerton, Emily Browning, Colin Morgan, Christopher Eccleston, David Thewlis, Paul Anderson, Tara Fitzgerald, Chazz Palminteri [img]http://i.imgur.com/bFK3ggF.png[/img] La vera storia dell'ascesa e della caduta dei famigerati gangster londinesi Reggie e Ronnie Kray. Insieme, i gemelli Kray conquistarono la città di Londra. Tuttavia il loro legame e il loro impero vennero minati da violente lotte di potere e da una donna, in un crescendo di follia. LEGEND è un classico noir che racconta la storia segreta degli anni '60 e gli eventi straordinari che hanno favorito l'egemonia criminale dei gemelli Kray. [img]http://i.imgur.com/48xHWWH.png[/img] The true story of London's most notorious gangsters, twins Reggie and Ronnie Kray. As the brothers rise through the criminal underworld, Ronnie advances the family business with violence and intimidation while Reggie struggles to go legitimate for local girl Frances Shea. In and out of prison, Ronnie's unpredictable tendencies and the slow disintegration of Reggie's marriage threaten to bring the brothers' empire tumbling to the ground. [img]http://i.imgur.com/K8bfNTy.png[/img] [url=https://pixhost.org/show/50/37994145_vlcsnap-2017-03-05-09h17m57s324.png][img]https://t9.pixhost.org/thumbs/50/37994145_vlcsnap-2017-03-05-09h17m57s324.png[/img][/url] [url=https://pixhost.org/show/50/37994146_vlcsnap-2017-03-05-09h18m10s653.png][img]https://t9.pixhost.org/thumbs/50/37994146_vlcsnap-2017-03-05-09h18m10s653.png[/img][/url] [url=https://pixhost.org/show/50/37994147_vlcsnap-2017-03-05-09h18m27s659.png][img]https://t9.pixhost.org/thumbs/50/37994147_vlcsnap-2017-03-05-09h18m27s659.png[/img][/url] [img]http://i.imgur.com/aVrMohH.png[/img] [spoiler] General Unique ID : 39410117171727082314040890349932182338 (0x1DA61CCB4FAFCD7162FA6C518D5AFB42) Complete name : Legend (2015).ita.eng.sub.ita.eng.iCV-MIRCrew.mkv Format : Matroska Format version : Version 2 File size : 2.01 GiB Duration : 2h 11mn Overall bit rate : 2 191 Kbps Movie name : VISIT www.icv-crew.org Encoded date : UTC 2016-07-16 12:02:36 Writing application : Lavf54.63.100 Writing library : Lavf54.63.100 COPYRIGHT : robbyrs Video ID : 1 Format : AVC Format/Info : Advanced Video Codec Format profile : [email protected] Format settings, CABAC : Yes Format settings, ReFrames : 2 frames Codec ID : V_MPEG4/ISO/AVC Duration : 2h 11mn Bit rate : 1 290 Kbps Width : 720 pixels Height : 304 pixels Display aspect ratio : 2.40:1 Frame rate mode : Variable Frame rate : 24.000 fps Color space : YUV Chroma subsampling : 4:2:0 Bit depth : 8 bits Scan type : Progressive Bits/(Pixel*Frame) : 0.246 Stream size : 1.15 GiB (57%) Writing library : x264 core 130 r2273 Encoding settings : cabac=1 / ref=2 / deblock=1:0:0 / analyse=0x1:0x131 / me=hex / subme=7 / psy=1 / psy_rd=1.00:0.00 / mixed_ref=0 / me_range=16 / chroma_me=1 / trellis=1 / 8x8dct=0 / cqm=0 / deadzone=21,11 / fast_pskip=1 / chroma_qp_offset=-2 / threads=12 / lookahead_threads=2 / sliced_threads=0 / nr=0 / decimate=1 / interlaced=0 / bluray_compat=0 / constrained_intra=0 / bframes=3 / b_pyramid=0 / b_adapt=1 / b_bias=0 / direct=3 / weightb=1 / open_gop=0 / weightp=2 / keyint=240 / keyint_min=24 / scenecut=40 / intra_refresh=0 / rc_lookahead=40 / rc=2pass / mbtree=1 / bitrate=1290 / ratetol=1.0 / qcomp=0.60 / qpmin=10 / qpmax=69 / qpstep=4 / cplxblur=20.0 / qblur=0.5 / vbv_maxrate=24000 / vbv_bufsize=24000 / nal_hrd=none / ip_ratio=1.40 / aq=1:1.00 Language : English Default : Yes Forced : No DURATION : 02:11:26.125000000 NUMBER_OF_FRAMES : 189267 NUMBER_OF_BYTES : 6572270588 _STATISTICS_WRITING_APP : mkvmerge v9.1.0 ('Little Earthquakes') 64bit _STATISTICS_WRITING_DATE_UTC : 2016-07-16 12:02:36 _STATISTICS_TAGS : BPS DURATION NUMBER_OF_FRAMES NUMBER_OF_BYTES Audio #1 ID : 2 Format : AC-3 Format/Info : Audio Coding 3 Mode extension : CM (complete main) Codec ID : A_AC3 Duration : 2h 11mn Bit rate mode : Constant Bit rate : 448 Kbps Channel(s) : 6 channels Channel positions : Front: L C R, Side: L R, LFE Sampling rate : 48.0 KHz Bit depth : 16 bits Compression mode : Lossy Stream size : 421 MiB (20%) Language : Italian Default : Yes Forced : No DURATION : 02:11:26.176000000 NUMBER_OF_FRAMES : 246443 NUMBER_OF_BYTES : 630894080 _STATISTICS_WRITING_APP : mkvmerge v9.1.0 ('Little Earthquakes') 64bit _STATISTICS_WRITING_DATE_UTC : 2016-07-16 12:02:36 _STATISTICS_TAGS : BPS DURATION NUMBER_OF_FRAMES NUMBER_OF_BYTES Audio #2 ID : 3 Format : AC-3 Format/Info : Audio Coding 3 Mode extension : CM (complete main) Codec ID : A_AC3 Duration : 2h 11mn Bit rate mode : Constant Bit rate : 448 Kbps Channel(s) : 6 channels Channel positions : Front: L C R, Side: L R, LFE Sampling rate : 48.0 KHz Bit depth : 16 bits Compression mode : Lossy Stream size : 421 MiB (20%) Language : English Default : No Forced : No DURATION : 02:11:26.176000000 NUMBER_OF_FRAMES : 246443 NUMBER_OF_BYTES : 630894080 _STATISTICS_WRITING_APP : mkvmerge v9.1.0 ('Little Earthquakes') 64bit _STATISTICS_WRITING_DATE_UTC : 2016-07-16 12:02:36 _STATISTICS_TAGS : BPS DURATION NUMBER_OF_FRAMES NUMBER_OF_BYTES Text #1 ID : 4 Format : UTF-8 Codec ID : S_TEXT/UTF8 Codec ID/Info : UTF-8 Plain Text Language : Italian Default : No Forced : No DURATION : 02:03:31.708000000 NUMBER_OF_FRAMES : 1320 NUMBER_OF_BYTES : 55091 _STATISTICS_WRITING_APP : mkvmerge v9.1.0 ('Little Earthquakes') 64bit _STATISTICS_WRITING_DATE_UTC : 2016-07-16 12:02:36 _STATISTICS_TAGS : BPS DURATION NUMBER_OF_FRAMES NUMBER_OF_BYTES Text #2 ID : 5 Format : UTF-8 Codec ID : S_TEXT/UTF8 Codec ID/Info : UTF-8 Plain Text Title : SDH Language : English Default : No Forced : No DURATION : 02:07:14.522000000 NUMBER_OF_FRAMES : 2109 NUMBER_OF_BYTES : 76748 _STATISTICS_WRITING_APP : mkvmerge v9.1.0 ('Little Earthquakes') 64bit _STATISTICS_WRITING_DATE_UTC : 2016-07-16 12:02:36 _STATISTICS_TAGS : BPS DURATION NUMBER_OF_FRAMES NUMBER_OF_BYTES Menu 00:00:00.000 : :00:00:00.000 00:10:48.958 : :00:10:48.958 00:17:48.542 : :00:17:48.542 00:28:15.875 : :00:28:15.875 00:37:58.000 : :00:37:58.000 00:49:00.042 : :00:49:00.042 01:00:01.458 : :01:00:01.458 01:08:34.917 : :01:08:34.917 01:16:20.208 : :01:16:20.208 01:32:49.333 : :01:32:49.333 01:43:33.583 : :01:43:33.583 01:52:17.125 : :01:52:17.125 [/spoiler] [/color][/b][/center]

Michael Bolton - Vintage (2003), [Mp3][Tnt]

Language: | Size: 93.28 MB | Seed: 22 | Leech: 4

Description:

Artist: Michael Bolton Title: Vintage (Special Edition) Year Of Release: 2003 Genre: Jazz, Pop Label: Universal Music Tracks: 12 CDs: 1 Format: Mp3 Quality: 320 kbps Included Scans: Si Archive Size: 93 Mb -------------- 01. The Very Thought Of You [3:22] 02. All The Way [3:32] 03. A Kiss To Build A Dream On [3:02] 04. If I Could [3:08] 05. At Last [3:38] 06. When I Fall In Love [3:19] 07. You Don't Know Me [3:14] 08. Smile [3:18] 09. Daddy's Little Girl [2:12] 10. Summertime [4:32] 11. What Are You Doing The Rest Of Your Life [3:00] 12. God Bless The Child [3:58]

Red e Toby nemiciamici - The Fox and the Hound (1981 Ita/Eng) + EXTRA [1080p] [iCV-MIRCrew]

Language: | Size: 5.07 GB | Seed: 1 | Leech: 2

Description:

Titolo originale: The Fox and the Hound Nazionalità: USA Anno: 1981 Genere: animazione, avventura, drammatico, commedia Regia: Art Stevens, Ted Berman, Richard Rich Durata: 83 min Trama: Una volpe e un cane, da cuccioli, si incontrano nel bosco e diventano amici inseparabili. Il cane, però, viene addestrato dal suo padrone alla caccia e presto si rende conto che l'amica diventa selvaggina. Iniziata la caccia, il cane si trova in difficoltà ma la volpe cacciata non esita a correre in aiuto del vecchio amico. Report: http://freetexthost.com/y2uzhbw132 Extra: In questa versione sono compresi gli extra: 1 - Unlikely Friends 2 - Il Passaggio del Testimone - Come nasce Red e Toby Nemiciamici 3 - Amici per la Pelle - Canta Con Noi 4 - Super Pluto - Cartone Animato 5 - Lambert il leone tenerone 6 - Qua la zampa

Bongo e i tre avventurieri - Fun and Fancy Free (1947 Ita/Eng) + EXTRA [1080p] [iCV-MIRCrew]

Language: | Size: 4.34 GB | Seed: 1 | Leech: 1

Description:

Titolo originale: Fun & Fancy Free Nazionalità: USA Anno: 1947 Genere: animazione, musicale, fantastico Regia: Jack Kinney, Bill Roberts, Hamilton Luske, William Morgan Durata: 70 min Trama: Bongo è un orsacchiotto acrobata cresciuto in circo, quando un bel giorno decide di fuggire per rifugiarsi nel bosco. Qui incontra la bella orsacchiotta Lulubelle. I due s'innamorano e lei, per dimostrare il suo amore, dà uno schiaffo a Bongo, come si usa nel bosco. Ma Bongo, che non capisce tale linguaggio, sentendosi rifiutato e offeso, scappa. Lulubelle nel rincorrerlo allo scopo di spiegargli il malinteso, s'imbatte nell'Orso Gigante che, per sbaglio, riceve da Lulubelle uno schiaffo destinato a Bongo. L'Orso Gigante credendo che la bella orsacchiotta sia innamorata di lui, l'abbraccia con trasporto. Allora Bongo, ingelosito da tale dimostrazione d'amore, sfida l'Orso Gigante in una lotta titanica..."La valle felice":C'era una volta una valle con un castello, dove un'arpa d'oro diffondeva tutt'intorno un suono dolcissimo. Un brutto giorno l'arpa d'oro sparì e la valle diventò un deserto. Fino a quando Topolino, Paperino e Goofy decisero d'andare al Castello del gigante per riprendere l'arpa... Report: http://freetexthost.com/q6w4ffnjm5 Extra: In questa versione è compreso l'extra: 1 - La realizzazione di Bongo e i tre avventurieri