Search Top Tags














Advanced SystemCare Pro v10.1.0.696 + Keys

Language: | Size: 49.36 MB | Seed: 437 | Leech: 76

Description:

Advanced SystemCare The World’s Top System Utility for Superior PC Health. Advanced SystemCare PRO Licnese Keys provides an always-on, automated, all-in-one PC Healthcare Service with anti-spyware, privacy protection, performance tune-ups, and system cleaning capabilities. Optimizing & Cleaning Powerfully and Securely: – Boosts your Registry, system, and Internet for top performance – Optimizes, cleans, and fixes a variety of PC problems with just 1 click – Detects and removes spyware, adware and other malware – Trusted by 150 million users worldwide Protection: – Basic Protection from Security Threats – Enhanced Malware Protection – Surf and Search the Web Safely Performance: – Basic System Optimization – Ultimate System Tuneup for Top Performance – Up to 300% Internet Speedup with Internet Booster – Real-time Optimization with Active Optimize – Deep Windows Registry Clean – Maximum Hard Drive Performance – Over 20 Smart Tools for Daily PC Maintenance Privacy: – Auto Clean for Privacy Security Whenever You Log on – Block Malicious Attempts to Access Your Personal Data - New FaceID – Automatically catches intruders who are secretly accessing your PC and prying into your privacy with new facial recognition technology. - No Annoying Ads and Safer Surfing – Removes various online ads and blocks more malicious websites with the larger online database, supporting Google Chrome, Mozilla Firefox, and Internet Explorer. - Faster Startup – Optimizes startup items to shorten boot time with new Startup Optimization in Clean & Optimize. - Smoother PC – New Resource Manager in Performance Monitor provides an easy way to check the processes taking high RAM/CPU/disk usage in real-time. - No Malicious Modification – Redesigned Homepage Protection shields homepage and search engine against malicious modifications. - No Privacy Leak – Enhanced Privacy Sweep supports cleaning more programs and Windows apps and secures your privacy. - Improved Junk Files Clean – Added cleaning for installed driver packages to free up more disk space. - Always Up-to-date Software – Enhanced Software Updater supports to update more popular programs. - More Powerful Uninstall – Supported uninstalling more stubborn programs & browser toolbars and removing more malicious & ad-based plug-ins with new IObit Uninstaller 6. - Larger Database – Expanded database of Spyware Removal, Real-time Protector, and Registry Fix for a more secure PC. - Better Experience – Brand new intuitive UI and decent support for high DPI displays & high resolution screens. - Supported 36 languages. - And more can be discovered by you. Instructions: 1. Unpack and install 2. Block all out going connections with firewall (Important) 3. Use a given key to register and restart 4. Done.

Advanced SystemCare Pro 10.2.0.721 Multilingual + Keys

Language: | Size: 42.9 MB | Seed: 824 | Leech: 12

Description:

Advanced SystemCare Pro 10.2.0.721 Multilingual Advanced SystemCare 9 PRO provides an always-on, automated, the all-in-one PC optimization utility, specializes in ONE-Click solutions to detect, clean, repair, speed up and eventually protect PC. To better protect users online privacy with Advanced SystemCare 9, Protect tab is newly added, which is designed to provide quick access to protect browsing frombeing tracked by automatically cleaning privacy traces once browser closed and detect and resist the attack of malicious plugin/toolbar by Browser Anti-Tracking and Plugin/Toolbar Cleaner in this tab. Advanced SystemCare 9 is a PC maintenance program that’s incredibly easy to use, the World’s Top System Utility for Superior PC Health! With the novel system technology, Advanced SystemCare empowers you to run your computer faster, more stably and more efficiently than with any other system utilities. Advanced SystemCare Pro 9 Features: • Keeps your PC running at peak performance. Fully optimizes Windows for ultimate system performance and top Internet speed by unleashing the built-in power of your system, based on how you use your PC and your network configuration. It turns your PC into a business PC, a productive workstation, an entertainment center, a game machine, or a scientific computing PC. • Defends PC security with extra protection. Detects and analyzes Windows security environment. Scans and removes spyware and adware using up-to-date definition files in order to prevent spyware, hackers and hijackers from installing malicious programs on your computer. Erases and updates your PC’s activity histories. • One click to solve as many as 10 common PC problems. Advanced SystemCare inherits the ease-of-use from previous versions, with more powerful capabilities. With one click, it scans and repairs ten PC problems and protects your PC from hidden security threats. • Real-time optimization with ActiveBoost function. ActiveBoost, technology that actively runs in the background intelligently managing system resources in real-time, constantly detects inactive resources and optimizes CPU and RAM usage. • More than 20 dedicated smart tools for everyday PC maintenance. Advanced SystemCare integrates IObit’s latest Toolbox, with more than 20 dedicated smart tools for everyday PC maintenance as well as advanced needs. The Toolbox feature has tools for system cleaning, optimizing and repairing, tools for security enhancement, and tools for full control over the PC system. • Cloud technology to keep database up-to-date. The new “Cloud” technology ensures the database is kept updated at all times so that you can benefit from the latest definitions and configurations. • Boost your PC for working and gaming. You now have two Turbo Boost options, Work Mode and Game Mode. In addition, you can now adjust the configuration of each mode from the main screen. • Next-generation registry deep clean and optimizer. Safely cleans registry junk, compacts registry bloats and defragments the whole registry for maximum performance. Finds and fixes the registry errors that other utilities miss with “Deep Scan” technology. • Automatically works in the background. This powerful utility works continuously, automatically and quietly in the background on your PC. You can set the program on a regular schedule or just let it work automatically when your PC is idle. • New UI technology for quicker start and less resource usage! With the new UI technology, Advanced SystemCare will start up faster using fewer system resources. • New architecture and re-written source codes for 32bit/64bit system! These improvements will make your PC work more efficiently and steadily, stabilizing even older systems. • Improved Care module with more powerful clean and optimization functions. The new developments in the “Care” module include features such as “Start-up Optimization”, which will scan and clean your PC much more effectively. • Powerful hard drive defragmentation. Fast, powerfully and incredibly effective Disk Defrag function to defragment hard drives – up to 10 times faster than other defragmentation tools. Whats New : + New FaceID - Automatically catches intruders who are secretly accessing your PC and prying into your privacy with new facial recognition technology. + No Annoying Ads and Safer Surfing - Removes various online ads and blocks more malicious websites with the larger online database, supporting Google Chrome, Mozilla Firefox, and Internet Explorer. + Faster Startup - Optimizes startup items to shorten boot time with new Startup Optimization in Clean & Optimize. + Smoother PC - New Resource Manager in Performance Monitor provides an easy way to check the processes taking high RAM/CPU/disk usage in real-time. + No Malicious Modification - Redesigned Homepage Protection shields homepage and search engine against malicious modifications. + No Privacy Leak - Enhanced Privacy Sweep supports cleaning more programs and Windows apps and secures your privacy. + Improved Junk Files Clean - Added cleaning for installed driver packages to free up more disk space. + Always Up-to-date Software - Enhanced Software Updater supports to update more popular programs. + More Powerful Uninstall - Supported uninstalling more stubborn programs & browser toolbars and removing more malicious & ad-based plug-ins with new IObit Uninstaller 6. + Larger Database - Expanded database of Spyware Removal, Real-time Protector, and Registry Fix for a more secure PC. + Better Experience - Brand new intuitive UI and decent support for high DPI displays & high resolution screens. * Supported 36 languages. * And more can be discovered by you.

Adobe Prelude CC 2017 v6.0.2.41 (x64) + Crack

Language: | Size: 992.59 MB | Seed: 783 | Leech: 87

Description:

Adobe Prelude CC 2017 v6.0.2.41 (x64) Prelude CC. Metadata ingest, logging, and rough cuts. Rapidly tag and transcode video footage and quickly create a rough cut with Prelude CC — a video logging and ingest tool designed for intuitive, efficient media organization and metadata entry. Prelude translates effortlessly into Adobe Premiere Pro CC, ensuring fluid communication and organization throughout the video production process. Organize your media and create a rough assembly with Prelude. Learn how to use the Prelude media organizer tool to make sure your Premiere Pro project is organized from the start. Organize clips, subclips, and sequences. Learn about the clip naming and metadata features of Prelude and how easy it is to create subclips, build a rough-cut assembly, and send your assembly to Premiere Pro as a sequence for immediate editing. Add comments to your media files. Annotate media files with notes for the editor or director to consult during editing in Premiere Pro. What's New in Prelude CC 2017: • Easier collaboration with Team Projects • Voiceover • Rough cut transitions • Keyboard shortcuts for tagging • Refined user interface with HiDPI support • Multiple audio track support • In and Out point support • File rewrap on ingest • Matching tag colors • Cinema playback mode • Hover scrub thumbnails • File renaming on ingest • Adobe Story integration to turn scripts into metadata • Team collaboration with Adobe Anywhere • File ingest directly into selected bins • Sony XMPilot metadata support • 64-bit support on Windows and Mac OS • Rough cut export • Fully searchable metadata • Full and partial ingest • Transcoding to many formats upon ingest • Heads up logging • Integration into virtually any workflow • Rough cut creation • Thumbnail scrubbing in ingest dialog • Customizable markers • Customizable metadata import • Customizable extensibility System Requirements: - Intel Core2 Duo or AMD Phenom II processor; 64-bit support required - Microsoft Windows 7 with Service Pack 1 (64 bit), Windows 8 (64 bit), Windows 8.1 (64 bit), or Windows 10 (64 bit) - 4GB of RAM (8GB recommended) - 4GB of available hard-disk space; additional free space required during installation (cannot install on removable flash storage devices) - Additional disk space for working files (10GB recommended) - 1024x768 display (1280x800 recommended) - 7200 RPM or faster hard drive (multiple fast disk drives recommended) - QuickTime 7.6.6 software required for QuickTime features - Optional: Adobe-certified GPU card for GPU-accelerated performance

Adobe Audition CC 2017 v10.0.2 (x64) Incl Crack + Portable

Language: | Size: 4.05 GB | Seed: 917 | Leech: 18

Description:

https://extraimage.net/images/2017/01/21/fe5f833e5f1243cea9109fe4e9d4e4d2.jpg Adobe Audition CC 2017 v10.0.2 (x64) Adobe Audition CC. A professional audio workstation for mixing, finishing, and precision editing. Mix, edit, and create audio content with a comprehensive toolset that includes multitrack, waveform, and spectral display. This powerful audio workstation is designed to accelerate video production workflows and audio finishing — and deliver a polished mix with pristine sound. Record audio files. Learn the basic steps of recording an audio file in Audition, including how to adjust recording levels and work with playback controls. Import audio files and browse media. Import audio clips and use the Media Browser to scrub through media before you import it. Remove noise from audio files. Find and remove unwanted sounds and background noise, and learn how to export clips in the proper format. What's New in Audition CC 2017: • Essential Sound panel • Export directly from Audition with Media Encoder • Remix and adjust the duration of a song • Generate synthesized speech • Automatic loudness correction • Dynamic Link for streaming video content from Adobe Premiere Pro • Live relinking • Dual display full-screen video • Auto-backup to Adobe Creative Cloud • Marker import and export • Automatic copying of imported assets to session folder • Timed recordings • Refined user interface with HiDPI support • Expanded video format support • Enhanced Speech Volume Leveler • iXML metadata support • Improved video performance • Ability to read Adobe Soundbooth files • Dolby Digital support • Custom channelization • Enhanced multitrack environment • Sound Remover effect • Click/Pop Eliminator and DeClicker effects • Generate Noise effect • ITU Loudness Meter • Scientific Filter effect • Stereo Expander effect • Pitch Bender and Pitch Shifter effects • Preview editor • Frequency band splitter • Edit waveforms with Spectral Frequency Display • Smart track colors • Paste clips to multitrack session • Merge clips • Phase Analysis panel • Edit Favorites • Upload to SoundCloud.com • Extract CD tracks to a single file • Broadcast-quality audio • Adobe Audition CC: 64-bit • Faster, more precise editing What's New ? System Requirements: - Multicore processor with 64-bit support - Microsoft® Windows® 7 with Service Pack 1 (64 bit), Windows 8 (64 bit), Windows 8.1 (64 bit), or Windows 10 (64 bit) - 4GB of RAM - 4GB of available hard-disk space for installation; plus additional free space required during installation (cannot install on removable flash storage devices) - 1920x1080 or larger display - OpenGL 2.0–capable system - Sound card compatible with ASIO protocol, WASAPI, or Microsoft WDM/MME - USB interface and/or MIDI interface may be required for external control surface support (see manufacturer's specifications for your device) - Optional: Optical drive for CD burning - Internet connection and registration are necessary for required software activation, validation of subscriptions, and access to online service

ACDSee Ultimate 10.3 Build 894 (x64) + Keygen

Language: | Size: 150.32 MB | Seed: 570 | Leech: 40

Description:

ACDSee Ultimate 10.3 Build 894 (x64) As the first digital asset management software with layers, ACDSee Ultimate 9 is able to answer an unparalleled number of creative graphic and image composition needs. Armed with a potent list of adjustment layers, working with layers just became non-destructive, giving you the complete flexibility to create the image composites, photo manipulations, and innovative graphics you've been envisioning. With new ways to track your adjustments and apply them to batches, development snapshots, extended creative capabilities through Photoshop™ plugin support, new lighting and skin tone adjustments, additional ways to compartmentalize, even more drawing tools, improved lens correction, high DPI support, and so much more, ACDSee Ultimate 9 packs a valuable punch. Features: • Develop Mode • Pixel Targeting • Automate Your Adjustments • Chronicle Your Process • Extended Editing Capabilities with Photoshop™ Plugin Support • Your Instant Start • No Aimless Searching • Organize for the Win • Distortion Doctoring with Lens Correction • Take Your Lighting out of the Dark Ages • Improved stabilitys • Updated lens correction profiles • Improved lens detection • Beefed up speed and performance, with GPU-enhanced Develop mode System Requirements: - Microsoft® Windows® 7 (SP1), Windows® 8, Windows® 8.1 & Windows® 10 (64-bit editions only) - Microsoft® Internet Explorer® 9+ - Microsoft® DirectX® 10 or higher - Windows Media® Player 9.0 https://extraimage.net/images/2016/09/14/51bfd94861c9bcbd75606b5092e4c28b.png https://extraimage.net/images/2016/09/14/42c4d821ea6855db4e88de26438b8d9b.png

ACDSee Ultimate 10.2 Build 878 (x64) + Patch

Language: | Size: 149.93 MB | Seed: 833 | Leech: 14

Description:

ACDSee Ultimate 10.2 Build 878 (x64) As the first digital asset management software with layers, ACDSee Ultimate 9 is able to answer an unparalleled number of creative graphic and image composition needs. Armed with a potent list of adjustment layers, working with layers just became non-destructive, giving you the complete flexibility to create the image composites, photo manipulations, and innovative graphics you've been envisioning. With new ways to track your adjustments and apply them to batches, development snapshots, extended creative capabilities through Photoshop™ plugin support, new lighting and skin tone adjustments, additional ways to compartmentalize, even more drawing tools, improved lens correction, high DPI support, and so much more, ACDSee Ultimate 9 packs a valuable punch. Features: • Develop Mode • Pixel Targeting • Automate Your Adjustments • Chronicle Your Process • Extended Editing Capabilities with Photoshop™ Plugin Support • Your Instant Start • No Aimless Searching • Organize for the Win • Distortion Doctoring with Lens Correction • Take Your Lighting out of the Dark Ages • Improved stabilitys • Updated lens correction profiles • Improved lens detection • Beefed up speed and performance, with GPU-enhanced Develop mode System Requirements: - Microsoft® Windows® 7 (SP1), Windows® 8, Windows® 8.1 & Windows® 10 (64-bit editions only) - Microsoft® Internet Explorer® 9+ - Microsoft® DirectX® 10 or higher - Windows Media® Player 9.0 What's New in Version 10 ? https://extraimage.net/images/2016/09/14/51bfd94861c9bcbd75606b5092e4c28b.png https://extraimage.net/images/2016/09/14/42c4d821ea6855db4e88de26438b8d9b.png

Animali.Fantastici.E.Dove.Trovarli.2016.iTALiAN.AC3.BRRip.XviD-T4P3

Language: | Size: 1.4 GB | Seed: 4 | Leech: 0

Description:

Animali Fantastici e Dove Trovarli Titolo originale: Fantastic Beasts and Where to Find Them Nazione: U.S.A., Regno Unito, Palestina Anno: 2016 Genere: Fantastico Durata: 132' Regia: David Yates Cast: Eddie Redmayne, Katherine Waterston, Colin Farrell, Jon Voight, Ron Perlman, Ezra Miller, Samantha Morton, Dan Fogler, Alison Sudol, Carmen Ejogo Produzione: Heyday Films Distribuzione: Warner Bros Italia Data di uscita: 17 Novembre 2016 (cinema) Trama: Il magico mondo Newyorkese del 1926 è minacciato da pericoli sempre crescenti. Qualcosa di misterioso sta seminando la distruzione per le strade, rischiando di far uscire allo scoperto la comunità magica dinanzi ai Babbani, tra cui i Secondi Salemiani, una fazione di fondamentalisti intenti al loro sradicamento. E il potente ed oscuro mago Gellert Grindelwald, dopo aver scatenato il caos in Europa, è sparito... e ora è introvabile. Ignaro delle crescenti tensioni, Newt Scamander arriva in città quasi alla fine di un viaggio intorno al globo alla ricerca e al salvataggio di creature magiche, alcune delle quali vengono nascoste nella sua valigia in pelle apparentemente anonima, ma dalle dimensioni magiche. Ma il potenziale disastro incombe quando l'ignaro Babbano Jacob Kowalski lascia inavvertitamente uscire dalla valigia alcune delle bestie di Newt, in una città già in subbuglio - una grave violazione dello Statuto di Segretezza di cui l'ex Auror Tina Goldstein approfitta, intravedendo l'opportunità di ritrovare il suo posto come investigatrice. Tuttavia, le cose prendono una piega inquietante quando Percival Graves, l'enigmatico Direttore della Sicurezza del Mondo Magico per il MACUSA (Magico Congresso degli Stati Uniti d'America), lancia i suoi sospetti su entrambi Newt... e Tina. Ora alleati, Newt e Tina, insieme con la sorella di Tina, Queenie e il loro nuovo amico Babbano, Jacob, formano un gruppo di improbabili eroi, che deve recuperare le creature mancanti di Newt, prima che possano nuocere. Ma la posta in gioco va oltre l'immaginazione di questi quattro outsider - ora latitanti - non appena la loro missione li pone contro delle forze oscure che rischiano di spingere il mondo magico e quello Babbano, sull'orlo di una guerra.

Avalon (2001).H264.Italian.Pol.Ac3.5.1.sub.ita.iCV-MIRCrew

Language: | Size: 1.37 GB | Seed: 26 | Leech: 5

Description:

Avalon (2001).H264.Italian.Pol.Ac3.5.1.sub.ita.iCV-MIRCrew [center] [color=red][b][img]http://s23.postimg.org/b9yhws27f/0sc_Del1.png[/img] [u]NO FOUND ONLY ORIGINAL RELEASE[/u] [img]http://i.imgur.com/GDNQx1Z.png[/img] My release is always in double track audio italian and Original audio for select it use VLC or dvd player home not use wmp Avalon (2001) [img]https://s13.postimg.org/bdqayb1pj/image.png[/img] [URL=http://www.imdb.com/title/tt0267287/][IMG]http://www.userlogos.org/files/logos/Sucka/imdb_new.png[/IMG][/URL] [img]http://i.imgur.com/fGu1rKv.png[/img] Titolo originale Avalon Lingua originale polacco Paese di produzione Giappone, Polonia Anno 2001 Durata 106 min Rapporto 1.85:1 Genere fantascienza Regia Mamoru Oshii Soggetto Kazunori Ito, Mamoru Oshii Sceneggiatura Kazunori Ito Produttore Atsushi Kubo Produttore esecutivo Shigeru Watanabe, Tetsu Kayama, Toru Shiobara, Naoyuki Sakagami Casa di produzione Bandai Visual, Media Factory, Miramax Distribuzione (Italia) One Movie, Millennium Storm Art director Barbara Nowak Fotografia Grzegorz Kedzierski Montaggio Hiroshi Okuda Effetti speciali Nobuaki Koga Musiche Kenji Kawai Scenografia Barbara Nowak Costumi Magdalena Testawska [img]http://i.imgur.com/W7kBqiE.png[/img] Małgorzata Foremniak: Ash Władysław Kowalski: Game Master Jerzy Gudejko: Murphy Dariusz Biskupski: Bishop Bartłomiej Świderski: Stunner Katarzyna Bargielowska: Receptionist Alicja Sapryk: Gill Zuzanna Kasz: Ghost [img]http://i.imgur.com/bFK3ggF.png[/img] Ash si guadagna da vivere grazie ai crediti che vince in un FPS dal titolo Avalon, videogioco on line a sfondo bellico capace di mettere in contatto milioni di persone contemporaneamente. La sua vita è monotona e si svolge ormai prevalentemente nel gioco, dove combatte in solitaria credendosi causa di un fallimento della propria squadra................ [img]http://i.imgur.com/48xHWWH.png[/img] In a future world, young people are increasingly becoming addicted to an illegal (and potentially deadly) battle simulation game called Avalon. When Ash, a star player, hears of rumors that... . [img]http://i.imgur.com/K8bfNTy.png[/img] [url=https://pixhost.org/show/107/38362176_vlcsnap-2017-03-11-17h19m24s528.png][img]https://t9.pixhost.org/thumbs/107/38362176_vlcsnap-2017-03-11-17h19m24s528.png[/img][/url] [url=https://pixhost.org/show/107/38362177_vlcsnap-2017-03-11-17h19m43s580.png][img]https://t9.pixhost.org/thumbs/107/38362177_vlcsnap-2017-03-11-17h19m43s580.png[/img][/url] [url=https://pixhost.org/show/107/38362179_vlcsnap-2017-03-11-17h19m51s320.png][img]https://t9.pixhost.org/thumbs/107/38362179_vlcsnap-2017-03-11-17h19m51s320.png[/img][/url] [img]http://i.imgur.com/aVrMohH.png[/img] [spoiler] General Unique ID : 181935386034769444170116350899095771122 (0x88DF7B151B2025478F8063F3F0CE97F2) Complete name : Avalon (2001).H264.ita.pol.sub.ita.iCV-MIRCrew.mkv Format : Matroska Format version : Version 2 File size : 1.37 GiB Duration : 1h 42mn Overall bit rate : 1 911 Kbps Movie name : Avalon (2001) Ita.Pol.Title1 Encoded date : UTC 2017-03-09 16:26:05 Writing application : mkvmerge v5.4.0 ('Piper') built on Mar 10 2012 13:34:39 Writing library : libebml v1.2.3 + libmatroska v1.3.0 Video ID : 1 Format : AVC Format/Info : Advanced Video Codec Format profile : [email protected] Format settings, CABAC : Yes Format settings, ReFrames : 2 frames Muxing mode : Header stripping Codec ID : V_MPEG4/ISO/AVC Duration : 1h 42mn Bit rate : 1 233 Kbps Width : 720 pixels Height : 388 pixels Display aspect ratio : 1.856 Frame rate : 25.000 fps Color space : YUV Chroma subsampling : 4:2:0 Bit depth : 8 bits Scan type : Progressive Bits/(Pixel*Frame) : 0.177 Stream size : 906 MiB (65%) Title : www.icv-crew.org by robbyrs Writing library : x264 core Language : Italian Default : Yes Forced : No Color primaries : BT.601-6 525, BT.1358 525, BT.1700 NTSC, SMPTE 170M Transfer characteristics : BT.709-5, BT.1361 Matrix coefficients : BT.601-6 525, BT.1358 525, BT.1700 NTSC, SMPTE 170M Audio #1 ID : 2 Format : AC-3 Format/Info : Audio Coding 3 Mode extension : CM (complete main) Muxing mode : Header stripping Codec ID : A_AC3 Duration : 1h 42mn Bit rate mode : Constant Bit rate : 448 Kbps Channel(s) : 6 channels Channel positions : Front: L C R, Side: L R, LFE Sampling rate : 48.0 KHz Bit depth : 16 bits Compression mode : Lossy Stream size : 329 MiB (23%) Language : Italian Default : Yes Forced : No Audio #2 ID : 3 Format : AC-3 Format/Info : Audio Coding 3 Format profile : Dolby Digital Mode extension : CM (complete main) Muxing mode : Header stripping Codec ID : A_AC3 Duration : 1h 42mn Bit rate mode : Constant Bit rate : 192 Kbps Channel(s) : 2 channels Channel positions : Front: L R Sampling rate : 48.0 KHz Bit depth : 16 bits Compression mode : Lossy Stream size : 141 MiB (10%) Language : Polish Default : No Forced : No Text ID : 4 Format : VobSub Muxing mode : zlib Codec ID : S_VOBSUB Codec ID/Info : The same subtitle format used on DVDs Language : Italian Default : Yes Forced : No Menu 00:00:00.000 : en:(01)00:00:00:000 00:08:09.480 : en:(02)00:08:09:480 00:17:27.960 : en:(03)00:17:27:960 00:26:44.080 : en:(04)00:26:44:080 00:36:08.960 : en:(05)00:36:08:960 00:43:15.120 : en:(06)00:43:15:120 00:51:56.800 : en:(07)00:51:56:800 01:01:34.520 : en:(08)01:01:34:520 01:12:46.400 : en:(09)01:12:46:400 01:19:00.960 : en:(10)01:19:00:960 01:23:26.680 : en:(11)01:23:26:680 01:31:13.400 : en:(12)01:31:13:400 01:42:28.840 : en:(13)01:42:28:840 [/spoiler] [/color][/b][/center]

After the Dark - The Philosophers (2013).H264.Italian.English.Ac3.5.1.sub.ita.iCV-MIRCrew

Language: | Size: 1.63 GB | Seed: 55 | Leech: 12

Description:

After the Dark - The Philosophers (2013).H264.Italian.English.Ac3.5.1.sub.ita.iCV-MIRCrew [center] [color=red][b][img]http://extraimago.com/images/2016/07/16/oCo82IVa08d8.png[/img] [u]NO FOUND ONLY ORIGINAL RELEASE[/u] [img]http://i.imgur.com/GDNQx1Z.png[/img] My release is always in double track audio italian and Original audio for select it use VLC or dvd player home not use wmp After the Dark - The Philosophers (2013) [img]https://extraimage.net/images/2017/03/11/0dbca8dbe0cc6da474ee39a17ed02393.png[/img] [URL=http://www.imdb.com/title/tt1928340/][IMG]http://www.userlogos.org/files/logos/Sucka/imdb_new.png[/IMG][/URL] [img]http://i.imgur.com/Q5gAZRt.png[/img] Titolo originale After the Dark Lingua originale inglese Paese di produzione Stati Uniti Anno 2013 Durata 107 min. Genere drammatico, fantastico Regia John Huddles Sceneggiatura John Huddles Produttore George Zakk, Cybill Lui, John Huddles Fotografia John Radel Montaggio William Yeh Musiche Nicholas O'Toole, Jonathan Davis [img]http://i.imgur.com/Jtvgw7x.png[/img] James D'Arcy: Mr. Zimit Sophie Lowe: Petra Daryl Sabara: Chips Freddie Stroma: Jack Rhys Wakefield: James Bonnie Wright: Georgina Jacob Artist: Parker Katie Findlay: Bonnie George Blagden: Andy Erin Moriarty: Vivian Cinta Laura: Utami [img]http://i.imgur.com/hL3n1m8.png[/img] Venti studenti di filosofia della scuola internazionale di Jakarta stanno per laurearsi quando il loro insegnante Mr. Zimit li invita a un esperimento di pensiero finale: una esplosione nucleare fa scattare l'Apocalisse. L'unica possibilità di sopravvivenza è un bunker di un anno offre una protezione - ma solo per dieci persone. Zimit fornisce agli studenti il compito di decidere chi è ammesso nel bunker. [img]http://i.imgur.com/MTp7cO6.png[/img] At an international school in Jakarta, a philosophy teacher challenges his class of twenty graduating seniors to choose which ten of them would take shelter underground and reboot the human race in the event of a nuclear apocalypse. ........ [img]http://i.imgur.com/6TgqSmf.png[/img] [url=https://extraimage.net/image/2GzC][img]https://extraimage.net/images/2017/03/11/8764968edd7c41cee3598a2792fa4dd6.th.png[/img][/url] [url=https://extraimage.net/image/2Gzp][img]https://extraimage.net/images/2017/03/11/13ec7ec9a74061a146be7ffbcec79d0f.th.png[/img][/url] [url=https://extraimage.net/image/2GzG][img]https://extraimage.net/images/2017/03/11/429edf7fc74ffa5212c35c043bfa4448.th.png[/img][/url] [url=https://extraimage.net/image/2GzP][img]https://extraimage.net/images/2017/03/11/a931d0d8626d4a7f9d9b3821bb5e6c87.th.png[/img][/url] [img]http://i.imgur.com/t8N3Ia1.png[/img] [spoiler] General Unique ID : 108214704041634943498031189992536574622 (0x516964D6375431346F1CDC0A9B988A9E) Complete name : After the Dark (2013).H264.ita.eng.sub.ita.iCV-MIRCrew.mkv Format : Matroska Format version : Version 2 File size : 1.63 GiB Duration : 1h 46mn Overall bit rate : 2 191 Kbps Movie name : VISIT www.icv-crew.org Encoded date : UTC 2017-03-09 17:52:06 Writing application : Lavf54.63.100 Writing library : Lavf54.63.100 COPYRIGHT : robbyrs Video ID : 1 Format : AVC Format/Info : Advanced Video Codec Format profile : [email protected] Format settings, CABAC : Yes Format settings, ReFrames : 2 frames Codec ID : V_MPEG4/ISO/AVC Duration : 1h 46mn Bit rate : 1 290 Kbps Width : 720 pixels Height : 300 pixels Display aspect ratio : 2.40:1 Frame rate mode : Variable Frame rate : 24.000 fps Color space : YUV Chroma subsampling : 4:2:0 Bit depth : 8 bits Scan type : Progressive Bits/(Pixel*Frame) : 0.249 Stream size : 955 MiB (57%) Writing library : x264 core 130 r2273 Encoding settings : cabac=1 / ref=2 / deblock=1:0:0 / analyse=0x1:0x131 / me=hex / subme=7 / psy=1 / psy_rd=1.00:0.00 / mixed_ref=0 / me_range=16 / chroma_me=1 / trellis=1 / 8x8dct=0 / cqm=0 / deadzone=21,11 / fast_pskip=1 / chroma_qp_offset=-2 / threads=12 / lookahead_threads=2 / sliced_threads=0 / nr=0 / decimate=1 / interlaced=0 / bluray_compat=0 / constrained_intra=0 / bframes=3 / b_pyramid=0 / b_adapt=1 / b_bias=0 / direct=3 / weightb=1 / open_gop=0 / weightp=2 / keyint=240 / keyint_min=24 / scenecut=40 / intra_refresh=0 / rc_lookahead=40 / rc=2pass / mbtree=1 / bitrate=1290 / ratetol=1.0 / qcomp=0.60 / qpmin=10 / qpmax=69 / qpstep=4 / cplxblur=20.0 / qblur=0.5 / vbv_maxrate=24000 / vbv_bufsize=24000 / nal_hrd=none / ip_ratio=1.40 / aq=1:1.00 Language : Italian Default : Yes Forced : No DURATION : 01:46:45.667000000 NUMBER_OF_FRAMES : 153736 NUMBER_OF_BYTES : 7983680849 _STATISTICS_WRITING_APP : mkvmerge v8.7.0 ('All of the above') 64bit _STATISTICS_WRITING_DATE_UTC : 2017-03-07 11:44:48 _STATISTICS_TAGS : BPS DURATION NUMBER_OF_FRAMES NUMBER_OF_BYTES Audio #1 ID : 2 Format : AC-3 Format/Info : Audio Coding 3 Mode extension : CM (complete main) Codec ID : A_AC3 Duration : 1h 46mn Bit rate mode : Constant Bit rate : 448 Kbps Channel(s) : 6 channels Channel positions : Front: L C R, Side: L R, LFE Sampling rate : 48.0 KHz Bit depth : 16 bits Compression mode : Lossy Delay relative to video : 1mn 5s Stream size : 342 MiB (20%) Language : Italian Default : Yes Forced : No DURATION : 01:46:45.408000000 NUMBER_OF_FRAMES : 200169 NUMBER_OF_BYTES : 358702848 _STATISTICS_WRITING_APP : mkvmerge v8.7.0 ('All of the above') 64bit _STATISTICS_WRITING_DATE_UTC : 2017-03-07 11:44:48 _STATISTICS_TAGS : BPS DURATION NUMBER_OF_FRAMES NUMBER_OF_BYTES Audio #2 ID : 3 Format : AC-3 Format/Info : Audio Coding 3 Mode extension : CM (complete main) Codec ID : A_AC3 Duration : 1h 46mn Bit rate mode : Constant Bit rate : 448 Kbps Channel(s) : 6 channels Channel positions : Front: L C R, Side: L R, LFE Sampling rate : 48.0 KHz Bit depth : 16 bits Compression mode : Lossy Delay relative to video : 1mn 5s Stream size : 342 MiB (20%) Language : English Default : No Forced : No DURATION : 01:46:38.720000000 NUMBER_OF_FRAMES : 199960 NUMBER_OF_BYTES : 511897600 _STATISTICS_WRITING_APP : mkvmerge v8.7.0 ('All of the above') 64bit _STATISTICS_WRITING_DATE_UTC : 2017-03-07 11:44:48 _STATISTICS_TAGS : BPS DURATION NUMBER_OF_FRAMES NUMBER_OF_BYTES Text #1 ID : 4 Format : UTF-8 Codec ID : S_TEXT/UTF8 Codec ID/Info : UTF-8 Plain Text Title : FORCED Language : Italian Default : Yes Forced : No DURATION : 00:00:01.000000000 NUMBER_OF_FRAMES : 1 NUMBER_OF_BYTES : 52 _STATISTICS_WRITING_APP : mkvmerge v8.7.0 ('All of the above') 64bit _STATISTICS_WRITING_DATE_UTC : 2017-03-07 11:44:48 _STATISTICS_TAGS : BPS DURATION NUMBER_OF_FRAMES NUMBER_OF_BYTES Text #2 ID : 5 Format : UTF-8 Codec ID : S_TEXT/UTF8 Codec ID/Info : UTF-8 Plain Text Title : REGULAR Language : Italian Default : No Forced : No DURATION : 01:39:11.794000000 NUMBER_OF_FRAMES : 1003 NUMBER_OF_BYTES : 40519 _STATISTICS_WRITING_APP : mkvmerge v8.7.0 ('All of the above') 64bit _STATISTICS_WRITING_DATE_UTC : 2017-03-07 11:44:48 _STATISTICS_TAGS : BPS DURATION NUMBER_OF_FRAMES NUMBER_OF_BYTES Menu 00:00:00.000 : :00:00:00.000 00:08:49.417 : :00:08:49.417 00:17:26.375 : :00:17:26.375 00:26:46.958 : :00:26:46.958 00:33:54.458 : :00:33:54.458 00:42:42.833 : :00:42:42.833 00:50:46.792 : :00:50:46.792 00:59:53.958 : :00:59:53.958 01:08:44.292 : :01:08:44.292 01:18:08.375 : :01:18:08.375 01:25:57.875 : :01:25:57.875 01:34:47.792 : :01:34:47.792 [/spoiler] [/color][/b][/center]

Snowtime! - Palle di neve (2016).H264.Italian.English.Ac3.5.1.sub.ita.iCV-MIRCrew

Language: | Size: 1.27 GB | Seed: 68 | Leech: 17

Description:

Snowtime! - Palle di neve (2016).H264.Italian.English.Ac3.5.1.sub.ita.iCV-MIRCrew [center] [color=red][b][img]http://extraimago.com/images/2016/07/16/oCo82IVa08d8.png[/img] [u]NO FOUND ONLY ORIGINAL RELEASE[/u] [img]http://i.imgur.com/GDNQx1Z.png[/img] My release is always in double track audio italian and Original audio for select it use VLC or dvd player home not use wmp Palle di neve - Snowtime! (2016) [img]https://extraimage.net/images/2017/03/11/caa76908a476cc661048065eb3c6ad6e.png[/img] [URL=http://www.imdb.com/title/tt4624424/][IMG]http://www.userlogos.org/files/logos/Sucka/imdb_new.png[/IMG][/URL] [img]http://i.imgur.com/Q5gAZRt.png[/img] DATA USCITA: 24 novembre 2016 GENERE: Animazione, Commedia, Family ANNO: 2016 REGIA: Jean-Francois Pouliot, François Brisson SCENEGGIATURA: Roger Cantin, Danyèle Patenaude PRODUZIONE: CarpeDiem Film & TV See DISTRIBUZIONE: Notorious Pictures PAESE: Canada DURATA: 82 Min [img]http://i.imgur.com/hL3n1m8.png[/img] Per divertirsi durante le vacanze invernali i bambini di un paesino decidono di organizzare un'enorme sfida a palle di neve. Luke e Sophie, entrambi undicenni, saranno i capitani delle due squadre avversarie. Sophie e la sua truppa si difenderanno con un elaborato fortino di neve dagli attacchi del team di Luke.............. [img]http://i.imgur.com/MTp7cO6.png[/img] When winter break arrives, a boy and his friends are joined by the new girl in town for a prolonged snowball fight. ............. [img]http://i.imgur.com/6TgqSmf.png[/img] [url=https://extraimage.net/image/2GzO][img]https://extraimage.net/images/2017/03/11/ca7ee0563716df30ad07df7e35d260df.th.png[/img][/url] [url=https://extraimage.net/image/2GzE][img]https://extraimage.net/images/2017/03/11/3ccae56ba2e176b97404f92c92b71cee.th.png[/img][/url] [url=https://extraimage.net/image/2GzS][img]https://extraimage.net/images/2017/03/11/eb830e5b8aec98bf6714fb134bc2fd00.th.png[/img][/url] [img]http://i.imgur.com/t8N3Ia1.png[/img] [spoiler] General Unique ID : 300966915286326186271132918119533120496 (0xE26C1E93BFE27BBDD5B467AA3C180BF0) Complete name : Palle di neve - Snowtime (2016).H264.ita.eng.sub.ita.iCV-MIRCrew.mkv Format : Matroska Format version : Version 2 File size : 1.27 GiB Duration : 1h 22mn Overall bit rate : 2 191 Kbps Movie name : VISIT www.icv-crew.org Encoded date : UTC 2017-03-10 17:08:49 Writing application : Lavf54.63.100 Writing library : Lavf54.63.100 COPYRIGHT : robbyrs Video ID : 1 Format : AVC Format/Info : Advanced Video Codec Format profile : [email protected] Format settings, CABAC : Yes Format settings, ReFrames : 2 frames Codec ID : V_MPEG4/ISO/AVC Duration : 1h 22mn Bit rate : 1 290 Kbps Width : 720 pixels Height : 300 pixels Display aspect ratio : 2.40:1 Frame rate mode : Variable Frame rate : 24.000 fps Color space : YUV Chroma subsampling : 4:2:0 Bit depth : 8 bits Scan type : Progressive Bits/(Pixel*Frame) : 0.249 Stream size : 741 MiB (57%) Writing library : x264 core 130 r2273 Encoding settings : cabac=1 / ref=2 / deblock=1:0:0 / analyse=0x1:0x131 / me=hex / subme=7 / psy=1 / psy_rd=1.00:0.00 / mixed_ref=0 / me_range=16 / chroma_me=1 / trellis=1 / 8x8dct=0 / cqm=0 / deadzone=21,11 / fast_pskip=1 / chroma_qp_offset=-2 / threads=12 / lookahead_threads=2 / sliced_threads=0 / nr=0 / decimate=1 / interlaced=0 / bluray_compat=0 / constrained_intra=0 / bframes=3 / b_pyramid=0 / b_adapt=1 / b_bias=0 / direct=3 / weightb=1 / open_gop=0 / weightp=2 / keyint=240 / keyint_min=24 / scenecut=40 / intra_refresh=0 / rc_lookahead=40 / rc=2pass / mbtree=1 / bitrate=1290 / ratetol=1.0 / qcomp=0.60 / qpmin=10 / qpmax=69 / qpstep=4 / cplxblur=20.0 / qblur=0.5 / vbv_maxrate=24000 / vbv_bufsize=24000 / nal_hrd=none / ip_ratio=1.40 / aq=1:1.00 Language : Italian Default : Yes Forced : No DURATION : 01:22:44.792000000 NUMBER_OF_FRAMES : 119155 NUMBER_OF_BYTES : 5967624638 _STATISTICS_WRITING_APP : mkvmerge v8.7.0 ('All of the above') 64bit _STATISTICS_WRITING_DATE_UTC : 2017-03-09 10:56:40 _STATISTICS_TAGS : BPS DURATION NUMBER_OF_FRAMES NUMBER_OF_BYTES Audio #1 ID : 2 Format : AC-3 Format/Info : Audio Coding 3 Mode extension : CM (complete main) Codec ID : A_AC3 Duration : 1h 22mn Bit rate mode : Constant Bit rate : 448 Kbps Channel(s) : 6 channels Channel positions : Front: L C R, Side: L R, LFE Sampling rate : 48.0 KHz Bit depth : 16 bits Compression mode : Lossy Delay relative to video : 1mn 5s Stream size : 265 MiB (20%) Language : Italian Default : No Forced : No DURATION : 01:22:44.832000000 NUMBER_OF_FRAMES : 155151 NUMBER_OF_BYTES : 397186560 _STATISTICS_WRITING_APP : mkvmerge v8.7.0 ('All of the above') 64bit _STATISTICS_WRITING_DATE_UTC : 2017-03-09 10:56:40 _STATISTICS_TAGS : BPS DURATION NUMBER_OF_FRAMES NUMBER_OF_BYTES Audio #2 ID : 3 Format : AC-3 Format/Info : Audio Coding 3 Mode extension : CM (complete main) Codec ID : A_AC3 Duration : 1h 22mn Bit rate mode : Constant Bit rate : 448 Kbps Channel(s) : 6 channels Channel positions : Front: L C R, Side: L R, LFE Sampling rate : 48.0 KHz Bit depth : 16 bits Compression mode : Lossy Delay relative to video : 1mn 5s Stream size : 265 MiB (20%) Language : English Default : No Forced : No DURATION : 01:22:44.822000000 NUMBER_OF_FRAMES : 465452 NUMBER_OF_BYTES : 936489424 _STATISTICS_WRITING_APP : mkvmerge v8.7.0 ('All of the above') 64bit _STATISTICS_WRITING_DATE_UTC : 2017-03-09 10:56:40 _STATISTICS_TAGS : BPS DURATION NUMBER_OF_FRAMES NUMBER_OF_BYTES Text ID : 4 Format : UTF-8 Codec ID : S_TEXT/UTF8 Codec ID/Info : UTF-8 Plain Text Title : REGULAR Language : Italian Default : No Forced : No DURATION : 01:18:05.917000000 NUMBER_OF_FRAMES : 1010 NUMBER_OF_BYTES : 32396 _STATISTICS_WRITING_APP : mkvmerge v8.7.0 ('All of the above') 64bit _STATISTICS_WRITING_DATE_UTC : 2017-03-09 10:56:40 _STATISTICS_TAGS : BPS DURATION NUMBER_OF_FRAMES NUMBER_OF_BYTES Menu 00:00:00.000 : :00:00:00.000 00:07:05.342 : :00:07:05.342 00:14:28.201 : :00:14:28.201 00:20:13.838 : :00:20:13.838 00:29:27.099 : :00:29:27.099 00:39:02.590 : :00:39:02.590 00:50:56.804 : :00:50:56.804 00:59:52.756 : :00:59:52.756 01:08:53.129 : :01:08:53.129 01:16:19.950 : :01:16:19.950 [/spoiler] [/color][/b][/center]

Nocturnal Animals - Animali notturni (2016).H264.Italian.English.Ac3.5.1.sub.ita.iCV-MIRCrew

Language: | Size: 1.67 GB | Seed: 48 | Leech: 9

Description:

Nocturnal Animals - Animali notturni (2016).H264.Italian.English.Ac3.5.1.sub.ita.iCV-MIRCrew [center] [color=red][b][img]http://s23.postimg.org/b9yhws27f/0sc_Del1.png[/img] [u]NO FOUND ONLY ORIGINAL RELEASE[/u] [img]http://i.imgur.com/GDNQx1Z.png[/img] My release is always in double track audio italian and Original audio for select it use VLC or dvd player home not use wmp Animali notturni - Nocturnal Animals (2016) [img]https://extraimage.net/images/2017/03/11/54d684930c5bc66792ab831a417b3306.png[/img] [URL=http://www.imdb.com/title/tt4550098/][IMG]http://www.userlogos.org/files/logos/Sucka/imdb_new.png[/IMG][/URL] [img]http://i.imgur.com/fGu1rKv.png[/img] DATA USCITA: 17 novembre 2016 GENERE: Drammatico, Thriller ANNO: 2016 REGIA: Tom Ford SCENEGGIATURA: Tom Ford FOTOGRAFIA: Seamus McGarvey MONTAGGIO: Joan Sobel MUSICHE: Abel Korzeniowski PRODUZIONE: Focus Features, Universal Pictures DISTRIBUZIONE: Universal Pictures PAESE: USA DURATA: 117 Min [img]http://i.imgur.com/W7kBqiE.png[/img] Amy Adams, Jake Gyllenhaal, Isla Fisher, Aaron Taylor-Johnson, Armie Hammer, Michael Shannon, Laura Linney, Karl Glusman [img]http://i.imgur.com/bFK3ggF.png[/img] Susan Morrow, una mercante d'arte di Los Angeles, conduce una vita agiata ma vuota insieme al marito Hutton Morrow. Durante un weekend, mentre Hutton è via per un viaggio di lavoro, Susan trova un pacco inaspettato nella cassetta delle lettere e............................. [img]http://i.imgur.com/48xHWWH.png[/img] A wealthy art gallery owner is haunted by her ex-husband's novel, a violent thriller she interprets as a symbolic revenge tale. [img]http://i.imgur.com/K8bfNTy.png[/img] [url=https://extraimage.net/image/2G3l][img]https://extraimage.net/images/2017/03/11/1041691a6698f398b0788d8201b736be.th.png[/img][/url] [url=https://extraimage.net/image/2G3i][img]https://extraimage.net/images/2017/03/11/ee5281d92eeb49bed66af21a65982f35.th.png[/img][/url] [url=https://extraimage.net/image/2G3I][img]https://extraimage.net/images/2017/03/11/3e245b9cd3c6995ba453558d7626b3d2.th.png[/img][/url] [img]http://i.imgur.com/aVrMohH.png[/img] [spoiler] General Unique ID : 247436262395332826572387370213867818507 (0xBA267D9F00C31823FE0BC65ED1D88E0B) Complete name : Animali notturni - Nocturnal Animals (2016).H264.ita.eng.sub.ita.eng.iCV-MIRCrew.mkv Format : Matroska Format version : Version 2 File size : 1.67 GiB Duration : 1h 56mn Overall bit rate : 2 063 Kbps Movie name : VISIT www.icv-crew.org Encoded date : UTC 2017-03-08 19:19:40 Writing application : Lavf54.63.100 Writing library : Lavf54.63.100 COPYRIGHT : robbyrs Video ID : 1 Format : AVC Format/Info : Advanced Video Codec Format profile : [email protected] Format settings, CABAC : Yes Format settings, ReFrames : 2 frames Codec ID : V_MPEG4/ISO/AVC Duration : 1h 56mn Bit rate : 1 290 Kbps Width : 720 pixels Height : 300 pixels Display aspect ratio : 2.40:1 Original display aspect ratio : 2.40:1 Frame rate mode : Variable Frame rate : 23.976 fps Color space : YUV Chroma subsampling : 4:2:0 Bit depth : 8 bits Scan type : Progressive Bits/(Pixel*Frame) : 0.249 Stream size : 1.02 GiB (61%) Writing library : x264 core 130 r2273 Encoding settings : cabac=1 / ref=2 / deblock=1:0:0 / analyse=0x1:0x131 / me=hex / subme=7 / psy=1 / psy_rd=1.00:0.00 / mixed_ref=0 / me_range=16 / chroma_me=1 / trellis=1 / 8x8dct=0 / cqm=0 / deadzone=21,11 / fast_pskip=1 / chroma_qp_offset=-2 / threads=12 / lookahead_threads=2 / sliced_threads=0 / nr=0 / decimate=1 / interlaced=0 / bluray_compat=0 / constrained_intra=0 / bframes=3 / b_pyramid=0 / b_adapt=1 / b_bias=0 / direct=3 / weightb=1 / open_gop=0 / weightp=2 / keyint=230 / keyint_min=23 / scenecut=40 / intra_refresh=0 / rc_lookahead=40 / rc=2pass / mbtree=1 / bitrate=1290 / ratetol=1.0 / qcomp=0.60 / qpmin=10 / qpmax=69 / qpstep=4 / cplxblur=20.0 / qblur=0.5 / vbv_maxrate=24000 / vbv_bufsize=24000 / nal_hrd=none / ip_ratio=1.40 / aq=1:1.00 Language : Italian Default : Yes Forced : No Audio #1 ID : 2 Format : AC-3 Format/Info : Audio Coding 3 Mode extension : CM (complete main) Codec ID : A_AC3 Duration : 1h 56mn Bit rate mode : Constant Bit rate : 384 Kbps Channel(s) : 6 channels Channel positions : Front: L C R, Side: L R, LFE Sampling rate : 48.0 KHz Bit depth : 16 bits Compression mode : Lossy Delay relative to video : 1mn 5s Stream size : 319 MiB (19%) Title : iTunes RESYNC Language : Italian Default : Yes Forced : No Audio #2 ID : 3 Format : AC-3 Format/Info : Audio Coding 3 Mode extension : CM (complete main) Codec ID : A_AC3 Duration : 1h 56mn Bit rate mode : Constant Bit rate : 384 Kbps Channel(s) : 6 channels Channel positions : Front: L C R, Side: L R, LFE Sampling rate : 48.0 KHz Bit depth : 16 bits Compression mode : Lossy Delay relative to video : 1mn 5s Stream size : 319 MiB (19%) Language : English Default : No Forced : No Text #1 ID : 4 Format : ASS Codec ID : S_TEXT/ASS Codec ID/Info : Advanced Sub Station Alpha Compression mode : Lossless Title : FORCED Language : Italian Default : Yes Forced : No Text #2 ID : 5 Format : ASS Codec ID : S_TEXT/ASS Codec ID/Info : Advanced Sub Station Alpha Compression mode : Lossless Title : REGOLARI Language : Italian Default : No Forced : No Text #3 ID : 6 Format : ASS Codec ID : S_TEXT/ASS Codec ID/Info : Advanced Sub Station Alpha Compression mode : Lossless Title : NON UDENTI Language : English Default : No Forced : No Menu 00:00:00.000 : :00:00:00.000 00:05:25.867 : :00:05:25.867 00:09:35.742 : :00:09:35.742 00:13:32.854 : :00:13:32.854 00:19:32.755 : :00:19:32.755 00:29:48.870 : :00:29:48.870 00:34:29.901 : :00:34:29.901 00:40:00.732 : :00:40:00.732 00:45:11.334 : :00:45:11.334 00:52:55.422 : :00:52:55.422 00:59:37.407 : :00:59:37.407 01:04:15.769 : :01:04:15.769 01:12:49.615 : :01:12:49.615 01:20:03.215 : :01:20:03.215 01:25:11.898 : :01:25:11.898 01:31:53.299 : :01:31:53.299 01:35:24.010 : :01:35:24.010 01:40:48.876 : :01:40:48.876 01:45:04.590 : :01:45:04.590 01:49:45.579 : :01:49:45.579 [/spoiler] [/color][/b][/center]

Green Grass of Wyoming - I Verdi Pascoli del Wyoming (1948) [DVD5 - Ita Eng Ac3 - Multisubs]

Language: | Size: 4.24 GB | Seed: 21 | Leech: 9

Description:

I Verdi Pascoli del Wyoming Original Cover & Original DVD by JackieALF Titolo originale: Green Grass of Wyoming Nazione: Regno Unito Anno: 1948 Genere: Avbventura, Western Durata: 85' Regia: Louis King Sceneggiatura: Martin Berkeley Scenografia: Albert Hogsett, Lyle R. Wheeler (art director), Stanley Detlie, Thomas Little (set decorator) Produzione: 20th Century Fox Sito ufficiale: Cast: Peggy Cummins -> Carey Greenway Charles Coburn -> Beaver Greenway Robert Arthur -> Ken McLaughlin Charles Tannen -> Dottor Kimgrough Burl Ives -> Gus Robert Adler -> Joe Lloyd Nolan -> Rob McLaughlin Richard Garrick -> Charlie Buck Harrington -> Spettatore alla corsa Geraldine Wall -> Nell McLaughlin Herbert Heywood -> Negoziante Mort Johnson Marcella Becker -> Partecipante alla fiera Charles Hart -> Anziano Will Wright -> Jake Willis Chet Brandenburg -> Spettatore alla corsa Mae Marsh -> Spettatrice alla corsa Marilyn Monroe Data di uscita: 1948 Trama: Ispirato al celebre romanzo di Mary O'Hara, I Verdi Pascoli del WyoMing narra la travolgente storia della rivalità tra due famiglie di allevatori di cavalli. Ken McLaughling si prepara ad addestrare un nuovo purosangue, sperando di vincere una importante somma di denaro durante competizione così da poter risollevare le sorti del proprio Ranch. Nominato per il premio oscar come miglior fotografia, I Verdi Pascoli del WyoMing è un classico intramontabile che piacerà a tutta la famiglia!

Shut in (2016).H264.Italian.English.Ac3.5.1.sub.ita.iCV-MIRCrew

Language: | Size: 1.31 GB | Seed: 89 | Leech: 23

Description:

Shut in (2016).H264.Italian.English.Ac3.5.1.sub.ita.iCV-MIRCrew [center] [color=red][b][img]http://s23.postimg.org/b9yhws27f/0sc_Del1.png[/img] [u]NO FOUND ONLY ORIGINAL RELEASE[/u] [img]http://i.imgur.com/GDNQx1Z.png[/img] My release is always in double track audio italian and Original audio for select it use VLC or dvd player home not use wmp Shut in (2016) [img]https://extraimage.net/images/2017/03/11/e498fb4d713ac1ca97f76edf8f77e3ac.png[/img] [URL=http://www.imdb.com/title/tt2582500/][IMG]http://www.userlogos.org/files/logos/Sucka/imdb_new.png[/IMG][/URL] [img]http://i.imgur.com/fGu1rKv.png[/img] DATA USCITA: 07 dicembre 2016 GENERE: Drammatico, Thriller ANNO: 2016 REGIA: Farren Blackburn SCENEGGIATURA: Christina Hodson FOTOGRAFIA: Yves Bélanger MUSICHE: Nathaniel Méchaly PRODUZIONE: EuropaCorp, Lava Bear Films, Transfilm International DISTRIBUZIONE: Notorious Pictures PAESE: USA, Canada, Francia DURATA: 91 Min [img]http://i.imgur.com/W7kBqiE.png[/img] Naomi Watts, Jacob Tremblay, Oliver Platt, Charlie Heaton, David Cubitt, Tim Post, Crystal Balint, Clémentine Poidatz [img]http://i.imgur.com/bFK3ggF.png[/img] Naomi Watts veste i panni di una psicologa infantile. La donna vive e lavora senza mai allontanarsi dalla sua casa, dove riceve a domicilio i suoi pazienti e soprattutto si occupa del figliastro diciottenne Stephen, ridotto in stato vegetativo dall'incidente stradale in cui è morto il marito Richard..................... [img]http://i.imgur.com/48xHWWH.png[/img] A heart-pounding thriller about a widowed child psychologist who lives in an isolated existence in rural New England. Caught in a deadly winter storm, she must find a way to rescue a young boy before he disappears forever. [img]http://i.imgur.com/K8bfNTy.png[/img] [url=https://extraimage.net/image/2Gb1][img]https://extraimage.net/images/2017/03/11/e421354d4d7376d4643ab7d84e8b60f2.th.png[/img][/url] [url=https://extraimage.net/image/2Gbc][img]https://extraimage.net/images/2017/03/11/719d8ed17b5dc28f1219603d55cb35c2.th.png[/img][/url] [url=https://extraimage.net/image/2GbE][img]https://extraimage.net/images/2017/03/11/b4f2b60d155e1f133acff475c0accf9d.th.png[/img][/url] [img]http://i.imgur.com/aVrMohH.png[/img] [spoiler] General Unique ID : 339849154558683957824982057465165097970 (0xFFAC90FB4298C61E5DC99706792FABF2) Complete name : Shut In (2016).H264.ita.eng.sub.eng.iCV-MIRCrew.mkv Format : Matroska Format version : Version 2 File size : 1.31 GiB Duration : 1h 31mn Overall bit rate : 2 058 Kbps Movie name : VISIT www.icv-crew.org Encoded date : UTC 2017-03-10 14:37:08 Writing application : Lavf54.63.100 Writing library : Lavf54.63.100 COPYRIGHT : robbyrs Video ID : 1 Format : AVC Format/Info : Advanced Video Codec Format profile : [email protected] Format settings, CABAC : Yes Format settings, ReFrames : 2 frames Codec ID : V_MPEG4/ISO/AVC Duration : 1h 31mn Bit rate : 1 290 Kbps Width : 720 pixels Height : 304 pixels Display aspect ratio : 2.40:1 Frame rate mode : Variable Frame rate : 24.000 fps Color space : YUV Chroma subsampling : 4:2:0 Bit depth : 8 bits Scan type : Progressive Bits/(Pixel*Frame) : 0.246 Stream size : 815 MiB (61%) Writing library : x264 core 130 r2273 Encoding settings : cabac=1 / ref=2 / deblock=1:0:0 / analyse=0x1:0x131 / me=hex / subme=7 / psy=1 / psy_rd=1.00:0.00 / mixed_ref=0 / me_range=16 / chroma_me=1 / trellis=1 / 8x8dct=0 / cqm=0 / deadzone=21,11 / fast_pskip=1 / chroma_qp_offset=-2 / threads=12 / lookahead_threads=2 / sliced_threads=0 / nr=0 / decimate=1 / interlaced=0 / bluray_compat=0 / constrained_intra=0 / bframes=3 / b_pyramid=0 / b_adapt=1 / b_bias=0 / direct=3 / weightb=1 / open_gop=0 / weightp=2 / keyint=240 / keyint_min=24 / scenecut=40 / intra_refresh=0 / rc_lookahead=40 / rc=2pass / mbtree=1 / bitrate=1290 / ratetol=1.0 / qcomp=0.60 / qpmin=10 / qpmax=69 / qpstep=4 / cplxblur=20.0 / qblur=0.5 / vbv_maxrate=24000 / vbv_bufsize=24000 / nal_hrd=none / ip_ratio=1.40 / aq=1:1.00 Language : Italian Default : Yes Forced : No DURATION : 01:30:55.250000000 NUMBER_OF_FRAMES : 130926 NUMBER_OF_BYTES : 5183153692 _STATISTICS_WRITING_APP : mkvmerge v8.7.0 ('All of the above') 64bit _STATISTICS_WRITING_DATE_UTC : 2017-03-09 16:13:15 _STATISTICS_TAGS : BPS DURATION NUMBER_OF_FRAMES NUMBER_OF_BYTES Audio #1 ID : 2 Format : AC-3 Format/Info : Audio Coding 3 Mode extension : CM (complete main) Codec ID : A_AC3 Duration : 1h 31mn Bit rate mode : Constant Bit rate : 384 Kbps Channel(s) : 6 channels Channel positions : Front: L C R, Side: L R, LFE Sampling rate : 48.0 KHz Bit depth : 16 bits Compression mode : Lossy Delay relative to video : 1mn 5s Stream size : 250 MiB (19%) Language : Italian Default : Yes Forced : No DURATION : 01:31:09.248000000 NUMBER_OF_FRAMES : 170914 NUMBER_OF_BYTES : 262523904 _STATISTICS_WRITING_APP : mkvmerge v8.7.0 ('All of the above') 64bit _STATISTICS_WRITING_DATE_UTC : 2017-03-09 16:13:15 _STATISTICS_TAGS : BPS DURATION NUMBER_OF_FRAMES NUMBER_OF_BYTES Audio #2 ID : 3 Format : AC-3 Format/Info : Audio Coding 3 Mode extension : CM (complete main) Codec ID : A_AC3 Duration : 1h 31mn Bit rate mode : Constant Bit rate : 384 Kbps Channel(s) : 6 channels Channel positions : Front: L C R, Side: L R, LFE Sampling rate : 48.0 KHz Bit depth : 16 bits Compression mode : Lossy Delay relative to video : 1mn 5s Stream size : 250 MiB (19%) Language : English Default : No Forced : No DURATION : 01:30:55.296000000 NUMBER_OF_FRAMES : 511434 NUMBER_OF_BYTES : 1029005208 _STATISTICS_WRITING_APP : mkvmerge v8.7.0 ('All of the above') 64bit _STATISTICS_WRITING_DATE_UTC : 2017-03-09 16:13:15 _STATISTICS_TAGS : BPS DURATION NUMBER_OF_FRAMES NUMBER_OF_BYTES Text ID : 4 Format : UTF-8 Codec ID : S_TEXT/UTF8 Codec ID/Info : UTF-8 Plain Text Title : NON UDENTI Language : English Default : No Forced : No DURATION : 01:24:02.494000000 NUMBER_OF_FRAMES : 958 NUMBER_OF_BYTES : 25528 _STATISTICS_WRITING_APP : mkvmerge v8.7.0 ('All of the above') 64bit _STATISTICS_WRITING_DATE_UTC : 2017-03-09 16:13:15 _STATISTICS_TAGS : BPS DURATION NUMBER_OF_FRAMES NUMBER_OF_BYTES Menu 00:00:00.000 : :00:00:00.000 00:07:05.342 : :00:07:05.342 00:14:28.201 : :00:14:28.201 00:20:13.838 : :00:20:13.838 00:29:27.099 : :00:29:27.099 00:39:02.590 : :00:39:02.590 00:50:56.804 : :00:50:56.804 00:59:52.756 : :00:59:52.756 01:08:53.129 : :01:08:53.129 01:16:19.950 : :01:16:19.950 01:23:27.706 : :01:23:27.706 [/spoiler] [/color][/b][/center]

Jean-Luc Ponty - Mystical Adventures [Flac][TntVillage]

Language: | Size: 228.64 MB | Seed: 38 | Leech: 28

Description:

[img]https://extraimage.net/images/2017/03/10/579069ea91aec0e8495d26e36de53d89.jpg[/img] Artist...............: Jean-Luc Ponty Album................: Mystical Adventures Genre................: Jazz Fusion Source...............: CD Year.................: 1982 Ripper...............: EAC (Secure mode) / LAME 3.92 & Asus CD-S520 Codec................: Free Lossless Audio Codec (FLAC) Version..............: reference libFLAC 1.3.1 20141125 Quality..............: Lossless, (avg. compression: 53 %) Channels.............: Stereo / 44100 HZ / 16 Bit Tags.................: VorbisComment Information..........: TntVillage Ripped by............: Leonenero on 10/03/2017 Posted by............: Leonenero on 10/03/2017 News Server..........: news.astraweb.com News Group(s)........: TNTVILLAGE Included.............: NFO, PLS, LOG, CUE Covers...............: Front Back CD --------------------------------------------------------------------- Tracklisting --------------------------------------------------------------------- 1. Jean-Luc Ponty - Jig [03:56] 2. Jean-Luc Ponty - Mystical Adventures Part I [03:28] 3. Jean-Luc Ponty - Mystical Adventures Part II [03:36] 4. Jean-Luc Ponty - Mystical Adventures Part III [07:29] 5. Jean-Luc Ponty - Mystical Adventures Part IV [00:47] 6. Jean-Luc Ponty - Mystical Adventures Part V [05:04] 7. Jean-Luc Ponty - Rhythms Of Hope [04:02] 8. Jean-Luc Ponty - As [05:48] 9. Jean-Luc Ponty - Final Truth Part I [04:54] 10. Jean-Luc Ponty - Final Truth Part II [02:06] Playing Time.........: 41:15 Total Size...........: 228,42 MB MA is a hypnotic, tranquil and immersive experience. The five part suite is propelled by repetitive synth lines and drum patterns that provide a pleasureable core to JLP's beautiful violin phrasing. Tracks 6 to 10 are the original vinyl album's side 2. "Side 2" is punchy and upbeat. Kudos to Rayford Griffin's drumming and Randy Jackson's (yes, that Randy Jackson) bass playing for providing a muscular yet organic foundation that along with JLP and ensemble makes these tracks a sublime musical adventure. I highly recommend this disc to anyone who likes fusion, prog rock, or instrumental music that is engaging and energetic without being sonically abrasive.

MasterChef Italia S06e23-24 Versione 720p [SATRip - 720p - H264 - Ita Aac] HDTVRip

Language: | Size: 3.19 GB | Seed: 440 | Leech: 1790

Description:

Descrizione: .: Scheda della serie :. Anno: 2011-in corso Genere: Talent Show Regia: Umberto Spinazzola Cast: Bruno Barbieri; Carlo Cracco; Joe Bastianich; Antonino Cannavacciuolo .: Descrizione :. Dopo un anno di famelica attesa prende il via la sesta stagione di MasterChef Italia. I fornelli della cucina più famosa della TV stanno per riaccendersi. Inizia la nuova stagione MasterChef con i giudici riconfermati Bruno Barbieri, Joe Bastianich, Antonino Cannavacciuolo e Carlo Cracco.

Absolutely.Fabulous.Il.Film.2016.iTALiAN.AC3.BRRip.XviD-T4P3

Language: | Size: 1.39 GB | Seed: 5 | Leech: 0

Description:

Absolutely Fabulous: Il Film Titolo originale: Absolutely Fabulous: The Movie Conosciuto anche come: Nazione: Regno Unito, U.S.A. Anno: 2016 Genere: Commedia Durata: 91' Regia: Mandie Fletcher Cast: Lulu, Gwendoline Christie, Jennifer Saunders, Joanna Lumley, Julia Sawalha, Kim Kardashian, Dawn French, Chris Colfer, Kate Moss, Jane Horrocks, Emma Bunton, Mo Gaffney, June Whitfield Produzione: Fox Searchlight Pictures, British Film Company Distribuzione: 20th Century Fox Data di uscita: 16 Febbraio 2017 (cinema) Trama: Dopo aver attirato su di se sia l'attenzione dei media sia quella della polizia per aver causato un incidente che ha coinvolto Kate Moss durante un party nel Tamigi, Edina e Patsy si nascondono nel sud della Francia, ma sono senza un soldo e allora si danno da fare per ritornare alla loro abituale routine di shopping e feste mondane!

Le.Spie.Della.Porta.Accanto.2016.iTALiAN.AC3.BRRip.XviD-T4P3

Language: | Size: 1.45 GB | Seed: 5 | Leech: 0

Description:

Le spie della porta accanto Titolo originale: Keeping Up with the Joneses Conosciuto anche come: Keeping Up with Jones Nazione: U.S.A. Anno: 2016 Genere: Commedia Durata: 105' Regia: Greg Mottola Cast: Jon Hamm, Zach Galifianakis, Isla Fisher, Gal Gadot, Patton Oswalt, Matt Walsh, Maribeth Monroe, Kevin Dunn, Ming Zhao Produzione: Fox 2000 Pictures, Parkes+MacDonald Image Nation Distribuzione: 20th Century Fox Data di uscita: 08 Febbraio 2017 (cinema) Trama: Una coppia di periferia, scopre che i Jones, i loro nuovi, incredibili, bellissimi e super sofisticati vicini di casa sono delle spie del governo. Da quel momento saranno coinvolti, loro malgrado, in un caso di spionaggio internazionale..

Drag Me to Hell (2009).H264.Italian.English.Ac3.5.1.sub.ita.NUita.eng.iCV-MIRCrew

Language: | Size: 1.52 GB | Seed: 21 | Leech: 3

Description:

Drag Me to Hell (2009).H264.Italian.English.Ac3.5.1.sub.ita.NUita.eng.iCV-MIRCrew [center] [color=red][b][img]http://s23.postimg.org/b9yhws27f/0sc_Del1.png[/img] [u]NO FOUND ONLY ORIGINAL RELEASE[/u] [img]http://i.imgur.com/GDNQx1Z.png[/img] My release is always in double track audio italian and Original audio for select it use VLC or dvd player home not use wmp Drag Me to Hell (2009) [img]https://extraimage.net/images/2017/03/10/22e13750106ae51de6e85bb9ef177530.png[/img] [URL=http://www.imdb.com/title/tt1127180/][IMG]http://www.userlogos.org/files/logos/Sucka/imdb_new.png[/IMG][/URL] [img]http://i.imgur.com/fGu1rKv.png[/img] Titolo originale Drag Me to Hell Lingua originale Inglese Paese di produzione Stati Uniti d'America Anno 2009 Durata 99 min Rapporto 2,35 : 1 Genere orrore, thriller Regia Sam Raimi Sceneggiatura Ivan Raimi, Sam Raimi Produttore Robert Tapert, Sam Raimi, Grant Curtis Produttore esecutivo Joe Drake, Nathan Kahane, Joseph Drake Casa di produzione Ghost House Pictures, Universal Pictures Distribuzione (Italia) Universal Pictures Fotografia Peter Deming Montaggio Bob Murawski Effetti speciali Bruce Jones Musiche Christopher Young Scenografia Steve Saklad Costumi Isis Mussenden Trucco Greg Nicotero, Howard Berger [img]http://i.imgur.com/W7kBqiE.png[/img] Alison Lohman: Christine Brown Justin Long: Clay Dalton Lorna Raver: Mrs. Ganush David Paymer: Mr. Jack Dileep Rao: Rahm Jas Adriana Barraza: Shaun San Dena Reggie Lee: Stu Rubin Chelcie Ross: Leonard Dalton Molly Cheek: Trudy Dalton [img]http://i.imgur.com/bFK3ggF.png[/img] Shaun San Dena, una medium ispanica, riceve un bambino colpito da una maledizione in seguito al furto di una collana ad un gruppo di zingari. Il bambino sente da tre giorni delle voci, che stanno diventando sempre più forti. La donna comprende di essere di fronte all'ultimo stadio di questa maledizione, e tenta di salvare il ragazzino con una seduta spiritica, ma ......................... [img]http://i.imgur.com/48xHWWH.png[/img] A loan officer who evicts an old woman from her home finds herself the recipient of a supernatural curse. Desperate, she turns to a seer to try and save her soul, while evil forces work to push her to a breaking point. [img]http://i.imgur.com/K8bfNTy.png[/img] [url=https://extraimage.net/image/2rfg][img]https://extraimage.net/images/2017/03/10/31c9144732cf24c251fc0a4736beffe9.th.png[/img][/url] [url=https://extraimage.net/image/2rfX][img]https://extraimage.net/images/2017/03/10/b424671ef03bcca4fdd3d6d20c4c222d.th.png[/img][/url] [url=https://extraimage.net/image/2rf5][img]https://extraimage.net/images/2017/03/10/3c8f1ab063604f7703a2f925290f09d6.th.png[/img][/url] [url=https://extraimage.net/image/2rfD][img]https://extraimage.net/images/2017/03/10/989ca2870ae985a2686cef9dfc997d4d.th.png[/img][/url] [img]http://i.imgur.com/aVrMohH.png[/img] [spoiler] General Unique ID : 165508541605204827474989512086624723742 (0x7C83C91F3D6798736F656D57FA40E31E) Complete name : Drag Me to Hell (2009).H264.ita.eng.sub.ita.NUita.eng.icv-MIRCrew.mkv Format : Matroska Format version : Version 2 File size : 1.52 GiB Duration : 1h 38mn Overall bit rate : 2 205 Kbps Movie name : VISIT www.icv-crew.org Encoded date : UTC 2017-03-04 18:06:16 Writing application : Lavf54.63.100 Writing library : Lavf54.63.100 COPYRIGHT : robbyrs Video ID : 1 Format : AVC Format/Info : Advanced Video Codec Format profile : [email protected] Format settings, CABAC : Yes Format settings, ReFrames : 2 frames Codec ID : V_MPEG4/ISO/AVC Duration : 1h 38mn Bit rate : 1 290 Kbps Width : 720 pixels Height : 300 pixels Display aspect ratio : 2.40:1 Frame rate mode : Variable Frame rate : 24.000 fps Color space : YUV Chroma subsampling : 4:2:0 Bit depth : 8 bits Scan type : Progressive Bits/(Pixel*Frame) : 0.249 Stream size : 895 MiB (57%) Writing library : x264 core 130 r2273 Encoding settings : cabac=1 / ref=2 / deblock=1:0:0 / analyse=0x1:0x131 / me=hex / subme=7 / psy=1 / psy_rd=1.00:0.00 / mixed_ref=0 / me_range=16 / chroma_me=1 / trellis=1 / 8x8dct=0 / cqm=0 / deadzone=21,11 / fast_pskip=1 / chroma_qp_offset=-2 / threads=12 / lookahead_threads=2 / sliced_threads=0 / nr=0 / decimate=1 / interlaced=0 / bluray_compat=0 / constrained_intra=0 / bframes=3 / b_pyramid=0 / b_adapt=1 / b_bias=0 / direct=3 / weightb=1 / open_gop=0 / weightp=2 / keyint=240 / keyint_min=24 / scenecut=40 / intra_refresh=0 / rc_lookahead=40 / rc=2pass / mbtree=1 / bitrate=1290 / ratetol=1.0 / qcomp=0.60 / qpmin=10 / qpmax=69 / qpstep=4 / cplxblur=20.0 / qblur=0.5 / vbv_maxrate=24000 / vbv_bufsize=24000 / nal_hrd=none / ip_ratio=1.40 / aq=1:1.00 Language : Italian Default : Yes Forced : No DURATION : 01:38:52.042000000 NUMBER_OF_FRAMES : 142369 NUMBER_OF_BYTES : 4199809797 _STATISTICS_WRITING_APP : mkvmerge v9.5.0 ('Quiet Fire') 64bit _STATISTICS_WRITING_DATE_UTC : 2016-11-20 09:46:26 _STATISTICS_TAGS : BPS DURATION NUMBER_OF_FRAMES NUMBER_OF_BYTES Audio #1 ID : 2 Format : AC-3 Format/Info : Audio Coding 3 Mode extension : CM (complete main) Codec ID : A_AC3 Duration : 1h 38mn Bit rate mode : Constant Bit rate : 448 Kbps Channel(s) : 6 channels Channel positions : Front: L C R, Side: L R, LFE Sampling rate : 48.0 KHz Bit depth : 16 bits Compression mode : Lossy Delay relative to video : 1mn 5s Stream size : 317 MiB (20%) Language : Italian Default : Yes Forced : No DURATION : 01:38:52.043000000 NUMBER_OF_FRAMES : 556129 NUMBER_OF_BYTES : 1118931548 _STATISTICS_WRITING_APP : mkvmerge v9.5.0 ('Quiet Fire') 64bit _STATISTICS_WRITING_DATE_UTC : 2016-11-20 09:46:26 _STATISTICS_TAGS : BPS DURATION NUMBER_OF_FRAMES NUMBER_OF_BYTES Audio #2 ID : 3 Format : AC-3 Format/Info : Audio Coding 3 Mode extension : CM (complete main) Codec ID : A_AC3 Duration : 1h 38mn Bit rate mode : Constant Bit rate : 448 Kbps Channel(s) : 6 channels Channel positions : Front: L C R, Side: L R, LFE Sampling rate : 48.0 KHz Bit depth : 16 bits Compression mode : Lossy Delay relative to video : 1mn 5s Stream size : 317 MiB (20%) Language : English Default : No Forced : No DURATION : 01:38:52.064000000 NUMBER_OF_FRAMES : 185377 NUMBER_OF_BYTES : 474565120 _STATISTICS_WRITING_APP : mkvmerge v9.5.0 ('Quiet Fire') 64bit _STATISTICS_WRITING_DATE_UTC : 2016-11-20 09:46:26 _STATISTICS_TAGS : BPS DURATION NUMBER_OF_FRAMES NUMBER_OF_BYTES Text #1 ID : 4 Format : VobSub Codec ID : S_VOBSUB Codec ID/Info : The same subtitle format used on DVDs Title : SUB ENG FORCED Language : English Default : No Forced : No DURATION : 00:02:42.415000000 NUMBER_OF_FRAMES : 17 NUMBER_OF_BYTES : 64404 _STATISTICS_WRITING_APP : mkvmerge v9.5.0 ('Quiet Fire') 64bit _STATISTICS_WRITING_DATE_UTC : 2016-11-20 09:46:26 _STATISTICS_TAGS : BPS DURATION NUMBER_OF_FRAMES NUMBER_OF_BYTES Text #2 ID : 5 Format : VobSub Codec ID : S_VOBSUB Codec ID/Info : The same subtitle format used on DVDs Title : SUB ITA FORCED Language : Italian Default : Yes Forced : No DURATION : 00:02:42.415000000 NUMBER_OF_FRAMES : 17 NUMBER_OF_BYTES : 61518 _STATISTICS_WRITING_APP : mkvmerge v9.5.0 ('Quiet Fire') 64bit _STATISTICS_WRITING_DATE_UTC : 2016-11-20 09:46:26 _STATISTICS_TAGS : BPS DURATION NUMBER_OF_FRAMES NUMBER_OF_BYTES Text #3 ID : 6 Format : VobSub Codec ID : S_VOBSUB Codec ID/Info : The same subtitle format used on DVDs Title : SUB ITA NON UDENTI Language : Italian Default : No Forced : No DURATION : 01:33:33.072000000 NUMBER_OF_FRAMES : 1120 NUMBER_OF_BYTES : 5808245 _STATISTICS_WRITING_APP : mkvmerge v9.5.0 ('Quiet Fire') 64bit _STATISTICS_WRITING_DATE_UTC : 2016-11-20 09:46:26 _STATISTICS_TAGS : BPS DURATION NUMBER_OF_FRAMES NUMBER_OF_BYTES Text #4 ID : 7 Format : VobSub Codec ID : S_VOBSUB Codec ID/Info : The same subtitle format used on DVDs Title : SUB ITA NORMAL Language : Italian Default : No Forced : No DURATION : 01:33:29.280000000 NUMBER_OF_FRAMES : 844 NUMBER_OF_BYTES : 4426878 _STATISTICS_WRITING_APP : mkvmerge v9.5.0 ('Quiet Fire') 64bit _STATISTICS_WRITING_DATE_UTC : 2016-11-20 09:46:26 _STATISTICS_TAGS : BPS DURATION NUMBER_OF_FRAMES NUMBER_OF_BYTES Menu 00:00:00.000 : :00:00:00.000 00:07:54.250 : :00:07:54.250 00:16:37.917 : :00:16:37.917 00:26:32.292 : :00:26:32.292 00:34:40.750 : :00:34:40.750 00:44:27.708 : :00:44:27.708 00:51:50.958 : :00:51:50.958 01:02:31.667 : :01:02:31.667 01:09:34.292 : :01:09:34.292 01:19:50.000 : :01:19:50.000 01:28:35.667 : :01:28:35.667 01:34:00.000 : :01:34:00.000 [/spoiler] [/color][/b][/center]

Sully (2016).H264.Italian.English.Ac3.5.1.sub.ita.NUita.eng.iCV-MIRCrew

Language: | Size: 1.38 GB | Seed: 166 | Leech: 30

Description:

Sully (2016).H264.Italian.English.Ac3.5.1.sub.ita.NUita.eng.iCV-MIRCrew [center] [color=red][b][img]http://s23.postimg.org/b9yhws27f/0sc_Del1.png[/img] [u]NO FOUND ONLY ORIGINAL RELEASE[/u] [img]http://i.imgur.com/GDNQx1Z.png[/img] My release is always in double track audio italian and Original audio for select it use VLC or dvd player home not use wmp Sully (2016) [img]https://extraimage.net/images/2017/03/10/3b9f0aa3509d85c5dceb98807d2e72fa.png[/img] [URL=http://www.imdb.com/title/tt3263904/][IMG]http://www.userlogos.org/files/logos/Sucka/imdb_new.png[/IMG][/URL] [img]http://i.imgur.com/fGu1rKv.png[/img] DATA USCITA: 01 dicembre 2016 GENERE: Biografico, Drammatico ANNO: 2016 REGIA: Clint Eastwood SCENEGGIATURA: Todd Komarnicki FOTOGRAFIA: Tom Stern MONTAGGIO: Blu Murray MUSICHE: Christian Jacob, Tierney Sutton Band PRODUZIONE: BBC Films, FilmNation Entertainment, Flashlight Films DISTRIBUZIONE: Warner Bros. PAESE: USA DURATA: 96 Min [img]http://i.imgur.com/W7kBqiE.png[/img] Tom Hanks, Aaron Eckhart, Laura Linney, Anna Gunn, Mike O'Malley, Ann Cusack, Sam Huntington, Jamey Sheridan, Autumn Reeser, Jerry Ferrara, Jeff Kober, Holt McCallany, Molly Hagan, Chris Bauer, Michael Rapaport [img]http://i.imgur.com/bFK3ggF.png[/img] Il 15 Gennaio 2009, il mondo assiste al "Miracolo sull'Hudson" quando il capitano Chesley "Sully" Sullenberger effettua un atterraggio di emergenza col suo aereo nelle acque gelide del fiume Hudson, salvando la vita a tutti i 155 passeggeri presenti a bordo. .............. [img]http://i.imgur.com/48xHWWH.png[/img] The story of Chesley Sullenberger, an American pilot who became a hero after landing his damaged plane on the Hudson River in order to save the flight's passengers and crew. [img]http://i.imgur.com/K8bfNTy.png[/img] [url=https://extraimage.net/image/2rWz][img]https://extraimage.net/images/2017/03/10/36739b9c2e3f67c54ece687504afa097.th.png[/img][/url] [url=https://extraimage.net/image/2rW0][img]https://extraimage.net/images/2017/03/10/8e7550a90925bf3d4abaa9ca4d68360c.th.png[/img][/url] [url=https://extraimage.net/image/2rWJ][img]https://extraimage.net/images/2017/03/10/1c54d274459b3950f21925118fa21126.th.png[/img][/url] [url=https://extraimage.net/image/2rWK][img]https://extraimage.net/images/2017/03/10/53ac5b7c3dbfbd9814270ec49fc6e180.th.png[/img][/url] [img]http://i.imgur.com/aVrMohH.png[/img] [spoiler] General Unique ID : 205155959464917076284063650051556826473 (0x9A5799BE51D639128460A468386ADD69) Complete name : Sully (2016).H264.ita.sub.ita.NUita.eng.iCV-MIRCrew.mkv Format : Matroska Format version : Version 2 File size : 1.38 GiB Duration : 1h 35mn Overall bit rate : 2 063 Kbps Movie name : VISIT www.icv-crew.org Encoded date : UTC 2017-03-06 16:14:55 Writing application : Lavf54.63.100 Writing library : Lavf54.63.100 COPYRIGHT : robbyrs Video ID : 1 Format : AVC Format/Info : Advanced Video Codec Format profile : [email protected] Format settings, CABAC : Yes Format settings, ReFrames : 2 frames Codec ID : V_MPEG4/ISO/AVC Duration : 1h 35mn Bit rate : 1 290 Kbps Width : 720 pixels Height : 304 pixels Display aspect ratio : 2.40:1 Frame rate mode : Variable Frame rate : 23.976 fps Color space : YUV Chroma subsampling : 4:2:0 Bit depth : 8 bits Scan type : Progressive Bits/(Pixel*Frame) : 0.246 Stream size : 860 MiB (61%) Writing library : x264 core 130 r2273 Encoding settings : cabac=1 / ref=2 / deblock=1:0:0 / analyse=0x1:0x131 / me=hex / subme=7 / psy=1 / psy_rd=1.00:0.00 / mixed_ref=0 / me_range=16 / chroma_me=1 / trellis=1 / 8x8dct=0 / cqm=0 / deadzone=21,11 / fast_pskip=1 / chroma_qp_offset=-2 / threads=12 / lookahead_threads=2 / sliced_threads=0 / nr=0 / decimate=1 / interlaced=0 / bluray_compat=0 / constrained_intra=0 / bframes=3 / b_pyramid=0 / b_adapt=1 / b_bias=0 / direct=3 / weightb=1 / open_gop=0 / weightp=2 / keyint=230 / keyint_min=23 / scenecut=40 / intra_refresh=0 / rc_lookahead=40 / rc=2pass / mbtree=1 / bitrate=1290 / ratetol=1.0 / qcomp=0.60 / qpmin=10 / qpmax=69 / qpstep=4 / cplxblur=20.0 / qblur=0.5 / vbv_maxrate=24000 / vbv_bufsize=24000 / nal_hrd=none / ip_ratio=1.40 / aq=1:1.00 Language : Italian Default : Yes Forced : No DURATION : 01:35:50.620000000 NUMBER_OF_FRAMES : 137877 NUMBER_OF_BYTES : 6937524158 _STATISTICS_WRITING_APP : mkvmerge v8.7.0 ('All of the above') 64bit _STATISTICS_WRITING_DATE_UTC : 2017-03-01 22:14:11 _STATISTICS_TAGS : BPS DURATION NUMBER_OF_FRAMES NUMBER_OF_BYTES Audio #1 ID : 2 Format : AC-3 Format/Info : Audio Coding 3 Mode extension : CM (complete main) Codec ID : A_AC3 Duration : 1h 35mn Bit rate mode : Constant Bit rate : 384 Kbps Channel(s) : 6 channels Channel positions : Front: L C R, Side: L R, LFE Sampling rate : 48.0 KHz Bit depth : 16 bits Compression mode : Lossy Delay relative to video : 1mn 5s Stream size : 263 MiB (19%) Title : AC3 ITA Language : Italian Default : Yes Forced : No DURATION : 01:35:51.744000000 NUMBER_OF_FRAMES : 179742 NUMBER_OF_BYTES : 276083712 _STATISTICS_WRITING_APP : mkvmerge v8.7.0 ('All of the above') 64bit _STATISTICS_WRITING_DATE_UTC : 2017-03-01 22:14:11 _STATISTICS_TAGS : BPS DURATION NUMBER_OF_FRAMES NUMBER_OF_BYTES Audio #2 ID : 3 Format : AC-3 Format/Info : Audio Coding 3 Mode extension : CM (complete main) Codec ID : A_AC3 Duration : 1h 35mn Bit rate mode : Constant Bit rate : 384 Kbps Channel(s) : 6 channels Channel positions : Front: L C R, Side: L R, LFE Sampling rate : 48.0 KHz Bit depth : 16 bits Compression mode : Lossy Delay relative to video : 1mn 5s Stream size : 263 MiB (19%) Title : AC3 ENG Language : English Default : No Forced : No DURATION : 01:35:50.688000000 NUMBER_OF_FRAMES : 179709 NUMBER_OF_BYTES : 460055040 _STATISTICS_WRITING_APP : mkvmerge v8.7.0 ('All of the above') 64bit _STATISTICS_WRITING_DATE_UTC : 2017-03-01 22:14:11 _STATISTICS_TAGS : BPS DURATION NUMBER_OF_FRAMES NUMBER_OF_BYTES Text #1 ID : 4 Format : ASS Codec ID : S_TEXT/ASS Codec ID/Info : Advanced Sub Station Alpha Compression mode : Lossless Title : FORCED Language : Italian Default : Yes Forced : No DURATION : 01:32:30.093000000 NUMBER_OF_FRAMES : 49 NUMBER_OF_BYTES : 1517 _STATISTICS_WRITING_APP : mkvmerge v8.7.0 ('All of the above') 64bit _STATISTICS_WRITING_DATE_UTC : 2017-03-01 22:14:11 _STATISTICS_TAGS : BPS DURATION NUMBER_OF_FRAMES NUMBER_OF_BYTES Text #2 ID : 5 Format : ASS Codec ID : S_TEXT/ASS Codec ID/Info : Advanced Sub Station Alpha Compression mode : Lossless Title : NON UDENTI Language : Italian Default : No Forced : No DURATION : 01:35:44.126000000 NUMBER_OF_FRAMES : 1669 NUMBER_OF_BYTES : 49522 _STATISTICS_WRITING_APP : mkvmerge v8.7.0 ('All of the above') 64bit _STATISTICS_WRITING_DATE_UTC : 2017-03-01 22:14:11 _STATISTICS_TAGS : BPS DURATION NUMBER_OF_FRAMES NUMBER_OF_BYTES Text #3 ID : 6 Format : ASS Codec ID : S_TEXT/ASS Codec ID/Info : Advanced Sub Station Alpha Compression mode : Lossless Title : REGULAR Language : English Default : No Forced : No DURATION : 01:31:56.451000000 NUMBER_OF_FRAMES : 1524 NUMBER_OF_BYTES : 49480 _STATISTICS_WRITING_APP : mkvmerge v8.7.0 ('All of the above') 64bit _STATISTICS_WRITING_DATE_UTC : 2017-03-01 22:14:11 _STATISTICS_TAGS : BPS DURATION NUMBER_OF_FRAMES NUMBER_OF_BYTES Text #4 ID : 7 Format : ASS Codec ID : S_TEXT/ASS Codec ID/Info : Advanced Sub Station Alpha Compression mode : Lossless Title : NON UDENTI Language : English Default : No Forced : No DURATION : 01:31:58.179000000 NUMBER_OF_FRAMES : 1641 NUMBER_OF_BYTES : 58243 _STATISTICS_WRITING_APP : mkvmerge v8.7.0 ('All of the above') 64bit _STATISTICS_WRITING_DATE_UTC : 2017-03-01 22:14:11 _STATISTICS_TAGS : BPS DURATION NUMBER_OF_FRAMES NUMBER_OF_BYTES Menu 00:00:00.000 : :00:00:00.000 00:11:12.505 : :00:11:12.505 00:18:06.168 : :00:18:06.168 00:29:57.921 : :00:29:57.921 00:38:55.416 : :00:38:55.416 00:49:20.749 : :00:49:20.749 01:00:50.856 : :01:00:50.856 01:08:16.384 : :01:08:16.384 01:18:09.810 : :01:18:09.810 01:26:59.798 : :01:26:59.798 [/spoiler] [/color][/b][/center]

Various Artists - I Love 80's (2016) (by emi)

Language: | Size: 223.48 MB | Seed: 24 | Leech: 4

Description:

mp3 a 192 kbps audio di qualità a 95 db Tracklist CD 1 01 - Africa.mp3 (7.1 MB) 02 - All That She Wants.mp3 (5.2 MB) 03 - Fame.mp3 (7.5 MB) 04 - Flashdance (What A Feeling).mp3 (5.8 MB) 05 - Girls Just Want To Have Fun.mp3 (5.6 MB) 06 - Take On Me.mp3 (5.5 MB) 07 - (I Just) Died In Your Arms Tonight.mp3 (6.7 MB) 08 - Losing My Religion.mp3 (6.5 MB) 09 - The Sign.mp3 (4.7 MB) 10 - Don't You Forget About Me.mp3 (6.3 MB) 11 - Call Me.mp3 (6.0 MB) 12 - Mamma Mia.mp3 (5.2 MB) 13 - Touch Me (I Want Your Body).mp3 (5.5 MB) 14 - I Like Chopin.mp3 (10.9 MB) 15 - Moonlight Shadow.mp3 (5.3 MB) 16 - Shiny Happy People.mp3 (5.5 MB) 17 - People From Ibiza.mp3 (8.8 MB) 18 - S.O.S..mp3 (4.9 MB) CD 2 01 - You're My Heart, You're My Soul.mp3 (5.6 MB) 02 - Cheri Cheri Lady.mp3 (5.5 MB) 03 - Call Me.mp3 (5.1 MB) 04 - Vamos A La Playa.mp3 (5.4 MB) 05 - Dragostea Din Tei.mp3 (5.2 MB) 06 - Easy Lady.mp3 (6.1 MB) 07 - It's A Sin.mp3 (7.2 MB) 08 - L'Estate Sta Finendo.mp3 (5.5 MB) 09 - Bette Davis Eyes.mp3 (5.4 MB) 10 - Happy Children.mp3 (8.4 MB) 11 - Twist In My Sobriety.mp3 (7.0 MB) 12 - Every Breath You Take.mp3 (6.0 MB) 13 - Domino Dancing.mp3 (6.2 MB) 14 - Tarzan Boy.mp3 (5.5 MB) 15 - Such A Shame.mp3 (8.2 MB) 16 - The Power Of Love.mp3 (5.7 MB) 17 - Heaven Is A Place On Earth.mp3 (5.9 MB) 18 - Don't Speak.mp3 (6.4 MB)

TechSmith Snagit 13.1.1 Build 7662 + Keygen

Language: | Size: 202.35 MB | Seed: 307 | Leech: 37

Description:

Techsmith Snagit – The award-winning screen-capture software. Using SnagIt, you can select and capture anything on your screen, then easily add text, arrows, or effects, and save the capture to a file or share it immediately by e-mail or IM. Capture and share an article, image, or Web page directly from your screen. Or, capture and share any part of any application that runs on your PC. Automatically save in one of 23 file formats, or send to the printer, to your e-mail, or to the clipboard. Use SnagIt’s built-in editors to modify, annotate, and enhance your images and the Catalog Browser to organize your files. Increase your productivity while quickly creating professional presentations and flawless documentation. With powerful new features that allow you to edit previously placed objects, capture embedded links and add interactivity to your captures,SnagIt makes it easier than ever before to capture, edit, and share anything on your screen. Features of SnagIt: » Capture – if you can see it, you can snag it! » Don’t waste time cropping your captures. Snag exactly what you need, with just a click. » Profiles make it easy. SnagIt comes with eleven preset buttons that make screen capture a cinch! Capture a region of your screen, text from a window, the contents of a tall page that scrolls, all the images on a Web page, you get the idea. » Custom suits you. Don’t feel limited by the eleven profiles—create your own combinations for nearly unlimited capture possibilites. What’s that? You want to set up a keystroke that captures a menu along with the mouse pointer…adds a drop shadow…and sends the image directly to your ***** dot com blog? Sure, no problem!

Summitsoft Logo Design Studio Pro Vector Edition 1.7.3 + Crack

Language: | Size: 1.06 GB | Seed: 998 | Leech: 85

Description:

#1 Selling Logo Design Software for 15 Years. You know your business, we know logos. Over the years, millions of logos have been created with Logo Design Studio Pro. We partner with you and provide the tools, objects, inspirations, and guides you need to help you create a one-of-a-kind logo that is personal and professional. With countless tools and hundreds of options, there is no limit to what you can create! Let us show you how easy it is to make your first logo. Create Your Logo Start with your business name or one of the included templates and change the font. With Professional Tools Change the shape of the letters, add an object, and color. In an Easy to Use Interface Add other objects and change the background color. With Professional Results Adjust the colors, add some effects, and youâ?™re done! Go Big with Vector Graphics With Logo Design Studio Pro, you never have to worry about your logo looking fuzzy or pixelated when enlarged. The built in vector tools and graphics allow you to scale your logo to any size without losing sharpness or clarity. From web images to letterheads to billboards, your logo will look perfect in any size and in any place. Unlimited Customization Start with one of 2,000 customizable templates or one of the 6,000+ vector shapes, images, fonts, or graphics and use the advanced drawing tools to create your own completely unique shapes. The intuitive and flexible toolset is equipped to handle the most advanced logo design needs. Incredible Special Effects Add a creative touch using professional effects that get noticed. Lift your logo off the canvas with a shadow, add a 3D bevel technique and so much more to give your design your unique look. Vector Tools Vector designs are not limited to a specific size because they are made up of connected lines and curves, rather than a collection of pixels that make up raster designs. Color and Gradients You can pick colors from the color palette enter the exact hexidecimal as well as change both the gradient color and gradient direction of shapes and text for a variety of looks. Total Text Control Add standard, solid or stroked text, wrap text around shapes, place text on a path, or convert your text into an editable shape using Bezier tools. Precise Drawing Tools Bezier editing visually shows adjustable nodes you can move to change the look of shapes, text and curves. Easily undo any change you donâ?™t like. Pre-built Objects Over 2,000 industry-specific logo templates to fit your business. Customize with your own text and colors and then export to use anywhere. What’s New in Logo Design Studio Pro: – 2,000+ logo templates: industry-based templates designed by professional graphic artists. – 6,000+ full vector graphics: vector graphics are different from regular graphics and images because they donâ?™t have pixels. No pixels means you can blow them up to any size without losing image quality or sharpness. – Complete vector design: since your new design is vector based you can use it on a project smaller than a postage stamp, or blow it up to cover the side of a building, something no other logo design software can do! – Import and export capabilities: create your logo in all popular formats, including PDF, SVG, TIFF, PNG, JPEG, EMF, and BMP. – Slogan & tagline resource library: take your brand image a step further by better defining what you do. 500+ pre-written taglines and slogans make it easier for people to understand what you offer. – Total text control: add standard solid or stroked text, wrap text around shapes, place text on a path, or convert your text into an editable shape using Bezier tools. – Precise drawing tools: Bezier editing visually shows adjustable nodes you can move to change the look of shapes, text and curves. Easily undo any change you donâ?™t like. – Seamless effects: add a creative touch using professional effects that get noticed. Lift your logo off the canvas with a shadow, add a 3D bevel technique, and more. – Trademark & copyright logo guidelines: Logo Design Studio Pro Vector takes you through the trademark process so you can secure your identity. – Full layer support System Requirements: – Operating System: Windows® 10, Windows® 8/8.1, Windows® 7 and Windows® Vista – Hardware: PC with Pentium 400 MHz or higher processor – Memory: 512 MB of RAM – Hard Disk: 1500 MB of available hard-disk space

SketchUp Pro 2017 17.2.2555 + Crack

Language: | Size: 228.97 MB | Seed: 112 | Leech: 19

Description:

Thereâ?™s a reason SketchUp is synonymous with friendly and forgiving 3D modeling software: we donâ?™t sacrifice usability for the sake of functionality. Start by drawing lines and shapes. Push and pull surfaces to turn them into 3D forms. Stretch, copy, rotate and paint to make anything you like. If you want to be productive within a couple of hours, youâ?™ve come to the right place. Find a 3D model of anything Why model everything from scratch? Whether itâ?™s a chair for the room youâ?™re designing or a rhino for your zoo, youâ?™ll find almost anything you need in SketchUpâ?™s 3D Warehouse, the worldâ?™s biggest repository of free 3D models. And anyone can use 3D Warehouse to store and share models. Upload your best work and become a SketchUp legend. Turn models into documents At some point in most 3D projects, youâ?™ll need to turn your model into a set of drawings that gets the point across. LayOut in SketchUp Pro lets you add model views to pages, choose drawing scales, adjust line weights, and add dimensions, callouts, and graphics. Make a change to your SketchUp model, and find it reflected automatically in LayOut. And when itâ?™s time, export PDFs, images and CAD files. Make SketchUp yours SketchUp is meant to be customized. Thanks to our Ruby API and an amazing community of developers, today you can explore an entire universe of extensions. These are add-on tools built to solve the kind of 3D modeling problems that might otherwise leave you scratching your head. Need to draw 3D moldings? Thereâ?™s an extension for that. Wouldnâ?™t it be cool to bend your models to fit a curve? Thatâ?™s possible, too. Photorealistic rendering? Definitely. If you can imagine a SketchUp extension, chances are it already exists

PDF-XChange Viewer Pro 2.5.320 Multilingual + Crack

Language: | Size: 48.44 MB | Seed: 880 | Leech: 13

Description:

Those wishing to view PDF files on their Windows PCâ?™s now have a choice when it comes to Viewing PDF files – the PDF-XChange Viewer is smaller, faster and more feature rich than the Adobe Reader which has until now been the Reader of choice for PDF files – we think thatâ?™s about to change!

O&O SafeErase Pro Edition 11.0.133 + Key

Language: | Size: 27.54 MB | Seed: 883 | Leech: 57

Description:

O&O SafeErase helps you to delete sensitive data securely. Thanks to this protection against data misuse, you see a return on your investment with every securely deleted file. In this way you can be sure that no data gets into the wrong hands. O&O SafeErase offers a reliable solution for safe erasure of security sensitive files and gives you the ultimate in data protection. With O&O SafeErase even hackers and data spies cannot restore your safely erased files. O&O SafeErase is THE solution for securely deleting sensitive data from your hard disk and offers you the ultimate protection of your privacy. With just one click of the mouse, you can securely and permanently delete files, folders and partitions. The motives for deleting files are many. Old e-mail files, internet histories, file cache, financial records, company information, and private files ought to be protected from unauthorized access. Important Features at a Glance: • SafeErasing: – Files, folders and individual partitions – Memory cards and USB data volumes – Free hard disk space – Entire computer, no boot medium necessary – Internet and temporary program files • Securely move files and folders • Six methods to permanently delete sensitive data • Complete integration into Windows Explorer • Detailed reports as proof of deletion • Speed optimization of deletion processes • NEW: Analysis tool to search for unsafely deleted files • NEW: Adapted deletion method for SSDs • NEW: Enhanced report and activity management Whats New : Support of Goolge Chrome 56 Support of Mozilla Firefox 52

O&O DiskImage Professional Edition 11.0.136 (x86x64) Incl Key + BuildPE + BootCD

Language: | Size: 497.6 MB | Seed: 358 | Leech: 52

Description:

O&O DiskImage 10 lets you back up an entire computer or single files whenever you want – even while the computer is being used. In the event you should lose your personal data it can be quickly restored with just a few mouse clicks – even when Windows is no longer able to start. It also supports SSD drives and the latest UEFI System. Product features: – Backup an entire computer with the push of a button – Backup system and hard drives, clone drives and entire disks – Brand new file-based backup: now twice as fast as ever before – backup and restore individual files and/or folders – Direct creation of VHDs – Monitoring and warning of security risks – Incremental/differential backup: back up only the changes – Easily restore files, folders, drives and disks – System restore onto different hardware (M.I.R.) – Create a Windows Boot system directly from within the program with driver integration – Plug-and-play: Selected files and folders are automatically backed up and synchronized – Supports Windows 10, Windows 8.1, Windows 7 and Vista Create a boot medium directly from within the program O&O DiskImage can bring a system back to life immediately and with no installation required. It does so by way of a Boot Medium (USB Stick or CD/DVD) which is based on the currently installed Windows system and which contains all the standard drivers required. – Merge serial# into boot media.

Marvelous Designer 6 Enterprise 2.5.96.23433 Multilingual + Reg Key

Language: | Size: 329.97 MB | Seed: 914 | Leech: 9

Description:

Marvelous Designer allows you to create beautiful 3D virtual clothing with our cutting-edge design software. Finally breathe life into your designs with tools that enhance quality while saving you time. From basic shirts to intricately pleated dresses and rugged uniforms, Marvelous Designer can virtually replicate fabric textures and physical properties to the last button, fold, and accessory. With our versatile compatibility with other 3D software and interactive design interface, you can instantaneously edit and drape garments onto 3D forms with high-fidelity simulation. Marvelous Designerâ?™s innovative pattern-based approach has already been adopted by top game studios such as EA Konami and can be seen on the big-screen in animation films including The Hobbit and The Adventures of Tin Tin, created by Weta Digital. Features in Enterprise: – Button/ Buttonhole – Steam – Scene Time Warp – Solidify – Offset Pattern Outline – Chalk – Avatar Improved 2D: – Align & Distribute – Symmetrization – Pattern Selection – Internal Point UI – Delete All Curve Points Materials: – Lock All Graphics – Save Surface Textures – Piping UV Display Animation: – Load Motion | Start Position – Simulation Toolbar Addition Etc: – Library Image – Scale Input System Requirements: – Microsoft Windows XP/Vista/7/8/8.1, 10 32/64bit – i5 2.4 GHz CPU (Sandy Bridge, ivy bridge, and Haswell, Devil’s Canyon Microarchitecture) – Nvidia Geforce GTX 745 GPU – 8GB RAM

Malwarebytes Premium 3.0.6.1469 + Keygen

Language: | Size: 1.66 MB | Seed: 388 | Leech: 73

Description:

Malwarebytes Anti-Malware is an antimalware application that can thoroughly remove even the most advanced malware. Malwarebytes products have a proven record of protecting computers by completely removing all forms of malware, including viruses, Trojans, spyware, adware and rootkits. Malwarebytes Premium detects and removes malware where even the best known anti-virus and anti-malware applications fail. It monitors every process and stops malicious processes before they even start. The Proactive Protection Module keeps your system safe and secure with advanced heuristic scanning technology. Malwarebytes 3.0 is the next-gen security program that protects you from the most advanced (zero-day) threats, making antivirus obsolete.Malwarebytes 3.0 combines all of our malware-fighting technology-anti-malware, anti-ransomware, anti-exploit, and malicious website protection into one program that scans 4x faster than previous versions of Malwarebytes Anti-Malware Premium.

Malwarebytes Anti-Malware 3.0.6.1458 Release Preview Premium

Language: | Size: 53 MB | Seed: 54 | Leech: 66

Description:

Malwarebytes Anti-Malware is an anti-malware application that can thoroughly remove even the most advanced malware. Malwarebytes products have a proven record of protecting computers by completely removing all forms of malware, including viruses, Trojans, spyware, adware and rootkits. When it comes to the safety of your computer, Malwarebytes provides the ultimate in protection from the cutting edge of technology! Malwarebytes technology takes the next step in the fight against malware. Malwarebytes Anti-Malware PRO detects and removes malware where even the best known anti-virus and anti-malware applications fail. Malwarebytes Anti-Malware PRO monitors every process and stops malicious processes before they even start. The Proactive Protection Module of Malwarebytes Anti-Malware Pro keeps your system safe and secure with advanced heuristic scanning technology. Malwarebytes Anti-Malware Premium includes three proprietary technologies (signature, heuristics, and behavorial) that automatically protect you and your online experience from malware that antivirus products don’t detect. It employs malware removal techniques so innovative that computer technicians often recommend Malwarebytes when an antivirus can’t finish the job. Proprietary Malwarebytes Chameleon technology protects Malwarebytes Anti-Malware Premium against malware’s attempts to disable it, so you’re always protected. Features: Performance/protective capability Several improvements to malware detection and remediation capabilities Several performance improvements, including improving startup time, improving shutdown time on Windows 7, addressing memory leaks and reducing CPU usage after a scan has completed Added MS Publisher as a default Protected Application for anti-exploit protection Usability Fixed issue where a previously activated Premium license could be dropped incorrectly Fixed issue where Malwarebytes version information would revert to default values of 3.0.0 in certain cases, such as when coming back from minimal safe mode Fixed issue where ‘Real-Time Protection turned offâ?™ notifications would display incorrectly on initial startup Fixed problem where the ‘Check for updates everyâ?™ setting would get stuck at 14 days after changing frequency to ‘Daysâ?™ Fixed Help question marks throughout the main user interface so that they work when clicked Stability/issues fixed Addressed several crashes and blue screens, including the BSOD that could occur with Web Protection on Windows Insider Previews Fixed the issue with Exploit Protection that caused Edge to crash/hang on Windows Insider Previews Fixed issue when Exploit Protection was enabled that caused PowerPoint to not load Fixed conditions that could lead to an ‘Unable to connect to serviceâ?™ error Fixed issue where exclusions did not work properly when there were associated threat traces detected Fixed issue where Web Protection would not start up properly Fixed numerous scan hangs or crashes, including one that could occur during heuristics phase Numerous other fixes to improve overall program stability and usability.

MAGIX Vegas Pro 14.0.0 Build 211 Multilingual + Patch

Language: | Size: 428.64 MB | Seed: 582 | Leech: 18

Description:

Sony Vegas™ Pro 14 is an integrated, forward-thinking production environment designed for a new generation of creative professionals. Combining a familiar track-based timeline with hundreds of thoughtful workflow innovations, Vegas Pro 13 is a refreshing, modern approach to post-production. Supporting more formats, more workflows, and more creative control than ever before, Vegas Pro 13 makes it easy to deliver your message and express your artistic vision. Vegas™ Pro 13 is a contemporary NLE designed for complete creative control. New features include advanced archival tools, sophisticated audio metering, and the Vegas Pro Connect mobile iPad companion app. Vegas™ Pro 13 comes complete with DVD Architect™ Pro 6, Dolby® Digital Professional Encoder, and plug-in collections from FXHOME, NewBlueFX, and iZotope Features of Sony Vegas Pro 14: – Powerful video editing tool. – Can run on almost all Windows computers. – Well organized interface. – Can edit SD, HD and 4K material in 2D and stereoscopic 3D. – Drag and drop feature supported. – Shape masking tool available. – Powerful video effects included. – Can edit audio files as well. – Loudness meter included. – Supports a wide range of formats. – Innovative editing tools – Powerful effects and compositing engines – Project interchange – New! Vegas Pro Connect – Vegas Pro 13 collaboration enhancement app for iPad – GPU acceleration – Stereoscopic 3D editing – Superior audio control – New! Loudness meters – Powerful Blu-ray Disc authoring Highlights: – Intuitive drag & drop workflow – Smart tools for upscaling footage to 4K and Ultra High Definition – Perfect image stabilization with proDAD Mercalli V4 – Titler Pro Express from NewBlueFX – NewBlueFX Looks – HEVC file support and native ProRes format support – DVD and Blu-ray Disc Authoring with VEGAS DVD Architect – High DPI Support – High Frame Rate (HFR) support Whatâ?™s New in MAGIX Vegas Pro 14 System Requirements: – Operating system: Microsoft® Windows 7 (64-bit), Windows 8 (64-bit) or Windows 10 (64-bit) – Processor: 2 GHz (multicore or multiprocessor recommended for HD or stereoscopic 3D; 8 cores recommended for 4K) – RAM: 4 GB RAM (8 GB recommended; 16 GB recommended for 4K) – Hard drive space: 500 MB hard drive space for program installation; Solid-state disk (SSD) or high-speed multi-disk RAID for 4K media – Graphics card: Supported NVIDIA®, AMD/ATI® or Intel® GPU with at least 512 MB of memory (1 GB recommended for 4K and GPU-accelerated video processing)