Search Top Tags














Blair.Witch.2016.iTALiAN.AC3.BRRip.XviD-T4P3

Language: | Size: 1.38 GB | Seed: 187 | Leech: 35

Description:

Blair Witch Titolo originale: Blair Witch Conosciuto anche come: The Blair Witch Project 3, The Woods Nazione: U.S.A. Anno: 2016 Genere: Horror, Thriller Durata: 90' Regia: Adam Wingard Cast: Corbin Reid, Wes Robinson, Valorie Curry, James Allen McCune, Callie Hernandez, Brandon Scott Produzione: Lionsgate Distribuzione: Eagle Pictures Data di uscita: 21 Settembre 2016 (cinema) Trama: Un gruppo di studenti universitari si avventura nella foresta di Black Hills, nel Maryland, per cercare di svelare il mistero legato alla sparizione della sorella di James Donahue, Heather, avvenuta 17 anni prima e che in molti pensano sia collegata alla leggenda della Strega di Blair. Il gruppo è inizialmente ottimista, soprattutto quando alcuni abitanti del posto si offrono di guidarli nella foresta. Nel corso di una notte infinita, però, i ragazzi iniziano a sentire intorno a loro una presenza sinistra e lentamente si rendono conto che la leggenda è molto più reale e inquietante di quanto potessero immaginare.

Sherlock.L.Abominevole.Sposa.2015.iTALiAN.AC3.DVDRip.XviD-T4P3

Language: | Size: 1.37 GB | Seed: 15 | Leech: 13

Description:

Sherlock - L'abominevole sposa Titolo originale: Sherlock Nazione: Regno Unito Anno: 2015 Genere: Thriller Durata: 90' Regia: Douglas Mackinnon Cast: Benedict Cumberbatch, Martin Freeman, Amanda Abbington, Natasha O'Keeffe, Una Stubb, Louise Brealey, Rupert Graves Produzione: Hartswood Films, BBC Wales, Masterpiece Distribuzione: Nexo Digital Data di uscita: 12 Gennaio 2016 (cinema) Trama: Per la prima volta al mondo Benedict Cumberbatch (nei panni di Sherlock Holmes) e Martin Freeman (in quelli dell’immancabile Watson) sbarcheranno al cinema con Sherlock. L’abominevole sposa, l’inedito episodio speciale in abiti vittoriani della serie investigativa più amata degli ultimi anni. Questa volta saremo dunque nel cuore della Londra vittoriana (come nell’originale Sherlock Holmes ideato da Conan Doyle) e Thomas Ricoletti rimarrà stupefatto nel vedere la moglie vestita con il suo vecchio abito da sposa. Perché, solo poche ore prima, la donna... ha perso la vita. Così il fantasma della signora Ricoletti sembra ora aggirarsi per le strade con un’insaziabile sete di vendetta. Dalla nebbia avvolgente di Limehouse alle viscere di una chiesa in rovina, Holmes e Watson dovranno usare tutta la loro astuzia per combattere un nemico apparentemente già morto e solo il finale del film rivelerà la scioccante verità su l’abominevole sposa del titolo. L’episodio, intitolato Sherlock - L'abominevole sposa e mai visto sino ad oggi, sarà corredato da 20 minuti di riprese aggiuntive e da una visita guidata al 221B di Baker Street con il produttore esecutivo Steven Moffat.

Demain - Domani (2015).H264.Italian.English.Ac3.5.1.sub.ita.iCV-MIRCrew

Language: | Size: 1.66 GB | Seed: 2 | Leech: 94

Description:

Demain - Domani (2015).H264.Italian.English.Ac3.5.1.sub.ita.iCV-MIRCrew [center] [color=red][b][img]http://extraimago.com/images/2016/07/16/oCo82IVa08d8.png[/img] [u]NO FOUND ONLY ORIGINAL RELEASE[/u] [img]http://i.imgur.com/GDNQx1Z.png[/img] My release is always in double track audio italian and Original audio for select it use VLC or dvd player home not use wmp Domani - Demain (2015) [img]https://extraimage.net/images/2017/01/07/cedd8bd697f1bc431fcd517abf9d268f.png[/img] [URL=http://www.imdb.com/title/tt4624424/][IMG]http://www.userlogos.org/files/logos/Sucka/imdb_new.png[/IMG][/URL] [img]http://i.imgur.com/Q5gAZRt.png[/img] DATA USCITA: 06 ottobre 2016 GENERE: Documentario ANNO: 2015 REGIA: Cyril Dion, Mélanie Laurent SCENEGGIATURA: Cyril Dion PRODUZIONE: Move Movie, Mars Films, Mely Productions DISTRIBUZIONE: Lucky Red PAESE: Francia DURATA: 118 Min [img]http://i.imgur.com/Jtvgw7x.png[/img] ******************************************** [img]http://i.imgur.com/hL3n1m8.png[/img] In seguito alla pubblicazione di uno studio che annuncia la possibile scomparsa di una parte dell’umanità da qui al 2100, Cyril Dion e Mélanie Laurent intraprendono un emozionante viaggio intorno al mondo per scoprire cosa potrebbe provocare questa catastrofe, ma soprattutto come evitarla. Partendo dagli esperimenti più riusciti nei campi dell’agricoltura, energia, architettura, economia e istruzione, i registi Cyril Dion e Mélanie Laurent immaginano un nuovo futuro per noi e per i nostri figli. Risultato: una sorprendente, contagiosa e ottimista spinta al cambiamento, a partire già da DOMANI. [img]http://i.imgur.com/MTp7cO6.png[/img] Climate is changing. Instead of showing all the worst that can happen, this documentary focuses on the people suggesting solutions and their actions. ................. [img]http://i.imgur.com/6TgqSmf.png[/img] [url=https://extraimage.net/image/2SpG][img]http://extraimage.net/images/2017/01/07/4d29cfc1b3efd92d74370c3f614fe0a7.th.png[/img][/url] [url=https://extraimage.net/image/2Spr][img]http://extraimage.net/images/2017/01/07/c66a9e3e9fd3f49551beefa4e67df404.th.png[/img][/url] [url=https://extraimage.net/image/2SpP][img]http://extraimage.net/images/2017/01/07/9528e95403b2a88bf872c36a2190a1e7.th.png[/img][/url] [img]http://i.imgur.com/t8N3Ia1.png[/img] [spoiler] General Unique ID : 194371473091142583325295084307473199061 (0x923A9583639DA85DAA0F5A32C40F6FD5) Complete name : Domani (2015).H264.ita.eng.sub.ita.iCV-MIRCrew.mkv Format : Matroska Format version : Version 2 File size : 1.66 GiB Duration : 1h 55mn Overall bit rate : 2 058 Kbps Movie name : DOMANI.Title1 Encoded date : UTC 2017-01-06 10:38:09 Writing application : DVDFab 9.1.5.7 Writing library : libebml v0.7.8 + libmatroska v0.8.1 Video ID : 1 Format : AVC Format/Info : Advanced Video Codec Format profile : [email protected] Format settings, CABAC : Yes Format settings, ReFrames : 2 frames Codec ID : V_MPEG4/ISO/AVC Duration : 1h 55mn Bit rate : 1 249 Kbps Width : 720 pixels Height : 300 pixels Display aspect ratio : 2.40:1 Frame rate : 25.000 fps Color space : YUV Chroma subsampling : 4:2:0 Bit depth : 8 bits Scan type : Progressive Bits/(Pixel*Frame) : 0.231 Stream size : 1.01 GiB (61%) Writing library : x264 core Default : Yes Forced : No Color primaries : BT.601-6 525, BT.1358 525, BT.1700 NTSC, SMPTE 170M Transfer characteristics : BT.709-5, BT.1361 Matrix coefficients : BT.601-6 525, BT.1358 525, BT.1700 NTSC, SMPTE 170M Audio #1 ID : 2 Format : AC-3 Format/Info : Audio Coding 3 Mode extension : CM (complete main) Codec ID : A_AC3 Duration : 1h 55mn Bit rate mode : Constant Bit rate : 384 Kbps Channel(s) : 6 channels Channel positions : Front: L C R, Side: L R, LFE Sampling rate : 48.0 KHz Bit depth : 16 bits Compression mode : Lossy Stream size : 317 MiB (19%) Language : Italian Default : Yes Forced : No Audio #2 ID : 3 Format : AC-3 Format/Info : Audio Coding 3 Mode extension : CM (complete main) Codec ID : A_AC3 Duration : 1h 55mn Bit rate mode : Constant Bit rate : 384 Kbps Channel(s) : 6 channels Channel positions : Front: L C R, Side: L R, LFE Sampling rate : 48.0 KHz Bit depth : 16 bits Compression mode : Lossy Stream size : 317 MiB (19%) Language : English Default : No Forced : No Text #1 ID : 4 Format : VobSub Codec ID : S_VOBSUB Codec ID/Info : The same subtitle format used on DVDs Language : Italian Default : Yes Forced : No Text #2 ID : 5 Format : VobSub Codec ID : S_VOBSUB Codec ID/Info : The same subtitle format used on DVDs Language : Italian Default : No Forced : No Menu 00:00:00.000 : en:(01)00:00:00:000 00:09:53.840 : en:(02)00:09:53:840 00:19:42.960 : en:(03)00:19:42:960 00:29:22.560 : en:(04)00:29:22:560 00:38:43.040 : en:(05)00:38:43:040 00:48:14.120 : en:(06)00:48:14:120 00:58:15.000 : en:(07)00:58:15:000 01:07:22.680 : en:(08)01:07:22:680 01:16:59.600 : en:(09)01:16:59:600 01:26:48.120 : en:(10)01:26:48:120 01:36:27.600 : en:(11)01:36:27:600 01:45:18.360 : en:(12)01:45:18:360 01:55:24.840 : en:(13)01:55:24:840 [/spoiler] [/color][/b][/center]

Hard Target 2 - Senza tregua 2 (2016).H264.Italian.English.Ac3.5.1.sub.ita.eng.iCV-MIRCrew

Language: | Size: 1.57 GB | Seed: 4 | Leech: 136

Description:

Hard Target 2 - Senza tregua 2 (2016).H264.Italian.English.Ac3.5.1.sub.ita.eng.iCV-MIRCrew [center] [color=red][b][img]https://s23.postimg.org/b9yhws27f/0sc_Del1.png[/img] [u]NO FOUND ONLY ORIGINAL RELEASE[/u] [img]http://i.imgur.com/GDNQx1Z.png[/img] My release is always in double track audio italian and Original audio for select it use VLC or dvd player home not use wmp Senza tregua 2 - Hard Target 2 (2016) [img]http://extraimage.net/images/2017/01/07/236746d413cb22519da4e6a6e81ca77b.png[/img] [URL=http://www.imdb.com/title/tt5241578/][IMG]http://www.userlogos.org/files/logos/Sucka/imdb_new.png[/IMG][/URL] [img]http://i.imgur.com/fGu1rKv.png[/img] Titolo originale Hard Target 2 Paese di produzione USA Anno 2016 Durata 104 min Rapporto 1,85:1 Genere azione, thriller Regia Roel Reiné Sceneggiatura Matt Harvey, Dominic Morgan e George Huang Produttore Oliver Ackermann, Sean Daniels e Chris Lowenstein Musiche Jack Wall [img]http://i.imgur.com/W7kBqiE.png[/img] Scott Adkins: Wes Baylor Robert Knepper: Aldrich Rhona Mitra: Sofia Temuera Morrison: Madden Ann Truong: Tha Adam Saunders: Esparto Jamie Timony: Landon Peter Hardy: Jacob Zimling Sean Keenan: Tobias Zimling Troy Honeysett: Jonny Sutherland [img]http://i.imgur.com/bFK3ggF.png[/img] L'ex-marine Wes Baylor, dopo aver ucciso sul ring il suo rivale amico, continua a dannarsi per quel fatto. Un giorno Aldrich lo scova e gli propone un'ultima battaglia. Arrivato nell'Asia del sud, scopre che è stato ingannato e sarà costretto a partecipare ad una caccia all'uomo dove lui è.............. [img]http://i.imgur.com/48xHWWH.png[/img] Retired mixed martial artist Wes "The Jailor" Baylor (Scott Adkins) can't refuse a million-dollar purse he's offered for one final bout in Myanmar. But when he arrives for the fight, he ... [img]http://i.imgur.com/K8bfNTy.png[/img] [url=https://extraimage.net/image/2Sp4][img]http://extraimage.net/images/2017/01/07/ad28f21b5850db495a24166490173993.th.png[/img][/url] [url=https://extraimage.net/image/2SpB][img]http://extraimage.net/images/2017/01/07/b1d27b197096e09fcde3da2664899dfc.th.png[/img][/url] [url=https://extraimage.net/image/2SpC][img]http://extraimage.net/images/2017/01/07/3079adcbaa337c7b90d5f34037a4ec26.th.png[/img][/url] [img]http://i.imgur.com/cWb6Z.gif[/img] [img]http://i.imgur.com/aVrMohH.png[/img] [spoiler] General Unique ID : 185347330925706988297318322200096132718 (0x8B7098F411D3095D2BA112EBEB5DCE6E) Complete name : Senza tregua 2 (2016).H264.ita.eng.sub.ita.eng.iCV-MIRCrew.mkv Format : Matroska Format version : Version 2 File size : 1.57 GiB Duration : 1h 43mn Overall bit rate : 2 176 Kbps Movie name : VISIT www.icv-crew.org Encoded date : UTC 2017-01-06 15:36:35 Writing application : Lavf54.63.100 Writing library : Lavf54.63.100 COPYRIGHT : robbyrs Video ID : 1 Format : AVC Format/Info : Advanced Video Codec Format profile : [email protected] Format settings, CABAC : Yes Format settings, ReFrames : 2 frames Codec ID : V_MPEG4/ISO/AVC Duration : 1h 43mn Bit rate : 1 275 Kbps Width : 718 pixels Height : 404 pixels Display aspect ratio : 16:9 Frame rate mode : Variable Frame rate : 23.976 fps Color space : YUV Chroma subsampling : 4:2:0 Bit depth : 8 bits Scan type : Progressive Bits/(Pixel*Frame) : 0.183 Stream size : 916 MiB (57%) Writing library : x264 core 130 r2273 Encoding settings : cabac=1 / ref=2 / deblock=1:0:0 / analyse=0x1:0x131 / me=hex / subme=7 / psy=1 / psy_rd=1.00:0.00 / mixed_ref=0 / me_range=16 / chroma_me=1 / trellis=1 / 8x8dct=0 / cqm=0 / deadzone=21,11 / fast_pskip=1 / chroma_qp_offset=-2 / threads=12 / lookahead_threads=2 / sliced_threads=0 / nr=0 / decimate=1 / interlaced=0 / bluray_compat=0 / constrained_intra=0 / bframes=3 / b_pyramid=0 / b_adapt=1 / b_bias=0 / direct=3 / weightb=1 / open_gop=0 / weightp=2 / keyint=230 / keyint_min=23 / scenecut=40 / intra_refresh=0 / rc_lookahead=40 / rc=2pass / mbtree=1 / bitrate=1275 / ratetol=1.0 / qcomp=0.60 / qpmin=10 / qpmax=69 / qpstep=4 / cplxblur=20.0 / qblur=0.5 / vbv_maxrate=24000 / vbv_bufsize=24000 / nal_hrd=none / ip_ratio=1.40 / aq=1:1.00 Default : Yes Forced : No DURATION : 01:43:33.249000000 NUMBER_OF_FRAMES : 148969 NUMBER_OF_BYTES : 9471295910 _STATISTICS_WRITING_APP : mkvmerge v9.6.0 ('Slave To Your Mind') 32bit _STATISTICS_WRITING_DATE_UTC : 2016-12-14 15:33:11 _STATISTICS_TAGS : BPS DURATION NUMBER_OF_FRAMES NUMBER_OF_BYTES Audio #1 ID : 2 Format : AC-3 Format/Info : Audio Coding 3 Mode extension : CM (complete main) Codec ID : A_AC3 Duration : 1h 43mn Bit rate mode : Constant Bit rate : 448 Kbps Channel(s) : 6 channels Channel positions : Front: L C R, Side: L R, LFE Sampling rate : 48.0 KHz Bit depth : 16 bits Compression mode : Lossy Delay relative to video : 1mn 5s Stream size : 332 MiB (21%) Language : Italian Default : No Forced : No DURATION : 01:43:33.280000000 NUMBER_OF_FRAMES : 194165 NUMBER_OF_BYTES : 497062400 _STATISTICS_WRITING_APP : mkvmerge v9.6.0 ('Slave To Your Mind') 32bit _STATISTICS_WRITING_DATE_UTC : 2016-12-14 15:33:11 _STATISTICS_TAGS : BPS DURATION NUMBER_OF_FRAMES NUMBER_OF_BYTES Audio #2 ID : 3 Format : AC-3 Format/Info : Audio Coding 3 Mode extension : CM (complete main) Codec ID : A_AC3 Duration : 1h 43mn Bit rate mode : Constant Bit rate : 448 Kbps Channel(s) : 6 channels Channel positions : Front: L C R, Side: L R, LFE Sampling rate : 48.0 KHz Bit depth : 16 bits Compression mode : Lossy Delay relative to video : 1mn 5s Stream size : 332 MiB (21%) Language : English Default : No Forced : No DURATION : 01:43:33.280000000 NUMBER_OF_FRAMES : 194165 NUMBER_OF_BYTES : 497062400 _STATISTICS_WRITING_APP : mkvmerge v9.6.0 ('Slave To Your Mind') 32bit _STATISTICS_WRITING_DATE_UTC : 2016-12-14 15:33:11 _STATISTICS_TAGS : BPS DURATION NUMBER_OF_FRAMES NUMBER_OF_BYTES Text #1 ID : 4 Format : UTF-8 Codec ID : S_TEXT/UTF8 Codec ID/Info : UTF-8 Plain Text Title : Sub. Ita. Forced Language : Italian Default : Yes Forced : Yes DURATION : 01:21:39.143000000 NUMBER_OF_FRAMES : 4 NUMBER_OF_BYTES : 90 _STATISTICS_WRITING_APP : mkvmerge v9.6.0 ('Slave To Your Mind') 32bit _STATISTICS_WRITING_DATE_UTC : 2016-12-14 15:33:11 _STATISTICS_TAGS : BPS DURATION NUMBER_OF_FRAMES NUMBER_OF_BYTES Text #2 ID : 5 Format : UTF-8 Codec ID : S_TEXT/UTF8 Codec ID/Info : UTF-8 Plain Text Title : Sub. Ita. Language : Italian Default : No Forced : No DURATION : 01:39:26.001000000 NUMBER_OF_FRAMES : 831 NUMBER_OF_BYTES : 26630 _STATISTICS_WRITING_APP : mkvmerge v9.6.0 ('Slave To Your Mind') 32bit _STATISTICS_WRITING_DATE_UTC : 2016-12-14 15:33:11 _STATISTICS_TAGS : BPS DURATION NUMBER_OF_FRAMES NUMBER_OF_BYTES Text #3 ID : 6 Format : UTF-8 Codec ID : S_TEXT/UTF8 Codec ID/Info : UTF-8 Plain Text Title : Sub. Eng. Not Hearing Language : English Default : No Forced : No DURATION : 01:41:17.487000000 NUMBER_OF_FRAMES : 1058 NUMBER_OF_BYTES : 29732 _STATISTICS_WRITING_APP : mkvmerge v9.6.0 ('Slave To Your Mind') 32bit _STATISTICS_WRITING_DATE_UTC : 2016-12-14 15:33:11 _STATISTICS_TAGS : BPS DURATION NUMBER_OF_FRAMES NUMBER_OF_BYTES Menu 00:00:00.000 : :00:00:00.000 00:04:20.260 : :00:04:20.260 00:11:08.042 : :00:11:08.042 00:14:49.889 : :00:14:49.889 00:19:39.345 : :00:19:39.345 00:22:42.778 : :00:22:42.778 00:29:22.135 : :00:29:22.135 00:34:33.780 : :00:34:33.780 00:39:10.265 : :00:39:10.265 00:44:59.113 : :00:44:59.113 00:49:06.318 : :00:49:06.318 00:54:23.260 : :00:54:23.260 00:58:45.981 : :00:58:45.981 01:04:09.054 : :01:04:09.054 01:09:10.396 : :01:09:10.396 01:17:46.203 : :01:17:46.203 01:22:19.935 : :01:22:19.935 01:27:10.434 : :01:27:10.434 01:31:24.396 : :01:31:24.396 01:40:24.018 : :01:40:24.018 [/spoiler] [/color][/b][/center]

The Magnificent Seven - I Magnifici 7 (2016).720p.H264.Italian.English.Ac3.5.1.sub.ita.eng.iCV-MIRCrew

Language: | Size: 3.32 GB | Seed: 11 | Leech: 53

Description:

The Magnificent Seven - I Magnifici 7 (2016).720p.H264.Italian.English.Ac3.5.1.sub.ita.eng.iCV-MIRCrew [center] [color=red][b][img]https://s23.postimg.org/b9yhws27f/0sc_Del1.png[/img] [u]NO FOUND ONLY ORIGINAL RELEASE[/u] [img]http://i.imgur.com/GDNQx1Z.png[/img] My release is always in double track audio italian and Original audio for select it use VLC or dvd player home not use wmp I Magnifici 7 - The Magnificent Seven (2016) [img]http://extraimage.net/images/2017/01/06/7d4ce43e1aff4820674e94365d7125db.png[/img] [URL=http://www.imdb.com/title/tt2404435/][IMG]http://www.userlogos.org/files/logos/Sucka/imdb_new.png[/IMG][/URL] [img]http://i.imgur.com/fGu1rKv.png[/img] DATA USCITA: 22 settembre 2016 GENERE: Azione, Western, Drammatico ANNO: 2016 REGIA: Antoine Fuqua SCENEGGIATURA: John Lee Hancock, Nic Pizzolatto FOTOGRAFIA: Mauro Fiore MONTAGGIO: John Refoua MUSICHE: James Horner, Simon Franglen PRODUZIONE: Metro-Goldwyn-Mayer, Sony Pictures Entertainment, Village Roadshow Pictures DISTRIBUZIONE: Warner Bros. Italia PAESE: USA DURATA: 133 Min [img]http://i.imgur.com/W7kBqiE.png[/img] Denzel Washington, Chris Pratt, Ethan Hawke, Haley Bennett, Peter Sarsgaard, Vincent D'Onofrio, Matt Bomer, Lee Byung-hun, Cam Gigandet, Vinnie Jones, Sean Bridgers, Luke Grimes, William Lee Scott [img]http://i.imgur.com/bFK3ggF.png[/img] Remake del celebre I Magnifici Sette, il film di John Sturges del 1960, a sua volta remake de I sette samurai di Akira Kurosawa. Quando la città di Rose Creek si ritrova sotto il tallone di ferro del magnate Bartholomew Bogue, per trovare protezione i cittadini disperati assoldano sette fuorilegge, cacciatori di taglie, giocatori d'azzardo e sicari - Sam Chisolm, Josh Farraday, Goodnight Robicheaux , Jack Horne, Billy Rocks, Vasquez e Red Harvest................. [img]http://i.imgur.com/48xHWWH.png[/img] Seven gunmen in the old west gradually come together to help a poor village against savage thieves. [img]http://i.imgur.com/K8bfNTy.png[/img] [url=https://extraimage.net/image/2SYC][img]http://extraimage.net/images/2017/01/07/63422714eee2861f0963811cf69b5eed.th.png[/img][/url] [url=https://extraimage.net/image/2SYY][img]http://extraimage.net/images/2017/01/07/d21fb8a77dd61c7ec3cd405403ef5f8a.th.png[/img][/url] [url=https://extraimage.net/image/2SYp][img]http://extraimage.net/images/2017/01/07/b37d04cb98ef2204026eaa2246059975.th.png[/img][/url] [img]http://i.imgur.com/cWb6Z.gif[/img] [img]http://i.imgur.com/aVrMohH.png[/img] [spoiler] Generale ID univoco : 148048881520749091250127055163851701751 (0x6F612D6B183BDA4B6DD86E04BBCA7DF7) Nome completo : I Magnifici 7 - The Magnificent Seven (2016).720p.H264.ita.eng.sub.ita.eng.iCV-MIRCrew.mkv Formato : Matroska Versione formato : Version 2 Dimensione : 3,32 GiB Durata : 2o 12min Bitrate totale : 3.573 Kbps Film : VISIT www.icv-crew.org Data codifica : UTC 2017-01-07 12:31:47 / UTC 2017-01-07 12:31:47 Creato con : Lavf54.63.100 Compressore : Lavf54.63.100 / Lavf54.63.100 Copyright : robbyrs Video ID : 1 Formato : AVC Formato/Informazioni : Advanced Video Codec Profilo formato : [email protected] Impostazioni formato, CABAC : Si Impostazioni formato, ReFrames : 2 frame ID codec : V_MPEG4/ISO/AVC Durata : 2o 12min Bitrate : 2.800 Kbps Larghezza : 1.718 pixel Altezza : 720 pixel Rapporto aspetto visualizzazione : 2,40:1 Modalità frame rate : Costante Frame rate : 23,976 (24000/1001) fps Spazio colore : YUV Croma subsampling : 4:2:0 Profondità bit : 8 bit Tipo scansione : Progressivo Bit/(pixel*frame) : 0.094 Dimensione della traccia : 2,54 GiB (77%) Compressore : x264 core 130 r2273 Impostazioni compressione : cabac=1 / ref=2 / deblock=1:0:0 / analyse=0x1:0x131 / me=hex / subme=7 / psy=1 / psy_rd=1.00:0.00 / mixed_ref=0 / me_range=16 / chroma_me=1 / trellis=1 / 8x8dct=0 / cqm=0 / deadzone=21,11 / fast_pskip=1 / chroma_qp_offset=-2 / threads=12 / lookahead_threads=2 / sliced_threads=0 / nr=0 / decimate=1 / interlaced=0 / bluray_compat=0 / constrained_intra=0 / bframes=3 / b_pyramid=0 / b_adapt=1 / b_bias=0 / direct=3 / weightb=1 / open_gop=0 / weightp=2 / keyint=230 / keyint_min=23 / scenecut=40 / intra_refresh=0 / rc_lookahead=40 / rc=2pass / mbtree=1 / bitrate=2800 / ratetol=1.0 / qcomp=0.60 / qpmin=10 / qpmax=69 / qpstep=4 / cplxblur=20.0 / qblur=0.5 / vbv_maxrate=24000 / vbv_bufsize=24000 / nal_hrd=none / ip_ratio=1.40 / aq=1:1.00 Lingua : Inglese Default : Si Forced : No Statistics Tags Issue : mkvmerge v8.7.0 ('All of the above') 64bit 2017-01-05 09:25:06 / Lavf54.63.100 2017-01-07 12:31:47 / UTC 2017-01-07 12:31:47 FromStats_BitRate : 9655883 FromStats_Duration : 02:12:49.921000000 FromStats_FrameCount : 191087 FromStats_StreamSize : 9619578740 Audio #1 ID : 2 Formato : AC-3 Formato/Informazioni : Audio Coding 3 Estensione modo : CM (complete main) Impostazioni formato, Endianness : Big ID codec : A_AC3 Durata : 2o 12min Modalità bitrate : Costante Bitrate : 384 Kbps Canali : 6 canali Posizione canali : Front: L C R, Side: L R, LFE Frequenza campionamento : 48,0 KHz Frame rate : 31,250 fps (1536 spf) Profondità bit : 16 bit Modo compressione : Con perdita Ritardo video : -5ms Dimensione della traccia : 365MiB (11%) Titolo : AC3 ITA iTunes Lingua : Italiano Default : Si Forced : No Statistics Tags Issue : mkvmerge v8.7.0 ('All of the above') 64bit 2017-01-05 09:25:06 / Lavf54.63.100 2017-01-07 12:31:47 / UTC 2017-01-07 12:31:47 FromStats_BitRate : 384000 FromStats_Duration : 02:12:49.344000000 FromStats_FrameCount : 249042 FromStats_StreamSize : 382528512 Audio #2 ID : 3 Formato : AC-3 Formato/Informazioni : Audio Coding 3 Estensione modo : CM (complete main) Impostazioni formato, Endianness : Big ID codec : A_AC3 Durata : 2o 12min Modalità bitrate : Costante Bitrate : 384 Kbps Canali : 6 canali Posizione canali : Front: L C R, Side: L R, LFE Frequenza campionamento : 48,0 KHz Frame rate : 31,250 fps (1536 spf) Profondità bit : 16 bit Modo compressione : Con perdita Ritardo video : -5ms Dimensione della traccia : 365MiB (11%) Titolo : AC3 ENG Lingua : Inglese Default : No Forced : No Statistics Tags Issue : mkvmerge v8.7.0 ('All of the above') 64bit 2017-01-05 09:25:06 / Lavf54.63.100 2017-01-07 12:31:47 / UTC 2017-01-07 12:31:47 FromStats_BitRate : 640000 FromStats_Duration : 02:12:49.984000000 FromStats_FrameCount : 249062 FromStats_StreamSize : 637598720 Testo #1 ID : 4 Formato : ASS ID codec : S_TEXT/ASS ID codec/Informazioni : Advanced Sub Station Alpha Modo compressione : Senza perdita Titolo : FORCED Lingua : Italiano Default : Si Forced : No Statistics Tags Issue : mkvmerge v8.7.0 ('All of the above') 64bit 2017-01-05 09:25:06 / Lavf54.63.100 2017-01-07 12:31:47 / UTC 2017-01-07 12:31:47 FromStats_BitRate : 0 FromStats_Duration : 01:49:34.658000000 FromStats_FrameCount : 24 FromStats_StreamSize : 497 Testo #2 ID : 5 Formato : ASS ID codec : S_TEXT/ASS ID codec/Informazioni : Advanced Sub Station Alpha Modo compressione : Senza perdita Titolo : REGOLARI Lingua : Italiano Default : No Forced : No Statistics Tags Issue : mkvmerge v8.7.0 ('All of the above') 64bit 2017-01-05 09:25:06 / Lavf54.63.100 2017-01-07 12:31:47 / UTC 2017-01-07 12:31:47 FromStats_BitRate : 45 FromStats_Duration : 02:06:57.743000000 FromStats_FrameCount : 1482 FromStats_StreamSize : 42983 Testo #3 ID : 6 Formato : ASS ID codec : S_TEXT/ASS ID codec/Informazioni : Advanced Sub Station Alpha Modo compressione : Senza perdita Titolo : FORCED Lingua : Inglese Default : No Forced : No Statistics Tags Issue : mkvmerge v8.7.0 ('All of the above') 64bit 2017-01-05 09:25:06 / Lavf54.63.100 2017-01-07 12:31:47 / UTC 2017-01-07 12:31:47 FromStats_BitRate : 0 FromStats_Duration : 01:04:19.199000000 FromStats_FrameCount : 16 FromStats_StreamSize : 281 Testo #4 ID : 7 Formato : ASS ID codec : S_TEXT/ASS ID codec/Informazioni : Advanced Sub Station Alpha Modo compressione : Senza perdita Titolo : NON UDENTI Lingua : Inglese Default : No Forced : No Statistics Tags Issue : mkvmerge v8.7.0 ('All of the above') 64bit 2017-01-05 09:25:06 / Lavf54.63.100 2017-01-07 12:31:47 / UTC 2017-01-07 12:31:47 FromStats_BitRate : 58 FromStats_Duration : 02:06:57.692000000 FromStats_FrameCount : 1839 FromStats_StreamSize : 55516 Menu 00:00:00.000 : :00:00:00.000 00:04:53.710 : :00:04:53.710 00:11:28.187 : :00:11:28.187 00:18:12.591 : :00:18:12.591 00:25:17.850 : :00:25:17.850 00:31:55.956 : :00:31:55.956 00:36:53.795 : :00:36:53.795 00:42:05.857 : :00:42:05.857 00:50:23.520 : :00:50:23.520 00:59:57.844 : :00:59:57.844 01:06:49.631 : :01:06:49.631 01:16:08.439 : :01:16:08.439 01:23:25.792 : :01:23:25.792 01:34:06.766 : :01:34:06.766 01:44:19.712 : :01:44:19.712 01:54:47.297 : :01:54:47.297 [/spoiler] [/color][/b][/center]

Various Artists - Playboy Jazz In A Smooth Groove, [Mp3][TNT]

Language: | Size: 273.62 MB | Seed: 51 | Leech: 7

Description:

Artist: Various Artists Title: Playboy Jazz: In A Smooth Groove Year Of Release: 2004 Genre: Smooth Jazz, Jazz-Pop, Crossover Jazz Label: Concord/Playboy Tracks: 24 CDs: 2 Format: Mp3 Quality: 320 kbps Included Scans: Si Archive Size: 273 Mb ------- CD1: 01. Boney James Featuring Rick Braum - Grazin' In The Grass (05:09) 02. Larry Carlton - Smiles And Smiles To Go (05:48) 03. Spyro Gyra - Ariana (05:06) 04. David Benoit And Russ Freeman - Stiletto Heels (04:12) 05. Phil Perry - Groove With You (04:25) 06. The Braxton Brothers - Don't Stop (03:58) 07. Gato Barbieri - Last Kiss (05:14) 08. Regina Belle - From Now On (04:31) 09. Paul Taylor - Steppin' Out (04:36) 10. Frank Vignola - Walkin' On The Moon (03:59) 11. Ed Calle - Joyful (04:21) 12. Tania Maria - Come With Me (05:38) CD2: 01. Dave Koz - You Make Me Smile (04:17) 02. George Benson - Breezin' (05:39) 03. Grover Washington Jr. With Bill Withers - Just The Two Of Us (03:57) 04. The Rippingtons - Bella Luna (03:56) 05. Dave Valentin - Reunion (05:46) 06. Cassandra Reed - Color Of Love (04:26) 07. Eric Marienthal - Mist Trail (04:37) 08. Pete Escovedo - La Samba (05:45) 09. Dave Grusin - Mountain Dance (06:16) 10. Sheila E. & The E. Train - Heaven (05:16) 11. Patti Austin - In & Out Of Love (03:56) 12. Kenny G - Songbird (03:54)

Enya - Dark Sky Island [Flac][TntVillage]

Language: | Size: 302.98 MB | Seed: 102 | Leech: 91

Description:

Artist...............: Enya Album................: Dark Sky Island Genre................: New Age, Celtic Source...............: CD Year.................: 2015 Ripper...............: EAC (Secure mode) / LAME 3.92 & Asus CD-S520 Codec................: Free Lossless Audio Codec (FLAC) Version..............: reference libFLAC 1.2.1 20070917 Quality..............: Lossless, (avg. compression: 55 %) Channels.............: Stereo / 44100 HZ / 16 Bit Tags.................: VorbisComment Information..........: TntVillage Ripped by............: Leonenero on 06/01/2017 Posted by............: Leonenero on 06/01/2017 News Server..........: news.astraweb.com News Group(s)........: TntVillage Included.............: NFO, MD5, PLS, LOG, CUE Covers...............: Front Back CD --------------------------------------------------------------------- Tracklisting --------------------------------------------------------------------- 1. Enya - The Loxian Gates [03:34] 2. Enya - Diamonds On The Water [03:35] 3. Enya - The Humming [03:45] 4. Enya - So I Could Find My Way [04:25] 5. Enya - Even In The Shadows [04:14] 6. Enya - The Forge Of The Angels [05:14] 7. Enya - Echoes In Rain [03:35] 8. Enya - I Could Never Say Goodbye [03:29] 9. Enya - Dark Sky Island [04:57] 10. Enya - Sancta Maria [03:51] 11. Enya - Astra Et Luna [03:21] [Bonus Track] 12. Enya - Solace [03:58] 13. Enya - Pale Grass Blue [03:34] 14. Enya - Remember Your Smile [02:57] Playing Time.........: 54:36 Total Size...........: 302,82 MB The success that Enya has enjoyed in her 25-plus year career is enough to make anybody jealous. Over 80 million albums sold to date, the extent of which has spawned its own economic term, 'Enyanomics'. The biggest selling solo artist to come from Ireland. Music that has soundtracked everything from heartfelt 9/11 tributes and Lord of the Rings through to car ads with Jean-Claude Van Damme, and has influenced artists as far flung as Bat for Lashes and Nicki Minaj. Yet for all her success (or perhaps because of it), a lot of people tend to get awfully sniffy about her music, either dismissing it as boring, samey, uncool or as wishy washy 'New Age' (the last label I've always found to be rather odd, given that much of her music appears to be steeped in Catholic imagery, which is about as far away from 'New Age' as you can get). An episode of South Park even insinuated that her music can lead to murderous tendencies. It is my sincere hope that her ninth studio album, Dark Sky Island , will finally set the record straight, put those dismissals in the past, and finally respect Enya for the visionary talent that she is. And it's not because Dark Sky Island breaks new or unexpected territory for Enya. On the contrary, the album is more a continuation of everything that has come before. Right from the opening stabs of 'The Humming', we are firmly into familiar territory, with cascading piano lines, the infinitely multi-tracked vocals, and the warm, comforting lyrics that evoke the natural world so beautifully. The familiarity occurs across the album, although in many ways this is intentional. 'Echoes In Rain' has been touted as a sequel to her signature song 'Orinoco Flow', and is Enya at her most joyous and uplifting, and quite possibly her best lead single since 'Anywhere Is'. As the chorus implores, praise be indeed. And just to prove that her music goes beyond us mere mortals, two of the songs are sung in a completely made-up language, Loxian, on 'Forge of the Angels', which is the closest the album comes to matching 'Only Time' and 'The Loxian Gates', which is the only song on Dark Sky Island to really surprise me, although largely because it sounds as if she's buried one of Avicii's trademark synths very deep in the mix. Enya is probably the only artist who could get away with making up a language without being accused of being big-headed - her music sounds like it comes from another world, so it makes perfect sense that her lyrics should too. Elsewhere, we can see Enya pulling one of the tricks that so many musicians long for but few ever manage to reach - creating a song sounds like it has been around forever. Take the two big ballads of the album, 'So I Could Find My Way' and 'I Could Never Say Goodbye'. The lyrics are so timeless, the melodies so perfect that I had convinced myself that she had unearthed some long forgotten Irish folk standard, refusing to believe that they could not be more than a few years old. There is the occasional misstep on the album - the vocals on devotional 'Sancta Maria' are layered on so thickly that the ends up sounding a little bit overpowering, which is quite the opposite of what you'd like to get from Enya, although within the context of the album it isn't particularly off-putting. Normally when a new record by an artist I admire sounds like it could have been made at any point in their career, there is a feeling that they are merely treading on past glories, unwilling to develop their sound beyond their comfort zone. However, when it comes in Enya, I am ready to make an exception to that rule. Yes, Dark Sky Island ’s mix of Irish folk, choral music, pianos, synths and vocals with more layers than a 50 foot gobstopper; but the music of Enya is impervious to outside influences: if she didn't continue to make it, then nobody else would. Getting a new Enya album is akin to irregular visits from a far-flung, eccentric relative. Sure, you spend the extended time in-between their stays cracking jokes and laughing at their expense, but for the short periods of time when she graces us with her presence, we truly love every minute of it. If you've dismissed Enya in the past, then Dark Sky Island is the perfect opportunity to embrace an artist who is so much loved, yet very much under-appreciated.

Cicogne In Missione (2016) ITA AC3 1080p BluRay x264 Sub

Language: | Size: 4.71 GB | Seed: 201 | Leech: 10

Description:

Titolo originale: Storks Nazione: U.S.A. Anno: 2016 Genere: Animazione Durata: 89' Regia: Nicholas Stoller, Doug Sweetland Cast (voci): Andy Samberg, Katie Crown, Jennifer Aniston, Ty Burrell, Kelsey Grammer, Keegan-Michael Key, Jordan Peele, Anton Starkman, Danny Trejo Produzione: Warner Animation Group, Warner Bros. Animation Data di uscita: 20 Ottobre 2016 (cinema) Trama: Le cicogne portano i bambini… o almeno una volta era così. Adesso consegnano i pacchi per Cornerstore.com, il gigante del commercio online. Junior, il miglior impiegato dell’azienda, è sul punto di ricevere una promozione quando per sbaglio attiva la Macchina Fabbrica-Bambini, dando così vita a una bimba adorabile e assolutamente non autorizzata. Nel disperato tentativo di recapitare questo fagottino di problemi prima che il capo se ne accorga, Junior e la sua amica Tulip, l’unica umana a Stork Mountain, iniziano una corsa contro il tempo per portare a termine la loro prima consegna, intraprendendo un viaggio frenetico e rivelatore durante il quale più di una singola famiglia potrebbe trovare la felicità e le cicogne potrebbero tornare a svolgere la loro vera missione.

Jamil - Il Nirvana - 2014 320kbs

Language: | Size: 141.54 MB | Seed: 410 | Leech: 38

Description:

TRACKLIST: 1. 1991 (Intro) [Explicit] 2. La Quarta J [Explicit] 3. King Del Bong [Explicit] 4. Alla Mia Festa [Explicit] 5. Hardcore (feat. DJ Telaviv) [Explicit] 6. Familia (feat. Emis Killa) [Explicit] 7. Volevo Solo [Explicit] 8. Io Sono [Explicit] 9. Tony Montana [Explicit] 10. Tattoo Girls [Explicit] 11. Mamma Dice [Explicit] 12. Sempre Tutto Figo (feat. DJ Breeda) [Explicit] 13. Il Mio Manager [Explicit] 14. Alias Zebbi (feat. Karkadan & Vacca) [Explicit] 15. Il Nirvana [Explicit] 16. Courtney Love (feat. Mondo Marcio) [Explicit] 17. Fuori Di Qua [Explicit]

Jamil - Black book 2 - 2016

Language: | Size: 124.4 MB | Seed: 4 | Leech: 1

Description:

Tracklist Black Book 2 – Jamil album (Download) 1. Sweet Dreams 2 3:17 2. Stai Con Me 3:46 3. Scarpe da pusher 3:34 4. Benissimo (feat. Tormento) 4:19 5. O.G (feat. Black T) 4:19 6. Soldi (feat. Emis Killa) 4:03 7. Va beh (feat. Madman) 3:27 8. Occhi su di te (feat. Gemitaiz) 3:18 9. Quanti amici ho perso (feat. Egreen) 4:23 10. Corri Corri (feat. Nto) 2:47 11. Street Food (feat. Mac Lucci) 2:29 12. Giovani (feat. Nigga Dium, Mboss & Amill Leonardo) 4:31 13. Per una volta sola (feat. Canesecco & Vacca) 4:22 14. S.V 4:08 “Finalmente esce il mio nuovo album BLACK BOOK 2 frutto di due anni di lavoro. Ho dato tutto per questo album, investito tutto me stesso e parecchi soldi. Metterò l’album sul mio canale Youtube così che possiate ascoltarlo GRATIS. Vi chiedo solo una cosa. Una volta ascoltato se pensate che ne valga la pena per me sarebbe un sogno se vi compraste il disco in formato digitale su iTunes o Amazon a 10 euro. Questo per me significa poter continuare a fare questa roba al meglio, senza etichette. Siete la mia forza, senza di voi non ci sarei.”. Firmato Jamil.

South Park S20E10 The End Of Serialization As We Know It iTA ENG SUBS 720p DLMux x264

Language: | Size: 203.97 MB | Seed: 4 | Leech: 6

Description:

Titolo Italiano: South Park Titolo Originale: South Park Produzione: 1997 © Trey Parker, Matt Stone, Comedy Central Nazione: USA Durata: 10 episodi da 22 minuti circa .:INFO:. South Park (South Park) è una serie televisiva satirica statunitense a cartoni animati. Creata e doppiata da Matt Stone e Trey Parker, viene distribuita e trasmessa negli Stati Uniti da Comedy Central. Trasmessa per la prima volta nel 1997, la serie è giunta alla sua quindicesima stagione. South Park narra le avventure di Stan, Kyle, Eric e Kenny, quattro ragazzi che frequentano la scuola elementare (inizialmente la terza classe e, a partire dalla quarta stagione, la quarta) e vivono nella piccola città di South Park, sulle Montagne Rocciose, in Colorado. In principio il cartone era realizzato utilizzando la tecnica della stop motion cutout animation, dove i fotogrammi vengono realizzati incollando pezzi di cartone direttamente sullo sfondo. Successivamente questa tecnica è stata rimpiazzata dall'animazione al computer. [Fonte: Wiki] .:Download:. 01) Grappoli di ricordi - HD - FullHD 02) Caccia al troll - HD - FullHD 03) Anime perse - HD - FullHD 04) Wieners Out - HD - FullHD 05) Douche and a Danish - HD - FullHD 06) Fort Collins - HD - FullHD 07) Oh, Jeez - HD - FullHD 08) Members Only - HD - FullHD 09) Non è divertente - HD - FullHD 10) The End of Serialization as We Know It - HD - FullHD

South Park S20E09 Non E Divertente iTA ENG SUBS 720p DLMux x264

Language: | Size: 104.2 MB | Seed: 650 | Leech: 82

Description:

Titolo Italiano: South Park Titolo Originale: South Park Produzione: 1997 © Trey Parker, Matt Stone, Comedy Central Nazione: USA Durata: 10 episodi da 22 minuti circa .:INFO:. South Park (South Park) è una serie televisiva satirica statunitense a cartoni animati. Creata e doppiata da Matt Stone e Trey Parker, viene distribuita e trasmessa negli Stati Uniti da Comedy Central. Trasmessa per la prima volta nel 1997, la serie è giunta alla sua quindicesima stagione. South Park narra le avventure di Stan, Kyle, Eric e Kenny, quattro ragazzi che frequentano la scuola elementare (inizialmente la terza classe e, a partire dalla quarta stagione, la quarta) e vivono nella piccola città di South Park, sulle Montagne Rocciose, in Colorado. In principio il cartone era realizzato utilizzando la tecnica della stop motion cutout animation, dove i fotogrammi vengono realizzati incollando pezzi di cartone direttamente sullo sfondo. Successivamente questa tecnica è stata rimpiazzata dall'animazione al computer. [Fonte: Wiki] .:Download:. 01) Grappoli di ricordi - HD - FullHD 02) Caccia al troll - HD - FullHD 03) Anime perse - HD - FullHD 04) Wieners Out - HD - FullHD 05) Douche and a Danish - HD - FullHD 06) Fort Collins - HD - FullHD 07) Oh, Jeez - HD - FullHD 08) Members Only - HD - FullHD 09) Non è divertente - HD - FullHD 10) The End of Serialization as We Know It - HD - FullHD

South Park S20E08 Members Only iTA ENG SUBS 1080p DLMux x264

Language: | Size: 866.34 MB | Seed: 8 | Leech: 1

Description:

Titolo Italiano: South Park Titolo Originale: South Park Produzione: 1997 © Trey Parker, Matt Stone, Comedy Central Nazione: USA Durata: 10 episodi da 22 minuti circa .:INFO:. South Park (South Park) è una serie televisiva satirica statunitense a cartoni animati. Creata e doppiata da Matt Stone e Trey Parker, viene distribuita e trasmessa negli Stati Uniti da Comedy Central. Trasmessa per la prima volta nel 1997, la serie è giunta alla sua quindicesima stagione. South Park narra le avventure di Stan, Kyle, Eric e Kenny, quattro ragazzi che frequentano la scuola elementare (inizialmente la terza classe e, a partire dalla quarta stagione, la quarta) e vivono nella piccola città di South Park, sulle Montagne Rocciose, in Colorado. In principio il cartone era realizzato utilizzando la tecnica della stop motion cutout animation, dove i fotogrammi vengono realizzati incollando pezzi di cartone direttamente sullo sfondo. Successivamente questa tecnica è stata rimpiazzata dall'animazione al computer. [Fonte: Wiki] .:Download:. 01) Grappoli di ricordi - HD - FullHD 02) Caccia al troll - HD - FullHD 03) Anime perse - HD - FullHD 04) Wieners Out - HD - FullHD 05) Douche and a Danish - HD - FullHD 06) Fort Collins - HD - FullHD 07) Oh, Jeez - HD - FullHD 08) Members Only - HD - FullHD 09) Non è divertente - HD - FullHD 10) The End of Serialization as We Know It - HD - FullHD

South Park S20E07 Oh Jeez iTA ENG SUBS 720p DLMux x264

Language: | Size: 103.7 MB | Seed: 8 | Leech: 1

Description:

Titolo Italiano: South Park Titolo Originale: South Park Produzione: 1997 © Trey Parker, Matt Stone, Comedy Central Nazione: USA Durata: 10 episodi da 22 minuti circa .:INFO:. South Park (South Park) è una serie televisiva satirica statunitense a cartoni animati. Creata e doppiata da Matt Stone e Trey Parker, viene distribuita e trasmessa negli Stati Uniti da Comedy Central. Trasmessa per la prima volta nel 1997, la serie è giunta alla sua quindicesima stagione. South Park narra le avventure di Stan, Kyle, Eric e Kenny, quattro ragazzi che frequentano la scuola elementare (inizialmente la terza classe e, a partire dalla quarta stagione, la quarta) e vivono nella piccola città di South Park, sulle Montagne Rocciose, in Colorado. In principio il cartone era realizzato utilizzando la tecnica della stop motion cutout animation, dove i fotogrammi vengono realizzati incollando pezzi di cartone direttamente sullo sfondo. Successivamente questa tecnica è stata rimpiazzata dall'animazione al computer. [Fonte: Wiki] .:Download:. 01) Grappoli di ricordi - HD - FullHD 02) Caccia al troll - HD - FullHD 03) Anime perse - HD - FullHD 04) Wieners Out - HD - FullHD 05) Douche and a Danish - HD - FullHD 06) Fort Collins - HD - FullHD 07) Oh, Jeez - HD - FullHD 08) Members Only - HD - FullHD 09) Non è divertente - HD - FullHD 10) The End of Serialization as We Know It - HD - FullHD

MasterChef Italia S06e05-06 Versione 720p [SATRip - 720p - H264 - Ita Aac] HDTVRip

Language: | Size: 3.13 GB | Seed: 872 | Leech: 274

Description:

: Scheda della serie :. Anno: 2011-in corso Genere: Talent Show Regia: Umberto Spinazzola Cast: Bruno Barbieri; Carlo Cracco; Joe Bastianich; Antonino Cannavacciuolo .: Descrizione :. Dopo un anno di famelica attesa prende il via la sesta stagione di MasterChef Italia. I fornelli della cucina più famosa della TV stanno per riaccendersi. Inizia la nuova stagione MasterChef con i giudici riconfermati Bruno Barbieri, Joe Bastianich, Antonino Cannavacciuolo e Carlo Cracco.

Sophie's Guardian - SteamVR 2016 VR

Language: | Size: 311.71 MB | Seed: 374 | Leech: 41

Description:

“This is definitely a game with excellent cohesion and gameplay” Atomix “A creepy but really fun and addictive experience, with that tingling in the fingers when playing for the first time Contra, Doom or Halo, but now all over your body” Picnic ABOUT THIS GAME A little girl’s nightmares and fears represented on this VR title will take you to a mysterious room trying to break the scoreboards and playing with other friends locally… using just one VR headset! Attention: This video game is modding friendly. Create your own hordes, attack strategies and even enemies! In this experience the player takes the place of Griff, a Guardian Teddy Bear who has to fight possessed dolls that attack Sophie, a little girl that just moved with her mom to a mysterious house. Sophie’s Guardian is a VR Survival Horror FPS that provides a creepy experience for players with three intense game modes: Guardian, Gunslinger and the unique mode; The Puppeteer. If you enjoy arcade games then press the trigger quickly to become a better nightmare hunter! Playing is very simple; the player can choose one of the three different game modes. Then a 10 seconds countdown announces the beginning of the game. You must defeat the dolls before they can hurt you and if you receive big amounts of damage you loose the game. Two players take turns to manipulate the doll’s spawn points with the use of a game pad. This asymmetric multiplayer allows one player to protect Sophie of being attacked meanwhile the other player triggers the evil dolls’ waves. Tests your accuracy, reflexes and dexterity with the increasing hordes of evil dolls. The player must survive the longest while more and more dolls keep coming. This game mode features global and local scoreboards. Here’s where Sophie and Griff’s story can be experienced. The player faces 15 evil dolls' waves and the victory is achieved by defeating all the enemies including the final boss. SYSTEM REQUIREMENTS MINIMUM: OS: Win 7 or higher Processor: intel i5 Memory: 8 GB RAM Graphics: GTX 970 Storage: 1 GB available space Sound Card: Integrated RECOMMENDED: OS: Win 7 or higher Processor: intel i7 Memory: 8 GB RAM Graphics: GTX 1060 Storage: 1 GB available space Sound Card: Integrated

Hindenburg VR - SteamVR 2016 VR

Language: | Size: 126.76 MB | Seed: 4 | Leech: 0

Description:

Hindenburg VR [ megafiletube.xyz ].rar Hindenburg VR “ The virtual window to the past “ Slightly colorized by imagination but still the detailed and genuine 3D reconstruction of largest flying machine ever built - LZ 129 Hindenburg. Immerse yourself to the virtual reality and explore the exterior and interior of the airship, read the story behind, enjoy the experience of flight and soak up the atmosphere on board. Meet the history using the technology of the future, educate yourself through play. LZ -129 Hindenburg was a large German commercial passenger-carrying rigid airship. It was designed and built by the Zeppelin Company in Friedrichshafen. The actual construction made of duralumin girders began in the 1931 and after completion, LZ-129 was 804 ft (245m) long, with a diameter of 135 ft (41m) and total gas capacity 7 062 000 ft3 (200 000m3) of hydrogen. The ship was named Hindenburg - after Paul von Hindenburg, President of Germany and until today it remains the largest aircraft ever flown. The ship’s maiden flight took place on March 4, 1936 with airship pioneer Dr. Hugo Eckener as commander. After period of propaganda flights for Nazi Government, on May 6, 1936 LZ-129 began the service it was originally built for; regular transatlantic crossings between Germany and the United States. By the end of 1936, Hindenburg had crossed the Atlantic Ocean 34 times and this successful season seemed to indicate that regular transatlantic air service had arrived. But the first North American flight of the 1937 under the command of Captain Max Pruss turned into disaster. The airship was few hours behind schedule and her landing on Thursday May 6, 1937 in Lakehurst was complicated by thunderstorms. A few minutes after the landing lines were dropped, the first external flames appeared. The fire spread very quickly and consumed the ship in less than a minute. Hindenburg left Frankfurt with 97 souls onboard; 62 survived the crash at Lakehurst, although many suffered injuries. 13 of the 36 passengers, and 22 of the 61 crew including the most senior officer on the board - captain Ernst Lehmann died as a result of the crash, along with one member of the civilian landing party. The exact cause of the accident has still not been determined, even though the variety of hypotheses appeared. The disaster of the Hindenburg was captured on film, and millions of people around the world saw the dramatic explosion which consumed the ship and its passengers. The spectacular film footage as well as eyewitness radio report shattered public and industry faith in airships and marked the end of the giant passenger-carrying airships for decades. The interior on the Hindenburg was divided into 3 areas - Passenger Decks (for 50, eventually 72 passengers) contained within the hull of the airship, Crew Areas and Control Car in the ship’s gondola. The modern interior with lightweight aluminum furniture was designed by Fritz August Breuhaus and the walls were decorated by Otto Arpke. Passenger areas were heated. Walls and doors of the cabins were made of a thin layer of lightweight foam covered by fabric and each cabin had running water. During the 1936 season the Lounge contained a duralumin piano. Most surprising, aboard a hydrogen airship but probably the most popular public room on the ship was the Smoking Room. It was kept at higher pressure and was separated from the rest of the ship by an airlock. Crew areas on Hindenburg were primarily located along the keel together with tanks and cargo storage areas. The keel also offered access to Engine Cars and the Auxiliary Control Station. Hindenburg was navigated and conned from Control Car, located toward the bow of the airship and divided into 3 sections; a control room at the front, a navigation room at the center, and an observation room at the back. Hindenburg had a normal cruising altitude of 650 ft (200m), but sometimes was flown as low as 330 ft (100m) when necessary to stay below the clouds. The weather was one of the most important factors in zeppelin operations and officers spent a lot of time preparing and consulting the weather maps. Maximum speed of LZ-129 was 135 km/h (84 MPH) but most of the time the 4 Daimler-Benz engines were operated at a cruise setting of 1350 RPM giving the ship the airspeed about 125 km/h (76 MPH). Hindenburg was commanded like an ocean-going vessel. The ship was flown by a minimum of 39 officers and men under the command of the captain. Passengers were served by a Chief Steward, a Chief Cook, and 10-12 stewards and assistant cooks. Hindenburg also began carrying a doctor in 1937. This project is dedicated to the memory of 36 victims who perished in the disaster and was developed with respect to the designers, engineers, crew members and generally to all who were able to create and operate the largest flying aircraft ever. SYSTEM REQUIREMENTS MINIMUM: OS: W8.1, W10 Processor: i5 Memory: 4 GB RAM Graphics: NVIDIA® GeForce® GTX 970, AMD Radeon™ R9 290 equivalent or better DirectX: Version 10 Storage: 450 MB available space Additional Notes: HTC VIVE Headset RECOMMENDED: OS: W8.1, W10 Processor: i5, i7 Memory: 8 MB RAM Graphics: NVIDIA® GeForce® GTX 980, AMD Radeon™ R9 290 equivalent or better DirectX: Version 10 Storage: 450 MB available space Additional Notes: HTC VIVE Headset

Don't Knock Twice VR Demo - SteamVR 2016 VR

Language: | Size: 294.95 MB | Seed: 3 | Leech: 0

Description:

Don't Knock Twice VR Demo [ megafiletube.xyz ].rar ABOUT THIS GAME Don't Knock Twice is a first-person horror game based on a psychologically terrifying urban legend. To save her estranged daughter, a guilt-ridden mother must uncover the frightening truth behind the urban tale of a vengeful, demonic witch. One knock to wake her from her bed, twice to raise her from the dead. Explore a grand manor house and interact with almost every object you see. To find and save your daughter, you will explore all depths of the manor, searching for hidden clues and using items to fight or escape the terror that surrounds you. The game is based on the film, Don't Knock Twice, starring Katee Sackhoff (Battlestar Galactica) and directed by Caradog James (The Machine). The game supports the latest virtual reality headsets for a totally immersive experience. SYSTEM REQUIREMENTS MINIMUM: OS: Windows 10 Processor: Intel i5-4590 / AMD FX 8350 equivalent or greater Memory: 4 GB RAM Graphics: NVIDIA GeForce® GTX 970 / AMD Radeon™ R9 290 equivalent or greater DirectX: Version 11 Storage: 3 GB available space Additional Notes: HDMI 1.4 or DisplayPort 1.2 or newer and 1x USB 2.0 or greater port

Zero-G.VR - SteamVR 2016 VR

Language: | Size: 455.06 MB | Seed: 3 | Leech: 0

Description:

Experience the zero-gravity spacewalk flight, feel the edge of the universe and its black holes, immerse yourself in an asteroid cloud escape to the space shuttle. Please don’t forget your space suit! Game Details Title: Zero-G VR Genre: Adventure, Casual, Indie, Racing, Simulation, Sports Developer: Linkus Studio Publisher: Linkus Studio Release Date: 15 Jun, 2016 Steam: http://store.steampowered.com/app/491520/ Release Name: Zero-G VR Game Version: First Release Game Releaser: Cracked By DEVO Size: 464 MB About This Game Zero-G VR is specially designed to have the ultimate VR high-speed game simulation. Zero-G VR has been built using the acclaimed engine Unreal 4 to create the next generation VR games, incredible graphics, and dynamic light effects to ensure you have the best gaming experience! In this game, you will play as an astronaut using an Astronaut Maneuvering Unit (AMU), a propulsion unit that allows the astronaut to perform spacewalks at a distance from the shuttle. Using AMU to move in space, you will feel the zero gravity and the weightlessness in this amazing and highly immersive experience. Listen to the astonishing atmosphere-breaking music in the dark space flight, to keep tension during spacewalks, and suddenly switch to the soft music of the safe space station. Everything to engage your perceptions. The game has 2 options: normal and difficult challenge. There are 4 modes of game loop in random combinations: “rescue mode”, “chase the shuttle”, “black hole”, “high-speed mode” A total of 16 levels! Only with wisdom and courage you will be able to complete all the tough tests in space to become a good astronaut! Note: AMU is a jet pack device, with a good flight and control accuracy, it can maintain a precise position of 0.03 meters and 0.009 meters per second speed precision. Key Features: -As an astronaut you will find yourself performing spacewalks at a distance from the shuttle, feeling the state of weightlessness, you can only move by using a jet pack. -You will be in the vastness of space, with no object references or way to determine the speed and distances. -When seeing objects like planets, stars or asteroids, it is difficult to judge their size. -Your eyes can see unreachable objects from light-years distance, there are no limits in Zero-G -Rescue mode: You will start in an Oxygen Station Cabin, your mission is to arrive safely at the Space Shuttle Orbital Docking Cabin -Tracking mode: During a spacewalk out of control, you have to use your propulsion unit, speed, and gravity to arrive at the Space Capsule. -Black hole mode: Under the strongest gravitational force of the universe, the players have to move following the path and avoiding the gravitational force of the black hole. -Rapid mode: Surrounded by an asteroid cloud you have to follow the path, get nitrogen bottles to increase your speed propulsion, and go to the goal. System Requirements Minimum: OS: Windows 7 SP1 or newer Processor: Intel i5-4590 / AMD FX 8350 equivalent or greater Memory: 8000 MB RAM Graphics: NVIDIA GeForce® GTX 970 / AMD Radeon™ R9 290 equivalent or greater Storage: 5000 MB available space Recommended: OS: Windows 7 SP1 or newer Processor: Intel i5-4590 / AMD FX 8350 equivalent or greater Memory: 16000 MB RAM Graphics: NVIDIA GeForce® GTX 970 / AMD Radeon™ R9 290 equivalent or greater Storage: 10000 MB available space

Unforgiven Missing Memories – Childs Play VR

Language: | Size: 210.51 MB | Seed: 917 | Leech: 34

Description:

Unforgiven Missing Memories – Childs Play VR – Find a way to escape a room unravelling the story line and hidden clues. Game Details Title: Unforgiven: Missing Memories – Child’s Play Genre: Adventure, Indie Developer: Default Interactive , Broken Dreams , Webb 3D Publisher: Default Interactive Release Date: 1 Nov, 2016 Steam: http://store.steampowered.com/app/522710/ Release Name: Unforgiven Missing Memories – Childs Play VR Game Version: First Release Game Releaser: Cracked By DEVO Size: 208 MB About This Game Unforgiven: Missing Memories – Child’s Play is a 3D virtual reality game designed for the HTC Vive, where you interact with objects and find the layered clues to reach your ultimate goal. Gameplay takes you on an engaging journey through a family’s emotional trauma, with twists and surprises along the road. The atmospheric feel and interaction develops a deep connection with the characters that begs to be explored deeper. Taking place within a single room, you must find the clues and complete the challenging puzzles on the way to fulfil your achievement awards. With realistic graphics and intuitive interaction, Unforgiven: Missing Memories – Child’s Play is an experience you won’t want to miss. Requirements: Supports the HTC Vive. Medium to small size room works fine, as you can teleport using the controllers. Reach height minimum 1.8 meters. *Please Note, while this game does not contain any graphic violent. It does contain some audio clips that some players may find disturbing. Players discretion advised* System Requirements Minimum: OS: Windows 7 SP1, Windows 8.1 or Windows 10 PROCESSOR: Intel Core i5 3570K, AMD FX 8350 equivalent or better MEMORY: 4 GB RAM GRAPHICS: NVIDIA GeForce® GTX 970 / AMD Radeon™ R9 290 equivalent or greater DIRECTX: Version 11 STORAGE: 500 MB available space

The Walk VR - SteamVR 2016 VR

Language: | Size: 150.25 MB | Seed: 631 | Leech: 66

Description:

The Walk VR – Welcome to the Walk Experience. It is time to enjoy virtual reality and push yourselves beyond the limits. This elevator is going to take you very high above ground. Remember this experience is safe. Relax. Game Details Title: The Walk Genre: Indie, Simulation Developer: SmartVR Studio Publisher: SmartVR Studio Release Date: 23 Sep, 2016 Steam: http://store.steampowered.com/app/532260/ Release Name: The Walk VR Game Version: First Release Game Releaser: Cracked By DEVO Size: 149 MB About This Game Welcome to the Walk Experience. It is time to enjoy virtual reality and push yourselves… beyond the limits. This elevator is going to take you very high above ground. Remember this experience is safe. Relax. What you are going to encounter is not reality… This exact moment… fear is your main emotion but you can fight that fear by steping on this beam. Balance is key and remember: don’t rush yourself. One step at a time. Well done, you did it, now we need to go back to reality. There is only one way… you need to jump. And remember… it’s not real… Unique Virtual Reality experience HTC Vive required Two different gaming modes: with or without controllers attached to your legs Plug & Play pre-flight tutorial Customized HTC Vive mounts for legs for sale soon! (not required; you can use ducktape; straps or put in your socks

The Night The Carson's Disappeared - SteamVR 2016 VR

Language: | Size: 704.69 MB | Seed: 662 | Leech: 96

Description:

The Night The Carsons Disappeared VR – On April 6th 2009 the Carson family disappeared from their home in Richmond, and were never heard from again. The last known communication with the family came when Mr.Carson contacted local police to report the occurrence of a series of unexplained phenomena. Game Details Title: The Night The Carsons Disappeared Genre: Indie Developer: Stephen Long Publisher: Stephen Long Release Date: 24 Oct, 2016 Steam: http://store.steampowered.com/app/543350/ Release Name: The Night The Carsons Disappeared VR Game Version: First Release Game Releaser: Cracked By ALI213 Size: 695 MB About This Game Prologue On April 6th 2009, the Carson family disappeared from their home in Richmond, and were never heard from again. The last known communication with the family came when Mr.Carson contacted local police to report the occurrence of a series of unexplained phenomena. The following events take place on the night the Carson family disappeared. Description The Night The Carsons Disappeared is a VR ONLY horror game that puts you in the shoes of Michael Carson. On April 6th 2009, Michael and his two daughters vanished and were never heard from again. In TNTCD you witness the events leading up to their disappearance through the eyes of Michael Carson. This is the non-interactive version of the game. You do not need any controllers. Sit back, and watch the horror unfold. Ideal if you want to scare family and friends at Halloween. The entire game takes around 30 minutes (or less if you choose the shorter version via the menu screen). Why Play The Night The Carsons Disappeared Who doesn’t want to play VR horror games leading up to Halloween Only takes around 30 minutes (With the option to play a shorter version too) No controls required (just a headset), so don’t worry about not being familiar with game controls It doesn’t require any prior gaming / VR experience Ideal for scaring friends and family What’s Next? The interactive Vive version of the game is in development. Important Notes This is a VR only game. Do NOT purchase this game if you do not have a VR headset The game is about 30 minutes long. Do NOT purchase the game if you will be unhappy with the length of the game. This is the Non-Interactive version of the game. Sit back and relax. System Requirements Minimum: OS: Windows 7 SP1 PROCESSOR: Dual Core 2.33 GHz Intel or 3.0 GHz AMD MEMORY: 4 GB RAM GRAPHICS: Geforce GTX 8800, AMD Radeon 4850 or Intel HD Graphics 5200 or better (1GB graphics memory or more DIRECTX: Version 11 STORAGE: 1 GB available space SOUND CARD: Direct X Compatible Recommended: OS: Windows 7 SP1 or newer PROCESSOR: Intel i5-4590 equivalent or greater MEMORY: 4 GB RAM GRAPHICS: NVIDIA GTX 970 / AMD 290 equivalent or greater DIRECTX: Version 11 STORAGE: 1 GB available space SOUND CARD: Direct X 11 Compatible

The Body HTC VR - SteamVR 2016 VR

Language: | Size: 128.5 MB | Seed: 627 | Leech: 32

Description:

The Body VR is an educational virtual reality experience that takes the user inside the human body. Game Details Title: The Body VR Genre: Casual, Simulation Developer: The Body VR LLC Publisher: The Body VR LLC Release Date: 3 Oct, 2016 Steam: http://store.steampowered.com/app/451980/ Release Name: The Body VR Game Version: First Release Game Releaser: Cracked By ALI213 Size: 127 MB About This Game The Body VR is an educational virtual reality experience that takes the user inside the human body. Travel through the bloodstream and discover how blood cells work to spread oxygen throughout the body. Enter one of the billions of living cells inside our body and learn how the organelles work together to fight deadly viruses. System Requirements Minimum: OS: Windows 7 Processor: Intel i5 2Ghz Memory: 8 GB RAM Graphics: Nvidia GTX 970 Storage: 400 MB available space

Temple of the Apsara VR - SteamVR 2016 VR

Language: | Size: 486.06 MB | Seed: 994 | Leech: 45

Description:

Temple of the Apsara is a VR exploration adventure puzzle experience unlike any other for the HTC VIVE. From the breathtaking mountainside to the depths of the ancient ruins, Temple of the Apsara is a journey unlike any other you’ve ever been on. Game Details Title: Temple of the Apsara Genre: Adventure, Indie Developer: Attraction Studios Publisher: Attraction Studios Release Date: 7 Sep, 2016 Steam: http://store.steampowered.com/app/510910/ Release Name: Temple of the Apsara VR Game Version: First Release Game Releaser: Cracked By DEVO Size: 481 MB About This Game Temple of the Apsara is a VR exploration adventure puzzle experience unlike any other for the HTC VIVE. From the breathtaking mountainside to the depths of the ancient ruins, Temple of the Apsara is a journey unlike any other you’ve ever been on. You stumble across an ancient mountain temple fabled to hold a secret. You were given clues to those secrets by an old acquaintance, “Dr. W.” But as you embark unearthing the mysteries behind the ancient temple, you’ll begin to quickly realize there’s more to the temple than meets the eye. The moment you immerse yourself in the hour long journey of an ancient Tibetan temple you’ll go on an adventure of a lifetime exploring the Temple while attempting to discover the mysterious entry to the lost caverns. Be careful though. Searching the temple and contemplating its mysteries is not for the faint of heart. System Requirements Minimum: OS: Windows 7-10 Processor: Intel i5-4590 / AMD FX 8350 equivalent or greater Memory: 4 GB RAM Graphics: NVIDIA GeForce® GTX 970 / AMD Radeon™ R9 290 equivalent or greater DirectX: Version 11 Storage: 1 GB available space Additional Notes: HDMI 1.4 or DisplayPort 1.2 or newer, 1x USB 2.0 or greater port

Sword Master VR - SteamVR 2016 VR

Language: | Size: 176.95 MB | Seed: 520 | Leech: 61

Description:

Enter the virtual reality sword fighting arena of Sword Master VR! Test your skills with the blade against smart and interactive AI enemies! Unlock new swords and game modes! Prove that you are the sword master! Game Details Title: Sword Master VR Genre: Action, Indie, Simulation, Sports Developer: Master Indie Publisher: Master Indie Release Date: 23 Sep, 2016 Steam: http://store.steampowered.com/app/523710/ Release Name: Sword Master VR Game Version: First Release Game Releaser: Cracked By DEVO Size: 175 MB About This Game Sword Master VR brings you intense sword fighting gameplay that has never been possible in traditional video games. Taking full advantage of the HTC Vive’s room-scale virtual reality, you must learn to fight with realistic swords in full 360 combat! React quickly, duck and dodge, deflect incoming attacks! Sword Master VR is not a game of standing still and lightly wiggling your sword in the enemies face. Sword Master VR is a game of endurance, skill, speed, and most importantly, to become a master of the blade. Features: Intense & Challenging Sword Fighting! 8 Unlockable Swords! 7 Enemy Variations! 10 Challenge Levels (Including a Boss Level!) 4 Difficulty Modes (1 Unlockable mode!) Safety Notice: Sword Master VR requires players to swing their controllers in virtual reality. Play at your own risk. Eric Tereshinski, the game’s developer, is not responsible for any destruction of property or the injury of yourself or anyone else while playing Sword Master VR. Please play far away from your TV, have plenty of space, use high quality wrist straps, remove all children from the room, DO NOT play near any stairs, and enjoy the game

Siege Hammer - SteamVR 2016 VR

Language: | Size: 225.83 MB | Seed: 151 | Leech: 40

Description:

Siege Hammer Early Access VR – Siege Hammer is tower defense in VR like never before, up close and personal. Players take on the role of Blip, a tiny armor-clad hero who must defend his castles from the crush of elemental invaders. Game Details Title: Siege Hammer Genre: Action, Indie, Strategy, Early Access Developer: MyDream Interactive, Inc. Publisher: MyDream Interactive, Inc. Release Date: 3 Nov, 2016 Steam: http://store.steampowered.com/app/536230/ Release Name: Siege Hammer Early Access VR Game Version: First Release Game Releaser: Cracked By ALI213 Size: 223 MB About This Game Are you the hammer… or the anvil? Siege Hammer is tower defense in VR like never before, up close and personal. Players take on the role of Blip, a tiny armor-clad hero who must defend his castles from the crush of elemental invaders. Through Blip, players smite their enemies with his mighty Siege Hammer, build defenses, and collect resources. In wave after wave the enemies become more determined. Blip will soon discover whether he is the hammer, or the anvil. Platforms: Steam release for Oculus and HTC Vive Levels: 2 tower defense realms with more coming VR Friendliness: Sleek rail movement offers rich visual perspective while seated at 60+ FPS Tower Defense Stats: 5 Invaders, 4 Towers with 3 Tiers, across dozens of waves, with four style-of-play choices Total Play Time: 8+ hours System Requirements Minimum: OS: Windows 7 or Greater PROCESSOR: Intel i5-4590 equivalent or greater MEMORY: 8 MB RAM GRAPHICS: NVIDIA GTX 970 / AMD 290 equivalent or greater DIRECTX: Version 11 STORAGE: 500 MB available space

L'estate addosso (2016).H264.Italian.Ac3.5.1.sub.ita.iCV-MIRCrew

Language: | Size: 1.25 GB | Seed: 13 | Leech: 153

Description:

L'estate addosso (2016).H264.Italian.Ac3.5.1.sub.ita.iCV-MIRCrew [center] [color=red][b][img]https://s23.postimg.org/b9yhws27f/0sc_Del1.png[/img] [u]NO FOUND ONLY ORIGINAL RELEASE[/u] [img]http://i.imgur.com/GDNQx1Z.png[/img] My release is always in double track audio italian and Original audio for select it use VLC or dvd player home not use wmp L'estate addosso (2016) [img]https://extraimage.net/images/2017/01/06/c6a43d34b45f97ce4836f7d90276dbb6.png[/img] [URL=http://www.imdb.com/title/tt4650414/][IMG]http://www.userlogos.org/files/logos/Sucka/imdb_new.png[/IMG][/URL] [img]http://i.imgur.com/fGu1rKv.png[/img] DATA USCITA: 14 settembre 2016 GENERE: Commedia, Drammatico ANNO: 2016 REGIA: Gabriele Muccino SCENEGGIATURA: Dale Nall, Gabriele Muccino MUSICHE: Jovanotti PRODUZIONE: Indiana Production Company con Rai Cinema DISTRIBUZIONE: 01 Distribution PAESE: Italia DURATA: 103 Min [img]http://i.imgur.com/W7kBqiE.png[/img] Brando Pacitto, Matilda Lutz, Joseph Haro, Taylor Frey [img]http://i.imgur.com/bFK3ggF.png[/img] Marco ha 18 anni, sta per diplomarsi al liceo ma di fronte alle fatali scelte della vita, è terribilmente angosciato dall'incertezza assoluta sul proprio futuro. L'estate "della maturità" subisce un improvviso colpo di scena quando, in seguito ad un incidente con lo scooter, Marco riceve dall'assicurazione un risarcimento che gli consentirà di partire per San Francisco. [img]http://i.imgur.com/48xHWWH.png[/img] A gay couple living in San Francisco takes in two strangers traveling from Italy to start a new life in America, discovering each other and forming the most unlikely of relationships along the [img]http://i.imgur.com/K8bfNTy.png[/img] [url=https://extraimage.net/image/2S7Y][img]http://extraimage.net/images/2017/01/06/075e16e21dbe442922083fd3c58cf0a8.th.png[/img][/url] [url=https://extraimage.net/image/2S7C][img]http://extraimage.net/images/2017/01/06/832946daf62dfe6ac221f6d1c44bc399.th.png[/img][/url] [url=https://extraimage.net/image/2S7p][img]http://extraimage.net/images/2017/01/06/1ec92e5dfe5c329b88fce06a55cd2ce3.th.png[/img][/url] [img]http://i.imgur.com/cWb6Z.gif[/img] [img]http://i.imgur.com/aVrMohH.png[/img] [spoiler] General Unique ID : 92641135192699414420053508208052815992 (0x45B2089C4D10F37E3E962D01875E4878) Complete name : L'estate addosso (2016).H264.ita.sub.ita.iCV-MIRCrew.mkv Format : Matroska Format version : Version 2 File size : 1.25 GiB Duration : 1h 43mn Overall bit rate : 1 726 Kbps Movie name : VISIT www.icv-crew.org Encoded date : UTC 2017-01-05 16:08:35 Writing application : Lavf54.63.100 Writing library : Lavf54.63.100 COPYRIGHT : robbyrs Video ID : 1 Format : AVC Format/Info : Advanced Video Codec Format profile : [email protected] Format settings, CABAC : Yes Format settings, ReFrames : 2 frames Codec ID : V_MPEG4/ISO/AVC Duration : 1h 43mn Bit rate : 1 275 Kbps Width : 720 pixels Height : 300 pixels Display aspect ratio : 2.40:1 Original display aspect ratio : 2.40:1 Frame rate mode : Variable Frame rate : 24.000 fps Color space : YUV Chroma subsampling : 4:2:0 Bit depth : 8 bits Scan type : Progressive Bits/(Pixel*Frame) : 0.246 Stream size : 919 MiB (72%) Writing library : x264 core 130 r2273 Encoding settings : cabac=1 / ref=2 / deblock=1:0:0 / analyse=0x1:0x131 / me=hex / subme=7 / psy=1 / psy_rd=1.00:0.00 / mixed_ref=0 / me_range=16 / chroma_me=1 / trellis=1 / 8x8dct=0 / cqm=0 / deadzone=21,11 / fast_pskip=1 / chroma_qp_offset=-2 / threads=12 / lookahead_threads=2 / sliced_threads=0 / nr=0 / decimate=1 / interlaced=0 / bluray_compat=0 / constrained_intra=0 / bframes=3 / b_pyramid=0 / b_adapt=1 / b_bias=0 / direct=3 / weightb=1 / open_gop=0 / weightp=2 / keyint=240 / keyint_min=24 / scenecut=40 / intra_refresh=0 / rc_lookahead=40 / rc=2pass / mbtree=1 / bitrate=1275 / ratetol=1.0 / qcomp=0.60 / qpmin=10 / qpmax=69 / qpstep=4 / cplxblur=20.0 / qblur=0.5 / vbv_maxrate=24000 / vbv_bufsize=24000 / nal_hrd=none / ip_ratio=1.40 / aq=1:1.00 Language : English Default : Yes Forced : No DURATION : 01:43:18.709000000 NUMBER_OF_FRAMES : 148769 NUMBER_OF_BYTES : 7756374953 _STATISTICS_WRITING_APP : mkvmerge v8.7.0 ('All of the above') 64bit _STATISTICS_WRITING_DATE_UTC : 2016-12-30 16:34:31 _STATISTICS_TAGS : BPS DURATION NUMBER_OF_FRAMES NUMBER_OF_BYTES Audio ID : 2 Format : AC-3 Format/Info : Audio Coding 3 Mode extension : CM (complete main) Codec ID : A_AC3 Duration : 1h 43mn Bit rate mode : Constant Bit rate : 448 Kbps Channel(s) : 6 channels Channel positions : Front: L C R, Side: L R, LFE Sampling rate : 48.0 KHz Bit depth : 16 bits Compression mode : Lossy Delay relative to video : 1mn 5s Stream size : 331 MiB (26%) Title : AC3 ITA Language : Italian Default : No Forced : No DURATION : 01:43:18.848000000 NUMBER_OF_FRAMES : 193714 NUMBER_OF_BYTES : 495907840 _STATISTICS_WRITING_APP : mkvmerge v8.7.0 ('All of the above') 64bit _STATISTICS_WRITING_DATE_UTC : 2016-12-30 16:34:31 _STATISTICS_TAGS : BPS DURATION NUMBER_OF_FRAMES NUMBER_OF_BYTES Text #1 ID : 3 Format : UTF-8 Codec ID : S_TEXT/UTF8 Codec ID/Info : UTF-8 Plain Text Title : FORZATI Language : Italian Default : Yes Forced : No DURATION : 01:24:47.333000000 NUMBER_OF_FRAMES : 644 NUMBER_OF_BYTES : 23625 _STATISTICS_WRITING_APP : mkvmerge v8.7.0 ('All of the above') 64bit _STATISTICS_WRITING_DATE_UTC : 2016-12-30 16:34:31 _STATISTICS_TAGS : BPS DURATION NUMBER_OF_FRAMES NUMBER_OF_BYTES Text #2 ID : 4 Format : UTF-8 Codec ID : S_TEXT/UTF8 Codec ID/Info : UTF-8 Plain Text Title : REGULAR Language : Italian Default : No Forced : No DURATION : 01:35:49.875000000 NUMBER_OF_FRAMES : 1070 NUMBER_OF_BYTES : 48245 _STATISTICS_WRITING_APP : mkvmerge v8.7.0 ('All of the above') 64bit _STATISTICS_WRITING_DATE_UTC : 2016-12-30 16:34:31 _STATISTICS_TAGS : BPS DURATION NUMBER_OF_FRAMES NUMBER_OF_BYTES Menu 00:00:00.000 : :00:00:00.000 00:10:37.250 : :00:10:37.250 00:21:08.375 : :00:21:08.375 00:32:11.042 : :00:32:11.042 00:40:05.958 : :00:40:05.958 00:50:40.000 : :00:50:40.000 00:59:15.000 : :00:59:15.000 01:08:59.417 : :01:08:59.417 01:17:58.042 : :01:17:58.042 01:27:05.250 : :01:27:05.250 01:32:02.042 : :01:32:02.042 01:37:16.000 : :01:37:16.000 [/spoiler] [/color][/b][/center]

Shatter Quest VR - SteamVR 2016 VR

Language: | Size: 136.98 MB | Seed: 897 | Leech: 98

Description:

Shatter Quest VR – Put your tennis skills to the test in this Virtual Reality adventure game. You must save the angels from the terrifying monster that has come to this peaceful forest. Break the walls that trap you and find the path to battle this evil creature and save the forest. Game Details Title: Shatter Quest Genre: Action, Adventure, Casual, Indie Developer: Dream Totems LLC Publisher: Dream Totems LLC Release Date: 12 Oct, 2016 Steam: http://store.steampowered.com/app/538490/ Release Name: Shatter Quest VR Game Version: First Release Game Releaser: DEVO Size: 135 MB About This Game Shatter Quest is an adventure set in a beautiful forest that has been invaded by an evil tree like monster. It has captured the peaceful creatures that live here and you must stop it. In order for you to defeat this tree monster, you must pass an increasingly difficult series of frozen walls that block your path. A lone surviving angel is there to guide you on your quest and will provide you the means to break the frozen walls. The game is a fun mix of tennis and break out but in an adventure style setting. Take care to make sure your playing area is clear of ceiling lights and furniture near the edges of your chaperone bounds. System Requirements Minimum: OS: Windows 7 PROCESSOR: Intel Core i7 MEMORY: 8 GB RAM GRAPHICS: Nvidia GeForce GTX 970 STORAGE: 500 MB available space Recommended: OS: Windows 10 PROCESSOR: Intel Core i7-4790 MEMORY: 16 GB RAM GRAPHICS: Nvidia GeForce GTX 980, AMD R9-290x or equivalent STORAGE: 500 MB available space

Proton Pulse VR - SteamVR 2016 VR

Language: | Size: 413.36 MB | Seed: 512 | Leech: 24

Description:

Proton Pulse VR – Get ready for Classic Arcade Brick-Breaking Action from a whole new perspective in Virtual Reality! The entity known as M.O.A.I. has attacked, and the fate of the world is in your hands! You have been chosen to compete in the most diabolical game of atomic paddleball ever to grace the 3rd dimension. Game Details Title: Proton Pulse Genre: Indie Developer: Justin Moravetz , Jake Kaufman Publisher: ZeroTransform Release Date: 5 Apr, 2016 Steam: http://store.steampowered.com/app/381310/ Release Name: Proton Pulse VR Game Version: First Release Game Releaser: Cracked By DEVO Size: 409 MB About This Game Get ready for Classic Arcade Brick-Breaking Action from a whole new perspective in Virtual Reality! The entity known as M.O.A.I. has attacked, and the fate of the world is in your hands! You have been chosen to compete in the most diabolical game of atomic paddleball ever to grace the 3rd dimension. Use your paddle to direct the Proton, an energy ball with awesome power and the only thing that can destroy the M.O.A.I. core! If the action gets too fast, use the Space-Time Dilator to turn a sure miss into a deadly volley! Will you be able to conquer over 50 levels and beat M.O.A.I. at his own game? Featuring Music from Jake Kaufman [Virt] Dan Behrens [Danimal Cannon] Justin Moravetz [Rave-TZ] System Requirements Minimum: OS: Windows 7 PROCESSOR: Intel Core i5 MEMORY: 4 GB RAM GRAPHICS: nVidia 980m DIRECTX: Version 11 STORAGE: 800 MB available space Recommended: OS: Windows 8 PROCESSOR: Intel Core i7 MEMORY: 8 GB RAM GRAPHICS: nVidia 970 GTX DIRECTX: Version 11 STORAGE: 1 GB available space

Playthings VR Music Vacation - SteamVR 2016 VR

Language: | Size: 261.72 MB | Seed: 706 | Leech: 35

Description:

Playthings VR Music Vacation – Playthings: VR Music Vacation is a virtual reality music playground for the HTC Vive. Set on a tropical island where you hit bouncy, musical food with drumsticks, Playthings is sure to delight whether or not you’re a musician or a gamer. Game Details Title: Playthings: VR Music Vacation Genre: Action, Adventure, Casual Developer: Always & Forever Computer Entertainment Publisher: Always & Forever Computer Entertainment Release Date: 24 Aug, 2016 Steam: http://store.steampowered.com/app/489740/ Release Name: Playthings VR Music Vacation Game Version: First Release Game Releaser: Cracked By DEVO Size: 259 MB About This Game Playthings was made to welcome anyone to the world of virtual reality. Built for the HTC Vive, Playthings puts virtual drumsticks in your hands and sets you loose on a musical playground from another world. There’s no complicated buttons or tutorials–everyone knows how to use drumsticks. But drums are for real life. In Playthings, the instruments are made out of food: like hot dog xylophones and jelly bean harps. With the HTC Vive’s room scale motion tracking, you don’t need a joystick to explore the world of Playthings–you move around with your own two feet. Playthings transforms even the tiniest room into a tropical dreamscape that stretches forever in every direction. You can make all sorts of music with your snacks. Or, you can rearrange them with the Golden Tongs to make your own singing food sculptures. You can swing the Giant Hammers to relieve stress (or just make a big mess). There’s lots more tools and worlds to discover–all you have to do is take a look around. Features: 5 explorable worlds full of interactive musical food that anyone can play. 3 different pairs of drumsticks with unique powers. Intuitive, languageless, tutorial-free controls. Secret Rhythm Game mode! (shhh) Features an original soundtrack written by Jon Baken (of George & Jonathan) Guest performance by Jesper Mortensen (aka “Junior” of Junior Senior) on the Playthings theme song, “C’mon Everybody! (Playthings Rap)” System Requirements Minimum: OS: Windows 7 SP1 or newer PROCESSOR: Intel i5-4590 equivalent or greater MEMORY: 8 GB RAM GRAPHICS: NVIDIA GTX 970 / AMD 290 equivalent or greater STORAGE: 300 MB available space