Search Top Tags














L.Era.Glaciale.In.Rotta.Di.Collisione.2016.iTA-ENG.AC3-5.1.Bluray.720p.x264-iCV-MIRCrew

Language: | Size: 2.07 GB | Seed: 88 | Leech: 14

Description:

Titolo originale: Ice Age: Collision Course Nazione: U.S.A. Anno: 2016 Genere: Animazione Durata: 94' Regia: Mike Thurmeier, Galen T. Chu. Sito ufficiale: Sito italiano: www.iceagemovies.com/it/ Social network: facebook Cast (voci): John Leguizamo, Jennifer Lopez, Ray Romano, Simon Pegg, Stephanie Beatriz, Adam DeVine, Jessie J, Keke Palmer, Denis Leary Produzione: Blue Sky Studios, Twentieth Century Fox Animation Distribuzione: 20th Century Fox Data di uscita: 16 Agosto 2016 (anteprima) 22 Agosto 2016 (cinema) Trama: L’epico inseguimento della ghianda, catapulterà Scrat fin su nell’universo, dove accidentalmente darà origine ad una serie di eventi che trasformeranno e minacceranno il mondo dell’Era Glaciale. Per salvarsi Sid, Manny, Diego e il resto del gruppo dovranno abbandonare la loro casa e intraprendere un’avventura ricca di comicità, viaggiando attraverso nuove terre esotiche e incontrando nuovi coloratissimi personaggi.

The Beaver - Mr Beaver (2011).H264.Italian.English.Ac3.5.1.sub.ita.iCV-MIRCrew

Language: | Size: 1.39 GB | Seed: 61 | Leech: 14

Description:

The Beaver - Mr Beaver (2011).H264.Italian.English.Ac3.5.1.sub.ita.iCV-MIRCrew [center] [color=red][b][img]http://s23.postimg.org/b9yhws27f/0sc_Del1.png[/img] [u]NO FOUND ONLY ORIGINAL RELEASE[/u] [img]http://i.imgur.com/GDNQx1Z.png[/img] My release is always in double track audio italian and Original audio for select it use VLC or dvd player home not use wmp Mr Beaver - The Beaver (2011) [img]http://extraimage.net/images/2017/01/14/f176c72de4a266acaca1e2956da4133c.png[/img] [URL=http://www.imdb.com/title/tt1321860/][IMG]http://www.userlogos.org/files/logos/Sucka/imdb_new.png[/IMG][/URL] [img]http://i.imgur.com/fGu1rKv.png[/img] Titolo originale The Beaver Lingua originale inglese Paese di produzione Stati Uniti Anno 2011 Durata 91 min Rapporto 2,35 : 1 Genere drammatico Regia Jodie Foster Sceneggiatura Kyle Killen Produttore Steve Golin, Keith Redmon, Ann Ruark Produttore esecutivo Jeff Skoll, Jonathan King, Mohammed Mubarak al Mazrouei, Paul Green Casa di produzione Summit Entertainment, Participant Media, Imagenation Abu Dhabi, Anonymous Content Distribuzione (Italia) Medusa Film Fotografia Hagen Bogdanski Montaggio Lynzee Klingman Musiche Marcelo Zarvos Scenografia Mark Friedberg [img]http://i.imgur.com/W7kBqiE.png[/img] Mel Gibson: Walter Black Jodie Foster: Meredith Black Anton Yelchin: Porter Black Jennifer Lawrence: Norah Riley Thomas Stewart: Henry Black Cherry Jones: Morgan Zachary Booth: Jared Kelly Coffield Park: madre di Norah Michael Rivera: Hector [img]http://i.imgur.com/bFK3ggF.png[/img] Walter Black, amministratore delegato di una compagnia di giocattoli, soffre di una forma particolarmente acuta di depressione, che lo porta all'allontanamento da parte della propria famiglia e al quasi-fallimento dell'azienda ereditata dal padre. Sull'orlo del suicidio, decide di seguire una terapia che consiste nell'affidare tutta l'interazione sociale a una marionetta a forma di castoro.................... [img]http://i.imgur.com/48xHWWH.png[/img] Walter Black ('Mel Gibson') is depressed and sleeps most of the day. It's driving his family crazy, and his wife Meredith (Jodie Foster) kicks him out. Walter starts carrying a beaver puppet and tries to commit suicide (unsuccessfully). He uses the puppet to talk to himself, trying to bolster his spirits, and is trying to rebuild his life............. [img]http://i.imgur.com/K8bfNTy.png[/img] [img]http://extraimage.net/images/2017/01/14/58062c741014564f1b4493f0900b0b43.png[/img] [img]http://extraimage.net/images/2017/01/14/f261dbbd70b02a1b33ebea10a0d4e73c.png[/img] [img]http://extraimage.net/images/2017/01/14/9c302c97cf94fd207cdc47a822880954.png[/img] [img]http://i.imgur.com/aVrMohH.png[/img] [spoiler] General Unique ID : 102168033399782790628825476079704553471 (0x4CDCD8F4FF9A84F5DED8C6643E6F37FF) Complete name : Mr Beaver (2011).H264.ita.eng.sub.ita.iCV-MIRCrew.mkv Format : Matroska Format version : Version 2 File size : 1.39 GiB Duration : 1h 31mn Overall bit rate : 2 175 Kbps Encoded date : UTC 2017-01-11T22:01:55Z Writing application : HandBrake 0.10.5 2016021100 Writing library : Lavf55.12.0 Video ID : 1 Format : AVC Format/Info : Advanced Video Codec Format profile : [email protected] Format settings, CABAC : Yes Format settings, ReFrames : 4 frames Codec ID : V_MPEG4/ISO/AVC Duration : 1h 31mn Bit rate : 1 270 Kbps Width : 720 pixels Height : 300 pixels Display aspect ratio : 2.40:1 Frame rate mode : Variable Frame rate : 23.976 fps Color space : YUV Chroma subsampling : 4:2:0 Bit depth : 8 bits Scan type : Progressive Bits/(Pixel*Frame) : 0.245 Stream size : 812 MiB (57%) Writing library : x264 core 142 r2479 dd79a61 Encoding settings : cabac=1 / ref=1 / deblock=1:0:0 / analyse=0x1:0x111 / me=hex / subme=2 / psy=1 / psy_rd=1.00:0.00 / mixed_ref=0 / me_range=16 / chroma_me=1 / trellis=0 / 8x8dct=0 / cqm=0 / deadzone=21,11 / fast_pskip=1 / chroma_qp_offset=0 / threads=12 / lookahead_threads=2 / sliced_threads=0 / nr=0 / decimate=1 / interlaced=0 / bluray_compat=0 / constrained_intra=0 / bframes=3 / b_pyramid=2 / b_adapt=1 / b_bias=0 / direct=1 / weightb=1 / open_gop=0 / weightp=1 / keyint=240 / keyint_min=24 / scenecut=40 / intra_refresh=0 / rc_lookahead=10 / rc=abr / mbtree=1 / bitrate=1270 / ratetol=1.0 / qcomp=0.60 / qpmin=0 / qpmax=69 / qpstep=4 / vbv_maxrate=20000 / vbv_bufsize=25000 / nal_hrd=none / filler=0 / ip_ratio=1.40 / aq=1:1.00 Default : Yes Forced : No Color primaries : BT.709-5, BT.1361, IEC 61966-2-4, SMPTE RP177 Transfer characteristics : BT.709-5, BT.1361 Matrix coefficients : BT.709-5, BT.1361, IEC 61966-2-4 709, SMPTE RP177 Audio #1 ID : 2 Format : AC-3 Format/Info : Audio Coding 3 Mode extension : CM (complete main) Codec ID : A_AC3 Duration : 1h 31mn Bit rate mode : Constant Bit rate : 448 Kbps Channel(s) : 6 channels Channel positions : Front: L C R, Side: L R, LFE Sampling rate : 48.0 KHz Bit depth : 16 bits Compression mode : Lossy Delay relative to video : 1mn 5s Stream size : 294 MiB (21%) Title : Surround Language : Italian Default : Yes Forced : No Audio #2 ID : 3 Format : AC-3 Format/Info : Audio Coding 3 Mode extension : CM (complete main) Codec ID : A_AC3 Duration : 1h 31mn Bit rate mode : Constant Bit rate : 448 Kbps Channel(s) : 6 channels Channel positions : Front: L C R, Side: L R, LFE Sampling rate : 48.0 KHz Bit depth : 16 bits Compression mode : Lossy Delay relative to video : 1mn 5s Stream size : 294 MiB (21%) Title : Surround Language : English Default : No Forced : No Text #1 ID : 4 Format : VobSub Codec ID : S_VOBSUB Codec ID/Info : The same subtitle format used on DVDs Language : Italian Default : No Forced : No Text #2 ID : 5 Format : VobSub Codec ID : S_VOBSUB Codec ID/Info : The same subtitle format used on DVDs Language : Italian Default : No Forced : No Menu 00:00:00.000 : :00:00:00.000 00:05:50.725 : :00:05:50.642 00:10:49.815 : :00:10:49.649 00:15:22.587 : :00:15:22.380 00:21:09.892 : :00:21:09.602 00:23:14.767 : :00:23:14.560 00:25:15.763 : :00:25:15.514 00:33:48.524 : :00:33:48.401 00:41:55.052 : :00:41:54.762 00:48:39.372 : :00:48:39.166 00:53:54.979 : :00:53:54.857 00:57:25.898 : :00:57:25.609 01:01:11.957 : :01:01:11.626 01:06:13.174 : :01:06:13.052 01:12:13.450 : :01:12:13.120 01:15:13.171 : :01:15:12.842 01:17:11.915 : :01:17:11.585 01:22:24.519 : :01:22:24.189 [/spoiler] [/color][/b][/center]

Boys Don t Cry (1999).H264.Italian.English.Ac3.5.1.sub.ita.eng.iCV-MIRCrew

Language: | Size: 1.53 GB | Seed: 32 | Leech: 14

Description:

Boys Don t Cry (1999).H264.Italian.English.Ac3.5.1.sub.ita.eng.iCV-MIRCrew [center] [color=red][b][img]http://s23.postimg.org/b9yhws27f/0sc_Del1.png[/img] [u]NO FOUND ONLY ORIGINAL RELEASE[/u] [img]http://i.imgur.com/GDNQx1Z.png[/img] My release is always in double track audio italian and Original audio for select it use VLC or dvd player home not use wmp Boys Don't Cry (1999) [img]http://extraimage.net/images/2017/01/15/564b39ce86482c7e103bc1dcd42b6df4.png[/img] [URL=http://www.imdb.com/title/tt0171804/][IMG]http://www.userlogos.org/files/logos/Sucka/imdb_new.png[/IMG][/URL] [img]http://i.imgur.com/fGu1rKv.png[/img] Titolo originale Boys Don't Cry Paese di produzione Stati Uniti d'America Anno 1999 Durata 114 min Rapporto 1,85:1 Genere biografico, drammatico Regia Kimberly Peirce Soggetto Tracy Granger Sceneggiatura Kimberly Peirce, Andy Bienen Produttore Christine Vachon, Eva Kolodner [img]http://i.imgur.com/W7kBqiE.png[/img] Hilary Swank: Brandon Teena Chloë Sevigny: Lana Tisdel Peter Sarsgaard: John Lotter Brendan Sexton III: Tom Nissen Alicia Goranson: Candace Lambert Alison Folland: Kate Jeannetta Arnette: madre di Lana Rob Campbell: Brian Matt McGrath: Lonny [img]http://i.imgur.com/bFK3ggF.png[/img] Alla fine del 1993, Brandon Teena si trasferisce da Lincoln a Falls City, Nebraska, depressa cittadina di provincia ben nota per la sua chiusura mentale e vari episodi di cronaca nera. Brandon è generoso, solare e affascinante, ma nasconde a tutti il segreto di essere una femmina, Teena Brandon, fatto che si rivelerà in modo inequivocabile allorché verrà denudata di forza. Teena si complica pericolosamente la vita mentendo a tutti e di continuo, talora senza necessità. [img]http://i.imgur.com/48xHWWH.png[/img] Female-born Teena Brandon adopts his male identity of Brandon Teena and attempts to find himself and love in Nebraska. [img]http://i.imgur.com/K8bfNTy.png[/img] [img]http://extraimage.net/images/2017/01/15/d88217acb1a881a065a08f4d3a8ae1f1.png[/img] [img]http://extraimage.net/images/2017/01/15/759d500b383f3fea95fbfc01a3866f09.png[/img] [img]http://extraimage.net/images/2017/01/15/348da733cb4abfc315ffe920a08f1d5c.png[/img] [img]http://i.imgur.com/aVrMohH.png[/img] [spoiler] General Unique ID : 150073160553684936336066350226698167736 (0x70E70A148A45F9BCADB64A8CFD5C65B8) Complete name : Boys Don't Cry (1999).H264.ita.eng.sub.ita.eng.iCV-MIRCrew.mkv Format : Matroska Format version : Version 2 File size : 1.53 GiB Duration : 1h 58mn Overall bit rate : 1 848 Kbps Encoded date : UTC 2017-01-11T18:03:36Z Writing application : HandBrake 0.10.5 2016021100 Writing library : Lavf55.12.0 Video ID : 1 Format : AVC Format/Info : Advanced Video Codec Format profile : [email protected] Format settings, CABAC : Yes Format settings, ReFrames : 4 frames Codec ID : V_MPEG4/ISO/AVC Duration : 1h 58mn Bit rate : 1 270 Kbps Width : 688 pixels Height : 372 pixels Display aspect ratio : 16:9 Original display aspect ratio : 1.850 Frame rate mode : Variable Frame rate : 23.976 fps Color space : YUV Chroma subsampling : 4:2:0 Bit depth : 8 bits Scan type : Progressive Bits/(Pixel*Frame) : 0.207 Stream size : 1.02 GiB (67%) Writing library : x264 core 142 r2479 dd79a61 Encoding settings : cabac=1 / ref=1 / deblock=1:0:0 / analyse=0x1:0x111 / me=hex / subme=2 / psy=1 / psy_rd=1.00:0.00 / mixed_ref=0 / me_range=16 / chroma_me=1 / trellis=0 / 8x8dct=0 / cqm=0 / deadzone=21,11 / fast_pskip=1 / chroma_qp_offset=0 / threads=12 / lookahead_threads=2 / sliced_threads=0 / nr=0 / decimate=1 / interlaced=0 / bluray_compat=0 / constrained_intra=0 / bframes=3 / b_pyramid=2 / b_adapt=1 / b_bias=0 / direct=1 / weightb=1 / open_gop=0 / weightp=1 / keyint=240 / keyint_min=24 / scenecut=40 / intra_refresh=0 / rc_lookahead=10 / rc=abr / mbtree=1 / bitrate=1270 / ratetol=1.0 / qcomp=0.60 / qpmin=0 / qpmax=69 / qpstep=4 / vbv_maxrate=20000 / vbv_bufsize=25000 / nal_hrd=none / filler=0 / ip_ratio=1.40 / aq=1:1.00 Default : Yes Forced : No Color primaries : BT.709-5, BT.1361, IEC 61966-2-4, SMPTE RP177 Transfer characteristics : BT.709-5, BT.1361 Matrix coefficients : BT.709-5, BT.1361, IEC 61966-2-4 709, SMPTE RP177 Audio #1 ID : 2 Format : AC-3 Format/Info : Audio Coding 3 Mode extension : CM (complete main) Codec ID : A_AC3 Duration : 1h 58mn Bit rate mode : Constant Bit rate : 384 Kbps Channel(s) : 6 channels Channel positions : Front: L C R, Side: L R, LFE Sampling rate : 48.0 KHz Bit depth : 16 bits Compression mode : Lossy Delay relative to video : 1mn 5s Stream size : 326 MiB (21%) Title : Surround Language : Italian Default : Yes Forced : No Audio #2 ID : 3 Format : AC-3 Format/Info : Audio Coding 3 Mode extension : CM (complete main) Codec ID : A_AC3 Duration : 1h 58mn Bit rate mode : Constant Bit rate : 192 Kbps Channel(s) : 2 channels Channel positions : Front: L R Sampling rate : 48.0 KHz Bit depth : 16 bits Compression mode : Lossy Delay relative to video : 1mn 5s Stream size : 163 MiB (10%) Title : Stereo Language : English Default : No Forced : No Text #1 ID : 4 Format : ASS Codec ID : S_TEXT/ASS Codec ID/Info : Advanced Sub Station Alpha Compression mode : Lossless Language : Italian Default : No Forced : No Text #2 ID : 5 Format : ASS Codec ID : S_TEXT/ASS Codec ID/Info : Advanced Sub Station Alpha Compression mode : Lossless Language : Italian Default : No Forced : No Text #3 ID : 6 Format : ASS Codec ID : S_TEXT/ASS Codec ID/Info : Advanced Sub Station Alpha Compression mode : Lossless Language : English Default : No Forced : No Menu 00:00:00.000 : :00:00:00.000 00:05:25.241 : :00:05:25.158 00:11:20.930 : :00:11:20.763 00:14:44.508 : :00:14:44.425 00:18:11.548 : :00:18:11.465 00:22:19.379 : :00:22:19.255 00:29:05.493 : :00:29:05.410 00:32:27.904 : :00:32:27.821 00:37:29.121 : :00:37:29.038 00:42:29.755 : :00:42:29.630 00:47:02.194 : :00:47:02.111 00:51:19.743 : :00:51:19.660 00:54:28.598 : :00:54:28.515 01:00:32.879 : :01:00:32.796 01:06:00.915 : :01:06:00.832 01:07:50.358 : :01:07:50.275 01:12:42.691 : :01:12:42.608 01:17:01.158 : :01:17:01.075 01:21:01.440 : :01:21:01.273 01:25:02.180 : :01:25:02.097 01:38:26.066 : :01:38:25.983 01:46:40.727 : :01:46:40.644 01:50:32.751 : :01:50:32.668 01:53:38.520 : :01:53:38.437 [/spoiler] [/color][/b][/center]

I cieli di Escaflowne S01e01-06 [BDmux 1080p - H264 - Ita Jap Aac]

Language: | Size: 7.56 GB | Seed: 17 | Leech: 14

Description:

I cieli di Escaflowne S01e01-06 [BDmux 1080p - H264 - Ita Jap Aac] .: Trama :. Hitomi Kanzaki è una tipica ragazza delle scuole superiori con tutti i problemi relativi ad un'adolescente della sua età. Tra le sue compagne di classe è famosa per l'abilità di prevedere il futuro con i tarocchi, capacità che le permette anche di avere visioni. Durante una di esse le appare un mondo alieno nel cui cielo si stagliano la Luna e la Terra. In un modo a lei sconosciuto e incomprensibile, Hitomi arriverà nel mondo sconosciuto di Gaia con un giovane spadaccino, Van. In questo mondo vi sono diversi Paesi in guerra fra loro, con una tecnologia piuttosto diversa da quella presente sulla Terra... .: Scheda :. Titolo originale: The Vision of Escaflowne (天空のエスカフローネ Tenkū no Esukafurōne) Anno: Giappone 2 aprile – 24 agosto 1996 / Italia 26 dicembre 2000 – 19 giugno 2001 Genere: Avventura, Fantasy, Romantico, Mecha Studio: Sunrise Distribuzione: Giappone TV Tokyo (1996), Animax, BS11 / Italia Dynit, MTV Italia, AXN (Animax, 2008), Ka-Boom Numero episodi: 26 (completa) Durata approssimativa: 25 minuti .: Dati tecnici del file :. Info sul file Nome: I cieli di Escaflowne S01e01 - Una dichiarazione segnata dal destino - [Mux By MPT].mkv Data: 10/01/2017 15:56:56 Dimensione: 1,355,338,162 bytes (1292.551 MB) Info generiche Durata: 00:24:51 (1491.057 s) Tipo di contenitore: matroska Data creazione: 10/01/2017 14:55:34 UTC Streams totali: 4 Tipo stream n. 1: video (V_MPEG4/ISO/AVC) Tipo stream n. 2: audio (A_AAC (AAC Low complexity)) {Italiano} Tipo stream n. 3: audio (A_AAC (AAC Low complexity)) {Giapponese} Tipo stream n. 4: subtitle (S_TEXT/ASS) {Cartelli} Audio streams: 2 Muxing Application: libebml v1.3.4 + libmatroska v1.4.5 Writing Application: mkvmerge v9.6.0 ('Slave To Your Mind') 64bit Dati rilevanti Risoluzione: 1440 x 1080 Larghezza: multipla di 32 Altezza: multipla di 8 Traccia video Codec ID: V_MPEG4/ISO/AVC Risoluzione: 1440 x 1080 Frame aspect ratio: 4:3 = 1.333333 Pixel aspect ratio: 1:1 = 1 Display aspect ratio: 4:3 = 1.333333 Framerate: 23.976024 fps Traccia audio n. 1 Codec ID: A_AAC (AAC Low complexity) Canali (contenitore): 2 Frequenza: 48000 Hz Traccia audio n. 2 Codec ID: A_AAC (AAC Low complexity) Canali (contenitore): 2 Frequenza: 48000 Hz Info sulla codifica H.264 User data: x264 User data: core 120 r2120bm 0c7dab9 User data: H.264/MPEG-4 AVC codec User data: Copyleft 2003-2011 User data: http://www.videolan.org/x264.html User data: cabac=1 User data: ref=5 User data: deblock=1:1:1 User data: analyse=0x3:0x133 User data: me=umh User data: subme=9 User data: psy=1 User data: psy_rd=0.60:0.00 User data: mixed_ref=1 User data: me_range=24 User data: chroma_me=1 User data: trellis=1 User data: 8x8dct=1 User data: cqm=0 User data: deadzone=21,11 User data: fast_pskip=0 User data: chroma_qp_offset=-2 User data: threads=6 User data: sliced_threads=0 User data: nr=0 User data: decimate=1 User data: interlaced=0 User data: bluray_compat=0 User data: constrained_intra=0 User data: bframes=5 User data: b_pyramid=2 User data: b_adapt=2 User data: b_bias=0 User data: direct=3 User data: weightb=1 User data: open_gop=0 User data: weightp=2 User data: keyint=250 User data: keyint_min=25 User data: scenecut=40 User data: intra_refresh=0 User data: rc=cqp User data: mbtree=0 User data: qp=1 User data: ip_ratio=1.40 User data: pb_ratio=1.30 User data: aq=0 SPS id: 0 Profile: [email protected] Num ref frames: 5 Aspect ratio: Square pixels Chroma format idc: YUV 4:2:0 PPS id: 0 (SPS: 0) Codifica entropica: CABAC Weighted prediction: P slices - explicit weighted prediction Weighted bipred idc: B slices - implicit weighted prediction 8x8dct: Sì Profile compliancy Profilo da testare: MTK PAL 6000 Risoluzione: 1440 x 1080 > 720 x 576 Framerate: 23.976024 <> 25 Rapporto generato da AVInaptic (18-11-2007) in data 15 gen 2017, h 12:42:48

Ultimate Spider-Man 2012 Animated Complete Series SE3 Burntodisc

Language: | Size: 15.68 GB | Seed: 6 | Leech: 14

Description:

Spider-Man realizes he has inspired a whole new generation of aspiring super-heroes and wants to encourage them to have S.H.I.E.L.D. training and form a new team, the New Warriors. SE3 DISCS..........: 2 EPISODES.......: 26 SIZE...........: DVD9 VIDEO CODEC....: MPEG2 RESOLUTION.....: 720x480 ASPECT RATIO...: NTSC 16:9 FRAMERATE......: 29.97fps AUDIO .........: English 192kb/s SUBTITLES......: None MENU...........: Yes CHAPTERS.......: Yes DISC COVER.....: Yes [url]http://www.imdb.com/title/tt3105120/[/url] [url]http://en.wikipedia.org/wiki/List_of_Ultimate_Spider-Man_episodes[/url]

ESET NOD32 Antivirus &amp;amp; Smart Security 10.0.390.0 (x86x64) + License Keys

Language: | Size: 408.81 MB | Seed: 254 | Leech: 14

Description:

ESET NOD32 Antivirus / Smart Security / Internet Security 10.0.390.0 (x86/x64) ESET Internet Security - All-round internet security for Windows. Comprehensive protection for everyday web users, thanks to ESET’s trademark best balance of detection, speed and usability. Multi-layered security that protect your online privacy and identity. Rock-solid protection for everyday web users, protecting you 24/7. Safer online banking and shopping Automatically secures transactions on internet banking sites and helps to protect you on online payment gateways Regain control of your webcam and router Get an alert when anyone tries to access your webcam. Check your router's security and see who's connected The best balance for your security and privacy Essential defense against malware, with our trademark best balance of detection, speed and usability Strong Antivirus at the core Our award-winning Antivirus protection now includes Script-Based Attack Protection Help when you need it Comes with free, industry-leading customer support, supplied locally in your language Your data – now even safer Special features shield you from hacking attacks and protect your online identity Exploit Blocker Blocks attacks specifically designed to evade antivirus detection. Protects against attacks on web browsers, PDF readers and other applications, including Java-based software. Botnet Protection Protects against infiltration by botnet malware - preventing spam and network attacks launched from your computer. With the help of ESET Network Signatures, blocking of malicious traffic is even faster. Script-Based Attack Protection NEW Detects malicious JavaScripts that can attack via your browser, and attacks by malicious scripts that try to exploit Windows PowerShell. System requirements: ESET Internet Security runs on any system with Microsoft® Windows® 10, 8.1, 8, 7, Vista, and Microsoft Windows Home Server 2011. Product requires an internet connection. - Adds support for Chrome v53-56 (x32/x64) in Banking & Payment Protection - Fixes rare activation bug when user upgrades from previous version and activation ends in endless loop - Improves installation on Windows 8, 8.1 - Updates strings for Updater and Scheduler - Fixes several minor bugs - NEW : Home Network Protection - NEW : Webcam Protection - NEW : Script-based Attack Protection https://extraimage.net/images/2016/10/27/62ef46084f2128bfe004071eb386f2b3.png

Ashampoo-« Backup Pro v10.05 Multilingual (64x&amp;amp;86x) + Crack

Language: | Size: 62.43 MB | Seed: 588 | Leech: 14

Description:

Ashampoo Backup Pro 10.05 Are you looking for an easy to use yet highly versatile backup solution? Ashampoo® Backup Pro 11 takes the fear out of viruses, ransomware or hardware defects! Simply roll your system back to a previous update to get your data back. Ashampoo® Backup Pro 11 gives you various options to backup individual files or entire disc partitions either on any storage media or in the cloud. User-friendly, intuitive, fast. Even in the event of a total system failure, the integrated emergency application can bring back your system! A backup solution for everyone! - Backup and restore entire Windows systems - Your lifesaver against ransomware - New and self-explanatory user interface - Well-structured and clear design - Handy rescue system with UEFI support - New system recovery tool The remedy for ransomware and viruses No need for reinstallations - the solution against malware. Ransomware takes your computer hostage and encrypts your personal files. Viruses destroy entire systems and take away your control over your PC. Ashampoo® Backup Pro 11 can reverse these devastating effects with ease! Simply restore a previous backup and all's well again! Always up-to-date Always up-to-date backups with maximum file encryption. The advanced backup mechanism ensures that only modified portions of your data are stored. This prevents duplicates and provides immense space savings. Modern high quality encryption will protect your files against unauthorized access. Store it wherever you like Works with any storage format. Ashampoo® Backup Pro 11 stores your backups on any hard disk, SSD, flash drive or network location. Local backups profit from the newly developed "Infinite Reverse Incremental" technology that requires spectacularly little disk space. Benefit from space savings up to 50%! Easy cloud upload Store backups on the Internet. Ashampoo® Backup Pro 11 makes working with Dropbox or Google Drive incredibly easy. Enjoy your independence of traditional storage media! This does not only include traditional file backups but also extends to entire drives! There's built-in support for Dropbox, Google Drive, Microsoft OneDrive, Strato, 1&1 and many others. Versatile data recovery Individual files, entire partitions or system recovery. The choice is yours: extract individual files from backups with the help of virtual drives or restore entire partitions! If all else fails, the integrated rescue disc or flash drive will get your PC going again. It will boot again and a working backup will be restored. That's all it takes to get your Windows working again! New overview and user handling Clean, logical, beautiful: the new face of Ashampoo® Backup Pro 11. Ashampoo® Backup Pro 11 features a completely redesigned user interface to make your work easier and more intuitive as users are guided through logical steps with on screen explanations. A backup solution to sit back, relax and work intuitively? Certainly! No prior knowledge required, all needs and use cases covered. Automatically safe Once enabled, your backups will always be up-to-date. Ashampoo® Backup Pro 11 can create backups fully automatically in the background. Once enabled, you no longer have to take action! And backup processes are automatically paused to avoid slowdowns whenever you need the full power of your machine! Success in just a few clicks A backup solution for beginners - with professional results! Ashampoo® Backup Pro 11 does not require any previous knowledge. Sophisticated backups can be created with very few inputs! On the spot explanations are available for all program settings and various presets cover all common use cases like email, browser or contact backups.

Underworld - Blood Wars (2016) (by emi) ITA - ENG mkv 720p

Language: | Size: 939.93 MB | Seed: 47 | Leech: 14

Description:

Titolo originale:Underworld: Blood Wars Nazione:U.S.A. Anno:2016 Genere:Azione, Horror Regia:Anna Foerster Cast:Theo James, Kate Beckinsale, Charles Dance, Lara Pulver, Bradley James, Tobias Menzies, Oliver Stark, Alicia Vela-Bailey, Daisy Head, Clementine Nicholson Produzione:Lakeshore Entertainment, Screen Gems, Sketch Films Distribuzione:Warner Bros. Pictures Italia Trama: Selene é la spietata vampira eroina della saga che racconta l'eterna lotta tra succhiasangue e licantropi. In questo capitolo una nuova generazione è pronta allo scontro. Selene is the ruthless vampire heroine of the saga that tells the eternal struggle between bloodsuckers and werewolves. In this chapter, a new generation is ready for confrontation. Generale ID univoco : 117582536550150256630206595164512478240 (0x587592A389C40E0516A3C0CA772C6420) Nome completo : C:\Users\Underworld - Blood Wars (2016) (by emi) ITA - ENG mkv 720p.mkv Formato : Matroska Versione formato : Version 4 / Version 2 Dimensione : 940MiB Durata : 1 o 31 min Bitrate totale : 1.435 kb/s Data codifica : UTC 2017-03-23T22:50:59Z Creato con : HandBrake 1.0.1 2016122900 Compressore : Lavf57.7.2 / Lavf57.7.2 Video ID : 1 Formato : AVC Formato/Informazioni : Advanced Video Codec Profilo formato : [email protected] Impostazioni formato, CABAC : Si Impostazioni formato, ReFrames : 4 frame ID codec : V_MPEG4/ISO/AVC Durata : 1 o 31 min Bitrate : 830 kb/s Larghezza : 1.280 pixel Altezza : 534 pixel Rapporto aspetto visualizzazione : 2,35:1 Modalità frame rate : Costante Frame rate : 23,976 (24000/1001) FPS Spazio colore : YUV Croma subsampling : 4:2:0 Profondità bit : 8 bit Tipo scansione : Progressivo Bit/(pixel*frame) : 0.051 Dimensione della traccia : 544MiB (58%) Compressore : x264 core 148 r2708 86b7198 Impostazioni compressione : cabac=1 / ref=2 / deblock=1:0:0 / analyse=0x1:0x111 / me=hex / subme=6 / psy=1 / psy_rd=1.00:0.00 / mixed_ref=1 / me_range=16 / chroma_me=1 / trellis=1 / 8x8dct=0 / cqm=0 / deadzone=21,11 / fast_pskip=1 / chroma_qp_offset=-2 / threads=12 / lookahead_threads=2 / sliced_threads=0 / nr=0 / decimate=1 / interlaced=0 / bluray_compat=0 / constrained_intra=0 / bframes=3 / b_pyramid=2 / b_adapt=1 / b_bias=0 / direct=1 / weightb=1 / open_gop=0 / weightp=1 / keyint=240 / keyint_min=24 / scenecut=40 / intra_refresh=0 / rc_lookahead=30 / rc=crf / mbtree=1 / crf=22.0 / qcomp=0.60 / qpmin=0 / qpmax=69 / qpstep=4 / vbv_maxrate=20000 / vbv_bufsize=25000 / crf_max=0.0 / nal_hrd=none / filler=0 / ip_ratio=1.40 / aq=1:1.00 Default : Si Forced : No colour_range : Limited Colori primari : BT.709 Caratteristiche trasferimento : BT.709 Coefficienti matrici : BT.709 Audio #1 ID : 2 Formato : AC-3 Formato/Informazioni : Audio Coding 3 Estensione modo : CM (complete main) Impostazioni formato, Endianness : Big ID codec : A_AC3 Durata : 1 o 31 min Modalità bitrate : Costante Bitrate : 192 kb/s Canali : 2 canali Posizione canali : Front: L R Frequenza campionamento : 44,1 kHz Frame rate : 28,711 FPS (1536 spf) Modo compressione : Con perdita Ritardo video : -6 ms Dimensione della traccia : 126MiB (13%) Titolo : Stereo Lingua : Italiano Default : Si Forced : No Audio #2 ID : 3 Formato : AC-3 Formato/Informazioni : Audio Coding 3 Estensione modo : CM (complete main) Impostazioni formato, Endianness : Big ID codec : A_AC3 Durata : 1 o 31 min Modalità bitrate : Costante Bitrate : 384 kb/s Canali : 6 canali Posizione canali : Front: L C R, Side: L R, LFE Frequenza campionamento : 48,0 kHz Frame rate : 31,250 FPS (1536 spf) Modo compressione : Con perdita Ritardo video : -5 ms Dimensione della traccia : 251MiB (27%) Titolo : Surround Lingua : Inglese Default : No Forced : No Testo #1 ID : 4 Formato : ASS ID codec : S_TEXT/ASS ID codec/Informazioni : Advanced Sub Station Alpha Modo compressione : Senza perdita Lingua : Inglese Default : No Forced : No Testo #2 ID : 5 Formato : ASS ID codec : S_TEXT/ASS ID codec/Informazioni : Advanced Sub Station Alpha Modo compressione : Senza perdita Lingua : Italiano Default : No Forced : No Menu 00:00:00.000 : :Chapter 1 00:04:30.479 : :Chapter 2 00:09:25.690 : :Chapter 3 00:13:59.714 : :Chapter 4 00:18:56.010 : :Chapter 5 00:24:26.840 : :Chapter 6 00:31:16.083 : :Chapter 7 00:36:26.518 : :Chapter 8 00:42:17.035 : :Chapter 9 00:47:37.396 : :Chapter 10 00:52:22.139 : :Chapter 11 00:58:59.286 : :Chapter 12 01:04:31.493 : :Chapter 13 01:08:52.128 : :Chapter 14 01:13:46.756 : :Chapter 15 01:20:08.637 : :Chapter 16

Lion - La strada verso casa (2016).H264.Italian.English.Ac3.5.1.sub.ita.iCV-MIRCrew

Language: | Size: 1.81 GB | Seed: 110 | Leech: 14

Description:

Lion - La strada verso casa (2016).H264.Italian.English.Ac3.5.1.sub.ita.iCV-MIRCrew [center] [color=red][b][img]http://s23.postimg.org/b9yhws27f/0sc_Del1.png[/img] [u]NO FOUND ONLY ORIGINAL RELEASE[/u] [img]http://i.imgur.com/GDNQx1Z.png[/img] My release is always in double track audio italian and Original audio for select it use VLC or dvd player home not use wmp Lion - La strada verso casa (2016) [img]https://extraimage.net/images/2017/04/06/b096ae03acf007854ba8635c8e72863c.png[/img] [URL=http://www.imdb.com/title/tt3741834/][IMG]http://www.userlogos.org/files/logos/Sucka/imdb_new.png[/IMG][/URL] [img]http://i.imgur.com/fGu1rKv.png[/img] 2017 - Premio Oscar Candidatura per il Miglior film Candidatura per il Miglior attore non protagonista a Dev Patel Candidatura per la Miglior attrice non protagonista a Nicole Kidman Candidatura per la Miglior sceneggiatura non originale a Luke Davies Candidatura per la Miglior fotografia a Greig Fraser Candidatura per la Miglior colonna sonora a Dustin O'Halloran e Hauschka 2017 - Golden Globe Candidatura per il Miglior film drammatico Candidatura per il Miglior attore non protagonista a Dev Patel Candidatura per la Migliore attrice non protagonista a Nicole Kidman Candidatura per la Migliore colonna sonora originale a Volker Bertelmann, Dustin O'Halloran 2017 - Premio BAFTA Titolo originale Lion Lingua originale inglese, hindi, bengali Paese di produzione Australia, Stati Uniti d'America, Regno Unito Anno 2016 Durata 129 min Genere drammatico Regia Garth Davis Soggetto Saroo Brierley, Larry Buttrose (memorie) Sceneggiatura Luke Davies Produttore Iain Canning, Angie Fielder, Emile Sherman Produttore esecutivo Andrew Fraser, Daniel Levin, Andrew Mackie, Shahen Mekertichian, Richard Payten, Harvey Weinstein Casa di produzione See-Saw Films, Aquarius Films, Screen Australia, Sunstar Entertainment, The Weinstein Company Distribuzione (Italia) Eagle Pictures Fotografia Greig Fraser Montaggio Alexandre de Franceschi Musiche Volker Bertelmann, Dustin O'Halloran [img]http://i.imgur.com/W7kBqiE.png[/img] Dev Patel: Saroo Brierley Nicole Kidman: Sue Brierley Rooney Mara: Lucy David Wenham: John Brierley Sachin Joab: Bharat Pallavi Sharda: Prama Emilie Cocquerel: Annika Arka Das: Sami Abhishek Bharate: Guddu Khan Sunny Pawar: Saroo bambino Divian Ladwa: Mantosh Brierley Priyanka Bose: Kamla Munshi Deepti Naval: Saroj Sood Tannishtha Chatterjee: Noor Rita Boy: Amita Nawazuddin Siddiqui: Rawa [img]http://i.imgur.com/bFK3ggF.png[/img] India centrale, fine anni Ottanta. All'età di quattro anni, Saroo, ultimogenito di una famiglia molto povera, chiede di seguire suo fratello maggiore Guddu al lavoro. In una stazione non distante dal loro villaggio natale, Saroo viene lasciato per qualche ora su una panchina, e quando si sveglia non vede nessuno attorno a sé. Mentre cerca il fratello, il bambino sale erroneamente su un treno deserto che non fa sosta e che lo conduce a Calcutta............... [img]http://i.imgur.com/48xHWWH.png[/img] A five-year-old Indian boy gets lost on the streets of Calcutta, thousands of kilometers from home. He survives many challenges before being adopted by a couple in Australia; 25 years later, he sets out to find his lost family. [img]http://i.imgur.com/K8bfNTy.png[/img] [url=https://extraimage.net/image/2uvX][img]https://extraimage.net/images/2017/04/06/1e142fa5f73c7fbca1254b672e7a91b9.th.png[/img][/url] [url=https://extraimage.net/image/2uvP][img]https://extraimage.net/images/2017/04/06/95b1d27beee14ed3692376018f5c95ad.th.png[/img][/url] [url=https://extraimage.net/image/2uvg][img]https://extraimage.net/images/2017/04/06/07f3d60ef775e98ae928295993577504.th.png[/img][/url] [url=https://extraimage.net/image/2uv5][img]https://extraimage.net/images/2017/04/06/57070a64cb07aa862de8f2ab13ea377b.th.png[/img][/url] [img]http://i.imgur.com/aVrMohH.png[/img] [spoiler] General Unique ID : 181286965495669192585579973947434812463 (0x8862997B4A7B3C2E88A5CE6D8C59442F) Complete name : Lion - La strada verso casa (2016).H264.ita.eng.sub.ita.iCV-MIRCrew.mkv Format : Matroska Format version : Version 2 File size : 1.81 GiB Duration : 1h 58mn Overall bit rate : 2 187 Kbps Movie name : VISIT www.icv-crew.org Encoded date : UTC 2017-04-05 16:36:05 Writing application : mkvmerge v5.4.0 ('Piper') built on Mar 10 2012 13:34:39 Writing library : Lavf54.63.100 COPYRIGHT : robbyrs Video ID : 1 Format : AVC Format/Info : Advanced Video Codec Format profile : [email protected] Format settings, CABAC : Yes Format settings, ReFrames : 2 frames Muxing mode : Header stripping Codec ID : V_MPEG4/ISO/AVC Duration : 1h 58mn Bit rate : 1 290 Kbps Width : 688 pixels Height : 288 pixels Display aspect ratio : 2.40:1 Original display aspect ratio : 2.40:1 Frame rate mode : Variable Frame rate : 24.000 fps Color space : YUV Chroma subsampling : 4:2:0 Bit depth : 8 bits Scan type : Progressive Bits/(Pixel*Frame) : 0.271 Stream size : 1.03 GiB (57%) Title : Lion - La strada verso casa (2016).H264.ita.eng.sub.ita.eng.iCV-MIRCrew Writing library : x264 core 130 r2273 Encoding settings : cabac=1 / ref=2 / deblock=1:0:0 / analyse=0x1:0x131 / me=hex / subme=7 / psy=1 / psy_rd=1.00:0.00 / mixed_ref=0 / me_range=16 / chroma_me=1 / trellis=1 / 8x8dct=0 / cqm=0 / deadzone=21,11 / fast_pskip=1 / chroma_qp_offset=-2 / threads=12 / lookahead_threads=2 / sliced_threads=0 / nr=0 / decimate=1 / interlaced=0 / bluray_compat=0 / constrained_intra=0 / bframes=3 / b_pyramid=0 / b_adapt=1 / b_bias=0 / direct=3 / weightb=1 / open_gop=0 / weightp=2 / keyint=240 / keyint_min=24 / scenecut=40 / intra_refresh=0 / rc_lookahead=40 / rc=2pass / mbtree=1 / bitrate=1290 / ratetol=1.0 / qcomp=0.60 / qpmin=10 / qpmax=69 / qpstep=4 / cplxblur=20.0 / qblur=0.5 / vbv_maxrate=24000 / vbv_bufsize=24000 / nal_hrd=none / ip_ratio=1.40 / aq=1:1.00 Language : Italian Default : Yes Forced : No DURATION : 01:58:35.500000000 NUMBER_OF_FRAMES : 170772 NUMBER_OF_BYTES : 3949833818 _STATISTICS_WRITING_APP : mkvmerge v8.3.0 ('Over the Horizon') 64bit _STATISTICS_WRITING_DATE_UTC : 2017-03-31 19:00:29 _STATISTICS_TAGS : BPS DURATION NUMBER_OF_FRAMES NUMBER_OF_BYTES Audio #1 ID : 2 Format : AC-3 Format/Info : Audio Coding 3 Mode extension : CM (complete main) Muxing mode : Header stripping Codec ID : A_AC3 Duration : 1h 58mn Bit rate mode : Constant Bit rate : 448 Kbps Channel(s) : 6 channels Channel positions : Front: L C R, Side: L R, LFE Sampling rate : 48.0 KHz Bit depth : 16 bits Compression mode : Lossy Delay relative to video : -5ms Stream size : 380 MiB (20%) Title : AC3 iTA Language : Italian Default : No Forced : No DURATION : 01:58:35.584000000 NUMBER_OF_FRAMES : 222362 NUMBER_OF_BYTES : 569246720 _STATISTICS_WRITING_APP : mkvmerge v8.3.0 ('Over the Horizon') 64bit _STATISTICS_WRITING_DATE_UTC : 2017-03-31 19:00:29 _STATISTICS_TAGS : BPS DURATION NUMBER_OF_FRAMES NUMBER_OF_BYTES Audio #2 ID : 3 Format : AC-3 Format/Info : Audio Coding 3 Mode extension : CM (complete main) Muxing mode : Header stripping Codec ID : A_AC3 Duration : 1h 58mn Bit rate mode : Constant Bit rate : 448 Kbps Channel(s) : 6 channels Channel positions : Front: L C R, Side: L R, LFE Sampling rate : 48.0 KHz Bit depth : 16 bits Compression mode : Lossy Delay relative to video : -5ms Stream size : 380 MiB (20%) Title : AC3 ENG Language : English Default : No Forced : No DURATION : 01:58:35.584000000 NUMBER_OF_FRAMES : 222362 NUMBER_OF_BYTES : 569246720 _STATISTICS_WRITING_APP : mkvmerge v8.3.0 ('Over the Horizon') 64bit _STATISTICS_WRITING_DATE_UTC : 2017-03-31 19:00:29 _STATISTICS_TAGS : BPS DURATION NUMBER_OF_FRAMES NUMBER_OF_BYTES Text #1 ID : 4 Format : ASS Codec ID : S_TEXT/ASS Codec ID/Info : Advanced Sub Station Alpha Compression mode : Lossless Title : FORCED iTA Language : Italian Default : Yes Forced : No DURATION : 01:49:58.583000000 NUMBER_OF_FRAMES : 2 NUMBER_OF_BYTES : 39 _STATISTICS_WRITING_APP : mkvmerge v8.3.0 ('Over the Horizon') 64bit _STATISTICS_WRITING_DATE_UTC : 2017-03-31 19:00:29 _STATISTICS_TAGS : BPS DURATION NUMBER_OF_FRAMES NUMBER_OF_BYTES Text #2 ID : 5 Format : ASS Codec ID : S_TEXT/ASS Codec ID/Info : Advanced Sub Station Alpha Compression mode : Lossless Title : REGULAR iTA Language : Italian Default : No Forced : No DURATION : 01:03:10.041000000 NUMBER_OF_FRAMES : 466 NUMBER_OF_BYTES : 12896 _STATISTICS_WRITING_APP : mkvmerge v8.3.0 ('Over the Horizon') 64bit _STATISTICS_WRITING_DATE_UTC : 2017-03-31 19:00:29 _STATISTICS_TAGS : BPS DURATION NUMBER_OF_FRAMES NUMBER_OF_BYTES Menu 00:00:00.000 : :00:00:00.000 00:09:00.208 : :00:09:00.208 00:19:45.833 : :00:19:45.833 00:29:46.833 : :00:29:46.833 00:40:01.000 : :00:40:01.000 00:48:48.000 : :00:48:48.000 00:58:46.833 : :00:58:46.833 01:09:11.417 : :01:09:11.417 01:19:13.417 : :01:19:13.417 01:29:16.625 : :01:29:16.625 01:37:50.417 : :01:37:50.417 01:48:15.000 : :01:48:15.000 [/spoiler] [/color][/b][/center]

Body Count Bloodlust [2017] FLAC CD

Language: | Size: 389.37 MB | Seed: 59 | Leech: 14

Description:

----------------------------------------------------------------------------------- https://img42.com/W53RM : Body_Count-Bloodlust-CD-FLAC-2017-RiBS + MP3-VBRV0-CD-1914 ----------------------------------------------------------------------------------- https://itunes.apple.com/us/album/bloodlust/id1201912007 iTunes Album Info ::: MFT ----------------------------------------------------------------------------------- http://bodycountband.com ::: official site ::: ----------------------- ::: CAPAJEBO

Benvenuti al Sud (2010) iTA DTS AC3 6 CH 1080p BluRay x264 Sub

Language: | Size: 11.19 GB | Seed: 824 | Leech: 13

Description:

Film | Dimensione: 11.19 GB | Seeders: 6 | Leechers: 5 | Completato: 26 | Agiorna Titolo originale: Benvenuti al Sud Nazione: Italia Anno: 2010 Genere: Commedia Durata: 102' Regia: Luca Miniero Sito ufficiale: www.virgilio.it/benvenutialsud Cast: Claudio Bisio, Angela Finocchiaro, Luisa Ranieri, Alessandro Siani, Valentina Lodovini, Naike Rivelli, Nando Paone, Giacomo Rizzo, Teco Celio, Fulvio Falzarano, Nunzia Schiano, Alessandro Vighi Produzione: Medusa Film, Cattleya Data di uscita: 01 Ottobre 2010 (cinema) Trama: Alberto (Claudio Bisio), responsabile dell'ufficio postale di una cittadina della Brianza, sotto pressione della moglie Silvia (Angela Finocchiaro), è disposto a tutto pur di ottenere il trasferimento a Milano. Anche fingersi invalido per salire in graduatoria. Ma il trucchetto non funziona e per punizione viene trasferito in un paesino della Campania, il che per un abitante del nord equivale a un vero e proprio incubo. Rivestito di pregiudizi, Alberto parte da solo alla volta di quella che ritiene la terra della camorra, dei rifiuti per le strade e dei "terroni" scansafatiche... Parole chiave: commedia

Bebe Rexha - All Your Fault Pt. 1 (2017) (by emi)

Language: | Size: 28.61 MB | Seed: 30 | Leech: 13

Description:

mp3 a 192 kbps audio di qualità a 95 db Tracklist 01 - Atmosphere.mp3 (4.6 MB) 02 - I Got You.mp3 (4.6 MB) 03 - Small Doses.mp3 (4.7 MB) 04 - F.F.F. (feat. G-Eazy).mp3 (4.8 MB) 05 - Gateway Drug.mp3 (5.1 MB) 06 - Bad Bitch (feat. Ty Dolla $ign).mp3 (4.7 MB)

11.22.63 (2016) S01e07 WEBMux- XviD - Ita Eng Mp3 - Sub Ita Eng

Language: | Size: 547.27 MB | Seed: 130 | Leech: 13

Description:

Stagione 1/1 Episodi: 8 Italia: 11/04/2016 al (In Corso) Usa: 15/02/2016 al 04/04/2016 GENERE: Miniserie TV IDEATORE: Bridget Carpenter ATTORI: James Franco, Chris Cooper, Sarah Gadon, Lucy Fry, George MacKay, Daniel Webber ANNO: 2016 PAESE: USA PRODUZIONE: Warner Bros. Television, Bad Robot DURATA: 44 Min STATO: Conclusa E se fosse possibile cambiare il passato e stravolgere il corso della storia? Jake Epping, un ordinario insegnante di liceo, si ritrova a che fare inaspettatamente con la missione di viaggiare indietro nel tempo per impedire l'assassinio nel Presidente degli Stati Uniti d'America John F. Kennedy il 22 novembre del 1963. Ma vivere in un mondo che non gli appartiene e risolvere quello che probabilmente è il più grande mistero del 20° secolo si rivela un'impresa difficile e pericolosa mentre le azioni di Epping sono minacciate da Lee Harvey Oswald, una storia d'amore e un passato che non vuole saperne di cambiare e farà di tutto per fermarlo. 7. Tiratore scelto - Soldier Boy

Resolume Avenue 4.6.3 Multilingual + Patch Keygen

Language: | Size: 962.08 MB | Seed: 967 | Leech: 13

Description:

Resolume Avenue 4.6.3 Resolume Avenue can play multiple layers of full HD without skipping a beat and it can handle multiple live inputs to make it a virtual video mixing desk. Resolume Arena 4 Media Server Resolume 4 comes in 2 editions. Avenue is the VJ software you know and love, Arena has all the features of Avenue plus features you'd expect from a media server, soft edging, screen warping, DMX input and SMPTE timecode input. Screen Warping & Video Mapping Arena In the advanced output window you can now create as many slices from your composition and position and transform them to your liking. This is perfect for projection mapping on many surfaces. Your surfaces do not have to be rectangular anymore either, you can warp your video onto curved screens with the advanced bezier transformations. • You configure every layer to automatically start the first clip when the composition has loaded. This is very handy for installations where Resolume needs to start playing clips automatically in combination with the Auto Pilot. • Ignore Column Trigger, prevents clip from being triggered when the column triggers are used. • Scale to Fit button for clip now cycles through 4 modes, first it will scale taking into account ratio and fill to the hight or the width, then it will just match the composition size and the fourth time it's back to default, this also works when multiple clips are selected. • Recent compositions menu for quick access to last opened compositions. • New version of DXV Codec (2.2) compresses files faster by utilizing multiple processors. • Invert checkbox for mouse mapped controls. • Type ahead selection in File,Effect and Composition browser. • Position of windowed output is remembered. • Windowed output position can be changed with the arrow keys. • Show Display Info (option in the menu to identify the different displays). • Global Clip Start offset to compensate for clip trigger latency via MIDI or OSC. • Tailored MIDI support for Akai APC Midi controller. • Invert option for masks. • Value editor popup for parameters. • Ease in-out for all parameters. • Drop effect directly on layer thumbnail. • Drag file on video or audio track zone in clip properties panel to replace video or audio track without resetting parameters. • Property panel sizes and layout is remembered. • Smaller composition files for quicker loading of decks. • Great reduction of memory usage. • Effect presets are stored in separate files, this makes it easier to import and share user presets. • Improved recording performance. • Preview panel checkerboard backdrop for better transparency viewing. • Faster OSC input. • Flash text field transparency fix on Windows. • Better FFGL Syphon support. • Much faster thumbnailing and analysis of audio clips. • ArtNet DMX fixes. • Improved rendering of odd sized files.

The Signal (2014) ITA ENG 1080p BluRay x264

Language: | Size: 11.49 GB | Seed: 835 | Leech: 13

Description:

Titolo originale: The Signal Nazione: U.S.A. Anno: 2014 Genere: Fantacienza, Thriller Durata: 97' Regia: William Eubank Sito ufficiale: www.ruagitated.com/ Cast: Brenton Thwaites, Laurence Fishburne, Olivia Cooke, Beau Knapp, Jeffrey Grover, Roy Kenny, Timothy Holmes, Lin Shaye, Robert Longstreet, Patrick Davidson

Nymphomaniac Vol.II (2013) iTA-ENG Bluray 720p x264

Language: | Size: 3.7 GB | Seed: 11 | Leech: 13

Description:

Titolo originale: Nymphomaniac Nazione: Danimarca, Germania, Francia, Belgio, Gran Bretagna Anno: 2013 Genere: Drammatico Durata: 123' Regia: Lars von Trier Sito ufficiale: nymphomaniacthemovie.com Sito italiano: www.nymphomaniacilfilm.it Cast: Charlotte Gainsbourg, Stellan Skarsgård, Stacy Martin, Shia LaBeouf, Jamie Bell, Willem Dafoe, Mia Goth, Jean-Marc Barr, Michael Pas Produzione: Zentropa Entertainments, Heimatfilm Distribuzione: Good Films Data di uscita: 24 Aprile 2014 (cinema) Venezia 2014 - Fuori Concorso Trama: Seconda parte del film di Lars von Trier. NYMPHOMANIAC è la storia poetica e folle di Joe (Charlotte Gainsbourg), una ninfomane, come lei stessa si autoproclama, raccontata attraverso la sua voce, dalla nascita fino all’età di 50 anni. Una fredda sera d’inverno il vecchio e affascinante scapolo, Seligman (Stellan Skarsgård), trova Joe in un vicolo dopo che è stata picchiata. La porta a casa dove cura le sue ferite e le chiede di raccontargli la sua storia. L’ascolta assorto mentre lei narra, nel corso dei successivi 8 capitoli, la storia della sua vita, piena di incontri e di avvenimenti. Mostra/Nascondi Spoiler INFO Parole chiave: dramma erotico

Non-Stop - Film (2014) ITALIAN BDRip AC3 x264 480p

Language: | Size: 1.46 GB | Seed: 594 | Leech: 13

Description:

TITOLO ORIGINALE: Non-Stop LINGUA ORIGINALE: Inglese PAESE: USA ANNO: 2014 GENERE: Azione, Thriller DURATA: 01:46:37 REGIA: Jaume Collet-Serra ATTORI: Liam Neeson, Julianne Moore, Lupita Nyong'o, Michelle Dockery, Nate Parker, Linus Roache, Jason Butler Harner, Omar Metwally, Anson Mount DATA USCITA: 8 Maggio 2014 PRODUZIONE: Silver Pictures, Studio Canal TRAMA: Bill Marks, un agente di sicurezza di un aereo, durante un volo da New York a Londra, si trova costretto ad affrontare un grosso imprevisto. Inizia a ricevere sul suo cellulare misteriosi sms in cui uno sconosciuto gli intima di chiedere al Governo di trasferire di 150 milioni di dollari o, altrimenti, ogni venti minuti un passeggero morirà. VIDEO: 960 х 400 (2.40:1), 23.976 fps, AVC [email protected] ~1765 kbps AUDIO: 48 kHz, AC3 Dolby Digital, 2 ch, ~192 kbps HDTV SOTTOTITOLI: Italiano (Forced) VALUTAZIONE: RECENSIONI: Mymovies Parole chiave: azione thriller

Necropolis - La città dei morti (2014) iTALiAN AC3 HDRip XviD

Language: | Size: 1.47 GB | Seed: 259 | Leech: 13

Description:

Titolo originale: As Above, So Below Nazione: U.S.A. Anno: 2014 Genere: Horror, Thriller Durata: 93' Regia: John Erick Dowdle Sito ufficiale: www.asabovesobelowintl.com Sito ufficiale: www.necropolis-lacittadeimorti.it Social network: facebook, twitter Cast: Ben Feldman, Edwin Hodge, Perdita Weeks, James Pasierbowicz Produzione: Legendary Pictures Distribuzione: Universal Pictures Italia Data di uscita: 11 Settembre 2014 (cinema) Trama: Sotto le strade di Parigi si trovano chilometri di tortuose catacombe, eterna dimora di innumerevoli anime. Quando una squadra di esploratori si avventura in quel labirinto di ossa inesplorato, scoprono il segreto di cosa, questa città dei morti, aveva lo scopo di celare. Necropolis - La Città dei Morti è un viaggio nella follia e nel terrore, che raggiunge la profondità della psiche umana per portare alla luce i demoni di ciascuno che tornano per perseguitare tutti noi. Parole chiave: horror thriller

Dove eravamo rimasti (2015) iTA AC3 5.1 BDRip XviD

Language: | Size: 1.37 GB | Seed: 32 | Leech: 13

Description:

Titolo originale: Ricki and the Flash Nazione: U.S.A. Anno: 2015 Genere: Drammatico Durata: 100' Regia: Jonathan Demme Sito ufficiale: www.rickiandtheflashmovie.com Sito italiano: www.warnerbros.it/speciali/doveravamorimasti Cast: Meryl Streep, Sebastian Stan, Kevin Kline, Mamie Gummer, Ben Platt, Rick Springfield, Charlotte Rae, Audra McDonald, Carmen Carrera Produzione: Clinica Estetico, LStar Capital, TriStar Pictures Data di uscita: 10 Settembre 2015 (cinema) Trama: In un film originale con performance dal vivo, la Streep è Ricki Rendazzo, una chitarrista eroina che nell'inseguire il suo sogno di diventare una chitarrista di successo compie tanti sbagli umani nei confronti della sua famiglia. Richiamata a casa per un problema, Ricki ha l'occasione per riscattarsi e cercare di aggiustare tutto. Parole chiave: drammatico

Cam Girl (2014) iTA AC3 DVDRip XviD

Language: | Size: 1.47 GB | Seed: 42 | Leech: 13

Description:

Titolo originale: Cam Girl Nazione: Italia Anno: 2014 Genere: Commedia Durata: 90' Regia: Mirca Viola Sito ufficiale: www.camgirlfilm.it Cast: Antonia Liskova, Alessia Piovan, Sveva Alviti, Ilaria Capponi, Maria Grazia Cucinotta, Enrico Silvestrin, Marco Cocci, Nicholas Gallo, Mauro Conte, Francesco Apolloni, Giovanni Corrado Produzione: Angelika Film Production Data di uscita: 22 Maggio 2014 (cinema) Trama: Alice, Rossella e Martina sono ragazze come tante, con i loro sogni e le loro aspirazioni. Le tre, oltre a una solida amicizia, hanno una cosa in comune: fanno le cam girl. In un periodo in cui la crisi ha ridotto i salari e il lavoro fisso sembra una chimera, per tre belle ragazze il modo più semplice e rapido per sbarcare il lunario è mostrarsi nude in webcam. Il guaio è che l'agenzia per la quale lavorano, la Sexycam, accampa scuse per non pagare il dovuto. Quando Alice apprende che lo stage presso l'agenzia pubblicitaria non si trasformerà, come sperato, in un'assunzione, decide che è giunta l'ora di prendere in mano il proprio destino e quello delle sue amiche, anche loro stanche di essere sfruttate per pochi euro. L'idea di Alice è semplice quanto rischiosa: mettersi in proprio per allestire una loro agenzia di cam girl. Alle tre si Gilda, 22enne cameriera del bar dove le ragazze di solito si riuniscono. Per avviare il loro nuovo sito, 'Cam Together', Alice si serve dell'aiuto di Giovanni, un abile e scaltro dirigente dell'agenzia pubblicitaria dove anche lei lavorava. Ma l'iniziale euforia è destinata ben presto a spegnersi quando subentrano le prime difficoltà, economiche e sentimentali delle ragazze. Risoluzione - 720x384 Parole chiave: commedia

Medicus - The Physician (2013) H264 - Ita Aac WEBRip

Language: | Size: 1.91 GB | Seed: 586 | Leech: 13

Description:

The Physician Germania 2013 Genere: Avventura durata 135' Regia di Philipp Stölzl Con Tom Payne, Ben Kingsley, Stellan Skarsgård, Olivier Martinez, Emma Rigby, Elyas M'Barek, Makram Khoury, Manuela Biedermann... Trama In una piccola città mineraria dell'Inghilterra dell'XI secolo, Rob Cole (Adam Thomas Wright) è un bambino che rimane orfano e senza un soldo quando la madre muore per via di una misteriosa malattia. Promettendo a se stesso di diventare un buon medico e sfidare la morte, Rob viaggia fino a Isfahan, in Persia, per studiare medicina e diventare allievo del grande maestro Ibn Sina (Ben Kingsley). Attraverso innumerevoli prove e sfide, rinnegando la sua cristianità per fingersi ebreo e facendo mille sacrifici, con il passare degli anni Rob (Tom Payne) non mollerà mai le sue intenzioni. La sua ricerca instancabile della conoscenza lo porterà anche al mantenimento di una lunga e sincera amicizia e alla scoperta dell'amore vero. Parole chiave: avventura

I Croods - The Croods (2013) BDRip 1080p - H264 - Eng Ac3 Ita DTS - MultiSub

Language: | Size: 4.9 GB | Seed: 594 | Leech: 13

Description:

Titolo originale: The Croods Nazione: U.S.A. Anno: 2013 Genere: Animazione Durata: 90' Regia: Chris Sanders, Kirk De Micco Sito ufficiale: www.thecroodsmovie.com Sito italiano: www.icroods-ilfilm.it Cast (voci): Nicolas Cage, Ryan Reynolds, Emma Stone, Catherine Keener, Clark Duke, Cloris Leachman Produzione: DreamWorks Animation Data di uscita: 21 Marzo 2013 (cinema) Trama: Seguiamo il viaggio avventuroso della prima famiglia moderna. Quando, a causa di un cataclisma, la loro caverna viene distrutta - così come tutto il circondario - i Croods sono costretti ad avventurarsi in luoghi a loro ignoti e a riorganizzare la propria vita. Lungo la strada incontrano Guy, le cui sorprendenti nuove scoperte - come il fuoco e... le scarpe! - scuotono la loro visione del mondo in modo del tutto inaspettato. La maggior parte della famiglia, e in particolare Hip (la figlia teenager), accoglie con entusiasmo ciò che Guy chiama "domani", mentre Grug (il padre) intravede un’altra grande calamità all’orizzonte: quella di un affascinante ragazzo che insidia sua figlia! I Croods presto si rendono conto che se non saranno in grado di evolversi... entreranno presto a far parte del passato. Fra scontri generazionali e movimenti sismici, scopriranno un incredibile nuovo mondo popolato da creature fantastiche, e un futuro al di là di ogni loro più sfrenata immaginazione.

Prison Break S02e17-22 [BDrip 720p - H264 - Eng Ita Ac3 5.1 - Sub Ita Eng] Finale di Stagione

Language: | Size: 11.82 GB | Seed: 5 | Leech: 13

Description:

Trama Molti uomini farebbero di tutto per uscire dal penitenziario di Fox River. Michael Scofield invece fa di tutto per entrarci: suo fratello Lincoln è stato condannato a morte per un crimine che non ha commesso. E l'unico modo di poterlo salvare è dall'interno. Serie televisiva ambientata nella prigione di Fox River e incentrata sul geniale piano di fuga del protagonista Michael Scofield. Suspense e adrenalina hanno tenuto incollati al televisore i telespettatori che hanno seguito assiduamente questa strepitosa serie. PRISON BREAK ha guadagnato due nomination ai Golden Globe come miglior serie tv drammatica e per l'interpretazione di Wentworth Miller. I motivi di questo successo risiedono nell'originalità e complessità della trama, nell'utilizzo creativo del flashback, nel ritmo serrato con il quale si succedono gli eventi e nel disvelamento dell'intero piano di fuga di Micheal puntata dopo puntata. Questo meccanismo produce dipendenza, elemento alla base dei migliori prodotti seriali. Tutto questo è PRISON BREAK!

Lo Hobbit - La battaglia delle cinque armate (2014) HD 720p ITA AC3 ENG DTS/AC3 Subs

Language: | Size: 9.5 GB | Seed: 112 | Leech: 13

Description:

Titolo originale: The Hobbit: The Battle of the Five Armies Nazione: U.S.A., Nuova Zelanda Anno: 2014 Genere: Avventura, Fantastico Durata: 144' Regia: Peter Jackson Sito ufficiale: www.thehobbit.com Social network: facebook Cast: Benedict Cumberbatch, Elijah Wood, Richard Armitage, Cate Blanchett, Martin Freeman, Ian McKellen, Evangeline Lilly, Orlando Bloom, Luke Evans, Christopher Lee, Ian Holm, Billy Connolly, Hugo Weaving, Andy Serkis, Lee Pace, Stephen Fry, James Nesbitt, Mikael Persbrandt, Aidan Turner, William Kircher, Manu Bennett Produzione: New Line Cinema, Metro-Goldwyn-Mayer, WingNut Films, 3Foot7 Distribuzione: Warner Bros. Pictures Italia Data di uscita: 17 Dicembre 2014 (cinema) Trama: "Lo Hobbit: la battaglia delle cinque armate" ci conduce alla conclusione epica delle avventure di Bilbo Baggins (Martin Freeman), Thorin Scudodiquercia (Richard Armitage) e della Compagnia dei Nani. I Nani di Erebor hanno preteso la restituzione delle vaste ricchezze della loro madre patria, ma ora devono affrontare le conseguenze per aver scatenato il terrificante Drago Smaug, contro gli uomini le donne ed i bambini indifesi di Pontelagolungo. Dopo aver ceduto alla malattia-del-drago, il Re Sotto la Montagna, Thorin Scudodiquercia, sacrifica amicizia ed onore nella ricerca della leggendaria Arkengemma. Incapace di aiutare Thorin a trovare la ragione, Bilbo viene costretto a fare una scelta disperata e pericolosa, inconsapevole del pericolo ancor più grande che lo attende. Un antico nemico ha fatto ritorno alla Terra di Mezzo. Sauron, il Signore Oscuro, ha mandato in avanscoperta legioni di Orchi per attaccare la Montagna Solitaria. Mentre cala il buio sul conflitto che cresce inesorabile, le razze dei Nani, Elfi ed Umani devono decidere se rimanere uniti o essere distrutti. Bilbo si ritrova a combattere per la propria vita e per le vite dei suoi amici, mentre cinque grandi armate scendono in guerra. Name: Lo Hobbit La Battaglia Delle Cinque Armate (2014) HD 720p (Web-DL Resync) ITA AC3 ENG DTS+AC3 Subs.mkv Date: Wed, 08 Apr 2015 10:01:18 +0200 Size: 10,199,797,862 bytes (9727.285254 MiB) [ Generic infos ] Duration: 02:24:29 (8669.056 s) Container: matroska Production date: Wed, 08 Apr 2015 09:58:33 +0200 Total tracks: 7 Track nr. 1: video (V_MPEG4/ISO/AVC) [Lo Hobbit La Battaglia Delle Cinque Armate (2014) HD 720p****Encode By Tasko****] {eng} Track nr. 2: audio (A_DTS) [DTS 5.1] {eng} Track nr. 3: audio (A_AC3) [AC3 5.1] {eng} Track nr. 4: audio (A_AC3) [iTunes Resync] {ita} Track nr. 5: subtitle (S_TEXT/UTF8) [FORCED] {ita} Track nr. 6: subtitle (S_TEXT/UTF8) {eng} Track nr. 7: subtitle (S_TEXT/UTF8) [SDH] {eng} Muxing library: libebml v1.3.0 + libmatroska v1.4.1 Writing application: mkvmerge v6.7.0 ('Back to the Ground') 32bit built on Jan 8 2014 15:03:17 [ Relevant data ] Resolution: 1280 x 534 Width: multiple of 32 Height: multiple of 2 Average DRF: 14.324478 Standard deviation: 3.527028 Std. dev. weighted mean: 3.517722 [ Video track ] Codec ID: V_MPEG4/ISO/AVC Resolution: 1280 x 534 Frame aspect ratio: 640:267 = 2.397004 Pixel aspect ratio: 1:1 = 1 Display aspect ratio: 640:267 = 2.397004 Framerate: 23.976024 fps Stream size: 7,451,611,356 bytes (7106.410366 MiB) Duration (bs): 02:24:28 (8668.076014 s) Bitrate (bs): 6877.292118 kbps Qf: 0.419652 [ Audio track nr. 1 ] Codec ID: A_DTS Sampling frequency: 48000 Hz Channels: 6 Stream size: 1,635,198,676 bytes (1559.44698 MiB) Bitstream type (bs): DTS Frames (bs): 812,723 Duration (bs): 02:24:29 (8669.045333 s) Chunk-aligned (bs): Yes Bitrate (bs): 1536 kbps CBR Sampling frequency (bs): 48000 Hz Mode (bs): C + L + R+ SL+SR [ Audio track nr. 2 ] Codec ID: A_AC3 Sampling frequency: 48000 Hz Channels: 6 Stream size: 693,524,480 bytes (661.396484 MiB) Bitstream type (bs): AC3 Frames (bs): 270,908 Duration (bs): 02:24:29 (8669.056 s) Chunk-aligned (bs): Yes Bitrate (bs): 640 kbps CBR Sampling frequency (bs): 48000 Hz Mode (bs): 3 front, 2 rear, 1 LFE [ Audio track nr. 3 ] Codec ID: A_AC3 Sampling frequency: 48000 Hz Channels: 6 Stream size: 416,011,776 bytes (396.739746 MiB) Bitstream type (bs): AC3 Frames (bs): 270,841 Duration (bs): 02:24:27 (8666.912 s) Chunk-aligned (bs): Yes Bitrate (bs): 384 kbps CBR Sampling frequency (bs): 48000 Hz Mode (bs): 3 front, 2 rear, 1 LFE [ Video bitstream ] Bitstream type: MPEG-4 Part 10 User data: x264 | core 142 r2431+42 c69a006 tMod [[email protected] X86_64] User data: H.264/MPEG-4 AVC codec | Copyleft 2003-2014 User data: http://www.videolan.org/x264.html | cabac=1 | ref=12 User data: deblock=1:-3:-3 | analyse=0x3:0x133 | me=umh | subme=11 | psy=1 User data: fade_compensate=0.00 | psy_rd=1.00:0.00 | mixed_ref=1 | me_range=24 User data: chroma_me=1 | trellis=2 | 8x8dct=1 | cqm=0 | deadzone=21,11 User data: fast_pskip=0 | chroma_qp_offset=-2 | threads=24 User data: lookahead_threads=4 | sliced_threads=0 | nr=0 | decimate=0 User data: interlaced=0 | bluray_compat=0 | constrained_intra=0 | fgo=0 User data: bframes=8 | b_pyramid=2 | b_adapt=2 | b_bias=0 | direct=3 User data: weightb=1 | open_gop=0 | weightp=2 | keyint=250 | keyint_min=23 User data: scenecut=40 | intra_refresh=0 | rc=crf | mbtree=0 | crf=15.0000 User data: qcomp=0.65 | qpmin=0:0:0 | qpmax=69:69:69 | qpstep=4 | ip_ratio=1.20 User data: pb_ratio=1.10 | aq=3:0.70 | aq-sensitivity=10.00 User data: aq-factor=1.00:1.00:1.00 | aq2=0 | aq3=0 SPS id: 0 Profile: [email protected] Num ref frames: 12 Chroma format: YUV 4:2:0 PPS id: 0 (SPS: 0) Entropy coding type: CABAC Weighted prediction: P slices - explicit weighted prediction Weighted bipred idc: B slices - implicit weighted prediction 8x8dct: Yes Total frames: 207,826 Drop/delay frames: 0 Corrupt frames: 0 P-slices: 58848 ( 28.316 %) ###### B-slices: 147203 ( 70.830 %) ############## I-slices: 1775 ( 0.854 %) SP-slices: 0 ( 0.000 %) SI-slices: 0 ( 0.000 %) Parole chiave: avventura fantastico

PDF-XChange Viewer Pro 2.5.320 Multilingual + Crack

Language: | Size: 48.44 MB | Seed: 880 | Leech: 13

Description:

Those wishing to view PDF files on their Windows PCâ?™s now have a choice when it comes to Viewing PDF files – the PDF-XChange Viewer is smaller, faster and more feature rich than the Adobe Reader which has until now been the Reader of choice for PDF files – we think thatâ?™s about to change!

Bones s04e09-10, [XviD - Ita Mp3]

Language: | Size: 702.13 MB | Seed: 764 | Leech: 13

Description:

La dottoressa Temperance Brennan (Emily Deschanel) è un'antropologa forense di fama internazionale, ma con qualche problema nelle relazioni sociali, che lavora con il suo staff per il "Jeffersonian Institute" (nome di fantasia, ispirato allo Smithsonian Institution, vero museo di scienze naturali) di Washington. Un giorno Temperance viene contattata dall'FBI per aiutare un loro agente, Seeley Booth (David Boreanaz), a risolvere un caso di omicidio in cui il cadavere della vittima è in condizioni molto deteriorate (decomposizione, combustione e mummificazione), e per la cui identificazione è necessario l'analisi delle ossa. L'indagine viene risolta, e da questo momento "Bones" (così Temperance viene subito soprannominata da Booth) e la sua squadra iniziano a collaborare assiduamente con l'FBI per risolvere i casi di omicidio. AUTORE flint CATEGORIA Serie TV INFOHASH C181A698447AE829CE95D21ADED83C138D5D5AD1 FILE(2) Files TRAKER Traker

Bones S06e06, [Mux - XviD - Ita Mp3]

Language: | Size: 346.77 MB | Seed: 561 | Leech: 13

Description:

La dottoressa Temperance Brennan (Emily Deschanel) è un'antropologa forense di fama internazionale, ma con qualche problema nelle relazioni sociali, che lavora con il suo staff per il "Jeffersonian Institute" (nome di fantasia, ispirato allo Smithsonian Institution, vero museo di scienze naturali) di Washington. Un giorno Temperance viene contattata dall'FBI per aiutare un loro agente, Seeley Booth (David Boreanaz), a risolvere un caso di omicidio in cui il cadavere della vittima è in condizioni molto deteriorate (decomposizione, combustione e mummificazione), e per la cui identificazione è necessario l'analisi delle ossa. L'indagine viene risolta, e da questo momento "Bones" (così Temperance viene subito soprannominata da Booth) e la sua squadra iniziano a collaborare assiduamente con l'FBI per risolvere i casi di omicidio.

Revenge S03e15-16, [Mux - H264 - Ita Aac]

Language: | Size: 727.26 MB | Seed: 645 | Leech: 13

Description:

“Revenge” è la storia di una misteriosa giovane donna, Emily Thorne, che va negli Hamptons per ottenere vendetta sulle persone che hanno distrutto la sua famiglia quando lei era ancora una bambina.

Dr.House S07e21, [Mux - XviD - Ita Mp3]

Language: | Size: 350.42 MB | Seed: 636 | Leech: 13

Description:

La serie trae ispirazione dai gialli del celebre detective Sherlock Holmes: in ogni episodio ha luogo un giallo diverso che il protagonista, attraverso la proprie capacità mediche e deduttive, deve districare basandosi su vari indizi, spesso poco evidenti; infine egli riesce quasi sempre a risolvere il puzzle medico ed a salvare il paziente. I misteri medici sono invece stati ispirati da una rubrica del New York Times dedicata ai casi clinici particolarmente problematici. Dal punto di vista culturale, la serie televisiva – e più in particolare la figura del protagonista – hanno fornito motivi di riflessione filosofica, etica e religiosa relativa al campo della medicina e della deontologia; diversi saggi pubblicati hanno approfondito questo aspetto della serie.

House of Cards S03e09-10, [Mux - 1080p - H264 - Ita Eng Ac3 - Sub Ita Eng]

Language: | Size: 5.21 GB | Seed: 8 | Leech: 13

Description:

Signore e Signori, bentornati a Washington. Quest’anno, poi, sarete addirittura ospiti della Casa Bianca, cosa volete di più? Cari fan di House of Cards, il momento è finalmente arrivato: dopo la (gustosissima) anteprima del 27 febbraio, arriva ufficialmente su Sky Atlantic la terza stagione della serie ispirata alla trilogia letteraria firmata da Lord Michael Dobbs e adattata dall’autore e sceneggiatore Beau Willimon per Netflix. Si torna a Washington, dicevamo, ma niente è come prima. Anzitutto perché sono trascorsi alcuni mesi (più o meno sei) tra la fine del Capitolo 26 (l’ultimo episodio della season 2) e l’inizio del Capitolo 27 (il primo episodio della season 3), dunque di acqua sotto i ponti ne è passata parecchia. Dopo essersi insediato nell’Ufficio Ovale, il Presidente Underwood si è infatti rimboccato le maniche, e lo ritroviamo impegnato a portare alla luce una riforma epocale, un nuovo New Deal: un jobs act – conosciuto nella nostra lingua madre come “riforma del lavoro” – davvero mastodontico, dall’impegnativo nome America Works (l’America lavora, ma anche l’America funziona). Riuscirà Frank – che, tra l’altro, non è molto amato dall’opinione pubblica ed è fortemente ostacolato in Parlamento sia dai repubblicani sia dai democratici – a portare a casa una vittoria così importante? Ma soprattutto: quante teste dovranno cadere affinché ciò accada? E’ vero, Tusk e Walker sono ormai archiviati, ma ci sono sempre nuovi nemici all’orizzonte, specialmente se il tuo cognome è Underwood. Se poi tra questi nemici c’è anche il Presidente della Federazione Russa, forse è proprio il caso di pensare a un piano di difesa. O al contrattacco, che è più in stile Francis. Claire, intanto, dopo i primi mesi da First Lady si è resa conto che vuole di più, molto di più. Vuole diventare ambasciatrice degli Stati Uniti d’America alle Nazioni Unite. Solo che non si capisce bene se Frank sia d’accordo o meno, cosa da non sottovalutare. Se poi ripensiamo al teaser trailer rilasciato da