Search Top Tags














Jamie Foxx 2015 Hollywood A Story of A Dozen Roses

Language: | Size: 144.27 MB | Seed: 1 | Leech: 0

Description:

Track List: Jamie Foxx - Dozen Roses Pt. 1 Jamie Foxx - You Changed Me (feat. Chris Brown) Jamie Foxx - Like a Drum (feat. Wale) Jamie Foxx - Another Dose Jamie Foxx - Tease (feat. Pharrell) Jamie Foxx - Baby’s In Love (feat. Kid Ink) Jamie Foxx - Text Message Jamie Foxx - Hollywood Jamie Foxx - Vegas Confessions Jamie Foxx - Socialite Jamie Foxx - Dozen Roses Pt. 2 Jamie Foxx - In Love By Now Jamie Foxx - Jumping Out the Window Jamie Foxx - On the Dot (feat. Fabolous) Jamie Foxx - Dozen Roses Pt. 3 Jamie Foxx - Right Now Jamie Foxx - Pretty Thing Jamie Foxx - Ain’t My Fault

James.Bond.Quantum.of.Solace.2008.1080p.BRrip.x264.HINDI DABAS

Language: | Size: 1.68 GB | Seed: 0 | Leech: 2

Description:

Format : Matroska Format version : Version 4 / Version 2 File size : 1.67 GiB Duration : 1 h 46 min Overall bit rate : 2 245 kb/s Encoded date : UTC 2016-09-29 05:16:16 Writing application : mkvmerge v9.4.2 ('So High') 32bit Writing library : libebml v1.3.4 + libmatroska v1.4.5 Video ID : 1 Format : AVC Format/Info : Advanced Video Codec Format profile : [email protected] Format settings, CABAC : Yes Format settings, ReFrames : 5 frames Codec ID : V_MPEG4/ISO/AVC Duration : 1 h 46 min Bit rate : 2 052 kb/s Width : 1 920 pixels Height : 798 pixels Display aspect ratio : 2.40:1 Frame rate mode : Constant Frame rate : 23.976 (24000/1001) FPS Color space : YUV Chroma subsampling : 4:2:0 Bit depth : 8 bits Scan type : Progressive Bits/(Pixel*Frame) : 0.056 Stream size : 1.52 GiB (91%) Writing library : x264 core 125 r2200 999b753 Audio ID : 2 Format : AC-3 Format/Info : Audio Coding 3 Mode extension : CM (complete main) Format settings, Endianness : Big Codec ID : A_AC3 Duration : 1 h 46 min Bit rate mode : Constant Bit rate : 192 kb/s Channel(s) : 2 channels Channel positions : Front: L R Sampling rate : 48.0 kHz Frame rate : 31.250 FPS (1536 spf) Compression mode : Lossy Delay relative to video : 1 s 0 ms Stream size : 146 MiB (9%) Title : AC-3 DABAS HINDI Language : Hindi Default : Yes Forced : No

James Woods 2015 Infinity

Language: | Size: 109.92 MB | Seed: 0 | Leech: 1

Description:

Track List: Road To Mexico As Long As Atars Are Above You Sun On Our Faces Images Destiny We Dream Soulmates We See The Future

James Camerons Avatar The Game-RELOADED [2010, Action (Shooters, MMO FPS, TPS)] EN

Language: | Size: 3.62 GB | Seed: 919 | Leech: 9

Description:

James Camerons Avatar The Game-RELOADED Genre: Action (Shooters, MMO FPS, TPS) Platform: Windows Multiplayer: No Year: 2010 Type of publication: Language of the game: EN Crack: Description : System requirements: Size: 3.62 GB

James Camerons Avatar The Game-RELOADED [2010, Action (Shooters, MMO FPS, TPS)] EN

Language: | Size: 3.62 GB | Seed: 41 | Leech: 29

Description:

Title: James Camerons Avatar The Game-RELOADED Genre: Action (Shooters, MMO FPS, TPS) Platform: Windows Multiplayer: No Year: 2010 Type of publication: Language of the game: EN Crack: Description : System requirements: Size: 3.62 GB

James Brown 2010 Icon

Language: | Size: 102.29 MB | Seed: 3 | Leech: 1

Description:

Track List: I Got You (I Feel Good) Get Up (I Feel Like Being A) Sex Machine (Parts 1&2) Soul Power (Parts 1&2) Cold Sweat (Parts 1&2) It's A Man's Man's Man's World Papa's Got A Brand New Bag (Part 1) Say It Loud - I'm Black And I'm Proud (Part 1) Papa Don't Take No Mess (Part 1) Prisoner Of Love Super Bad (Parts 1&2) The Payback (Part 1) Please Please Please

James Blunt 2010 Some Kind Of Trouble

Language: | Size: 95.87 MB | Seed: 0 | Leech: 0

Description:

Track List: Stay The Night Dangerous Best Laid Plans So Far Gone No Tears Superstar These Are The Words Calling Out Your Name Heart Of Gold I'll Be Your Man If Time Is All I Have Turn Me On

James Bay 2015 Chaos And The Calm

Language: | Size: 107.75 MB | Seed: 13 | Leech: 0

Description:

Track List: Craving Hold Back The River Let It Go If You Ever Want To Be In Love Best Fake Smile When We Were On Fire Move Together Scars Collide Get Out While You Can Need The Sun To Break Incomplete

Jahlil Beats 2015 The Blessing

Language: | Size: 89.14 MB | Seed: 1 | Leech: 0

Description:

Track List: Calling The Blessing 5 Peat Liv No Mercy Let's Get It Basic Bitch feat. Migos (Bonus)

Jaga Jazzist 2015 Starfire

Language: | Size: 114.68 MB | Seed: 1 | Leech: 0

Description:

Track List: Starfire Big City Music Shinkansen Oban Prungen

Jae Millz 2015 No Chill

Language: | Size: 75.72 MB | Seed: 0 | Leech: 0

Description:

Track List: I Want It All (Intro) Yeah I Know (feat. Dave East) 7 Figures Shining So Ignorant (feat. Makarel & T-Shyne) I Know You Love It Disappear (feat. Poo Mack) I Can't Help It Fuk Em All (feat. Mr. Piif & Dave East)

Jaded Star 2015 Memories From The Future

Language: | Size: 104.38 MB | Seed: 0 | Leech: 0

Description:

Track List: The Mask Wake Up Keep On Fighting Stars Into the End of Time Healing the Inner Child You'll See In Memory Raining In Sao Paulo Innocence

Jaded Heart 2014 Fight The System

Language: | Size: 114 MB | Seed: 0 | Leech: 0

Description:

Track List: Schizophrenic Control Not In A Million Years I Lost My Faith Nightmare's Over Never Free 'Till Death Do Us Part Terror In Me Haunted Crying In The Shadows

Jade TV 2015 Parallel Moments

Language: | Size: 78.28 MB | Seed: 0 | Leech: 0

Description:

Track List: Moment View Leave Dream Forget Everything And Nothing Essence Changer

Jacuzzi Al Pasado 2 - ESP XViD DVDrip

Language: | Size: 871.58 MB | Seed: 843 | Leech: 93

Description:

Descripción: Título original: Hot Tub Time Machine 2 País: USA Estreno en USA: 20/02/2015 Estreno en España: Productora: MGM Director: Steve Pink Guión: Steve Pink, Rob Corddry Reparto: Gillian Jacobs, Adam Scott, Thomas Lennon, Collette Wolfe, Chevy Chase, Clark Duke, Rob Corddry, Craig Robinson, Mariana Paola Vicente, Angela Kerecz, Melorine Adler, Christine Bently, Kumail Nanjiani, Bianca Haase, Kellee Stewart Género: Comedia. Ciencia ficción | Viajes en el tiempo. Secuela SINOPSIS: En la película Lou (Rob Corddry) se encuentra en problemas y Nick (Craig Robinson) y Jacob (Clark Duke) ponen en marcha el jacuzzi máquina del tiempo para intentar volver al pasado. Pero un error de cálculo les ubica en el futuro... Ahora, tienen que alterar el futuro con el fin de salvar el pasado, que es realmente el presente. Relaccionados

Jacob Pavek 2015 Illume

Language: | Size: 87.33 MB | Seed: 1 | Leech: 0

Description:

Track List: Stairs Tonight, Tomorrow Illume Seasons Joey If I Forget About You, I'll Never Wake Up Sons And Mothers The Yield Dreams Of Light Wings Wedding Song

Jacob Bellens 2015 My Convictions

Language: | Size: 79.24 MB | Seed: 0 | Leech: 0

Description:

Track List: Fireworks Like I Was a Walrus Another Lung Nothern Lights Missing You My Convictions Black of the Night On the Boardwalk Change of Heart Someone You Love

Jackson Browne 2014 Standing In The Breach

Language: | Size: 129.57 MB | Seed: 0 | Leech: 2

Description:

Track List: The Birds Of St. Marks Yeah Yeah The Long Way Around Leaving Winslow If I Could Be Anywhere You Know The Night Walls And Doors Which Side Standing In The Breach Here

Jackson Browne 2010 Love Is Strange

Language: | Size: 246.19 MB | Seed: 0 | Leech: 1

Description:

Track List: Intro I'm Alive Intro Call It A Loan Looking East Intro The Crow On The Cradle (Featuring Carlos Nunes) Intro Mercury Blues Intro El Rayo X Sit Down Servant Intro Take It Easy For Taking The Trouble

Jackie Evancho 2014 Awakening

Language: | Size: 115.22 MB | Seed: 2 | Leech: 0

Description:

Track List: Think Of Me (From Phantom Of The Opera) Your Love Je T'Aime Take Me There Open Fields Of Grace Ave Maria Memories The Rains Of Castamere (From Game Of Thrones) Dormi Jesu Vocalise With Or Without You Made To Dream

Jackie And Ryan (2014) iTA AC3 2 CH BRRip XviD

Language: | Size: 1.39 GB | Seed: 755 | Leech: 24

Description:

Your Right Mind USA 2014 Genere: Drammatico Durata 90' Regia di Ami Canaan Mann Con Katherine Heigl, Ben Barnes, Clea DuVall, Emily Alyn Lind, Sheryl Lee, Ryan Bingham, Allan Groves, Nathan Stevens, Demitria Cline... Trama Ryan, cantante folk, mette da parte i suoi sogni di divenire un musicista di successo quando incontra Jackie, una ex cantante country in lotta per la custodia di sua figlia. Con la loro passione per la musica ad unirli, Ryan e Jackie cominceranno presto a sostenersi a vicenda, dando il via a un'improbabile relazione. Risoluzione: 720 x 304 Parole chiave: drammatico

Jacki Chan Maestro En Kung Fu - ESP XViD DVDrip

Language: | Size: 1.06 GB | Seed: 18 | Leech: 2

Description:

Título original: Xun zhao Cheng Long (Looking for Jackie) Año: 2009 Duración: 85 min. País: China Director: Gangliang Fang, Ping Jiang Guión: Xuan Hua, Jiamin Wu Música: Wenpei Ju, Lao Zai Fotografía: Shen Song Long Reparto: Yishan Zhang, Jackie Chan, Qixing Aisin-Gioro Productora: August 1st Film Studio / Beijing Film Studio / Children s Film Studio / Nantong Television Género: Acción. Comedia | Cine familiar. Artes marciales Sinopsis Un chico estudiante de artes marciales está tratando de localizar a la superestrella en Pekin. Relaccionados Nombre FechaTamaño

Jackass - Nonno cattivo (2013) H264 - Ita Ac3 - Sub Ita

Language: | Size: 2.43 GB | Seed: 242 | Leech: 97

Description:

Titolo originale: Bad Grandpa Nazione: U.S.A. Anno: 2013 Genere: Commedia Durata: 92' Regia: Jeff Tremaine Sito ufficiale: www.jackassmovie.com Cast: Johnny Knoxville, Jackson Nicoll, Greg Harris, Georgina Cates, Catherine Keener, Kamber Hejlik, Jill Kill, Madison Davis, George Faughnan, Grasie Mercedes, Jack Polick, Spike Jonze Produzione: Dickhouse Productions, MTV Films Distribuzione: Universal Pictures Data di uscita: Trama: Un nonno decisamente poco "politicamente corretto", intraprende un viaggio in giro per l'America con suo nipotino... inutile dire che ne combineranno di tutti i colori... Risoluzione 720 x 400 Parole chiave: commedia

Jack.Reacher.Punto.Di.Non.Ritorno.2016.iTALiAN.AC3.BRRip.XviD-T4P3

Language: | Size: 1.45 GB | Seed: 491 | Leech: 312

Description:

Jack Reacher - Punto di non ritorno Titolo originale: Jack Reacher: Never Go Back Conosciuto anche come: Jack Reacher 2, Jack Reacher: Never Look Back Nazione: U.S.A. Anno: 2016 Genere: Thriller, Azione, Drammatico Durata: 118' Regia: Edward Zwick Cast: Tom Cruise, Cobie Smulders, Robert Knepper, Aldis Hodge, Chase Savoie, Danika Yarosh, Holt McCallany, Sue-Lynn Ansari Produzione: Paramount Pictures, Skydance Productions, TC Productions Distribuzione: Universal Pictures Italia Data di uscita: 20 Ottobre 2016 (cinema) Trama: Susan Turner, maggiore dell'esercito che dirige la vecchia unità investigativa di Reacher, viene arrestata con l’accusa di spionaggio e Reacher, consapevole della sua innocenza, deve aiutarla ad uscire di prigione e scoprire la verità dietro una grande cospirazione del governo per proteggere i loro nomi e salvare le loro vite. Fuggitivo dalla legge, Reacher scopre un potenziale segreto del suo passato che potrebbe cambiare la sua vita per sempre.

Jack White 2014 Lazaretto

Language: | Size: 91.17 MB | Seed: 8 | Leech: 0

Description:

Track List: Three Women Lazaretto Temporary Ground Would You Fight For My Love High Ball Stepper Just One Drink Alone In My Home Entitlement That Black Bat Licorice I Think I Found The Culprit Want And Able

Jack the Giant Slayer 2013 - 3D - ENG

Language: | Size: 1.84 GB | Seed: 467 | Leech: 13

Description:

Genres: Adventure | Fantasy Quality: 3D (Resolution: 1920 x 1080) Size: 1.84 GB Frame Rate: 23.976 fps Runtime: 114 minutes / 01 h 54 m Language: English Released Date: 21 March 2013 MPR: PG-13 IMDB Rating: 6.3 TomatoMeter: 52% Audience Score: 55% Seeds: 9 Peers: 2 Directors: Bryan Singer Writers: Darren Lemke, Christopher McQuarrie, Dan Studney, David Dobkin Cast: Nicholas Hoult, Eleanor Tomlinson, Ewan McGregor, Stanley Tucci, Eddie Marsan, Ewen Bremner, Ian McShane, Christopher Fairbank, Simon Lowe Movie Description: Sent to the market by his uncle to sell their horse and buy thatch for their roof, Jack meets the beautiful Princess Isabelle whom he rescues her from ruffians. He returns home only with a handful of beans given to him by a monk who claimed they were sacred but that does little to impress his uncle who tosses them away. In the night the Princess arrives having run off to keep from marrying Roderick who is clearly only interested in becoming king. Soon the beans take root with a giant stalk carrying away the princess and Jack's house. He soon sets off on an adventure with the king's guards to rescue the princess only to find that a mythical land filled with giants really exists. Screenshots

Jack Strong - ESP XViD DVDrip

Language: | Size: 1.42 GB | Seed: 879 | Leech: 17

Description:

Descripción: Título original: Jack Strong Año: 2014 Duración: 128 min. País: Polonia Director: Wladyslaw Pasikowski Guión: Wladyslaw Pasikowski Musica: Jan Duszynski Fotografía: Magdalena Górka Reparto: Marcin Dorocinski, Maja Ostaszewska, Patrick Wilson, Dimitri Bilov, Dagmara Dominczyk, Oleg Maslennikov, Krzysztof Globisz, Ireneusz Czop, Miroslaw Baka, Pawel Malaszynski, Krzysztof Pieczynski, Zbigniew Zamachowski Género: Thriller, Intriga SINOPSIS: Cuenta la historia real de un hombre que se atreve a desafiar a los soviéticos en medio del sistema comunista. Durante la planificación de las maniobras de las fuerzas del Pacto de Varsovia, descubre que los planes estadounidenses de contraataque nuclear contra las fuerzas soviéticas se han previsto para ser ejecutadas en territorio polaco. Gracias a su determinación, inicia una larga, solitaria y psicológicamente agotadora cooperación con la CIA que pondrá en peligro su vida y la de su familia. Relaccionados

Jack Savoretti 2015 Written In Scars

Language: | Size: 87.63 MB | Seed: 1 | Leech: 72

Description:

Track List: Back to Me Home Don't Mind Me Tie Me Down Broken Glass The Other Side of Love Nobody 'Cept You The Hunger Written In Scars Wasted Fight 'Til the End

Jack Ryan: Operación Sombra - ESP XViD DVDrip

Language: | Size: 1.51 GB | Seed: 476 | Leech: 31

Description:

Descripción: Título: Jack Ryan: Operación Sombra Título original: Jack Ryan: Shadow Recruit País: USA Estreno en USA: 17/01/2014 Estreno en España: 31/01/2014 Productora: Paramount Pictures, Skydance Productions Director: Kenneth Branagh Guión: Hossein Amini, Adam Cozad, Anthony Peckham, Steve Zaillian, David Koepp Reparto: Chris Pine, Keira Knightley, Kevin Costner, Kenneth Branagh, Colm Feore, Nonso Anozie, Lee Asquith-Coe, Gemma Chan, David Paymer, Karen David, Hannah Taylor Gordon, Jim Gunter, Deborah Rosan, Stuart Matthews, Lee Nicholas Harris Calificación: No recomendada para menores de 12 años Género: Thriller | Espionaje. Terrorismo SINOPSIS Jack Ryan: Operación Sombra es un intenso thriller de acción basado en el analista de la CIA creado por Tom Clancy, maestro de las novelas de espionaje. La película gira en torno a Ryan (Chris Pine, “Star Trek”), veterano de guerra que lleva una doble vida como ejecutivo de Wall Street y agente analista de la CIA. Fue reclutado por su habilidad para interpretar datos globales y al desenmascarar un complot meticulosamente planeado para hundir la economía norteamericana y sembrar el caos en todo el mundo, se convierte en el único hombre capaz de impedirlo. Ryan se mete de lleno en la operación, un mundo de crecientes sospechas, engaños e inusitada violencia. Atrapado entre el negociador oficial Harper (interpretado por el Kevin Costner), su novia en la sombra Cathy (Keira Knightley) y un inquietante oligarca ruso (Kenneth Branagh), Jack tiene que enfrentarse a una nueva realidad en la que no puede fiarse de nadie, y en la que el destino de millones de personas depende de que descubra la verdad. Con la urgencia de una mecha encendida, se

Jack Reacher: Never Go Back - 2 Punto di non ritorno (2016).H264.Italian.English.iCV-MIRCrew

Language: | Size: 1.75 GB | Seed: 187 | Leech: 67

Description:

Jack Reacher: Never Go Back - 2 Punto di non ritorno (2016).H264.Italian.English.Ac3.5.1.sub.ita.eng.iCV-MIRCrew [center] [color=red][b][img]http://s23.postimg.org/b9yhws27f/0sc_Del1.png[/img] [u]NO FOUND ONLY ORIGINAL RELEASE[/u] [img]http://i.imgur.com/GDNQx1Z.png[/img] My release is always in double track audio italian and Original audio for select it use VLC or dvd player home not use wmp Jack Reacher 2 Punto di non ritorno - Jack Reacher Never Go Back (2016) [img]https://extraimage.net/images/2017/02/10/fdbd35869b94c6519b6245f28753770b.png[/img] [URL=http://www.imdb.com/title/tt3393786/][IMG]http://www.userlogos.org/files/logos/Sucka/imdb_new.png[/IMG][/URL] [img]http://i.imgur.com/fGu1rKv.png[/img] DATA USCITA: 20 ottobre 2016 GENERE: Azione, Thriller, Drammatico ANNO: 2016 REGIA: Edward Zwick SCENEGGIATURA: Marshall Herskovitz, Edward Zwick FOTOGRAFIA: Oliver Wood MONTAGGIO: Billy Weber MUSICHE: Henry Jackman PRODUZIONE: Paramount Pictures, Skydance Productions, TC Productions DISTRIBUZIONE: Universal Pictures Italia PAESE: USA DURATA: 118 Min [img]http://i.imgur.com/W7kBqiE.png[/img] Tom Cruise, Cobie Smulders, Patrick Heusinger, Robert Knepper, Aldis Hodge, Danika Yarosh [img]http://i.imgur.com/bFK3ggF.png[/img] Jack Reacher (Tom Cruise) ritorna con il suo marchio di giustizia nel sequel Jack Reacher: Punto di non ritorno. Susan Turner (Cobie Smulders), maggiore dell'esercito che dirige la vecchia unità investigativa di Reacher, viene arrestata con l’accusa di spionaggio e Reacher, consapevole della sua innocenza................ [img]http://i.imgur.com/48xHWWH.png[/img] Jack Reacher must uncover the truth behind a major government conspiracy in order to clear his name. On the run as a fugitive from the law, Reacher uncovers a potential secret from his past that could change his life forever. [img]http://i.imgur.com/K8bfNTy.png[/img] [img]https://extraimage.net/images/2017/02/10/b759dc51f5dec0156060b803f2dd762b.png[/img] [img]https://extraimage.net/images/2017/02/10/99e79044fba8da10ac60b065330cbc2a.png[/img] [img]https://extraimage.net/images/2017/02/10/d65cf799ae362c22eae35de7c0df7d7f.png[/img] [img]http://i.imgur.com/aVrMohH.png[/img] [spoiler] General Unique ID : 187353854691026505352872915703805675183 (0x8CF30A3688063E03B3A89403915286AF) Complete name : Jack Reacher 2 Punto di non ritorno - Jack Reacher Never Go Back (2016).ita.eng.sub.ita.eng.iCV-MIRCrew.mkv Format : Matroska Format version : Version 2 File size : 1.75 GiB Duration : 1h 58mn Overall bit rate : 2 111 Kbps Movie name : VISIT www.icv-crew.org Encoded date : UTC 2017-01-17 05:54:59 Writing application : mkvmerge v5.4.0 ('Piper') built on Mar 10 2012 13:34:39 Writing library : Lavf54.63.100 COPYRIGHT : robbyrs Video ID : 1 Format : AVC Format/Info : Advanced Video Codec Format profile : [email protected] Format settings, CABAC : Yes Format settings, ReFrames : 2 frames Muxing mode : Header stripping Codec ID : V_MPEG4/ISO/AVC Duration : 1h 58mn Bit rate : 1 280 Kbps Width : 720 pixels Height : 300 pixels Display aspect ratio : 2.40:1 Original display aspect ratio : 2.40:1 Frame rate mode : Variable Frame rate : 24.000 fps Color space : YUV Chroma subsampling : 4:2:0 Bit depth : 8 bits Scan type : Progressive Bits/(Pixel*Frame) : 0.247 Stream size : 1.02 GiB (59%) Writing library : x264 core 130 r2273 Encoding settings : cabac=1 / ref=2 / deblock=1:0:0 / analyse=0x1:0x131 / me=hex / subme=7 / psy=1 / psy_rd=1.00:0.00 / mixed_ref=0 / me_range=16 / chroma_me=1 / trellis=1 / 8x8dct=0 / cqm=0 / deadzone=21,11 / fast_pskip=1 / chroma_qp_offset=-2 / threads=12 / lookahead_threads=2 / sliced_threads=0 / nr=0 / decimate=1 / interlaced=0 / bluray_compat=0 / constrained_intra=0 / bframes=3 / b_pyramid=0 / b_adapt=1 / b_bias=0 / direct=3 / weightb=1 / open_gop=0 / weightp=2 / keyint=240 / keyint_min=24 / scenecut=40 / intra_refresh=0 / rc_lookahead=40 / rc=2pass / mbtree=1 / bitrate=1280 / ratetol=1.0 / qcomp=0.60 / qpmin=10 / qpmax=69 / qpstep=4 / cplxblur=20.0 / qblur=0.5 / vbv_maxrate=24000 / vbv_bufsize=24000 / nal_hrd=none / ip_ratio=1.40 / aq=1:1.00 Language : English Default : Yes Forced : No Audio #1 ID : 2 Format : AC-3 Format/Info : Audio Coding 3 Mode extension : CM (complete main) Muxing mode : Header stripping Codec ID : A_AC3 Duration : 1h 58mn Bit rate mode : Constant Bit rate : 448 Kbps Channel(s) : 6 channels Channel positions : Front: L C R, Side: L R, LFE Sampling rate : 48.0 KHz Bit depth : 16 bits Compression mode : Lossy Delay relative to video : -42ms Stream size : 380 MiB (21%) Language : English Default : No Forced : No Audio #2 ID : 3 Format : AC-3 Format/Info : Audio Coding 3 Mode extension : CM (complete main) Muxing mode : Header stripping Codec ID : A_AC3 Duration : 1h 58mn Bit rate mode : Constant Bit rate : 384 Kbps Channel(s) : 2 channels Channel positions : Front: L R Sampling rate : 48.0 KHz Bit depth : 16 bits Compression mode : Lossy Delay relative to video : -5ms Stream size : 325 MiB (18%) Language : English Default : Yes Forced : No Text #1 ID : 4 Format : UTF-8 Codec ID : S_TEXT/UTF8 Codec ID/Info : UTF-8 Plain Text Default : No Forced : No Text #2 ID : 5 Format : UTF-8 Codec ID : S_TEXT/UTF8 Codec ID/Info : UTF-8 Plain Text Language : English Default : Yes Forced : No Text #3 ID : 6 Format : UTF-8 Codec ID : S_TEXT/UTF8 Codec ID/Info : UTF-8 Plain Text Default : No Forced : No Text #4 ID : 7 Format : UTF-8 Codec ID : S_TEXT/UTF8 Codec ID/Info : UTF-8 Plain Text Default : No Forced : No Menu 00:00:00.000 : :Chapter 1 00:06:59.000 : :Chapter 2 00:15:19.000 : :Chapter 3 00:20:33.000 : :Chapter 4 00:29:03.000 : :Chapter 5 00:34:34.000 : :Chapter 6 00:42:39.000 : :Chapter 7 00:49:27.000 : :Chapter 8 00:58:43.000 : :Chapter 9 01:03:09.000 : :Chapter 10 01:09:34.000 : :Chapter 11 01:15:04.000 : :Chapter 12 01:21:58.000 : :Chapter 13 01:27:06.000 : :Chapter 14 01:34:13.000 : :Chapter 15 01:46:43.000 : :Chapter 16 01:53:30.000 : :Chapter 17 [/spoiler] [/color][/b][/center]