Support us
Login | Signup

Popular TAGs: 2016 2015 2014 2013 720p 1080p m1080p XviD x264 x265 3D DVDrip BDrip MKV 320kbps

Show only:                                            

Sort by: Date | Name | Seeders | Leechers | Comments

Turn S03E01 FRENCH HDTV

Language: | Size: 362.84 MB | Seed: 46 | Leech: 2

Description:

Turn S03E01 FRENCH HDTV

West Coast (2016 Ita)[BRRip-XviD-Ac3 5.1]

Language: | Size: 1.41 GB | Seed: 46 | Leech: 6

Description:

.: SCHEDA :. Paese: Francia Anno: 2016 Genere: Commedia Durata: 80 min Regia: Benjamin Weill Attori: Isabelle Nanty, Gaia Bermani Amaral, Liah O'Prey, Pierre-François Martin-Laval, Simon Astier, Victor Le Blond, Mathis Crusson .: TRAMA :. Cop Killer, Flé-O, Delete e King Kong vanno in giro con i loro berretti in testa, i jeans larghi e le catene d'oro da gangster rap. I quattro cattivi ragazzi della West Coast non sono però altro che Malo, Erwan, Loïc e Brieuc, quattro adolescenti malandati e brufolosi che invece che sulla costa occidentale vivono a Plougoumelen, in Bretagna. Il giorno prima delle vacanze estive, Sylvaine, studente molto popolare, li umilia davanti a tutta la classe costringendoli a pianificare la loro rivalsa durante una festa a cui parteciperanno tutti gli studenti della zona. Quello che accadrà segnerà per sempre il loro addio all'infanzia.

Blow (2001).H264.Italian.English.Ac3.sub.ita.eng.iCV-MIRCrew

Language: | Size: 1.44 GB | Seed: 46 | Leech: 9

Description:

Blow (2001).H264.Italian.English.Ac3.sub.ita.eng.iCV-MIRCrew [center] [color=red][b][img]http://i.imgur.com/0scDel1.png[/img] [u]NO FOUND ONLY ORIGINAL RELEASE[/u] [img]http://i.imgur.com/GDNQx1Z.png[/img] My release is always in double track audio italian and Original audio for select it use VLC or dvd player home not use wmp Blow (2001) [img]http://extraimage.net/images/2017/01/18/907ad808e148ec736c8b3884bc335fcc.png[/img] [URL=http://www.imdb.com/title/tt0221027/][IMG]http://www.userlogos.org/files/logos/Sucka/imdb_new.png[/IMG][/URL] [img]http://i.imgur.com/qKKNGHG.png[/img] Titolo originale Blow Paese di produzione Stati Uniti d'America Anno 2001 Durata 124 min Genere biografico, drammatico Regia Ted Demme Soggetto Bruce Porter Sceneggiatura David McKenna e Nick Cassavetes Produttore Georgia Kacandes e Michael De Luca Fotografia Ellen Kuras Montaggio Kevin Tent Musiche Graeme Revell Scenografia David Ensley Costumi Mark Bridges Trucco Whitney L. James [img]http://i.imgur.com/VmqNvIa.png[/img] Johnny Depp: George Jung Penélope Cruz: Mirtha Jung Franka Potente: Barbara Buckely Ray Liotta: Fred Jung Rachel Griffiths: Ermine Jung Paul Reubens: Derek Foreal Jordi Molla: Diego Delgado Cliff Curtis: Pablo Escobar Michael Tucci: Dr. Bay Miguel Sandoval: Augusto Oliveras Ethan Suplee: Tonno Max Perlich: Kevin Dulli Kevin Gage: Leon Minghella Bobcat Goldthwait: Mr. T Jaime King: Kristina Jung Emma Roberts: Kristina Jung (bambina) [img]http://i.imgur.com/NhlQr0j.png[/img] La storia è raccontata dallo stesso George Jung attraverso un flashback, che comincia negli anni '50, quando il protagonista era solo un bambino. Nato e cresciuto nel Massachusets da una famiglia di ceto medio, George trascorre il tempo in compagnia del suo migliore amico, Tuna, e ammira molto suo padre Fred, caposquadra di un'impresa di termoidrauliche, tanto da supplicarlo di portarlo a lavoro con lui, ogni tanto [img]http://i.imgur.com/76fgzGF.png[/img] The story of George Jung, the man who established the American cocaine market in the 1970s. [img]http://i.imgur.com/DgAQhgU.png[/img] [img]http://extraimage.net/images/2017/01/18/ba3a428c407ddc8be35eb96bed3dbc1b.png[/img] [img]http://extraimage.net/images/2017/01/18/1bc2da3f459071461bf7ee98a1063e83.png[/img] [img]http://extraimage.net/images/2017/01/18/3150690e8491de2d8866e2e9e81261a5.png[/img] [img]http://i.imgur.com/DhNFcEV.png[/img] [spoiler] General Unique ID : 289574582854158367893054040259260876318 (0xD9DA0938F3022F0AA8A9468E3604861E) Complete name : Blow (2001).H264.ita.eng.sub.ita.eng.iCV-MIRCrew.mkv Format : Matroska Format version : Version 2 File size : 1.44 GiB Duration : 2h 3mn Overall bit rate : 1 669 Kbps Encoded date : UTC 2017-01-17T16:23:26Z Writing application : HandBrake 0.10.5 2016021100 Writing library : Lavf55.12.0 Video ID : 1 Format : AVC Format/Info : Advanced Video Codec Format profile : [email protected] Format settings, CABAC : Yes Format settings, ReFrames : 4 frames Codec ID : V_MPEG4/ISO/AVC Duration : 2h 3mn Bit rate : 1 270 Kbps Width : 720 pixels Height : 308 pixels Display aspect ratio : 2.35:1 Original display aspect ratio : 2.35:1 Frame rate mode : Variable Frame rate : 23.976 fps Color space : YUV Chroma subsampling : 4:2:0 Bit depth : 8 bits Scan type : Progressive Bits/(Pixel*Frame) : 0.239 Stream size : 1.08 GiB (75%) Writing library : x264 core 142 r2479 dd79a61 Encoding settings : cabac=1 / ref=1 / deblock=1:0:0 / analyse=0x1:0x111 / me=hex / subme=2 / psy=1 / psy_rd=1.00:0.00 / mixed_ref=0 / me_range=16 / chroma_me=1 / trellis=0 / 8x8dct=0 / cqm=0 / deadzone=21,11 / fast_pskip=1 / chroma_qp_offset=0 / threads=12 / lookahead_threads=2 / sliced_threads=0 / nr=0 / decimate=1 / interlaced=0 / bluray_compat=0 / constrained_intra=0 / bframes=3 / b_pyramid=2 / b_adapt=1 / b_bias=0 / direct=1 / weightb=1 / open_gop=0 / weightp=1 / keyint=240 / keyint_min=24 / scenecut=40 / intra_refresh=0 / rc_lookahead=10 / rc=abr / mbtree=1 / bitrate=1270 / ratetol=1.0 / qcomp=0.60 / qpmin=0 / qpmax=69 / qpstep=4 / vbv_maxrate=20000 / vbv_bufsize=25000 / nal_hrd=none / filler=0 / ip_ratio=1.40 / aq=1:1.00 Default : Yes Forced : No Color primaries : BT.709-5, BT.1361, IEC 61966-2-4, SMPTE RP177 Transfer characteristics : BT.709-5, BT.1361 Matrix coefficients : BT.709-5, BT.1361, IEC 61966-2-4 709, SMPTE RP177 Audio #1 ID : 2 Format : AC-3 Format/Info : Audio Coding 3 Mode extension : CM (complete main) Codec ID : A_AC3 Duration : 2h 3mn Bit rate mode : Constant Bit rate : 192 Kbps Channel(s) : 2 channels Channel positions : Front: L R Sampling rate : 48.0 KHz Bit depth : 16 bits Compression mode : Lossy Delay relative to video : 1mn 5s Stream size : 170 MiB (12%) Title : Stereo Language : Italian Default : Yes Forced : No Audio #2 ID : 3 Format : AC-3 Format/Info : Audio Coding 3 Mode extension : CM (complete main) Codec ID : A_AC3 Duration : 2h 3mn Bit rate mode : Constant Bit rate : 192 Kbps Channel(s) : 2 channels Channel positions : Front: L R Sampling rate : 48.0 KHz Bit depth : 16 bits Compression mode : Lossy Delay relative to video : 1mn 5s Stream size : 170 MiB (12%) Title : Stereo Language : English Default : No Forced : No Text #1 ID : 4 Format : ASS Codec ID : S_TEXT/ASS Codec ID/Info : Advanced Sub Station Alpha Compression mode : Lossless Language : Italian Default : No Forced : No Text #2 ID : 5 Format : VobSub Codec ID : S_VOBSUB Codec ID/Info : The same subtitle format used on DVDs Language : English Default : No Forced : No [/spoiler] [/color][/b][/center]

Aeon Flux (2005) 1080p H264 Ita Eng Ac3 5.1 - Sub Forced Ita Ita Eng

Language: | Size: 7.57 GB | Seed: 45 | Leech: 65

Description:

DATA USCITA: 24 febbraio 2006 GENERE: Azione, Thriller ANNO: 2005 REGIA: Karyn Kusama SCENEGGIATURA: Phil Hay, Matt Manfredi ATTORI: Charlize Theron, Marton Csokas, Jonny Lee Miller, Sophie Okonedo, Pete Postlethwaite, Amelia Warner, Caroline Chikezie, Frances McDormand, Yangzom Brauen, Nikolai Kinski, Paterson Joseph, Phil Hay, Betty Okino, Narges Rashidi, Claas Wuerfel, Kim Pfeiffer, Ralph Herforth, Shaun Lawton, Joost Siedhoff, William Morts, Mehmet Yilmaz, Megan Gay, Anatole Taubman, Aoibheann O'Hara, Weijian Liu, Thomas Huber, Maverick Queck, Rainer Will, Charlie Beall, Bruno Bruni Jr., Ronald Marx, Axel Schreiber, Katie Mullins, Terry Bartlett, Lavinia Wilson, Khira Lilli Pobanz, Nils Dommning, Bojan Heyn, Justin Schierlo, Marianne Sonneck, Tamara Rohl, Robin Gooch, Anna De Carlo, Martha Fessehatzion, Milton Welsh, Alexander Benjamin, Natacza Boon, Clio Burggraeve, Alexander Flache, Lilja Loeffler, Michael Pink, Joachim Schoenfeld FOTOGRAFIA: Stuart Dryburgh MONTAGGIO: Peter Honess, Plummy Tucker MUSICHE: Graeme Revell PRODUZIONE: Valhalla Motion Pictures, Mtv Films, Paramount Pictures, Lakeshore Entertainment, DISTRIBUZIONE: 01 Distribution, PAESE: USA DURATA: 93 Min Quando gli agenti del governo sterminano la sua famiglia, Aeon Flux (Charlize Theron) giura di vendicarsi. Soldatessa altamente addestrata, in prima linea sul fronte di una guerra contro la società perfetta, Aeon è una delle poche persone a sospettare che quella vita perfetta nasconda una perfetta bugia. Ambientato nel 2415, "Aeon Flux" presenta la sconvolgente visione di un futuro in continua trasformazione ad opera della regista Karyn Kusama, che aveva già diretto il famoso "Girlfight". "Aeon Flux" è scritto da Phil Hay e Matt Manfredi ed è basato sui personaggi creati da Peter Chung nella serie d'animazione di MTV. Parole chiave: azione thriller

Quel fantastico peggior anno della mia vita (2015) .mkv FullHD m1080p iTA AC3 2.0 x264

Language: | Size: 1.71 GB | Seed: 45 | Leech: 63

Description:

Titolo originale: Me and Earl and the Dying Girl Nazione: U.S.A. Anno: 2015 Genere: Drammatico Durata: 105' Regia: Alfonso Gomez-Rejon Sito ufficiale: www.meandearlmovie.com Cast: Olivia Cooke, Nick Offerman, Jon Bernthal, Connie Britton, Molly Shannon, Thomas Mann, Bobb'e J. Thompson, Matt Bennett, Katherine C. Hughes, Masam Holden, Chelsea T.,Zhang, Mike Walker Produzione: Indian Paintbrush, Paragon Studios Data di uscita: 10 Dicembre 2015 (cinema) Trama: Il film è la storia divertente e commovente di Greg (Thomas Mann), un liceale che cerca di mimetizzarsi evitando relazioni profonde, come strategia di sopravvivenza in quel campo minato che è la vita sociale dei teenagers. Greg descrive persino il suo costante compagno Earl (RJ Cyler), con il quale realizza cortometraggi-parodia di classici del cinema, più come un collega che come il suo migliore amico. Ma quando sua madre (Connie Britton) insiste affinché lui passi del tempo con Rachel (Olivia Cooke) – una compagna di scuola recentemente colpita da un cancro – Greg scopre pian piano quanto valore può avere un vero legame di amicizia. Parole chiave: drammatico

Windows 8.1 Pro Vl Update 3 x64 En-Us ESD Sept2015 Pre-activated

Language: | Size: 3.77 GB | Seed: 45 | Leech: 4

Description:

Name :- Windows 8.1 Pro Vl Update 3 size :- 3.76gb Architecture :- x64 Language :- English Only Author :- TEAM OS Activation :- Activated by OEM Activation System Requirment Windows 8.1 Works Great on same hardware that powers Winodows 7 *Processor: 1Ghz or faster *RAM: 4Gb *Hard Disk: 25GB *Graphic card: Microsoft DirectX9 graphic device or higher Additional Requirement to use certain features: *To use touch, you need a tablet or a monitor that supports multitouch. *To access the Windows Store and to download and rub apps, you need an active interntet connection and a screen resolution of at least 1024*768 *To snap apps, you need a screen resolution ofat least 1366*768 Added all possible Updates of This month 08 Sept2015 Featured: Dotnet 3.5 Enabled Dotnet 4.5.2 Enabled Dotnet 4.6 Silver light Pre-installed Defender Pre-Installed Skype :- Pre-installed Name: W_8.1_Pro_Vl_x64_ En_Us_ESD_Sept_2015.iso Date: 9/10/2015 Size: 3.76 GB (4,044,648,448 bytes)

The Vampire Diaries S06e06, [Mux - H264 - Ita Eng Ac3 - Sub Ita Eng]

Language: | Size: 921.33 MB | Seed: 45 | Leech: 97

Description:

Sono passati quattro mesi dalla scomparsa di Damon e Bonnie, su Mystic Falls grava ancora l'incantesimo dei Viaggiatori, Alaric intanto conosce l'insegnate di medicina di Elena, la dottoressa Jo Laughlin, con la quale inizia a uscire. Damon e Bonnie, dopo la scomparsa dell'altra parte, si ritrovano in una dimensione sconosciuta, insieme a uno stregone malvagio di nome Kai, la dimensione fu creata per lui come punizione per i suoi crimini. Grazie all'aiuto di Bonnie e della sua magia, Damon riesce a far ritorno a casa, anche Kai riesce a fuggire. Damon spera di ricostruire la sua relazione con Elena, ma scopre che Alaric le ha tolto ogni ricordo dell'amore che provava per lui, dato che Elena non riusciva a gestire il dolore della sua perdita. Enzo decide di ditruggere la vita di Stefan, per prima cosa uccide la sua ragazza Ivy, trasformandola in un vampiro. Ivy muore a causa del cacciatore di vampiri Tripp Cooke, il quale rapisce Damon e Enzo. Stefan e Alaric li salvano, ma Alaric finisce nel confine di Mystic Falls, rischiando di morire, ma Jo gli salva la vita, e Alaric ritorna umano. Damon, Alaric e gli altri scoprono che Jo è la sorella gemella di Kai, e che i due sono i fratelli maggiori di Liv e Luke. L'obbiettivo di Kai è quello di diventare il leader della congrega Gemini, e ciò avverrà solo quando ucciderà Jo, assorbendo il suo potere magico. Kai, inoltre, libera Mystic Falls dall'incantesimo dei Viaggiatori assorbendo la loro magia, ottenendo così un potere enorme.

All Roads Lead to Rome (2015) HDRip XViD - ETRG

Language: | Size: 705.88 MB | Seed: 45 | Leech: 16

Description:

All Roads Lead to Rome is a 2015 American romantic comedy film directed by Ella Lemhagen and written by Josh Appignanesi and Cindy Myers. The film stars Sarah Jessica Parker, Raoul Bova, Rosie Day, Paz Vega, and Claudia Cardinale. Maggie is an uptight, single mother and college writing teacher from New York City. In an effort to reconnect with her troubled teen daughter Summer, she decides to embark on a journey to a Tuscan village where she frequented in her younger days. Upon arrival, Maggie runs into Luca, a handsome former lover who is still a bachelor and lives with his eighty-year-old mother, Carmen. Summer (missing her "bad boy" boyfriend in NYC) and Carmen (secretly planning a wedding against Luca's wishes to Marcelino, her one true love in Rome) impulsively steal Luca's car and race off to Rome. Maggie and Luca quickly pursue allowing the two mismatched couples to spend some time together and develop a new understanding of each other.

Les Gardiens de la Galaxie FRENCH BluRay 1080p 2014

Language: | Size: 9.06 GB | Seed: 45 | Leech: 12

Description:

Peter Quill est un aventurier traqué par tous les chasseurs de primes pour avoir volé un mystérieux globe convoité par le puissant Ronan, dont les agissements menacent l’univers tout entier. Lorsqu’il découvre le véritable pouvoir de ce globe et la menace qui pèse sur la galaxie, il conclut une alliance fragile avec quatre aliens disparates : Rocket, un raton laveur fin tireur, Groot, un humanoïde semblable à un arbre, l’énigmatique et mortelle Gamora, et Drax le Destructeur, qui ne rêve que de vengeance. En les ralliant à sa cause, il les convainc de livrer un ultime combat aussi désespéré soit-il pour sauver ce qui peut encore l’être …

Cuisine Actuelle N°257 Mai 2012

Language: | Size: 28.5 MB | Seed: 45 | Leech: 0

Description:

Cuisine Actuelle N°257 Mai 2012

Una Semana En Córcega - ESP XViD DVDrip

Language: | Size: 1.29 GB | Seed: 45 | Leech: 73

Description:

Descripción: Título: Una semana en Córcega Título original: Un moment d égarement País: Francia Estreno en USA: Estreno en España: 11/09/2015 Lanzamiento en DVD (alquiler): 06/01/2016 Estreno en DVD (venta): 08/01/2016 Estreno en Francia: 24/06/2015 Estreno en VOD: 08/01/2016 Productora: Entre Chien et Loup, La Petite Reine Director: Jean-François Richet Guión: Lisa Azuelos, Claude Berri, Jean-François Richet Reparto: Vincent Cassel, François Cluzet, Alice Isaaz, Lola Le Lann, Philippe Nahon Calificación: No recomendada para menores de 12 años Género: Romance. Comedia | Comedia romántica. Remake. Amistad SINOPSIS: Antoine y Laurent, dos divorciados parisinos de cuarenta y tantos, deciden pasar las vacaciones en Córcega junto a sus respectivas hijas, Louna y Marie. Lo que parecía una semana perfecta, se complica cuando Louna se enamora de Laurent y provoca todo tipo de enredos para intentar seducirle. Relaccionados

Dope - ESP XViD DVDrip

Language: | Size: 1.07 GB | Seed: 45 | Leech: 0

Description:

Descripción: Título: Dope Título original: Dope País: USA Estreno en USA: 19/06/2015 Estreno en España: 11/12/2015 Productora: Significant Productions, IamOTHER Entertainment, Revolt Films Director: Rick Famuyiwa Guión: Rick Famuyiwa Reparto: Shameik Moore, Tony Revolori, Kiersey Clemons, Blake Anderson, Zoë Kravitz, ASAP Rocky, Forest Whitaker, Keith Stanfield, Chanel Iman, Blake Anderson, Rick Fox, Kimberly Elise, Quincy Brown, Ashton Moio, Allen Maldonado, Rakim Mayers, Roger Guenveur Smith Calificación: No recomendada para menores de 12 años Género: Comedia | Adolescencia. Drogas Sinopsis: Malcolm sobrevive en un barrio difícil de Los Angeles mientras manda solicitudes a universidades, realiza entrevistas académicas y se prepara para la selectividad. Pero una oportuna invitación a una fiesta clandestina le lleva a una aventura que le permitirá pasar de ser un geek a ser un fumetas, y a ser él mismo. Relaccionados

Walking On Sunshine - ESP XViD DVDrip

Language: | Size: 1.68 GB | Seed: 45 | Leech: 1

Description:

Descripción: Título: Walking on Sunshine Título original: Walking on Sunshine País: Reino Unido, España Estreno en USA: Estreno en España: 30/04/2015 Lanzamiento en DVD (alquiler): 02/09/2015 Estreno en DVD (venta): 04/09/2015 Estreno en Reino Unido: 27/06/2014 Estreno en VOD: 04/09/2015 Productora: IM Global, Vertigo Films Director: Max Giwa, Dania Pasquini Guión: Joshua St Johnston Reparto: Greg Wise, Annabel Scholey, Mariola Jaworska, Giulio Berruti, Hannah Arterton, Adrian Quinton, Leona Lewis, Joelle Koissi, Danny Kirrane, Richard Banks, Katy Brand, Michael Chapman, Laura Hydari, Susan Fordham, Val Monk Calificación: Apta para todos los públicos Género: Musical. Romance | SINOPSIS: Divertida comedia romántica sobre un triángulo amoroso formado por Maddie, Taylor y Raf. Maddie (Annabel Scholey) está decidida a organizar su boda con Raf (Giulio Berruti), su prometido, e invita a su hermana Taylor (Hannah Arterton) sin saber que ambos tuvieron un romance de verano tiempo atrás. Este triángulo amoroso es uno de los muchos obstáculos que deberán superar antes de darse el si quiero".

Effie Gray - ESP XViD DVDrip

Language: | Size: 1.28 GB | Seed: 45 | Leech: 54

Description:

Descripción: Título original: Effie Gray País: Reino Unido Estreno en USA: 03/04/2015 Estreno en España: Estreno en Reino Unido: 10/10/2014 Productora: Sovereign Films Director: Richard Laxton Guión: Emma Thompson Reparto: Dakota Fanning, Emma Thompson, Claudia Cardinale, Robbie Coltrane, Julie Walters, Tom Sturridge, Derek Jacobi, David Suchet, James Fox, Russell Tovey, Greg Wise, Riccardo Scamarcio, Pip Torrens, Linda Bassett, Lasco Atkins SINOPSIS: La historia gira en torno a la figura de Effie Gray, la esposa de un conocido crítico de arte de mediados del siglo XIX llamado John Ruskin que tuvo lo que acabó siendo algo más que una aventura extramatrimonial con el pintor John Everett Millais, a quien su marido idolatraba. Relaccionados

El Extraordinario Viaje De Lucius Dumb - ESP XViD DVDrip

Language: | Size: 1.59 GB | Seed: 45 | Leech: 3

Description:

El extraordinario viaje de Lucius Dumb Título original Lucius Dumben berebiziko bidaia (El extraordinario viaje de Lucius Dumb) Año2013 País España Director Maite Ruiz de Austri Guión Juan Velarde, Maite Ruiz de Austri Fotografía Animation Productora Extra Extremadura de Audiovisuales, S.A. Sinopsis Un grupo de científicos muy inteligentes y muy locos deciden que uno de ellos salga en busca de un instrumento que permita convertir la Tierra en un planeta pacífico, en el que reine la felicidad. El elegido es Lucius Dumb, un científico joven, tímido y bondadoso. Por el camino, Lucius conoce a El Profesor y a El Comandante, dos simpáticos extraterrestres que han tenido una avería en su nave y necesitan una fuente de energía muy potente para recargar sus baterías. Relaccionados Nombre FechaTamaño

Los Boxtrolls - ESP XViD DVDrip

Language: | Size: 917.24 MB | Seed: 45 | Leech: 0

Description:

Descripción: Título: Los Boxtrolls Título original: The Boxtrolls País: USA Estreno en USA: 26/09/2014 Estreno en España: 31/10/2014 Productora: LAIKA, Focus Features Director: Anthony Stacchi, Graham Annable Guión: Irena Brignull, Adam Pava Reparto: (Voces de) Ben Kingsley, Isaac Hempstead-Wright, Elle Fanning, Toni Collette, Jared Harris, Simon Pegg, Nick Frost, Richard Ayoade, Tracy Morgan Calificación: Apta para todos los públicos Género: Animación. Fantástico. Aventuras | Stop Motion. 3-D SINOPSIS: Los Boxtrolls es una fábula cómica que transcurre en Cheesebridge (Puentequeso), una elegante ciudad de la era posvictorinana, obsesionada por el dinero, la clase y el más delicioso de los quesos apestosos. Debajo de sus encantadoras calles adoquinadas viven los Boxtrolls, unos repugnantes monstruos que salen de las alcantarillas por la noche para hacerse con los bienes más preciados de los habitantes: sus hijos y sus quesos. Al menos, eso cree todo el mundo. Pero en realidad, los Boxtrolls son una comunidad que habita un espacio cavernoso en el subsuelo, compuesta por unos seres estrafalarios y adorables que llevan cajas de cartón reciclado como las tortugas llevan el caparazón. Los Boxtrolls han criado a un pequeño huérfano humano desde su más tierna infancia y le han acostumbrado a una vida dedicada a rebuscar en contenedores para hacerse con los objetos más inútiles. Pero cuando un malvado exterminador de plagas decide erradicarlos, convencido de que solo así podrá formar parte de la alta sociedad de

Dioses Y Perros - ESP XViD DVDrip

Language: | Size: 1022.35 MB | Seed: 45 | Leech: 0

Description:

Descripción: Título: Dioses y perros Título original: Dioses y perros País: España Estreno en USA: Estreno en España: 10/10/2014 Estreno en Blu-ray: 06/02/2015 Productora: Nadie es Perfecto, Ivac, Icaa Director: David Marqués, Rafa Montesinos Guión: David Marqués, Jesús Martínez Balmaceda Reparto: Hugo Silva, Megan Montaner, Juan Codina, Elio González, Enrique Arce, Miriam Benoit, Ricard Sales, Lucía Álvarez, Adrián Gordillo, Víctor Palmero, Javier Sesmilo, Albert Forner, Héctor Montoliu, José María Agui, José Antonio Romero Calificación: No recomendada para menores de 18 años Género: Drama Sinopsis Pasca, está inmerso en una vida gris que él mismo se ha autoimpuesto. Pasa sus días cuidando de su hermano minusválido, recibiendo golpes como sparring e intentando ayudar a Fonsi, su mejor amigo, un exboxeador alcohólico que malvive al borde del abismo con una mujer y un hijo que cuidar. Anclado en la crisis y la falta de esperanza, tratará de despertar de su pesadilla, ante la irrupción en su vida de Adela, una joven profesora que llega al barrio y le hace volver a ver las cosas de una manera más optimista. Pero los problemas con Toni y, sobretodo, con Fonsi le situarán en una difícil encrucijada que cambiará su vida para siempre. Y la de los que lo rodean.

Gurumin A Monstrous Adventure-CODEX [2015, Action-adventure, Role-playing (RPG)] EN

Language: | Size: 1.07 GB | Seed: 45 | Leech: 78

Description:

Gurumin A Monstrous Adventure-CODEX Genre: Action-adventure, Role-playing (RPG) Platform: Windows Multiplayer: No Year: 2015 Type of publication: Language of the game: EN Crack: Available Description : Gurumin: A Monstrous Adventure is a fantastic Action-RPG from leading Japanese developer Falcom (Developers of “Ys” and “Zwei” among other classics) featuring real-time combat, stunning 3D graphics, tons of fully voiced characters and mini-games , 90+ items, multiple endings, a rocking soundtrack, 35+ hours of playtime, and more. Originally released outside Japan on Sony’s PSP®, Mastiff is proud to bring a fully localized and updated version of Gurumin: A Monstrous Adventure to Windows and to offer it through Steam with a full set of Steam specific features including Achievements, Trading Cards, Big Picture and Cloud Save. The Story Gurumin stars Parin, a strong-willed girl sent to live with her grandfather in a small mining town. Parin soon discovers an invisible monster village hidden behind her home. She is quickly drawn into a fight between the village’s friendly monster residents and the Phantoms, evil monsters that want to destroy them. Learning of a weapon hidden underneath the village that she alone is fit to wield, Parin embarks on a quest to stop the Phantoms and make the world right. Play From Your Couch Features • 30 stages of non-linear game play • 23 non-player characters, 48 unique enemies, and more than 90 items to collect • Brilliantly diabolical dungeons, traps, puzzles and boss encounters • Mini-games galore! • 5 difficulty levels • Hidden characters, modes, and other secrets • Supports Windows XP, 7 and 8 at high resolution (up to 1920×1080) and with modern Anti-aliasing (up to 8X MSAA) • Full Steam support including: Achievements, Steam Cloud, Big Picture mode, and… • Beautiful Steam Trading Cards An All Str Cast • Amber Hood as Parin • Tara Strong – Cream/Mosby • Justin Shenkarow as Puku/Prince • Dee (Bradley) Baker as Rocko/Digby • Robin Atkin Downes – Pierre/Doug • Michael Gough – Hyperbolic/Giga • Steve Blum – Motoro/Bob • Quinton Flynn – Roger/Poco System requirements: Minimum: • OS: Windows XP • Processor: Pentium III 800 MHz • Memory: 1 GB RAM • Graphics: 64 MB VRAM, 3D accelerator compatible w/ DirectX 9.0c • DirectX: Version 9.0c • Hard Drive: 2 GB available space • Sound Card: Compatible with DirectX 9.0c Recommended: • OS: Windows XP, Vista, 7 • Processor: Pentium III 1.0 GHz or higher • Memory: 2 GB RAM • Graphics: 64 MB VRAM, 3D accelerator compatible w/ DirectX 9.0c • DirectX: Version 9.0c • Hard Drive: 2 GB available space • Sound Card: Compatible with DirectX 9.0c Size: 1.07 GB

[R.G. Mechanics] Lifeless Planet [2015, Action-adventure] EN

Language: | Size: 330.45 MB | Seed: 45 | Leech: 89

Description:

[R.G. Mechanics] Lifeless Planet Genre: Action-adventure Platform: Windows Multiplayer: No Year: 2015 Type of publication: Language of the game: EN Crack: Available Description : 2014 Adventure, 3D, 3rd Person Stage 2 Studios KISS ltd / Lace Mamba Global RePack RUS|ENG|Multi5 SKIDROW crk System requirements: Size: 345 MB

I Mercenari - The Expendables (2010) BDRip 1080p - H264 - Ita Eng Dts 5.1 - Sub Ita

Language: | Size: 10.02 GB | Seed: 45 | Leech: 67

Description:

Titolo originale: The Expendables Nazione: U.S.A. Anno: 2010 Genere: Azione Durata: 109' Regia: Sylvester Stallone Sito ufficiale: www.expendablesthemovie.com Sito italiano: www.ivid.it/imercenari/ Cast: Sylvester Stallone, Jason Statham, Jet Li, Dolph Lundgren, Eric Roberts, Randy Couture, Steve Austin, David Zayas, Giselle Itié, Terry Crews, Mickey Rourke, Arnold Schwarzenegger, Bruce Willis, Charisma Carpenter Produzione: Millennium Films, Nu Image Films, Rogue Marble Data di uscita: 01 Settembre 2010 (cinema) Trama: Barney Ross è un uomo che non ha niente da perdere. E' coraggioso, privo di emozioni, è lui il capo, il saggio e lo stratega di questa banda che vive ai margini della società, una banda di uomini uniti da un forte legame. Le uniche cose cui è legato sono un camioncino, un idrovolante e la squadra di mercenari moderni composta da Lee Christmas, ex SAS ed esperto di qualsiasi arma dotata di una lama, Yin Yang, maestro di Close Quarter Combat , Hale Caesar, che conosce Barney da 10 anni ed è uno specialista di armi a canna lunga, Toll Road, grande esperto di demolizioni considerato come l'intellettuale del gruppo e Gunnar Jensen, veterano del combattimento ed esperto cecchino, in lotta con i suoi 'demoni' personali... Parole chiave: azione

One Piece Pirate Warriors 3 PS3-DUPLEX [2015, Action (Shooters, MMO FPS, TPS)] EN

Language: | Size: 13.7 GB | Seed: 45 | Leech: 16

Description:

Title: One Piece Pirate Warriors 3 PS3-DUPLEX Genre: Action (Shooters, MMO FPS, TPS) Platform: PlayStation 2,3 Multiplayer: No Year: 2015 Type of publication: Language of the game: EN Crack: Available Description : Join Luffy and the Straw Hat Crew on their biggest adventure yet! One Piece Pirate Warriors 3 allows you to re-live the original One Piece story from Fushia village, where everything started, to the kingdom of Dressrosa, a mysterious island dominated by the evil Donquixote Doflamingo, known as the "Heavenly Demon". Do you have what it takes to defeat the most dangerous pirates, including Doflamingo and many more? Gather every member of the Straw Hat Crew and sail to the most emblematic places and enter the most epic battles: Marineford, Fishman Island, Punk Hazard and Dressrosa!

Zombie Vikings [2015, Action (Shooters, MMO FPS, TPS)] EN

Language: | Size: 2.23 GB | Seed: 45 | Leech: 59

Description:

"Möther Fafnir!!" From the creators of indie smash hit Stick It to The Man! comes a new one to four-player co-op stab-you-in-the-gut-a-thon. Embark on a dead funny adventure with the Zombie Vikings. A putrid posse sent on a mission through the most epic of worlds to retrieve Odin’s lost eye. Play as the most fearsome Vikings ever raised from Norse soil – Gunborg, Seagurd, Hedgy and Caw-kaa. Hack through the gingerbread swamps of Molgaga! Cruise through the intestines of the Midgaard Serpent! Fight giant poultry! BLOG 1 to 4 player story-brawler with online and couch-coop. Available NOW on PlayStation 4 and Steam! Key Features Co-op story brawler for 1-4 players Single-player and online/offline multiplayer Written by Zach Weinersmith (SMBC Comics) +25 levels in 8 different worlds. Plus 5 Versus Arenas! Choose among four different Zombie Vikings, each with unique power moves Over 40 unlockable weapons. Try out Stinknir or Blunt Fish Trauma! Collect Viking Runes to gain new cool abilities. Mix up your style of play! Stitch all your friends together into a giant mega Zombie. Working together is fun!

Asemblance [2016, Action (Shooters, MMO FPS, TPS)] EN

Language: | Size: 1.79 GB | Seed: 45 | Leech: 71

Description:

tle: Asemblance Genre: Action (Shooters, MMO FPS, TPS) Platform: Windows Multiplayer: No Year: 2016 Type of publication: Language of the game: EN Crack: Description : Asemblance is a single-player, first-person, psychological thriller. You wake to find yourself trapped inside an experimental machine... A machine built to simulate memories. You no longer recall why you entered, but an AI voice guides you. Trying to escape, you face memories from a past you may not want to remember. But what is real? Are these memories your own? - Extract - Burn or mount the .iso - Run setup.exe and install - Copy crack from CODEX dir to installdir - Play System requirements:

The Banner Saga 2 [2016, Action (Shooters, MMO FPS, TPS)] EN

Language: | Size: 3.37 GB | Seed: 45 | Leech: 57

Description:

Title: The Banner Saga 2 Genre: Action (Shooters, MMO FPS, TPS) Platform: Windows Multiplayer: No Year: 2016 Type of publication: Language of the game: EN Crack: Not Available Description : The award winning and BAFTA nominated saga continues in The Banner Saga 2. Continue your journey soon after the climactic events of The Banner Saga. The choices you made in the first game will affect who is alive and who is dead in this exciting sequel. As the world continues to crumble around you, only one bastion of hope remains, but getting there will require strong leadership, hard sacrifices, influencing new heroes, and, as always, sound strategy in combat. - Extract - Burn or mount the .iso - Run setup.exe and install - Copy crack from CODEX dir to installdir - Play System requirements: OS: Windows 7 SP1 Memory: 4 GB RAM

Master of Orion [2016, ] EN

Language: | Size: 4.52 GB | Seed: 45 | Leech: 19

Description:

tle: Master of Orion Genre: Platform: Windows Multiplayer: No Year: 2016 Type of publication: Language of the game: EN Crack: Not Required Description : Master of Orion Conquer the Stars The ascendant spacefaring 4X strategy game returns A new chapter in the epic Master of Orion saga is poised to once again capture the imaginations of millions of gamers. Diehard fans of the first games will be ecstatic to know that this revival is being built under the watchful eyes of members from the original development team, in conjunction with NGD Studios in Buenos Aires - Extract - Burn or mount the .iso - Run setup.exe and install - Copy crack from CODEX dir to installdir - Play System requirements: OS: Windows 7 / 8 / 10 (64bit) Processor: Intel Core 2 Duo 2.0 GHz or AMD Athlon X2 2.2 GHz Memory: 2 GB RAM Graphics: nVidia 240, ATI 4650, Intel Integrated HD 4000 or better DirectX: Version 9.0c Storage: 15 GB available space Sound Card: DirectX 9 Compatible Additional Notes: Minimum Video Memory: 512 MB

Eye in the Sky - Il diritto di uccidere (2015).H264.Italian.English.Ac3.5.1.sub.ita.forced.eng.iCV-MIRCrew

Language: | Size: 1.56 GB | Seed: 45 | Leech: 17

Description:

[img]http://i.imgur.com/GDNQx1Z.png[/img] My release is always in double track audio italian and Original audio for select it use VLC or dvd player home not use wmp Il diritto di uccidere - Eye in the Sky (2015) [img]http://extraimage.net/images/2016/12/31/9ea041acc761dd1557b5036687d084b5.png[/img] [URL=http://www.imdb.com/title/tt2057392/][IMG]http://www.userlogos.org/files/logos/Sucka/imdb_new.png[/IMG][/URL] [img]http://i.imgur.com/fGu1rKv.png[/img] Riconoscimenti 2016 - National Board of Review of Motion Pictures Migliori dieci film indipendenti 2017 - Satellite Awards Titolo originale Eye in the Sky Lingua originale inglese, somalo Paese di produzione Regno Unito Anno 2015 Durata 102 min Genere drammatico, guerra Regia Gavin Hood Sceneggiatura Guy Hibbert Produttore Ged Doherty, Colin Firth, David Lancaster Produttore esecutivo Benedict Carver, Xavier Marchand, Anne Sheehan Casa di produzione eOne Films, Moonlighting Films, Entertainment One Features, Raindog Films Distribuzione (Italia) Teodora Film Fotografia Haris Zambarloukos Montaggio Megan Gill Musiche Paul Hepker, Mark Kilian Scenografia Johnny Breedt Costumi Ruy Filipe [img]http://i.imgur.com/W7kBqiE.png[/img] Helen Mirren: colonnello Katherine Powell Aaron Paul: tenente Steve Watts Alan Rickman: generale Frank Benson Phoebe Fox: Carrie Gershon Barkhad Abdi: Jama Farah Jeremy Northam: Brian Woodale Babou Ceesay: sergente Mushtaq Saddiq Iain Glen: James Willett Jessica Jones: Kate Barnes Monica Dolan: Angela Northman Armaan Haggio: Musa Mo'allim Aisha Takow: Alia Richard McCabe: George Matherson Michael O'Keefe: Ken Stanitzke Carl Beukes: sergente Mike Gleeson Gavin Hood: colonnello Ed Walsh Laila Robins: Jillian Goodman [img]http://i.imgur.com/bFK3ggF.png[/img] Protagonista è il colonnello inglese Katherine Powell, che dirige a distanza un'operazione contro una cellula terroristica a Nairobi. Il suo "occhio" sul campo è un drone pilotato in Nevada dal giovane ufficiale Steve Watts, ma quando diventa inevitabile sferrare un attacco entrambi realizzano che anche una bambina innocente finirebbe tra le vittime........... [img]http://i.imgur.com/48xHWWH.png[/img] Col. Katherine Powell, a military officer in command of an operation to capture terrorists in Kenya, sees her mission escalate when a girl enters the kill zone triggering an international dispute over the implications of modern warfare. ............ [img]http://i.imgur.com/K8bfNTy.png[/img] [url=https://extraimage.net/image/21gU][img]http://extraimage.net/images/2016/12/31/3b5e07a2291385610b309795b31cf549.th.png[/img][/url] [url=https://extraimage.net/image/21gM][img]http://extraimage.net/images/2016/12/31/953492330f3782fe6f9a4e855d17c396.th.png[/img][/url] [url=https://extraimage.net/image/21gz][img]http://extraimage.net/images/2016/12/31/0ebe41179c83cd1c242108b270b386d8.th.png[/img][/url] [url=https://extraimage.net/image/21g0][img]http://extraimage.net/images/2016/12/31/631d32c776b2d08ab445749c9afa706e.th.png[/img][/url] [img]http://i.imgur.com/aVrMohH.png[/img] [spoiler] General Unique ID : 162251054422184025186880131994273635927 (0x7A106A9AA1FCCFCBC89D5BC6BE6ADE57) Complete name : Il diritto di uccidere - Eye in the Sky (2015).ita.eng.sub.ita.forced.ita.eng.iCV-MIRCrew.mkv Format : Matroska Format version : Version 2 File size : 1.56 GiB Duration : 1h 42mn Overall bit rate : 2 171 Kbps Movie name : VISIT www.icv-crew.org Encoded date : UTC 2016-12-16 18:48:29 Writing application : Lavf54.63.100 Writing library : Lavf54.63.100 COPYRIGHT : robbyrs Video ID : 1 Format : AVC Format/Info : Advanced Video Codec Format profile : [email protected] Format settings, CABAC : Yes Format settings, ReFrames : 2 frames Codec ID : V_MPEG4/ISO/AVC Duration : 1h 42mn Bit rate : 1 270 Kbps Width : 720 pixels Height : 304 pixels Display aspect ratio : 2.40:1 Frame rate mode : Variable Frame rate : 23.976 fps Color space : YUV Chroma subsampling : 4:2:0 Bit depth : 8 bits Scan type : Progressive Bits/(Pixel*Frame) : 0.242 Stream size : 905 MiB (57%) Writing library : x264 core 130 r2273 Encoding settings : cabac=1 / ref=2 / deblock=1:0:0 / analyse=0x1:0x131 / me=hex / subme=7 / psy=1 / psy_rd=1.00:0.00 / mixed_ref=0 / me_range=16 / chroma_me=1 / trellis=1 / 8x8dct=0 / cqm=0 / deadzone=21,11 / fast_pskip=1 / chroma_qp_offset=-2 / threads=12 / lookahead_threads=2 / sliced_threads=0 / nr=0 / decimate=1 / interlaced=0 / bluray_compat=0 / constrained_intra=0 / bframes=3 / b_pyramid=0 / b_adapt=1 / b_bias=0 / direct=3 / weightb=1 / open_gop=0 / weightp=2 / keyint=230 / keyint_min=23 / scenecut=40 / intra_refresh=0 / rc_lookahead=40 / rc=2pass / mbtree=1 / bitrate=1270 / ratetol=1.0 / qcomp=0.60 / qpmin=10 / qpmax=69 / qpstep=4 / cplxblur=20.0 / qblur=0.5 / vbv_maxrate=24000 / vbv_bufsize=24000 / nal_hrd=none / ip_ratio=1.40 / aq=1:1.00 Language : English Default : Yes Forced : No DURATION : 01:42:45.086000000 NUMBER_OF_FRAMES : 147814 NUMBER_OF_BYTES : 7046376575 _STATISTICS_WRITING_APP : mkvmerge v8.7.0 ('All of the above') 64bit _STATISTICS_WRITING_DATE_UTC : 2016-12-15 14:13:38 _STATISTICS_TAGS : BPS DURATION NUMBER_OF_FRAMES NUMBER_OF_BYTES Audio #1 ID : 2 Format : AC-3 Format/Info : Audio Coding 3 Mode extension : CM (complete main) Codec ID : A_AC3 Duration : 1h 42mn Bit rate mode : Constant Bit rate : 448 Kbps Channel(s) : 6 channels Channel positions : Front: L C R, Side: L R, LFE Sampling rate : 48.0 KHz Bit depth : 16 bits Compression mode : Lossy Delay relative to video : 1mn 5s Stream size : 329 MiB (21%) Language : Italian Default : Yes Forced : No DURATION : 01:42:45.120000000 NUMBER_OF_FRAMES : 192660 NUMBER_OF_BYTES : 345246720 _STATISTICS_WRITING_APP : mkvmerge v8.7.0 ('All of the above') 64bit _STATISTICS_WRITING_DATE_UTC : 2016-12-15 14:13:38 _STATISTICS_TAGS : BPS DURATION NUMBER_OF_FRAMES NUMBER_OF_BYTES Audio #2 ID : 3 Format : AC-3 Format/Info : Audio Coding 3 Mode extension : CM (complete main) Codec ID : A_AC3 Duration : 1h 42mn Bit rate mode : Constant Bit rate : 448 Kbps Channel(s) : 6 channels Channel positions : Front: L C R, Side: L R, LFE Sampling rate : 48.0 KHz Bit depth : 16 bits Compression mode : Lossy Delay relative to video : 1mn 5s Stream size : 329 MiB (21%) Language : English Default : No Forced : No DURATION : 01:42:45.120000000 NUMBER_OF_FRAMES : 192660 NUMBER_OF_BYTES : 493209600 _STATISTICS_WRITING_APP : mkvmerge v8.7.0 ('All of the above') 64bit _STATISTICS_WRITING_DATE_UTC : 2016-12-15 14:13:38 _STATISTICS_TAGS : BPS DURATION NUMBER_OF_FRAMES NUMBER_OF_BYTES Text #1 ID : 4 Format : UTF-8 Codec ID : S_TEXT/UTF8 Codec ID/Info : UTF-8 Plain Text Title : Forced Language : Italian Default : Yes Forced : No DURATION : 01:28:27.895000000 NUMBER_OF_FRAMES : 96 NUMBER_OF_BYTES : 3569 _STATISTICS_WRITING_APP : mkvmerge v8.7.0 ('All of the above') 64bit _STATISTICS_WRITING_DATE_UTC : 2016-12-15 14:13:38 _STATISTICS_TAGS : BPS DURATION NUMBER_OF_FRAMES NUMBER_OF_BYTES Text #2 ID : 5 Format : UTF-8 Codec ID : S_TEXT/UTF8 Codec ID/Info : UTF-8 Plain Text Title : Regular Language : Italian Default : No Forced : No DURATION : 01:31:06.349000000 NUMBER_OF_FRAMES : 756 NUMBER_OF_BYTES : 41382 _STATISTICS_WRITING_APP : mkvmerge v8.7.0 ('All of the above') 64bit _STATISTICS_WRITING_DATE_UTC : 2016-12-15 14:13:38 _STATISTICS_TAGS : BPS DURATION NUMBER_OF_FRAMES NUMBER_OF_BYTES Menu 00:00:00.000 : :00:00:00.000 00:07:05.342 : :00:07:05.342 00:14:28.201 : :00:14:28.201 00:20:13.838 : :00:20:13.838 00:29:27.099 : :00:29:27.099 00:39:02.590 : :00:39:02.590 00:50:56.804 : :00:50:56.804 00:59:52.756 : :00:59:52.756 01:08:53.129 : :01:08:53.129 01:16:19.950 : :01:16:19.950 01:25:27.706 : :01:25:27.706 01:35:23.259 : :01:35:23.259 [/spoiler] [/color][/b][/center]

The Machine (2013) iTA AC3 DVDRip XviD

Language: | Size: 1.32 GB | Seed: 44 | Leech: 22

Description:

The Machine Regno Unito 2013 Genere: Fantascienza Durata 92'play Regia di Caradog W. James Con Toby Stephens, Sam Hazeldine, Caity Lotz, Denis Lawson, Lee Nicholas Harris, Ben McGregor, Stuart Matthews, Helen Griffin... Trama In un futuro prossimo, in piena seconda guerra fredda, il Ministero della difesa britannico è alla ricerca di una potente arma che possa costituire un'eventuale carta vincente. Il programmatore Vincent McCarthy (Toby Stephens) fornisce involontariamente una soluzione quando mette a punto la Macchina (Caity Lotz), un cyborg super forte dalle caratteristiche umane. Quando un bug di programmazione fa sì che la Macchina decimi i colleghi del laboratorio in cui lavora, Vincent decide di dar seguito a quella che è ormai diventata un'ossessione lontano da occhi indiscreti. Parole chiave: fantascienza

Homeland S04e03 ITA AAC x264 DLMux - Blocco totale

Language: | Size: 413.33 MB | Seed: 44 | Leech: 78

Description:

GENERE: Drammatico ANNO: 2011 IDEATORE: Howard Gordon, Alex Gansa ATTORI: Claire Danes, Mandy Patinkin, Rupert Friend, F. Murray Abraham, Tracy Letts, Nazanin Boniadi, Laila Robins, Sarita Choudhury, Damian Lewis, Morena Baccarin, Morgan Saylor, Jackson Pace, David Marciano, Diego Klattenhoff, David Harewood, Navid Negahban, Jamey Sheridan PRODUZIONE: Showtime Networks PAESE: USA DURATA: 50 Min STATO: In Lavorazione SITO WEB UFFICIALE : http://www.sho.com/sho/homeland/home TRAMA: Quando il sergente della Marina Nicholas Brody, dato per disperso, torna a casa come un eroe dopo otto anni di prigionia in Iraq, la brillante ma imprevedibile agente della CIA Carrie Mathison non crede alla sua storia. Carrie è convinta che Brody stia lavorando per Al Qaeda, e stia progettando di colpire il suo Paese con un nuovo e devastante attentato. Determinata a scoprire la verità, Carrie porta avanti la sua indagine nonostante il dissenso dei suoi superiori. L’unica persona di cui lei può fidarsi è Saul Berenson, suo ex capo e mentore. VIDEO: 720 x 404 (16:9), 25 fps, x264 ~1110 kbps avg AUDIO: 48 kHz, AAC, 2 ch, ~112 kbps SOTTOTITOLI: Italiano, Inglese EPISODIO: 3. Shalwar Kameez - Blocco totale (24 ottobre 2014 Prima TV Italia)

American Heist (2014) 1080p BrRip x264 - YIFY

Language: | Size: 1.44 GB | Seed: 44 | Leech: 41

Description:

James (Hayden Christensen), a man with nothing to lose, owed his life to his older brother Frankie (Adrien Brody) after taking the rap for a crime they did together. While Frankie served time, James worked to turn his life around, He manages to get a job and begins courting with his girlfriend Emily (Jordana Brewster). Now, Frankie is released and back on the streets with no money and no place to go, all that's left is for him and James to commit a heist unlike any other.

Snoopy and Friends – Il film dei Peanuts (2015) 720p iTA AC3 6 CH x264 Subs

Language: | Size: 3.28 GB | Seed: 44 | Leech: 26

Description:

Titolo originale: The Peanuts Movie Nazione: U.S.A. Anno: 2015 Genere: Animazione Durata: 92' Regia: Steve Martino Sito ufficiale: www.peanutsmovie.com Cast (voci): Francesca Capaldi, Noah Schnapp, Mariel Sheets, Venus Schultheis, Madisyn Shipman, Bill Melendez, Noah Johnston, Hadley Belle Miller, Rebecca Bloom, Mar Mar Mar Mar, William Wunsch, A.J. Tecce Produzione: 20th Century Fox Studios, Blue Sky Studios, Peanuts Worldwide, Twentieth Century Fox Animation Data di uscita: 05 Novembre 2015 (cinema) Trama: Charlie Brown, Snoopy, Lucy, Linus e tutto il resto della banda dei "Peanuts" vi aspettano per la prima volta al Cinema come non li avete mai visti prima grazie anche all’animazione in 3D. Snoopy, il beagle più amato nel mondo – nonché asso dell’aviazione - si imbarca nella sua più grande impresa involandosi all’inseguimento del suo arcinemico, il Barone Rosso, mentre il suo miglior amico, Charlie Brown, intraprende la sua personale epica impresa. Subs iTA: Forced/Full

Aide-mémoire: Electronique. Dunod PDF

Language: | Size: 16.89 MB | Seed: 44 | Leech: 0

Description:

Aide-mémoire: Electronique. Dunod PDF

La Scelta (2015) ITA AC3 DVDRip XviD

Language: | Size: 734.04 MB | Seed: 44 | Leech: 83

Description:

Titolo originale: La scelta Nazione: Francia Anno: 2015 Genere: Drammatico Durata: 86' Regia: Michele Placido Sito ufficiale: www.lasceltailfilm.it Cast: Raoul Bova, Ambra Angiolini, Michele Placido, Valeria Solarino Produzione: Charlot, Goldenart Production Distribuzione: Lucky Red Data di uscita: 02 Aprile 2015 (cinema) Trama: La Scelta è ispirato al testo teatrale L'innesto di Luigi Pirandello, un'opera che fece scandalo e scalpore dividendo pubblico e critica. Oggi come allora, il tema tocca le nostre sensibilità. Ci troviamo di fronte ad una donna disposta ad assumersi con coraggio la scelta di diventare madre, una donna che si scontra con il perbenismo della morale comune, morale forse non molto cambiata rispetto ai tempi di Pirandello. Quanto è importante il legame biologico col proprio figlio? A quali certezze si è disposti a rinunciare, per amore? Laura e Giorgio si amano intensamente e sono desiderosi di un figlio che non arriva. Ma solo un grande amore può superare la dolorosa prova che devono affrontare. Una prova che impone una scelta. Da una parte, un uomo offeso nella sua morale, che cerca una soluzione al dilemma; dall'altra, una donna che sente la necessità di diventare madre. Quale scelta fare per essere ancora felici? Parole chiave: drammatico

Teen Beach 2 - ESP XViD DVDrip

Language: | Size: 1.3 GB | Seed: 44 | Leech: 4

Description:

Título original: Teen Beach 2 (TV) Año: 2015 Duración: 100 min. País: Estados Unidos Estados Unidos Director: Jeffrey Hornaday Guión: Robert Horn, Mark Landry, Vince Marcello Fotografía: Mark Irwin Reparto: Maia Mitchell, Ross Lynch, Grace Phipps, Garrett Clayton, Piper Curda, John DeLuca, Mollee Gray, Chrissie Fit, Kent Boyd, Jordan Fisher, Jessica Lee Keller, Ross Butler Productora: Disney Channel / Rainforest Productions Género: Musical. Comedia | Secuela. Telefilm Sinopsis Ahora que el verano ha terminado y empieza el instituto, la relación de Brady (Ross Lynch) y Mack (Maia Mitchell) parece difícil, ¡hasta que Lela, Tanner y los chicos de “Wet Side Story” aparecen! Deslumbrados por la novedad y la variedad del mundo moderno, Lela quiere quedarse, pero el mundo real y el mundo “de película” no se mezclan. ¿Podrán Mack y Brady recuperar la magia para conseguir que los chicos vuelvan a casa y poner de nuevo en marcha su amor antes de que sea demasiado tarde? Relaccionados

Los Anderson En Grecia - ESP XViD DVDrip

Language: | Size: 1.16 GB | Seed: 44 | Leech: 1

Description:

Título: Los Andersson en Grecia Título original: Sune i Grekland - All Inclusive País: Suecia Estreno en España: 25/07/2014 Estreno en Suecia: 25/12/2012 Productora: Eyeworks Sweden, Film i Väst, Nordisk Film Director: Hannes Holm Guión: Hannes Holm Reparto: William Ringström, Morgan Alling, Anja Lundkvist, Hanna Elffors Elfström, Julius Jimenez Hugoson, Feline Andersson, Julia Dufvenius, Manos Gavras, Kajsa Halldén, Erik Johansson, Madeleine Barwén Trollvik Género: Comedia | Familia. Secuela Sinopsis Para los Andersson es una tradición familiar pasar las vacaciones de verano en una caravana en Mosquito Island, no muy lejos de su casa en Suecia. Rudolph, el padre, un asesor fiscal muy trabajador, es muy feliz cumpliendo con esta tradición barata y sin complicaciones, aunque es muy consciente de que su esposa y sus tres hijos no pueden soportar la idea de volver a ir allí. Pero su jefe le ofrece la oportunidad de asistir a una conferencia en Grecia en verano y le permite llevarse a toda la familia a cargo de la empresa, por lo que Rudolph anuncia el cambio de planes a su familia que, por primera vez, lo tratan como a un héroe. Cuando todos empiezan a embalar sus maletas y hacer compras de última hora, Rudolph recibe una llamada de su jefe que cancela el viaje a Grecia, diciendo que ahora planea ir allí él mismo con su esposa. Como Rudolph no se siente con fuerzas para hacer frente a la decepción de su familia, de mala gana, busca hasta el último centavo para pagar el viaje a Grecia. De este modo, toda la familia se embarca en una turbulenta aventura en un territorio completamente desconocido.

Wyrmwood: La Carretera De Los Muertos - ESP XViD DVDrip

Language: | Size: 1.5 GB | Seed: 44 | Leech: 3

Description:

Descripción: Título original Wyrmwood Director Kiah Roache-Turner Guión Kiah Roache-Turner, Tristan Roache-Turner Música Michael Lira Fotografía Tim Nagle Reparto Jay Gallagher, Bianca Bradey, Leon Burchill, Luke McKenzie, Yure Covich, Keith Agius, Catherine Terracini, Berryn Schwerdt, Beth Aubrey Productora Guerilla Films Género Terror | Zombis SINOPSIS La vida de Barry da un giro radical cuando su hermana es secuestrada por un científico loco, justo en el momento en que se desencadena un Apocalipsis zombi. Buscando aliados entre los supervivientes, el protagonista atravesará Australia para rescatar a su hermana, dando forma a una trepidante cinta de horror y acción que ha sido definida como un cruce entre Zombi y Mad Max. Relaccionados
 «  1 2 3 4 5 ... 262 263 264 265 266 267 268 269 270 ... 452 453 454 455 456  »
  Movie/Films     Animation/Cartoons     TV Shows/Series     Music     Games     Applications     Books     Other  

   How works MfT    Rules    Suggest idea    Request torrent    Privacy Policy    DMCA    Contacts    MfT Status    Friends sites    Is this site safe?   

mkv, HD-Rip , BD-Rip , Blu-Ray , HD Film , hd film , hd films , scarica film gratis , hd torrents , hd torrent , hdtorrents, hdrip , bdrip , Bluray ,

Blu-Ray player, scarica film , scarica torrent , torrent film , film ita, bluray, mux, 1080p, 720p, hdtorrents, torrent ita, torrents ita, HD film ita, HD ita, Blu-Ray ita