Search Top Tags














Monsters University (2013) BDRip 1080p - H264 - Ita Eng Ac3 5.1 - SoftSub Ita Eng

Language: | Size: 4.38 GB | Seed: 154 | Leech: 11

Description:

Titolo originale: Monsters University Nazione: U.S.A. Anno: 2013 Genere: Animazione Durata: 104' Regia: Dan Scanlon Sito italiano: www.disney.it/film/monsters-university Cast (voci): Steve Buscemi, John Goodman, Jennifer Tilly, Billy Crystal, Frank Oz, John Ratzenberger Produzione: Walt Disney Pictures, Pixar Animation Studios Data di uscita: 13 Agosto 2013 (anteprima) 21 Agosto 2013 (cinema) Trama: La matricola Mike Wazowski ha sognato di diventare uno spaventatore sin da quando era un piccolo mostro e sa meglio di chiunque altro che i migliori spaventatori vengono dalla Monsters University (MU). Ma durante il primo semestre proprio alla MU, i suoi piani vengono sconvolti dall'incontro con lo spocchioso James P. Sullivan, detto "Sulley", uno spaventatore dal talento naturale. Il loro spirito competitivo fuori controllo li farà cacciare dall'esclusivo programma per spaventatori dell'Università e, come se ciò non bastasse, si renderanno conto che l'unico modo per rimettere le cose a posto sarà quello di lavorare insieme, facendo squadra con un gruppo di mostri scapestrati.

Narcos S01e03-04, [Mux - H264 - Ita Aac]

Language: | Size: 837.35 MB | Seed: 154 | Leech: 74

Description:

La serie racconta la storia vera della dilagante diffusione della cocaina tra Stati Uniti ed Europa, grazie al cartello di Medellín del boss della droga Pablo Escobar. Due agenti della DEA vengono incaricati di guidare una missione per catturare e uccidere Escobar. AUTORE flint CATEGORIA Serie TV INFOHASH A68E504AAB5F67E614BE793F93FB3F1B08AD51C4 FILE(4) Files TRAKER Traker File simile TITOLO AGGIUNTO DIMENSIONE SEED LEECHERS Narcos S01e03, [H264 - Eng Aac - Sub Ita Eng] 05/12/2015 507.5 Мб 14 1 Narcos S01e03, [Mux - 1080p - H264 - Ita Aac Eng Ac3 5.1 Sub Ita Eng] 05/12/2015 2.2 Гб 59 45

The Vampire Diaries S06e22 [REPACK], [Mux - H264 - Ita Eng Ac3 - Sub Ita Eng]

Language: | Size: 628.45 MB | Seed: 154 | Leech: 30

Description:

Sono passati quattro mesi dalla scomparsa di Damon e Bonnie, su Mystic Falls grava ancora l'incantesimo dei Viaggiatori, Alaric intanto conosce l'insegnate di medicina di Elena, la dottoressa Jo Laughlin, con la quale inizia a uscire. Damon e Bonnie, dopo la scomparsa dell'altra parte, si ritrovano in una dimensione sconosciuta, insieme a uno stregone malvagio di nome Kai, la dimensione fu creata per lui come punizione per i suoi crimini. Grazie all'aiuto di Bonnie e della sua magia, Damon riesce a far ritorno a casa, anche Kai riesce a fuggire. Damon spera di ricostruire la sua relazione con Elena, ma scopre che Alaric le ha tolto ogni ricordo dell'amore che provava per lui, dato che Elena non riusciva a gestire il dolore della sua perdita. Enzo decide di ditruggere la vita di Stefan, per prima cosa uccide la sua ragazza Ivy, trasformandola in un vampiro. Ivy muore a causa del cacciatore di vampiri Tripp Cooke, il quale rapisce Damon e Enzo. Stefan e Alaric li salvano, ma Alaric finisce nel confine di Mystic Falls, rischiando di morire, ma Jo gli salva la vita, e Alaric ritorna umano. Damon, Alaric e gli altri scoprono che Jo è la sorella gemella di Kai, e che i due sono i fratelli maggiori di Liv e Luke. L'obbiettivo di Kai è quello di diventare il leader della congrega Gemini, e ciò avverrà solo quando ucciderà Jo, assorbendo il suo potere magico. Kai, inoltre, libera Mystic Falls dall'incantesimo dei Viaggiatori assorbendo la loro magia, ottenendo così un potere enorme.

Acoustica Mixcraft Pro Studio 8.0 Build 380 Multilingual + Keygen

Language: | Size: 541.8 MB | Seed: 154 | Leech: 30

Description:

OS: Windows XP, Windows Vista, Windows 7 (32 or 64 bit), Windows 8 (32 or 64 bit), or Windows 10 (32 or 64 bit) Mixcraft Pro Studio on MAC OSX: Mixcraft is a Windows based product that can be used on a Macintosh computer running bootcamp Languages: English, Chinese Traditional and Simplified, Dutch, French, German, Indonesian, Italian, Japanese, Norwegian, Portuguese, Russian, Spanish, Swedish, Turkish, Danish Usage: see included readme file Changes in Mixcraft 8 Mixcraft 8 is driven by a new, lightning-fast sound engine, featuring advanced audio and MIDI routing, native sidechaining, and Audio Control, an innovative new feature allowing audio signals to control instrument and effect parameters. Comprehensive support has been added for VST3 plug-ins and MP4 video, both must-have formats in professional studio environments. Mixcraft 8 is packed with high-end features including live performance panel recording, nested submixes, track grouping, and so much more. Integrated Melodyne Tuning Software Celemonyâ?™s groundbreaking Melodyne tuning software sets the standard as the most natural-sounding and easiest to use vocal tuning software available. Mixcraft 8 Pro Studio takes it one step further by integrating Melodyne Essential directly into Mixcraftâ?™s clip sound edit window (and eliminating time-consuming audio “transfers”). Whether youâ?™re simply touching up intonation, or moving notes to wildly alter performances, vocal pitch editing has never been easier! Stunning Synths Mixcraft 8 Pro Studio adds painstakingly modeled virtual analog and digital professional synthesizers. Memorymoon is a spot-on recreation of the Moog Memorymoogâ?™s crushing analog fatness. ME80 Version 2 is a killer model of the classic Yamaha CS-80 synthesizer, now with a gorgeous new user interface and a whole new sound engine. Kastelheimer Veldberg XD is new virtual analog synthesizer based on algorithms from hardware VA synthesizers with immense programming possibilities – a veritable goldmine of powerful analog and digital timbres! Peerless Piano Pianissimo is an incredibly playable and realistic virtual piano. Combining 250 MB of high quality Steinway™ Model D piano samples with advanced physical modeling, Pianissimo recreates the warmth, response, and playability of a real grand piano. With modeled sympathetic resonance, incidental mechanical hammer sounds, remarkable tonal control and velocity response, 256 voices of polyphony, and incredibly low CPU usage, Pianissimo Virtual Piano lends an air of class and realism to any project. Superior Mastering Tools Your tracks will reach a new level of audio fidelity with an awesome array of mastering plug-ins. Add a professional sheen with iZotope Mastering Essentials suite. EQ to perfection with TB Parametric EQ or GSXL4070 Parametric, replicating the equalizer section of one of the worldâ?™s most coveted mixing consoles. Impart analog tape compression and punch with Ferox Tape Emulator. Create banginâ?™ dance remixes with SideKick6 Sidechaining Compressor. Vacuum Tube Virtuosity Who doesnâ?™t love the warm, smooth sound of tubes? Mixcraft 8 Pro Studio delivers a knockout punch of tube-modeled effects with the Pentode Audio Series featuring the VTC-1 Vacuum Tube Compressor, TRW-1 Vacuum Tube Triode Warmer, PSEQ-1 Vacuum Tube Passive EQ, and VBE-1 Vacuum Tube Bass Enhancer. Treblecream smoothes harsh high frequencies to perfection, while FAT+ combines analog warmth, vacuum-tube distortion, and tape saturation into a single effect for enormous-sounding tracks. Innovative Sound Shapers Recreate the grunge of 8-bit video games and 12-bit samplers with TimeMachine Bit Crusher. Build lush, three-dimensional sonic spaces with Fusion Fieldâ?™s convolution reverb technology. Inspire sonic anarchy with Dubshox Multi-Band Distortion, featuring over 40 types of distortion and shapers. Recreate the warm, smooth, trippy textures of early tape-based delay systems with the VTD-42 Psychedelic Delay.

Daredevil S02E04 FRENCH HDTV

Language: | Size: 522.62 MB | Seed: 154 | Leech: 22

Description:

Aveugle depuis l’enfance, mais doté de sens incroyablement développés, Matt combat l’injustice le jour en tant qu’avocat et la nuit en surveillant les rue de Hell’s Kitchen, à New York, dans le costume du super-héros Daredevil.

Le Cronache di Narnia - Il Leone, la Strega e L'Armadio (2005) BDRip 1080p - H265 - Ita Eng Ac3

Language: | Size: 3.46 GB | Seed: 154 | Leech: 56

Description:

Titolo originale: The Chronicles of Narnia: The Lion, the Witch and the Wardrobe Nazione: U.S.A., Nuova Zelanda Anno: 2005 Genere: Avventura, Fantastico Durata: 125' Regia: Andrew Adamson Sito ufficiale: www.narnia.com Sito italiano: www.lecronachedinarnia.it Cast: Georgie Henley, William Moseley, Skandar Keynes, James McAvoy, Anna Popplewell, Tilda Swinton, Judy McIntosh Produzione: Walt Disney Pictures, Walden Media, Lamp Post Productions Ltd. Data di uscita: 21 Dicembre 2005 (cinema) Trama: Inghilterra, II guerra mondiale. I quattro fratelli Pevensie: Lucy, Edmund, Susan e Peter, entrano per caso nel mondo di Narnia, passando attraverso un armadio magico mentre stanno giocando a nascondino nella casa in campagna di un anziano professore. A Narnia i bambini scoprono una terra affascinante e pacifica, abitata da animali parlanti, nani, fauni, centauri e giganti, tuttavia, questo mondo fatato è minacciato dall'eterno inverno scatenato dalla malvagia Strega Bianca Jadis. Guidati dal nobile e mistico leone Aslan, i bambini riusciranno a sconfiggere la Strega Bianca, impegnandosi in una spettacolare battaglia che libererà per sempre Narnia dal gelido incantesimo di Jadis. Formato: HEVC H265 Parole chiave: avventura fantastico

Tempo instabile con probabili schiarite (2015) .avi iTA AC3 5.1 DVDRip XviD

Language: | Size: 1.24 GB | Seed: 154 | Leech: 18

Description:

http://pad.mymovies.it/filmclub/2015/02/112/locandina.jpg

FIFA 2014 PSP [2013, Action (Shooters, MMO FPS, TPS)] EN

Language: | Size: 1.09 GB | Seed: 154 | Leech: 74

Description:

FIFA 2014 PSP Genre: Action (Shooters, MMO FPS, TPS) Platform: Other Multiplayer: Yes Year: 2013 Type of publication: Language of the game: EN Crack: Description : System requirements: play on PSP Size: 1.09GB

Battlefield 2 - Multiplayer and Singleplayer [, Action (Shooters, MMO FPS, TPS)] EN

Language: | Size: 2.69 GB | Seed: 154 | Leech: 33

Description:

Title: Battlefield 2 - Multiplayer and Singleplayer Genre: Action (Shooters, MMO FPS, TPS) Platform: Windows Multiplayer: No Year: Type of publication: Language of the game: EN Crack: Available Description : FOR WINDOWS ONLY Included: Battlefield 2 (v1.50) Battlefield 2: Euro Forces Battlefield 2: Armored Fury About the upload: This is a cracked version of Battlefield 2 (version 1.50). There are some specific things to do when you install it, but the included readme explains it all. I really recommend reading the readme (something most people don't, probably because it usually contains a lot of bs) Since the official multiplayer support by GameSpy for this game is dead, because GameSpy is gone you need to "update" it manually first to be able to play online. In the Revive Multiplayer folder you'll find everything you need to do so. To play the multiplayer register an account for free here. It's the only way to still play online, but it's definitely worth it. By the way, this is one of the last ways to still play this fantastic game. EA stopped selling it on Origin, and Steam also stopped selling copies. The only legal way to still obtain a copy is buying a hardcopy on Amazon for example, but those are also hard to come by these days, expecially with a working serial key. Sad to see EA is no longer supporting one of their best releases ever.

Dave Cormier 2015 Little Pieces

Language: | Size: 92.45 MB | Seed: 154 | Leech: 31

Description:

Track List: Follow You Down He Said A Lot Like You It's Alright Undone Lucky Let Me Remind You All Night Long Changin In This Life Kiss Me Goodbye

Nella valle della violenza (2016).H264.Italian.English.Ac3.5.1.sub.ita.eng.iCV-MIRCrew

Language: | Size: 1.49 GB | Seed: 154 | Leech: 135

Description:

In a Valley of Violence - Nella valle della violenza (2016).H264.Italian.English.Ac3.5.1.sub.ita.eng.iCV-MIRCrew [center] [color=red][b][img]http://s23.postimg.org/b9yhws27f/0sc_Del1.png[/img] [u]NO FOUND ONLY ORIGINAL RELEASE[/u] [img]http://i.imgur.com/GDNQx1Z.png[/img] My release is always in double track audio italian and Original audio for select it use VLC or dvd player home not use wmp Nella valle della violenza - In a Valley of Violence (2016) [img]http://extraimage.net/images/2017/01/12/2044eb5b8c1b63452465bcd187918d7f.png[/img] [URL=http://www.imdb.com/title/tt3608930/][IMG]http://www.userlogos.org/files/logos/Sucka/imdb_new.png[/IMG][/URL] [img]http://i.imgur.com/fGu1rKv.png[/img] Titolo Originale: IN A VALLEY OF VIOLENCE Regia: Ti West Durata: h 1.44 Nazionalità: USA 2015 Genere: western [img]http://i.imgur.com/W7kBqiE.png[/img] Ethan Hawke, John Travolta, Taissa Farmiga, James Ransone, Karen Gillan, Toby Huss, Tommy Nohilly, Larry Fessenden, Michael Davis, James Cady, Burn Gorman, K. Harrison Sweeney [img]http://i.imgur.com/bFK3ggF.png[/img] Un vagabondo di nome Paul arriva in una piccola città per cercare vendetta contro i teppisti che hanno ucciso una persona a lui cara. Le sorelle Mary Anne ed Ellen, che gestiscono l'albergo del posto, lo aiuteranno nel suo proposito. [img]http://i.imgur.com/48xHWWH.png[/img] A mysterious stranger and a random act of violence drag a town of misfits and nitwits into the bloody crosshairs of revenge. [img]http://i.imgur.com/K8bfNTy.png[/img] [url=https://extraimage.net/image/2ytA][img]http://extraimage.net/images/2017/01/12/566fc02d9e8757b57f50ec74c9be0594.th.png[/img][/url] [url=https://extraimage.net/image/2ytW][img]http://extraimage.net/images/2017/01/12/7c37edc0a8f68dcd8a12a1056a6c95b0.th.png[/img][/url] [url=https://extraimage.net/image/2ytf][img]http://extraimage.net/images/2017/01/12/d98b46c2a28b402223724bbca2de47d9.th.png[/img][/url] [img]http://i.imgur.com/aVrMohH.png[/img] [spoiler] General Unique ID : 12291087882508418736910881011517075179 (0x93F2D6B690C68DF6DCA602780DFAEEB) Complete name : Nella valle della violenza - In a Valley of Violence (2016).H264.ita.eng.sub.ita.eng.iCV-MIRCrew Format : Matroska Format version : Version 2 File size : 1.49 GiB Duration : 1h 43mn By : www.icv-crew.org Overall bit rate : 2 055 Kbps Encoded date : UTC 2017-01-07 17:43:25 Writing application : Lavf54.63.100 Writing library : Lavf54.63.100 COPYRIGHT : robbyrs Video ID : 1 Format : AVC Format/Info : Advanced Video Codec Format profile : [email protected] Format settings, CABAC : Yes Format settings, ReFrames : 2 frames Codec ID : V_MPEG4/ISO/AVC Duration : 1h 43mn Bit rate : 1 280 Kbps Width : 720 pixels Height : 304 pixels Display aspect ratio : 2.40:1 Frame rate mode : Variable Frame rate : 23.976 fps Color space : YUV Chroma subsampling : 4:2:0 Bit depth : 8 bits Scan type : Progressive Bits/(Pixel*Frame) : 0.244 Stream size : 923 MiB (61%) Writing library : x264 core 130 r2273 Encoding settings : cabac=1 / ref=2 / deblock=1:0:0 / analyse=0x1:0x131 / me=hex / subme=7 / psy=1 / psy_rd=1.00:0.00 / mixed_ref=0 / me_range=16 / chroma_me=1 / trellis=1 / 8x8dct=0 / cqm=0 / deadzone=21,11 / fast_pskip=1 / chroma_qp_offset=-2 / threads=12 / lookahead_threads=2 / sliced_threads=0 / nr=0 / decimate=1 / interlaced=0 / bluray_compat=0 / constrained_intra=0 / bframes=3 / b_pyramid=0 / b_adapt=1 / b_bias=0 / direct=3 / weightb=1 / open_gop=0 / weightp=2 / keyint=230 / keyint_min=23 / scenecut=40 / intra_refresh=0 / rc_lookahead=40 / rc=abr / mbtree=1 / bitrate=1280 / ratetol=1.0 / qcomp=0.60 / qpmin=10 / qpmax=69 / qpstep=4 / vbv_maxrate=24000 / vbv_bufsize=24000 / nal_hrd=none / ip_ratio=1.40 / aq=1:1.00 Language : English Default : Yes Forced : No DURATION : 01:43:37.170000000 NUMBER_OF_FRAMES : 149063 NUMBER_OF_BYTES : 7497188219 _STATISTICS_WRITING_APP : mkvmerge v8.7.0 ('All of the above') 64bit _STATISTICS_WRITING_DATE_UTC : 2017-01-07 17:43:25 _STATISTICS_TAGS : BPS DURATION NUMBER_OF_FRAMES NUMBER_OF_BYTES Audio #1 ID : 2 Format : AC-3 Format/Info : Audio Coding 3 Mode extension : CM (complete main) Codec ID : A_AC3 Duration : 1h 43mn Bit rate mode : Constant Bit rate : 384 Kbps Channel(s) : 6 channels Channel positions : Front: L C R, Side: L R, LFE Sampling rate : 48.0 KHz Bit depth : 16 bits Compression mode : Lossy Delay relative to video : 1mn 5s Stream size : 285 MiB (19%) Language : Italian Default : Yes Forced : No DURATION : 01:43:37.824000000 NUMBER_OF_FRAMES : 194307 NUMBER_OF_BYTES : 298455552 _STATISTICS_WRITING_APP : mkvmerge v8.7.0 ('All of the above') 64bit _STATISTICS_WRITING_DATE_UTC : 2017-01-07 17:43:25 _STATISTICS_TAGS : BPS DURATION NUMBER_OF_FRAMES NUMBER_OF_BYTES Audio #2 ID : 3 Format : AC-3 Format/Info : Audio Coding 3 Mode extension : CM (complete main) Codec ID : A_AC3 Duration : 1h 43mn Bit rate mode : Constant Bit rate : 384 Kbps Channel(s) : 6 channels Channel positions : Front: L C R, Side: L R, LFE Sampling rate : 48.0 KHz Bit depth : 16 bits Compression mode : Lossy Delay relative to video : 1mn 5s Stream size : 285 MiB (19%) Language : English Default : No Forced : No DURATION : 01:43:37.280000000 NUMBER_OF_FRAMES : 194290 NUMBER_OF_BYTES : 497382400 _STATISTICS_WRITING_APP : mkvmerge v8.7.0 ('All of the above') 64bit _STATISTICS_WRITING_DATE_UTC : 2017-01-07 17:43:25 _STATISTICS_TAGS : BPS DURATION NUMBER_OF_FRAMES NUMBER_OF_BYTES Text #1 ID : 4 Format : UTF-8 Codec ID : S_TEXT/UTF8 Codec ID/Info : UTF-8 Plain Text Title : FORCED Language : Italian Default : Yes Forced : No DURATION : 01:36:56.109000000 NUMBER_OF_FRAMES : 6 NUMBER_OF_BYTES : 83 _STATISTICS_WRITING_APP : mkvmerge v8.7.0 ('All of the above') 64bit _STATISTICS_WRITING_DATE_UTC : 2017-01-07 17:43:25 _STATISTICS_TAGS : BPS DURATION NUMBER_OF_FRAMES NUMBER_OF_BYTES Text #2 ID : 5 Format : UTF-8 Codec ID : S_TEXT/UTF8 Codec ID/Info : UTF-8 Plain Text Title : REGULAR Language : Italian Default : No Forced : No DURATION : 01:42:51.547000000 NUMBER_OF_FRAMES : 1221 NUMBER_OF_BYTES : 38587 _STATISTICS_WRITING_APP : mkvmerge v8.7.0 ('All of the above') 64bit _STATISTICS_WRITING_DATE_UTC : 2017-01-07 17:43:25 _STATISTICS_TAGS : BPS DURATION NUMBER_OF_FRAMES NUMBER_OF_BYTES Text #3 ID : 6 Format : UTF-8 Codec ID : S_TEXT/UTF8 Codec ID/Info : UTF-8 Plain Text Title : REGULAR Language : English Default : No Forced : No DURATION : 01:38:16.765000000 NUMBER_OF_FRAMES : 1232 NUMBER_OF_BYTES : 41879 _STATISTICS_WRITING_APP : mkvmerge v8.7.0 ('All of the above') 64bit _STATISTICS_WRITING_DATE_UTC : 2017-01-07 17:43:25 _STATISTICS_TAGS : BPS DURATION NUMBER_OF_FRAMES NUMBER_OF_BYTES Text #4 ID : 7 Format : UTF-8 Codec ID : S_TEXT/UTF8 Codec ID/Info : UTF-8 Plain Text Title : NON UDENTI Language : English Default : No Forced : No DURATION : 01:38:34.485000000 NUMBER_OF_FRAMES : 1398 NUMBER_OF_BYTES : 45579 _STATISTICS_WRITING_APP : mkvmerge v8.7.0 ('All of the above') 64bit _STATISTICS_WRITING_DATE_UTC : 2017-01-07 17:43:25 _STATISTICS_TAGS : BPS DURATION NUMBER_OF_FRAMES NUMBER_OF_BYTES Menu 00:00:00.000 : :00:00:00.000 00:01:30.023 : :00:01:30.023 00:11:55.048 : :00:11:55.048 00:23:00.045 : :00:23:00.045 00:24:30.069 : :00:24:30.069 00:25:25.657 : :00:25:25.657 00:26:55.681 : :00:26:55.681 00:36:50.675 : :00:36:50.675 00:48:25.703 : :00:48:25.703 00:49:55.726 : :00:49:55.726 00:50:48.112 : :00:50:48.112 00:52:18.135 : :00:52:18.135 01:03:19.129 : :01:03:19.129 01:13:48.157 : :01:13:48.157 01:15:18.180 : :01:15:18.180 01:16:15.738 : :01:16:15.738 01:17:45.761 : :01:17:45.761 01:28:40.815 : :01:28:40.815 01:39:15.850 : :01:39:15.850 01:40:45.873 : :01:40:45.873 [/spoiler] [/color][/b][/center]

Tom Clancy’s Rainbow Six Siege – Update v1.2 PC ITA Repack (2015)

Language: | Size: 10.5 GB | Seed: 155 | Leech: 78

Description:

Tom.Clancys.Rainbow.Six.Siege.Update.v1.2-CODEX | 95MB Genere: Azione Sviluppatore: Ubisoft Montreal Editore: Ubisoft Data di rilascio: 1 dic 2015 MINIMI: OS: Windows 7, Windows 8.1, Windows 10 (64bit versions required) Processor: Intel Core i3 560 @ 3.3 GHz or AMD Phenom II X4 945 @ 3.0 GHz Memory: 6 GB RAM Graphics: NVIDIA GeForce GTX 460 or AMD Radeon HD 5870 (DirectX-11 compliant with 1GB of VRAM) Network: Broadband Internet connection Storage: 30 GB available space Sound Card: DirectX® 9.0c compatible sound card with latest drivers Tom Clancy’s Rainbow Six Siege, il nuovo capitolo dell’acclamato franchise di sparatutto in prima persona sviluppato dal rinomato studio Ubisoft Montreal, offre ai giocatori la possibilità di apprendere l’arte della distruzione. Intensi scontri a distanza ravvicinata, un alto tasso di mortalità, tattiche, gioco di squadra e azioni esplosive sono al centro dell’esperienza di gioco. Il gameplay di Tom Clancy’s Rainbow Six Siege stabilisce un nuovo termine di paragone all’interno dell’universo della serie Tom Clancy’s Rainbow Six grazie agli intensi scontri a fuoco e alle abilità strategiche.

Vikings S02e03, [H264 - Ita Aac]

Language: | Size: 391.05 MB | Seed: 155 | Leech: 89

Description:

La serie, ambientata in Scandinavia durante l'alto medioevo, ripropone in chiave romanzata la storia del leggendario vichingo Ragnar Lodbrok, dei suoi compagni e della sua famiglia. Ragnar (Travis Fimmel) è presentato come un giovane guerriero vichingo che anela alla scoperta di nuove civiltà attraverso i mari, è infatti il primo della sua gente a voler salpare verso occidente, attraversando le acque del mare del Nord, convinto che vi sia altro per cui valga la pena rischiare. La prima caratteristica che distingue il protagonista dalla sua gente è la sete di conoscenza, addirittura superiore a quella di conquista, che possiede ugualmente. Con il suo amico, il geniale artigiano Floki (Gustaf Skarsgård), Ragnar costruisce in segreto una nuova generazione di Longships più veloci e sfida il governatore locale, lo jarl Haraldson (Gabriel Byrne), un uomo avido e di vedute altrettanto strette, per concedere incursioni nell'inesplorato sud-ovest, in Inghilterra, attirandone così una mal celata ostilità e l'invidia. Ragnar tenta ugualmente la sorte assieme a suo fratello Rollo (Clive Standen) ed un gruppo di compagni, ma quando torna portando con se oro e vari preziosi a testimoniare le sue corrette intuizioni e la sua abilità, diventa uno dei guerrieri più rispettati del villaggio, ma anche uno dei meno ben visti da Haraldson e da i suoi fedeli, con tutto ciò che ne consegue. AUTORE flint CATEGORIA Serie TV INFOHASH 232911B6384C6F5471158341C13148AB0B3222FB FILE(2) Files

I Griffin - Family Guy S11e09, [Mux - H264 - Ita Eng Aac - SoftSub Ita Eng]

Language: | Size: 114.46 MB | Seed: 155 | Leech: 25

Description:

Il programma ruota attorno alle avventure di Peter Griffin e della sua famiglia residenti a Quahog, cittadina immaginaria del Rhode Island. Peter è un operaio incompetente, obeso ed ottuso, ed il suo comportamento è particolarmente mutevole: a volte è un padre assente e dedito all'alcool, che non riesce a farsi rispettare dai propri cari, altre volte invece, seppur per poco, riesce a svolgere degnamente il ruolo di capo famiglia. Sua moglie, Lois Pewterschmidt, è una bella e brava casalinga, insegnante di pianoforte (anche se raramente la si vede praticare quest'attività) che dimostra talvolta velleità artistiche ed esibisce comportamenti disinibiti. La coppia ha tre figli: Meg è la tipica ragazza con problemi adolescenziali, come il non essere accettati o le difficoltà nei rapporti sentimentali; Chris è anche lui obeso, ingenuo e, per quanto tutt'altro che talentuoso, con la passione per il disegno; infine il diabolico Stewie, un neonato intelligentissimo, in grado di costruire fantascientifici strumenti per liberarsi della madre, considerata l'ostacolo alla conquista del mondo. Con la famiglia vive anche un cane antropomorfo, Brian, il miglior amico di Peter, che deve fare i conti con i suoi grossi problemi di dipendenza dall'alcool e, in alcuni casi, dalla droga.

Pitch Perfect 2 (2015) 1080p BrRip x264 - YIFY

Language: | Size: 1.85 GB | Seed: 155 | Leech: 99

Description:

The Barden Bellas are back to pitch slap the world in Pitch Perfect 2, the follow-up to the original runaway global hit about a group of lovable misfits with only one thing in common: the irresistible way they sound when they’re seamlessly mixed together, mashed-up and arranged like never before. It’s been three years since the Bellas brought their signature vocals, style and attitude to become the first all-female group to win a national title. But when they get banned after a scandal that threatens to derail their last year at Barden, the three-time defending champs worry that this time they’ve lost their harmony for good. With just one chance left at redeeming their legacy, the Bellas must fight for their right to win the World Championships of A Cappella in Copenhagen. And as they struggle to balance the pressures of musical domination with senior angst, it will take the power of sisterhood to find their voice and see what it takes to be the world’s top pitches. Directed by Elizabeth Banks, co-star and producer of Pitch Perfect, and produced by Pitch Perfect’s Paul Brooks and Max Handelman and Banks, the comedy finds Kay Cannon back with the team to pen the next chapter and co-produce.

Kill Your Friends 2015 VOSTFR 1080p BluRay x264 DTS BUITONI Vérifié

Language: | Size: 7.65 GB | Seed: 155 | Leech: 37

Description:

Section: Films/Séries/Vidéos Sous-Section: Films Titre: Kill Your Friends Titre Original Kill Your Friends Genre: Comédie, Thriller, Année: 2015 Release: Kill Your Friends 2015 VOSTFR 1080p BluRay x264 DTS BUITONI Qualité: HDrip 1080 [Rip HD depuis Bluray] Langue: VOSTFR Système: TV/PC/Platine/Lecteur Multimédia/etc Type: 2D (Standard) Taille: 7.65 GB Info Hash: 6d45e3e98c0ae0152a16b427f5c5dd1e9c69dee4 Uploadeur: buitonio

Les Cowboys 2015 FRENCH HDLight 1080p x264 AC3 Wita Vérifié

Language: | Size: 2.52 GB | Seed: 155 | Leech: 73

Description:

Section: Films/Séries/Vidéos Sous-Section: Films Titre: Les Cowboys Titre Original Les Cowboys Genre: Drame, Année: 2015 Release: Les Cowboys 2015 FRENCH HDLight 1080p x264 AC3 Wita Qualité: HDlight 1080 [Rip HD-léger depuis source HD] Langue: Français (VFF/Truefrench) Système: TV/PC/Platine/Lecteur Multimédia/etc Type: 2D (Standard) Taille: 2.52 GB Info Hash: d060c8f13d2d9f22bfeef443497ac202c18dda3f Uploadeur: sniperstef

Microsoft Flight Simulator FSX 737 Pilot In Command [English][PCDVD] [2008, Simulation (Sports)] EN

Language: | Size: 3.41 GB | Seed: 155 | Leech: 13

Description:

Microsoft Flight Simulator FSX 737 Pilot In Command [English][PCDVD] Genre: Simulation (Sports) Platform: Windows Multiplayer: No Year: 2008 Type of publication: Language of the game: EN Crack: Available Description : TEAM EUPHORiA releases a big add on for Flight Simulator X or Flight Simulator 2004. This add on brings a lot of new features to the game, and more detailed planes. Ive got FSX, however no decent knowledge of flying;) Airliner enthusiasts can now take their places in a Flight Simulator X captains seat and command the worlds favourite airliner! The -300, -400 and -500 versions of the 737 have been expertly modelled and come with a choice of over 70 airline liveries. The beauty is more than skin deep – 737 Pilot In Command has advanced avionics and a highly accurate flight model. Other features include working weather radar and a printed manual that comes with a bespoke tutorial from the acclaimed trainer Captain Mike Ray. The new FSX version includes some extra features including innovative in-flight passenger screens and 737 Pilot In Command is also fully compatible with Windows Vista and the Flight Simulator SP2 service pack. System requirements: Size: 3.41 GB

Legends of Eisenwald-CODEX [2015, Adventure] EN

Language: | Size: 1.07 GB | Seed: 155 | Leech: 27

Description:

Legends of Eisenwald-CODEX Genre: Adventure Platform: Windows Multiplayer: No Year: 2015 Type of publication: Language of the game: EN Crack: Available Description : Release Date: 07/2015 Protection: Steam Discs: 1 Genre: Adventure Legends of Eisenwald is an adventure game with tactical battles RPG and strategy elements. Take the lead of a small feudal army and try to defend your right to survive in this ruthless medieval world. The mysterious lands of old Germany are waiting for you it's a land where the superstitions of the time have come to life This isnt a fantasy game For more infos go to: http://store.steampowered.com/app/246760/ Extract Burn or mount the .iso Run setup.exe and install Copy crack from CODEX dir to installdir Play General Notes: Block the game's exe in your firewall to prevent the game from trying to go online If you install games to your systemdrive, it may be necessary to run this game with admin privileges instead System requirements: Size: 1.07 GB

Act of War Gold Edition-DEFA [2015, Strategy (RTS)] EN

Language: | Size: 5.54 GB | Seed: 155 | Leech: 59

Description:

Act of War Gold Edition-DEFA Genre: Strategy (RTS) Platform: Windows Multiplayer: No Year: 2015 Type of publication: Language of the game: EN Crack: Available Description : Release date..: 09/07/2015 Language......: English Type..........: ISO/Digital Platform......: Win Genre.........: Strategy Developer.....: Eugen Systems/Atari Protection....: none Size..........: 61 x 100MB Notes.........: Includes Direct Action & High Treason System requirements: Size: 5.54 GB

A Spasso Nel Bosco (2015) iTA DTS AC3 6 CH 1080p BluRay x264 Sub

Language: | Size: 9.79 GB | Seed: 155 | Leech: 97

Description:

A Walk in the Woods USA 2015 Genere: Avventura Durata 98' Regia di Ken Kwapis Con Robert Redford, Nick Nolte, Nick Offerman, Emma Thompson, Kristen Schaal, Mary Steenburgen, Linds Edwards, Sandra Ellis Lafferty... Trama Dopo esser ritornato con la famiglia negli Stati Uniti dopo anni trascorsi all'estero, l'acclamato scrittore di viaggi Bill Bryson (Robert Redford) decide con grande disappunto della moglie di esplorare il proprio Paese. Con in mente di esplorare le 2.200 miglia del famoso 'sentiero degli Appalachi', per partire Bill deve acconsentire alla richiesta della consorte di trovarsi un compagno di viaggio, che individua nel vecchio amico Stephen Katz (Nick Nolte), un donnaiolo alcolizzato e cocainomane. L'escursione nel deserto, tra incontri esilaranti, animali selvatici e pericoli mortali, metterà a dura prova la loro stessa amicizia. Risoluzione: 720 x 304

Veloce Come Il Vento (2016) iTA DTS AC3 6 CH 1080p BluRay x264 Sub

Language: | Size: 7.56 GB | Seed: 155 | Leech: 7

Description:

Titolo originale: Veloce come il vento Conosciuto anche come: Italian Race Nazione: Italia Anno: 2016 Genere: Azione Durata: 119' Regia: Matteo Rovere Cast: Stefano Accorsi, Matilda De Angelis, Roberta Mattei, Paolo Graziosi, Lorenzo Gioielli, Giulio Pugnaghi Produzione: Fandango Data di uscita: 07 Aprile 2016 (cinema) Trama: La passione per i motori scorre da sempre nelle vene di Giulia De Martino. Viene da una famiglia che da generazioni sforna campioni di corse automobilistiche. Anche lei è un pilota, un talento eccezionale che a soli diciassette anni partecipa al Campionato GT, sotto la guida del padre Mario. Ma un giorno tutto cambia e Giulia si trova a dover affrontare da sola la pista e la vita. A complicare la situazione il ritorno inaspettato del fratello Loris, ex pilota ormai totalmente inaffidabile, ma dotato di uno straordinario sesto senso per la guida. Saranno obbligati a lavorare insieme, in un susseguirsi di adrenalina ed emozioni che gli farà scoprire quanto sia difficile e importante provare ad essere una famiglia. Parole chiave: azione

The Sacrament (2013) BluRay m1080p iTA AC3 640 Kbps x264 Sub

Language: | Size: 2.94 GB | Seed: 155 | Leech: 9

Description:

The Sacrament USA 2013 Genere: Drammatico Durata 95' Regia di Ti West Con Amy Seimetz, Joe Swanberg, Kate Lyn Sheil, AJ Bowen, Shawn Parsons, Gene Jones, Kentucker Audley, Millie Wannamaker, Donna Biscoe... Trama Due giornalisti documentano il viaggio di un amico alla ricerca della sorella scomparsa. Muovendosi dagli Stati Uniti verso una località sconosciuta, entrano in contatto con la comunità Eden Parish, composta da circa 200 membri e con a capo una carismatica figura nota solo come "il padre". Quando l'amico ritrova la sorella, diventa evidente ai nuovi arrivati che la comunità non è quel paradiso che sembra e ciò che era nato per essere un documentario finisce per trasformarsi in fuga per la sopravvivenza. Parole chiave: drammatico

Alvaro Soler - Eterno Agosto (Italian Version) (2016) (by emi)

Language: | Size: 93.66 MB | Seed: 155 | Leech: 14

Description:

mp3 a 192 kbps audio di qualità a 95 db Tracklist 01 - Sofia.mp3 (4.95 MB) 02 - Animal.mp3 (5.52 MB) 03 - Libre (feat. Emma).mp3 (5.45 MB) 04 - El Mismo Sol.mp3 (4.29 MB) 05 - Tengo Un Sentimiento.mp3 (4.39 MB) 06 - Agosto.mp3 (4.28 MB) 07 - Mi Corazón.mp3 (4.55 MB) 08 - Volar.mp3 (4.35 MB) 09 - Esta Noche.mp3 (4.03 MB) 10 - Esperándote.mp3 (4.70 MB) 11 - Lucía.mp3 (4.94 MB) 12 - La Vida Seguirá.mp3 (4.01 MB) 13 - Si No Te Tengo A Ti.mp3 (4.20 MB) 14 - Que Pasa.mp3 (4.57 MB) 15 - Cuando Volveras.mp3 (4.69 MB) 16 - Sonrio (La Vita Com'è).mp3 (5.41 MB) 17 - El Camino.mp3 (4.48 MB) 18 - Sofia (Acoustic Version).mp3 (5 MB) 19 - El Mismo Sol (Under The Same Sun).mp3 (4.51 MB) 20 - Sofia (OOVEE Remix).mp3 (5.29 MB)

Kubo e la spada magica (2016).H264.Italian.English.Ac3.5.1.sub.ita.eng.iCV-MIRCrew

Language: | Size: 1.54 GB | Seed: 155 | Leech: 38

Description:

Kubo and the Two Strings - Kubo e la spada magica (2016).H264.Italian.English.Ac3.5.1.sub.ita.eng.iCV-MIRCrew [center] [color=red][b][img]http://extraimago.com/images/2016/07/16/oCo82IVa08d8.png[/img] [u]NO FOUND ONLY ORIGINAL RELEASE[/u] [img]http://i.imgur.com/GDNQx1Z.png[/img] My release is always in double track audio italian and Original audio for select it use VLC or dvd player home not use wmp Kubo e la spada magica - Kubo and the Two Strings (2016) [img]http://extraimage.net/images/2017/01/18/82de106f3a9c47abc53a470048f93459.png[/img] [URL=http://www.imdb.com/title/tt4302938/][IMG]http://www.userlogos.org/files/logos/Sucka/imdb_new.png[/IMG][/URL] [img]http://i.imgur.com/Q5gAZRt.png[/img] DATA USCITA: 03 novembre 2016 GENERE: Animazione ANNO: 2016 REGIA: Travis Knight SCENEGGIATURA: Marc Haimes MONTAGGIO: Christopher Murrie MUSICHE: Dario Marianelli PRODUZIONE: Laika Entertainment DISTRIBUZIONE: Universal Pictures PAESE: USA DURATA: 101 Min [img]http://i.imgur.com/Jtvgw7x.png[/img] Rooney Mara, Charlize Theron, Matthew McConaughey, Ralph Fiennes [img]http://i.imgur.com/hL3n1m8.png[/img] E' la storia dell'intelligente e gentile Kubo, che racconta storie fantastiche alla gente del suo paese in riva al mare. Ma quando accidentalmente evoca un antico spirito in cerca di secolare vendetta, è costretto a fuggire e si unisce a Monkey e Beetle in una quest per salvare la sua famiglia e svelare il mistero della morte del padre........... [img]http://i.imgur.com/MTp7cO6.png[/img] A young boy named Kubo must locate a magical suit of armor worn by his late father in order to defeat a vengeful spirit from the past.................. [img]http://i.imgur.com/6TgqSmf.png[/img] [img]http://extraimage.net/images/2017/01/18/007fda0314a51c30e4f626d3a7e596a8.png[/img] [img]http://extraimage.net/images/2017/01/18/cef3b4af88eefad942d59b88e55c1ffd.png[/img] [img]http://extraimage.net/images/2017/01/18/0906589adeb532f06d6ca5bf0f7e48cd.png[/img] [img]http://extraimage.net/images/2017/01/18/d40597c93d41937aaeb571e77b262079.png[/img] [img]http://i.imgur.com/t8N3Ia1.png[/img] [spoiler] General Unique ID : 109078103529564420194179017235203181355 (0x520FADB7D78BAACB4244357E0D3D4B2B) Complete name : Kubo e la spada magica (2016).H264.ita.eng.sub.ita.iCV-MIRCrew.mkv Format : Matroska Format version : Version 2 File size : 1.54 GiB Duration : 1h 41mn Overall bit rate : 2 169 Kbps Movie name : VISIT www.icv-crew.org Encoded date : UTC 2017-01-17 20:24:41 Writing application : Lavf54.63.100 Writing library : Lavf54.63.100 COPYRIGHT : robbyrs Video ID : 1 Format : AVC Format/Info : Advanced Video Codec Format profile : [email protected] Format settings, CABAC : Yes Format settings, ReFrames : 2 frames Codec ID : V_MPEG4/ISO/AVC Duration : 1h 41mn Bit rate : 1 270 Kbps Width : 720 pixels Height : 300 pixels Display aspect ratio : 2.40:1 Original display aspect ratio : 2.40:1 Frame rate mode : Variable Frame rate : 23.976 fps Color space : YUV Chroma subsampling : 4:2:0 Bit depth : 8 bits Scan type : Progressive Bits/(Pixel*Frame) : 0.245 Stream size : 894 MiB (57%) Writing library : x264 core 130 r2273 Encoding settings : cabac=1 / ref=2 / deblock=1:0:0 / analyse=0x1:0x131 / me=hex / subme=7 / psy=1 / psy_rd=1.00:0.00 / mixed_ref=0 / me_range=16 / chroma_me=1 / trellis=1 / 8x8dct=0 / cqm=0 / deadzone=21,11 / fast_pskip=1 / chroma_qp_offset=-2 / threads=12 / lookahead_threads=2 / sliced_threads=0 / nr=0 / decimate=1 / interlaced=0 / bluray_compat=0 / constrained_intra=0 / bframes=3 / b_pyramid=0 / b_adapt=1 / b_bias=0 / direct=3 / weightb=1 / open_gop=0 / weightp=2 / keyint=230 / keyint_min=23 / scenecut=40 / intra_refresh=0 / rc_lookahead=40 / rc=abr / mbtree=1 / bitrate=1270 / ratetol=1.0 / qcomp=0.60 / qpmin=10 / qpmax=69 / qpstep=4 / vbv_maxrate=24000 / vbv_bufsize=24000 / nal_hrd=none / ip_ratio=1.40 / aq=1:1.00 Language : English Default : Yes Forced : No DURATION : 01:41:36.215000000 NUMBER_OF_FRAMES : 146163 NUMBER_OF_BYTES : 6224357532 _STATISTICS_WRITING_APP : mkvmerge v8.7.0 ('All of the above') 64bit _STATISTICS_WRITING_DATE_UTC : 2017-01-15 16:11:10 _STATISTICS_TAGS : BPS DURATION NUMBER_OF_FRAMES NUMBER_OF_BYTES Audio #1 ID : 2 Format : AC-3 Format/Info : Audio Coding 3 Mode extension : CM (complete main) Codec ID : A_AC3 Duration : 1h 41mn Bit rate mode : Constant Bit rate : 448 Kbps Channel(s) : 6 channels Channel positions : Front: L C R, Side: L R, LFE Sampling rate : 48.0 KHz Bit depth : 16 bits Compression mode : Lossy Delay relative to video : 1mn 5s Stream size : 326 MiB (21%) Title : AC3 ITA Language : Italian Default : No Forced : No DURATION : 01:41:36.352000000 NUMBER_OF_FRAMES : 190511 NUMBER_OF_BYTES : 487708160 _STATISTICS_WRITING_APP : mkvmerge v8.7.0 ('All of the above') 64bit _STATISTICS_WRITING_DATE_UTC : 2017-01-15 16:11:10 _STATISTICS_TAGS : BPS DURATION NUMBER_OF_FRAMES NUMBER_OF_BYTES Audio #2 ID : 3 Format : AC-3 Format/Info : Audio Coding 3 Mode extension : CM (complete main) Codec ID : A_AC3 Duration : 1h 41mn Bit rate mode : Constant Bit rate : 448 Kbps Channel(s) : 6 channels Channel positions : Front: L C R, Side: L R, LFE Sampling rate : 48.0 KHz Bit depth : 16 bits Compression mode : Lossy Delay relative to video : 1mn 5s Stream size : 326 MiB (21%) Title : AC3 ENG Language : English Default : No Forced : No DURATION : 01:41:36.288000000 NUMBER_OF_FRAMES : 190509 NUMBER_OF_BYTES : 487703040 _STATISTICS_WRITING_APP : mkvmerge v8.7.0 ('All of the above') 64bit _STATISTICS_WRITING_DATE_UTC : 2017-01-15 16:11:10 _STATISTICS_TAGS : BPS DURATION NUMBER_OF_FRAMES NUMBER_OF_BYTES Text #1 ID : 4 Format : UTF-8 Codec ID : S_TEXT/UTF8 Codec ID/Info : UTF-8 Plain Text Title : FORCED Language : Italian Default : Yes Forced : No DURATION : 01:38:50.215000000 NUMBER_OF_FRAMES : 2 NUMBER_OF_BYTES : 29 _STATISTICS_WRITING_APP : mkvmerge v8.7.0 ('All of the above') 64bit _STATISTICS_WRITING_DATE_UTC : 2017-01-15 16:11:10 _STATISTICS_TAGS : BPS DURATION NUMBER_OF_FRAMES NUMBER_OF_BYTES Text #2 ID : 5 Format : UTF-8 Codec ID : S_TEXT/UTF8 Codec ID/Info : UTF-8 Plain Text Title : REGOLARI Language : Italian Default : No Forced : No DURATION : 01:41:11.314000000 NUMBER_OF_FRAMES : 954 NUMBER_OF_BYTES : 28563 _STATISTICS_WRITING_APP : mkvmerge v8.7.0 ('All of the above') 64bit _STATISTICS_WRITING_DATE_UTC : 2017-01-15 16:11:10 _STATISTICS_TAGS : BPS DURATION NUMBER_OF_FRAMES NUMBER_OF_BYTES Text #3 ID : 6 Format : UTF-8 Codec ID : S_TEXT/UTF8 Codec ID/Info : UTF-8 Plain Text Title : NON UDENTI Language : English Default : No Forced : No DURATION : 01:32:30.002000000 NUMBER_OF_FRAMES : 1241 NUMBER_OF_BYTES : 32794 _STATISTICS_WRITING_APP : mkvmerge v8.7.0 ('All of the above') 64bit _STATISTICS_WRITING_DATE_UTC : 2017-01-15 16:11:10 _STATISTICS_TAGS : BPS DURATION NUMBER_OF_FRAMES NUMBER_OF_BYTES Menu 00:00:00.000 : :00:00:00.000 00:07:38.208 : :00:07:38.208 00:18:20.833 : :00:18:20.833 00:26:28.417 : :00:26:28.417 00:35:28.000 : :00:35:28.000 00:45:04.625 : :00:45:04.625 00:54:10.625 : :00:54:10.625 01:03:03.417 : :01:03:03.417 01:11:58.833 : :01:11:58.833 01:20:13.208 : :01:20:13.208 01:30:47.833 : :01:30:47.833 01:36:12.417 : :01:36:12.417 [/spoiler] [/color][/b][/center]

True Detective S02e03 [Mux - H264 - Ita Aac] WEBMux by UBi

Language: | Size: 488.96 MB | Seed: 156 | Leech: 79

Description:

STAGIONE 2/2 EPISODI: 4 ITALIA: dal 29/06/2015 al (In Corso) USA: dal 21/06/2015 al (In Corso) Titolo: True Detective Anno: 2015 Episodi: 8 Genere: poliziesco, thriller Ideatore: Nic Pizzolatto Cast: Colin Farrell: Raymond "Ray" Velcoro Rachel McAdams: Antigone "Ani" Bezzerides Taylor Kitsch: Paul Woodrugh Kelly Reilly: Jordan Semyon Vince Vaughn: Francis "Frank" Semyon .: Trama :. Torna una delle serie più attese dell'anno, questa volta ambientata a Los Angeles in un contesto molto diverso dall'affascinante Lousiana, teatro della prima stagione. Nuovo cast e nuovi registi a dirigere le puntate. Unico vero filo conduttore e' lo showrunner e sceneggiatore Nic Pizzolatto. La seconda stagione seguirà l'indagine sulla morte di Ben Caspar, consigliere corrotto di una città della California trovato brutalmente ucciso nei giorni in cui lavorava a un business legato alla rete di trasporti dello Stato. Un affare che potrebbe cambiare per sempre il sistema di collegamenti e il traffico in California. Tre membri delle forze dell'ordine, provenienti da diverse città e appartenenti a diversi corpi statali, vengono coinvolti nell'indagine con l'incarico di inchiodare i responsabili. Presto scopriranno che la loro indagine e' più oscura di quanto pensassero inizialmente. Protagonisti Colin Farrell e Vince Vaughn. Il primo e' un agente corrotto, mentre il secondo un imprenditore della malavita. Ad accompagnarli, Taylor Kitsch, collega detective di Colin Farrell, e Rachel McAdams che sarà un detective dalla morale incorruttibile. 3. Forse domani - Maybe Tomorrow

Dexter S06e01-12 [XviD - Ita Mp3] BDMux - Stagione Completa

Language: | Size: 6.45 GB | Seed: 156 | Leech: 79

Description:

Rimasto orfano all'età di tre anni, Dexter viene adottato da un agente della Polizia di Miami, Harry Morgan, che vede presto in lui delle tendenze omicide. Gli insegna quindi quello che, da adulto, Dexter chiamerà il "Codice di Harry", cioè incanalare questa sua macabra propensione alla morte in una strada più "costruttiva" e uccidere solo brutali criminali (pedofili, mafiosi o killer di persone innocenti) che sono riusciti a sfuggire alla macchina della giustizia. Per soddisfare il suo lugubre interesse per il sangue e coprire i suoi stessi crimini, Dexter lavora come perito ematologo per il Dipartimento di Polizia di Miami. Assassino preciso e risoluto, nasconde la sua verità dietro una maschera di uomo (quasi) normale e socialmente responsabile. È molto amato da molti suoi colleghi e dai figli della sua fidanzata.

Bones S09e11-12, [Mux - H264 - Ita Aac]

Language: | Size: 736.5 MB | Seed: 156 | Leech: 62

Description:

Washington. La dottoressa Temperance Brennan è un'antropologa forense di fama internazionale che lavora con il suo staff per il Jeffersonian Institute, oltre che essere una scrittrice di romanzi di successo ispirati alla sua professione. Un giorno Temperance viene contattata dall'agente dell'FBI Seeley Booth per aiutarlo a risolvere un caso di omicidio in cui il cadavere della vittima è in condizioni molto deteriorate (decomposizione, combustione e mummificazione), e per la cui identificazione è necessaria l'analisi delle ossa; i due avevano già lavorato assieme in passato, e non si erano presi in simpatia, ma stavolta decidono di mettere da parte il loro risentimento e tornano a collaborare. L'indagine viene presto risolta e, visti i risultati, da quel momento "Bones" ("Ossa" – così Temperance viene soprannominata da Booth) e la sua squadra iniziano a collaborare assiduamente con Booth e il Bureau per risolvere casi di omicidio all'apparenza molto complicati.

L'ultimo metrò (1980)

Language: | Size: 4.55 GB | Seed: 156 | Leech: 53

Description:

Nella Parigi occupata dai nazisti - dove, partito il metrò delle 20,30 scatta il coprifuoco, ma la gente non ha perso, malgrado tutto, nè la voglia di far teatro, nè quella di andarci - il piccolo Théatre de Montmartre è alle prese con l'allestimento di una commedia norvegese. Il suo direttore, Lucas Steiner, ebreo, ha fatto credere d'essere fuggito in America e d'aver affidato le sorti della compagnia e del teatro a sua moglie Marion, che ne è anche la prima attrice, e al suo fidato collaboratore, il regista Jean-Loup Cottins. In realtà, ma lo sa solo Marion, Steiner è nascosto nella cantina del teatro e di lì, con l'abile mediazione della moglie, che lo va a trovare ogni sera, guida la messinscena della nuova commedia e la regia dell'inconsapevole Jean Loup.

Daddy's Home FRENCH BluRay 1080p 2016

Language: | Size: 7.65 GB | Seed: 156 | Leech: 0

Description:

Un homme travaillant dans le monde de la radio est un beau-papa heureux. Mais un jour, le véritable père des enfants fait irruption dans sa vie, et il va devoir l'"affronter" pour gagner leur affection.