Search Top Tags














L era glaciale - In rotta di Collisione (2016).H264.Italian.English.Ac3

Language: | Size: 1.43 GB | Seed: 211 | Leech: 10

Description:

Titolo originale: Ice Age: Collision Course Nazione: U.S.A. Anno: 2016 Genere: Animazione Durata: 94' Regia: Mike Thurmeier, Galen T. Chu. Sito ufficiale: Sito italiano: www.iceagemovies.com/it/ Social network: facebook Cast (voci): John Leguizamo, Jennifer Lopez, Ray Romano, Simon Pegg, Stephanie Beatriz, Adam DeVine, Jessie J, Keke Palmer, Denis Leary Produzione: Blue Sky Studios, Twentieth Century Fox Animation Distribuzione: 20th Century Fox Data di uscita: 16 Agosto 2016 (anteprima) 22 Agosto 2016 (cinema) Trama: L’epico inseguimento della ghianda, catapulterà Scrat fin su nell’universo, dove accidentalmente darà origine ad una serie di eventi che trasformeranno e minacceranno il mondo dell’Era Glaciale. Per salvarsi Sid, Manny, Diego e il resto del gruppo dovranno abbandonare la loro casa e intraprendere un’avventura ricca di comicità, viaggiando attraverso nuove terre esotiche e incontrando nuovi coloratissimi personaggi.

L era glaciale 3 - L alba dei dinosauri (2009).H264.Italian.English.Ac3.5.1.MultiSub.iCV-MIRCrew

Language: | Size: 1.29 GB | Seed: 36 | Leech: 31

Description:

Ice Age: Dawn of the Dinosaurs - L era glaciale 3 - L alba dei dinosauri (2009).H264.Italian.English.Ac3.5.1.MultiSub.iCV-MIRCrew [center] [color=red][b][img]http://extraimago.com/images/2016/07/16/oCo82IVa08d8.png[/img] [u]NO FOUND ONLY ORIGINAL RELEASE[/u] [img]http://i.imgur.com/GDNQx1Z.png[/img] My release is always in double track audio italian and Original audio for select it use VLC or dvd player home not use wmp L'era glaciale 3 - L'alba dei dinosauri - Ice Age: Dawn of the Dinosaurs (2009) [img]http://extraimage.net/images/2017/01/16/9d734a25b406c889bc8ee2571950ff80.png[/img] [URL=http://www.imdb.com/title/tt1080016/][IMG]http://www.userlogos.org/files/logos/Sucka/imdb_new.png[/IMG][/URL] [img]http://i.imgur.com/fGu1rKv.png[/img] DATA USCITA: 28 agosto 2009 GENERE: Animazione, Avventura, Commedia, Azione ANNO: 2009 REGIA: Carlos Saldanha SCENEGGIATURA: Peter Ackerman, Michael Berg, Yoni Brenner, Mike Reiss MUSICHE: John Powell PRODUZIONE: Blue Sky Studios, DISTRIBUZIONE: 20th Century Fox, PAESE: USA DURATA: 94 Min [img]http://i.imgur.com/W7kBqiE.png[/img] Doppiatori originali Seann William Scott, John Leguizamo, Queen Latifah, Josh Peck, Denis Leary, Ray Romano, Chris Wedge, Joey King, Atticus Shaffer Doppiatori italiani Leo Gullotta, Claudio Bisio, Pino Insegno, Massimo Giuliani, Francesco Pezzulli, Roberta Lanfranchi, Lee Ryan [img]http://i.imgur.com/bFK3ggF.png[/img] In questo terzo episodio della fortunata serie de L'era glaciale, nuove avventure attendono i nostri eroi sottozero. Scrat sta ancora cercando di conquistare la sfuggente ghianda, mentre forse trova il vero amore. Manny e Ellie attendono la nascita del loro mini-mammut............................ [img]http://i.imgur.com/48xHWWH.png[/img] When Sid's attempt to adopt three dinosaur eggs gets him abducted by their real mother to an underground lost world, his friends attempt to rescue him. ............. [img]http://i.imgur.com/K8bfNTy.png[/img] [img]http://boltimg.com/images/uCWe3.png[/img] [img]http://boltimg.com/images/uCSBn.png[/img] [img]http://boltimg.com/images/uCdFA.png[/img] [img]http://i.imgur.com/aVrMohH.png[/img] [spoiler] General Unique ID : 136906622613570164109426577562717593125 (0x66FF41A3EE5B28B64916BB44E5031E25) Complete name : L'era glaciale 3 - L'alba dei dinosauri (2009).H264.ita.eng.multisb.iCV-MIRCrew.mkv Format : Matroska Format version : Version 2 File size : 1.29 GiB Duration : 1h 30mn Overall bit rate : 2 048 Kbps Encoded date : UTC 2011-02-27 11:07:45 Writing application : Lavf54.63.100 Writing library : Lavf54.63.100 Video ID : 1 Format : AVC Format/Info : Advanced Video Codec Format profile : Main@L4.1 Format settings, CABAC : Yes Format settings, ReFrames : 2 frames Codec ID : V_MPEG4/ISO/AVC Duration : 1h 30mn Bit rate : 1 275 Kbps Width : 720 pixels Height : 388 pixels Display aspect ratio : 1.856 Frame rate mode : Variable Frame rate : 25.000 fps Color space : YUV Chroma subsampling : 4:2:0 Bit depth : 8 bits Scan type : Progressive Bits/(Pixel*Frame) : 0.183 Stream size : 800 MiB (61%) Title : x264 1920x1036 BitRate=10680 kbps Writing library : x264 core 130 r2273 Encoding settings : cabac=1 / ref=2 / deblock=1:0:0 / analyse=0x1:0x131 / me=hex / subme=7 / psy=1 / psy_rd=1.00:0.00 / mixed_ref=0 / me_range=16 / chroma_me=1 / trellis=1 / 8x8dct=0 / cqm=0 / deadzone=21,11 / fast_pskip=1 / chroma_qp_offset=-2 / threads=12 / lookahead_threads=2 / sliced_threads=0 / nr=0 / decimate=1 / interlaced=0 / bluray_compat=0 / constrained_intra=0 / bframes=3 / b_pyramid=0 / b_adapt=1 / b_bias=0 / direct=3 / weightb=1 / open_gop=0 / weightp=2 / keyint=250 / keyint_min=25 / scenecut=40 / intra_refresh=0 / rc_lookahead=40 / rc=2pass / mbtree=1 / bitrate=1275 / ratetol=1.0 / qcomp=0.60 / qpmin=10 / qpmax=69 / qpstep=4 / cplxblur=20.0 / qblur=0.5 / vbv_maxrate=24000 / vbv_bufsize=24000 / nal_hrd=none / ip_ratio=1.40 / aq=1:1.00 Language : Italian Default : Yes Forced : No Audio #1 ID : 2 Format : AC-3 Format/Info : Audio Coding 3 Mode extension : CM (complete main) Codec ID : A_AC3 Duration : 1h 30mn Bit rate mode : Constant Bit rate : 384 Kbps Channel(s) : 2 channels Channel positions : Front: L R Sampling rate : 48.0 KHz Bit depth : 16 bits Compression mode : Lossy Delay relative to video : 1mn 5s Stream size : 248 MiB (19%) Language : Italian Default : No Forced : No Audio #2 ID : 3 Format : AC-3 Format/Info : Audio Coding 3 Mode extension : CM (complete main) Codec ID : A_AC3 Duration : 1h 30mn Bit rate mode : Constant Bit rate : 384 Kbps Channel(s) : 6 channels Channel positions : Front: L C R, Side: L R, LFE Sampling rate : 48.0 KHz Bit depth : 16 bits Compression mode : Lossy Delay relative to video : 1mn 5s Stream size : 248 MiB (19%) Language : English Default : Yes Forced : No Text #1 ID : 4 Format : UTF-8 Codec ID : S_TEXT/UTF8 Codec ID/Info : UTF-8 Plain Text Title : italian Language : Italian Default : Yes Forced : No Text #2 ID : 5 Format : UTF-8 Codec ID : S_TEXT/UTF8 Codec ID/Info : UTF-8 Plain Text Title : english Language : English Default : No Forced : No Text #3 ID : 6 Format : UTF-8 Codec ID : S_TEXT/UTF8 Codec ID/Info : UTF-8 Plain Text Title : french Language : French Default : No Forced : No Text #4 ID : 7 Format : UTF-8 Codec ID : S_TEXT/UTF8 Codec ID/Info : UTF-8 Plain Text Title : spanish Language : Spanish Default : No Forced : No Menu 00:00:00.000 : :Main Titles/in Love 00:03:03.080 : :Having a Baby 00:10:12.760 : :Sid's New Family 00:15:26.160 : :Baby Dinosaur 00:19:11.360 : :Play Nice 00:23:08.440 : :One Angry Fossil 00:26:22.200 : :Underground World 00:30:29.520 : :Buck to the Rescue 00:34:41.680 : :Fierce Flora 00:39:30.440 : :Chasm of Death 00:46:30.000 : :Parenting Dispute 00:48:41.640 : :An Eye for a Tooth 00:54:42.920 : :Nutty Tango 00:55:43.000 : :On Sid's Trail 01:00:36.080 : :Code Word 01:05:17.800 : :Lava Lake 01:08:41.120 : :Peaches 01:12:53.600 : :Battling Rudy 01:17:45.880 : :Home, Sweet Home 01:23:16.600 : :End Titles [/spoiler] [/color][/b][/center]

L era glaciale 4 - Continenti alla deriva (2012).H264.Italian.English.Ac3.5.1.Sub.ita.eng.iCV-MIRCrew

Language: | Size: 1.24 GB | Seed: 61 | Leech: 63

Description:

Ice Age: Continental Drift - L era glaciale 4 - Continenti alla deriva (2012).H264.Italian.English.Ac3.5.1.Sub.ita.eng.iCV-MIRCrew [center] [color=red][b][img]http://extraimago.com/images/2016/07/16/oCo82IVa08d8.png[/img] [u]NO FOUND ONLY ORIGINAL RELEASE[/u] [img]http://i.imgur.com/GDNQx1Z.png[/img] My release is always in double track audio italian and Original audio for select it use VLC or dvd player home not use wmp L'era glaciale 4 - Continenti alla deriva - Ice Age: Continental Drift (2012) [img]http://extraimage.net/images/2017/01/16/903bcfcef1130ef3fcd197eb29602456.png[/img] [URL=][IMG]http://www.userlogos.org/files/logos/Sucka/imdb_new.png[/IMG][/URL] [img]http://i.imgur.com/fGu1rKv.png[/img] Titolo originale Ice Age: Continental Drift Lingua originale inglese Paese di produzione Stati Uniti d'America Anno 2012 Durata 84 minuti Rapporto 2.39:1 Genere animazione, avventura, commedia Regia Steve Martino, Mike Thurmeier Sceneggiatura Michael Berg, Jason Fuchs, Mike Reiss Produttore Lori Forte, John C. Donkin Casa di produzione Blue Sky Studios Distribuzione (Italia) 20th Century Fox Art director Peter DeSeve Fotografia Renato Falcão Montaggio James Palumbo, David Ian Salter Musiche John Powell [img]http://i.imgur.com/W7kBqiE.png[/img] Doppiatori originali Ray Romano: Manfred "Manny" John Leguizamo: Sid Denis Leary: Diego Queen Latifah: Ellie Seann William Scott: Crash Josh Peck: Eddie Chris Wedge: Scrat Keke Palmer: Pesca Wanda Sykes: Nonnina Peter Dinklage: Capitan Sbudella Jennifer Lopez: Shira Aziz Ansari: Sguincio Rebel Wilson: Gura Kunal Nayyar: Gandhalì Nick Frost: Pachi Josh Gad: Louis Alain Chabat: Gabièn Drake: Ethan Joy Behar: Eunice Heather Morris: Katie Alan Tudyk: Milton/Fabio Sloth Nicki Minaj: Steffie Eddie "Piolín" Sotelo: zio Fungus Ben Gleib: Marshall Ally Romano: Meghan Simon Pegg: Buck Patrick Stewart: Ariscratle Doppiatori italiani Filippo Timi: Manfred Claudio Bisio: Sid Pino Insegno: Diego Roberta Lanfranchi: Ellie Francesco Pezzulli: Crash Lee Ryan: Eddie Isabelle Adriani: Pesca Cristina Noci: Nonnina Francesco Pannofino: Capitan Sbudella Hong-hu Ada: Shira Riccardo Scarafoni: Sguincio Domitilla D'Amico: Gura Gianfranco Miranda: Gandhalì Fabrizio Vidale: Pachi Luigi Morville: Louis Marco Rasori: Gabièn Andrea Mete: Ethan Marina Tagliaferri: Eunice Carmen Iovine: Katie Alessio Cigliano: Milton Monica Ward: Steffie Sergio Di Giulio: zio Fungus Roberto Ciufoli: Marshall Elisa Carucci: Meghan Massimo Giuliani: Buck Chris Wedge : Scrat [img]http://i.imgur.com/bFK3ggF.png[/img] Scrat sta cercando ancora di seppellire una ghianda quando apre una fenditura e precipita fino al centro della Terra, causando una catastrofe planetaria dalla quale si innesca la deriva dei continenti.................. [img]http://i.imgur.com/48xHWWH.png[/img] Manny, Diego, and Sid embark upon another adventure after their continent is set adrift. Using an iceberg as a ship, they encounter sea creatures and battle pirates as they explore a new world. . ............. [img]http://i.imgur.com/K8bfNTy.png[/img] [img]http://extraimage.net/images/2017/01/16/07a31b98b71ee2d658bd95bbe16f0e20.png[/img] [img]http://extraimage.net/images/2017/01/16/d74bdc1bb035191811565b40a4badd92.png[/img] [img]http://extraimage.net/images/2017/01/16/ea6088474985e6063365608ccfdb0b2b.png[/img] [img]http://i.imgur.com/aVrMohH.png[/img] [spoiler] Generale ID univoco : 179950359951603226621503101511162644353 (0x87612DBD8A50F9FE262CC36C14A3C781) Nome completo : \L'era glaciale 4 - Continenti alla deriva (2012).H264.ita.eng.sub.ita.eng.iCV-MIRCrew.mkv Formato : Matroska Versione formato : Version 2 Dimensione : 1,24 GiB Durata : 1o 27min Bitrate totale : 2.030 Kbps Film : VISIT www.icv-crew.org Data codifica : UTC 2017-01-16 13:07:57 / UTC 2017-01-16 13:07:57 Creato con : Lavf54.63.100 Compressore : Lavf54.63.100 / Lavf54.63.100 Copyright : robbyrs Video ID : 1 Formato : AVC Formato/Informazioni : Advanced Video Codec Profilo formato : Main@L4.1 Impostazioni formato, CABAC : Si Impostazioni formato, ReFrames : 2 frame ID codec : V_MPEG4/ISO/AVC Durata : 1o 27min Bitrate : 1.270 Kbps Larghezza : 720 pixel Altezza : 300 pixel Rapporto aspetto visualizzazione : 2,40:1 Modalità frame rate : Costante Frame rate : 23,976 (24000/1001) fps Spazio colore : YUV Croma subsampling : 4:2:0 Profondità bit : 8 bit Tipo scansione : Progressivo Bit/(pixel*frame) : 0.245 Dimensione della traccia : 767MiB (60%) Compressore : x264 core 130 r2273 Impostazioni compressione : cabac=1 / ref=2 / deblock=1:0:0 / analyse=0x1:0x131 / me=hex / subme=7 / psy=1 / psy_rd=1.00:0.00 / mixed_ref=0 / me_range=16 / chroma_me=1 / trellis=1 / 8x8dct=0 / cqm=0 / deadzone=21,11 / fast_pskip=1 / chroma_qp_offset=-2 / threads=12 / lookahead_threads=2 / sliced_threads=0 / nr=0 / decimate=1 / interlaced=0 / bluray_compat=0 / constrained_intra=0 / bframes=3 / b_pyramid=0 / b_adapt=1 / b_bias=0 / direct=3 / weightb=1 / open_gop=0 / weightp=2 / keyint=230 / keyint_min=23 / scenecut=40 / intra_refresh=0 / rc_lookahead=40 / rc=abr / mbtree=1 / bitrate=1270 / ratetol=1.0 / qcomp=0.60 / qpmin=10 / qpmax=69 / qpstep=4 / vbv_maxrate=24000 / vbv_bufsize=24000 / nal_hrd=none / ip_ratio=1.40 / aq=1:1.00 Default : Si Forced : No Audio #1 ID : 2 Formato : AC-3 Formato/Informazioni : Audio Coding 3 Estensione modo : CM (complete main) Impostazioni formato, Endianness : Big ID codec : A_AC3 Durata : 1o 27min Modalità bitrate : Costante Bitrate : 384 Kbps Canali : 6 canali Posizione canali : Front: L C R, Side: L R, LFE Frequenza campionamento : 48,0 KHz Frame rate : 31,250 fps (1536 spf) Modo compressione : Con perdita Ritardo video : 67ms Dimensione della traccia : 241MiB (19%) Titolo : Surround Lingua : Italiano Default : Si Forced : No Audio #2 ID : 3 Formato : AC-3 Formato/Informazioni : Audio Coding 3 Estensione modo : CM (complete main) Impostazioni formato, Endianness : Big ID codec : A_AC3 Durata : 1o 27min Modalità bitrate : Costante Bitrate : 384 Kbps Canali : 6 canali Posizione canali : Front: L C R, Side: L R, LFE Frequenza campionamento : 48,0 KHz Frame rate : 31,250 fps (1536 spf) Modo compressione : Con perdita Ritardo video : 67ms Dimensione della traccia : 241MiB (19%) Titolo : Surround Lingua : Inglese Default : No Forced : No Testo #1 ID : 4 Formato : UTF-8 ID codec : S_TEXT/UTF8 ID codec/Informazioni : UTF-8 Plain Text Lingua : Italiano Default : No Forced : No Testo #2 ID : 5 Formato : UTF-8 ID codec : S_TEXT/UTF8 ID codec/Informazioni : UTF-8 Plain Text Lingua : Inglese Default : No Forced : No Menu 00:00:00.000 : :00:00:00.000 00:03:24.182 : :00:03:24.037 00:05:07.410 : :00:05:07.224 00:09:33.551 : :00:09:33.406 00:13:08.807 : :00:13:08.705 00:15:55.432 : :00:15:55.329 00:18:22.746 : :00:18:22.643 00:22:23.904 : :00:22:23.717 00:25:56.616 : :00:25:56.555 00:29:18.026 : :00:29:17.965 00:32:57.662 : :00:32:57.601 00:36:14.483 : :00:36:14.381 00:38:41.755 : :00:38:41.653 00:43:48.770 : :00:43:48.709 00:45:29.705 : :00:45:29.644 00:49:39.037 : :00:49:38.976 00:53:49.537 : :00:53:49.476 00:57:23.042 : :00:57:22.856 01:02:31.225 : :01:02:31.039 01:08:08.395 : :01:08:08.334 01:11:10.536 : :01:11:10.475 01:13:14.701 : :01:13:14.640 01:16:53.503 : :01:16:53.400 01:19:23.737 : :01:19:23.634 [/spoiler] [/color][/b][/center]

L estate addosso (2016) BluRay 1080p FullHD AC3 DTS ITA

Language: | Size: 8.78 GB | Seed: 3 | Leech: 2

Description:

Dati Film: TITOLO ORIGINALE: L'estate addosso DATA USCITA: 14 settembre 2016 GENERE: Commedia, Drammatico ANNO: 2016 PAESE: Italia DURATA: 103 Min REGIA: Gabriele Muccino ATTORI: Jessica Rothe, Scott Bakula, Brando Pacitto, Matilda Lutz, Joseph Haro, Taylor Frey ... PRODUZIONE: Indiana Production Company con Rai Cinema DISTRIBUZIONE: 01 Distribution Trama: Marco ha 18 anni, sta per diplomarsi al liceo ma di fronte alle fatali scelte della vita, è terribilmente angosciato dall'incertezza assoluta sul proprio futuro. L'estate "della maturità" subisce un improvviso colpo di scena quando, in seguito ad un incidente con lo scooter, Marco riceve dall'assicurazione un risarcimento che gli consentirà di partire per San Francisco. Con suo grande disappunto però, anche Maria, una compagna di scuola soprannominata da tutti "la Suora", partirà alla volta della sua stessa meta, ospite della stessa coppia di amici contattati dal compagno di classe Vulcano. All'aeroporto di San Francisco ci sono ad attenderli due ragazzi, Matt e Paul. Quel che Vulcano non ha detto è che Matt e Paul convivono e sono una coppia gay. Irritazione e pregiudizio si manifestano immediatamente e Marco prende ancor di più le distanze da Maria "la Bigotta". Nonostante le premesse, nei giorni seguenti i quattro amici inizieranno a conoscersi, gettando le basi per costruire un'amicizia imprevista e sorprendente e i giorni inizieranno a trascorrere veloci e nuovi per tutti loro. Questa diventerà presto la loro Estate. Per sempre. Harlock.info

L hermine 2015 FRENCH 1080p BluRay DTS x264 LOST Vérifié

Language: | Size: 6.55 GB | Seed: 447 | Leech: 54

Description:

Section: Films/Séries/Vidéos Sous-Section: Films Titre: L'Hermine Titre Original L'Hermine Genre: Comédie dramatique, Année: 2015 Release: L hermine 2015 FRENCH 1080p BluRay DTS x264 LOST Qualité: HDrip 1080 [Rip HD depuis Bluray] Langue: Français (VFF/Truefrench) Système: TV/PC/Platine/Lecteur Multimédia/etc Type: 2D (Standard) Taille: 6.55 GB Info Hash: 5efa430d9dee5167454abec756fa240a652b04de Uploadeur: buitonio

L hermine 2015 FRENCH 720p BluRay DTS x264 LOST Vérifié

Language: | Size: 4.37 GB | Seed: 258 | Leech: 98

Description:

Section: Films/Séries/Vidéos Sous-Section: Films Titre: L'Hermine Titre Original L'Hermine Genre: Comédie dramatique, Année: 2015 Release: L hermine 2015 FRENCH 720p BluRay DTS x264 LOST Qualité: HDrip 720 [Rip HD depuis Bluray] Langue: Français (VFF/Truefrench) Système: TV/PC/Platine/Lecteur Multimédia/etc Type: 2D (Standard) Taille: 4.37 GB Info Hash: 21e29d81ac6c251d4b03d8e68970196d545992e0 Uploadeur: buitonio

L Odeur De La Mandarine 2015 FRENCH DVDRip XviD UTT FOX avi Vérifié

Language: | Size: 698.42 MB | Seed: 338 | Leech: 50

Description:

Section: Films/Séries/Vidéos Sous-Section: Films Titre: L'Odeur de la mandarine Titre Original L'Odeur de la mandarine Genre: Romance, Année: 2015 Release: L Odeur De La Mandarine 2015 FRENCH DVDRip XviD UTT FOX avi Qualité: DVDrip [Rip depuis DVD-R] Langue: Français (VFF/Truefrench) Système: TV/PC/Platine/Lecteur Multimédia/etc Type: 2D (Standard) Taille: 698.42 MB Info Hash: 5700e7a2f938326f9b4852d3134a7bb49ef61055 Uploadeur: roukinou40

L'A.S.S.O. Nella Manica (2015) BRRip XviD - Ita Eng Ac3 - Sub Ita Eng

Language: | Size: 1.4 GB | Seed: 373 | Leech: 43

Description:

Titolo originale: The DUFF Nazione: U.S.A. Anno: 2015 Genere: Commedia Durata: 100' Regia: Ari Sandel Sito ufficiale: www.theduffmovie.com Cast: Mae Whitman, Robbie Amell, Bella Thorne, Ken Jeong, Bianca A. Santos, Skyler Samuels, Romany Malco, Nick Eversman, Chris Wylde, Allison Janney, Agnes Mayasari, Gabriela Fraileo Produzione: CBS Films, Vast Entertainment, Wonderland Sound and Vision Data di uscita: 19 Agosto 2015 (cinema) Trama: L’ A.S.S.O. nella manica racconta la vita di Bianca, un’adolescente acqua e sapone, amica di due ragazze belle, intelligenti e, pertanto, invidiate e in voga in tutta la scuola. Qualcosa cambierà in Bianca quando, ad una festa, incontrerà Wesley, un ragazzo che le farà notare, e pesare, il suo ruolo da ‘ruota di scorta’, meno attraente e talentuosa delle sue pseudo amiche del cuore. Aperti gli occhi e cosciente della sua posizione all’interno del gruppo di amiche, Bianca cercherà, in tutti i modi, di cambiare per diventare una leader, una ragazza indipendente e far così breccia nel cuore del bel Wesley. Parole chiave: commedia

L'abbiamo fatta grossa (2016) iTA AC3 6 CH DVDRip XviD

Language: | Size: 1.38 GB | Seed: 125 | Leech: 19

Description:

Titolo originale: L'abbiamo fatta grossa Nazione: Italia Anno: 2016 Genere: Commedia Durata: 112' Regia: Carlo Verdone Cast: Carlo Verdone, Antonio Albanese, Clotilde Sabatino, Francesca Fiume, Anna Kasyan, Virginia Da Brescia, Federigo Ceci, Alexander Stuart Produzione: Filmauro Data di uscita: 28 Gennaio 2016 (cinema) Trama: Le vicende di Yuri Pelegatti, un attore di teatro che, traumatizzato dalla separazione, non riesce più a ricordare le battute in scena, e di Arturo Merlino, un investigatore squattrinato che vive a casa della vecchia zia vedova. Yuri vuole le prove dell'infedeltà della ex moglie e assume Arturo credendolo un super investigatore. Ma Arturo non ne fa una giusta. I due, per errore, entrano in possesso di una misteriosa valigetta che contiene... un milione di euro. Una serie di guai divertentissimi e di rocambolesche avventure, fino a un finale imprevedibile... Risoluzione: 720 x 304 Parole chiave: commedia

L'Acchiappasogni - Dreamcatcher (2003) [BDmux 1080p - H265 - Ita Eng Ac3 - Sub Ita Eng]

Language: | Size: 3.3 GB | Seed: 27 | Leech: 0

Description:

DATA USCITA : 11 aprile 2003 GENERE : Fantascienza , Horror ANNO : 2003 REGIA : Lawrence Kasdan ATTORI : Morgan Freeman, Thomas Jane, Jason Lee, Damian Lewis, Tom Sizemore, Timothy Olyphant, Donnie Wahlberg, Ingrid Kavelaars, Alex Campbell, Chera Bailey SCENEGGIATURA : Lawrence Kasdan, William Goldman FOTOGRAFIA : John Seale MONTAGGIO : Raùl Dàvalos, Carol Littleton MUSICHE : James Newton Howard PRODUZIONE : CASTLE ROCK ENTERTAINMENT, VILLAGE ROADSHOW PRODUCTIONS, NPV ENTERTAINMENT, SSDD FILMS INC. DISTRIBUZIONE : WARNER BROS. PAESE : Canada, USA DURATA : 132 Min Trama Jonesy, Henry, Pete e Beaver sono stati bambini insieme in una piccola città del Maine e hanno avuto il coraggio di reagire con eroismo alla crudeltà. Salvando Duddits, uno strano ragazzo, hanno inserito inaspettatamente un quinto amico nel loro gruppo. Egli ha portato su tutto il gruppo dei poteri straordinari che li hanno uniti al di là di un'ordinaria amicizia. Ormai i quattro amici hanno vite separate e problemi diversi, ossessionati dalla memoria della grandezza, i loro poteri sono più un peso che un dono. Quando un incidente scioccante li riunisce non si rendono conto subito che questo è derivato dai poteri di Duddits.

L'alba dei morti dementi (2004) m720p - H264 - Ita Eng Aac Sub

Language: | Size: 1.83 GB | Seed: 296 | Leech: 82

Description:

Titolo originale: Shaun of the dead Nazione: Regno Unito Anno: 2004 Genere: Horror, Commedia, Azione Durata: 99' Regia: Edgar Wright Sito ufficiale: uip.co.uk/romzom Cast: Simon Pegg, Nick Frost, Kate Ashfield, Dylan Moran, Lucy Davis, Bill Nighy, Peter Serafinowicz, Penelope Wilton Produzione: Nira Park Data di uscita: 20 Agosto 2004 (cinema) Trama: Shaun e il suo gruppo di amici si ritrovano come ogni sabato al pub, ma non è la solita serata, infatti Londra è stata invasa dagli zombi... Parole chiave: horror commedia azione

L'alba del pianeta delle scimmie (2011) BDRip 720p - H265 - Ita Eng Ac3 5.1 - Sub Ita Eng

Language: | Size: 3.12 GB | Seed: 675 | Leech: 99

Description:

Titolo originale: Rise of the Planet of the Apes Nazione: U.S.A. Anno: 2011 Genere: Azione, Drammatico, Thriller Durata: 105' Regia: Rupert Wyatt Sito ufficiale: www.apeswillrise.com Sito italiano: www.lalbadelpianetadellescimmie.it Cast: James Franco, Tom Felton, Freida Pinto, Andy Serkis, Brian Cox, John Lithgow, Tyler Labine, David Hewlett, David Oyelowo Produzione: Chernin Entertainment, Twentieth Century Fox Film Corporation Data di uscita: 23 Settembre 2011 (cinema) Trama: L'arroganza dell'uomo provoca una catena di eventi che è la causa dell'intelligenza delle scimmie e di un cambiamento nel nostro ruolo di specie dominante il pianeta. Caesar, la prima scimmia intelligente, viene tradita dagli uomini e si ribella per condurre la propria spettacolare razza alla libertà e alla resa dei conti con l'Uomo. Formato: HEVC H265 Parole chiave: azione drammatico thriller

L'alba del pianeta delle scimmie (2011) iTALiAN AC3 BRRip XviD

Language: | Size: 1.37 GB | Seed: 210 | Leech: 15

Description:

Titolo originale: Rise of the Planet of the Apes Nazione: U.S.A. Anno: 2011 Genere: Azione, Drammatico, Thriller Durata: 105' Regia: Rupert Wyatt Sito ufficiale: www.apeswillrise.com Sito italiano: www.lalbadelpianetadellescimmie.it Cast: James Franco, Tom Felton, Freida Pinto, Andy Serkis, Brian Cox, John Lithgow, Tyler Labine, David Hewlett, David Oyelowo Produzione: Chernin Entertainment, Twentieth Century Fox Film Corporation Distribuzione: 20th Century Fox Data di uscita: 23 Settembre 2011 (cinema) Trama: L'arroganza dell'uomo provoca una catena di eventi che è la causa dell'intelligenza delle scimmie e di un cambiamento nel nostro ruolo di specie dominante il pianeta. Caesar, la prima scimmia intelligente, viene tradita dagli uomini e si ribella per condurre la propria spettacolare razza alla libertà e alla resa dei conti con l'Uomo. Parole chiave: azione dramma thriller

L'altra Metà del Cielo (1977)

Language: | Size: 1.24 GB | Seed: 924 | Leech: 9

Description:

A Fiumicino, tra i passeggeri di un volo per l'Australia, ci sono un prete e una prostituta. I due fanno conoscenza e si ritrovano poi nel continente dei canguri in una cittadina mineraria popolata in maggioranza da italiani: lui è il nuovo parroco, lei è in trasferta di lavoro per la gioia dei maschi del luogo. Saputa la cosa il prete tenta con ogni mezzo di redimere la donna fino a venire alle mani con il suo protettore.

L'Amore Bugiardo - Gone Girl (2014) 720p Itunes

Language: | Size: 5.22 GB | Seed: 357 | Leech: 86

Description:

GENERE: Drammatico, Thriller ANNO: 2014 REGIA: David Fincher ATTORI: Ben Affleck, Rosamund Pike, Missi Pyle, Neil Patrick Harris, Tyler Perry, Kim Dickens, Casey Wilson, Patrick Fugit, Scoot McNairy, Emily Ratajkowski, Boyd Holbrook, Lee Norris FOTOGRAFIA: Jeff Cronenweth MONTAGGIO: Kirk Baxter PRODUZIONE: New Regency Pictures, Pacific Standard DISTRIBUZIONE: 20th Century Fox Italia PAESE: USA SOGGETTO: Tratto dal bestseller di Gillian Flynn TRAMA: Tratto dal bestseller di Gillian Flynn, il thriller vede protagonista Nick Dunne (Ben Affleck) un uomo che decide di tornare nella sua città natale per aprire un bar. Poco dopo, nel giorno del quinbto anniversario del loro matrimonio, sua moglie scompare misteriosamente e Nick diventa il sospettato numero uno della sua sparizione Mostra/Nascondi Spoiler INFO IMDB 8.4 http://www.imdb.com/title/tt2267998/

L'Amore Bugiardo - Gone Girl (2014) iTALiAN AC3 HDRip XviD

Language: | Size: 1.38 GB | Seed: 57 | Leech: 49

Description:

Titolo originale: Gone Girl Nazione: U.S.A. Anno: 2014 Genere: Drammatico, Thriller Durata: 149' Regia: David Fincher Sito ufficiale: www.findamazingamy.com Sito italiano: www.lamorebugiardo.it Cast: Rosamund Pike, Ben Affleck, Missi Pyle, Sela Ward, Neil Patrick Harris, Scoot McNairy, Carrie Coon, Boyd Holbrook, Emily Ratajkowski, Kim Dickens, Tyler Perry Produzione: New Regency Pictures, Pacific Standard, Regency Enterprises Distribuzione: Twentieth Century Fox Data di uscita: Roma 2014 - Gala 18 Dicembre 2014 (cinema) Trama: Tratto dall'imperdibile e avvincente bestseller omonimo, L'amore bugiardo - Gone Girl del regista David Fincher è un viaggio convulso attraverso la moderna cultura dei media e lungo le profonde, oscure linee di frattura di un matrimonio americano, con tutte le sue false promesse, gli inganni inevitabili e l'umorismo cupo. Al centro della storia troviamo l'ex scrittore newyorkese Nick Dunne e la moglie ed ex ragazza dei suoi desideri Amy, che cercano di sbarcare il lunario nel Midwest americano in piena recessione. La loro storia traccia la sinuosa silhouette della vita di una coppia contemporanea felicemente sposata. Ma il giorno del quinto anniversario di matrimonio, Amy scompare e quella silhouette si sgretola in un labirinto di crepe. Nick, avvolto in una nebbia di comportamenti ambigui, diventa il principale indiziato, mentre la ricerca di Amy segue il suo corso in una crescente frenesia mediatica, davanti agli occhi di un mondo assetato di rivelazioni. Parole chiave: dramma thriller

L'amore non va in vacanza - The Holiday (2006) m720p - H264 - Ita Eng Aac

Language: | Size: 878.46 MB | Seed: 85 | Leech: 64

Description:

Titolo Originale: The Holiday Nazionalità: USA Anno: 2006 Genere: Commedia, Romantico Regia: Nancy Meyers Cast: Cameron Diaz, Kate Winsle, Jude Law, Jack Black, Eli Wallach, Edward Burns, Rufus Sewell, Miffy Englefield, Emma Pritchard, Sarah Parish, Shannyn Sossamon, Lydia Blanco, Hope Riley, Kenneth Danziger, Bill Macy, Shelley Berman, Kathryn Hahn, John Krasinski, Leanne Wilson, Alex O'Loughlin, Odette Yustman Dopo tre anni di una relazione tira e molla, Iris Simpkins è ancora innamorata di Jasper Bloom, il suo collega di lavoro, nonostante la sua infedeltà e lo sfruttamento dei suoi sentimenti. Tuttavia, durante la festa di Natale della sua compagnia, Jasper annuncia che ora è fidanzato con Sarah Smith-Alcott, la donna con cui tradiva Iris, e Iris è distrutta. Nello stesso tempo Amanda Woods a Los Angeles ha appena rotto con il suo fidanzato, Ethan, che ha dormito con la sua centralinista. Lei lo scarica, ma mostra di essere incapace di piangere. Per capriccio, Amanda decide di prendere una pausa dal suo intenso lavoro e dalla vita sentimentale e affittare una casa ovunque molto lontano. Mentre naviga su internet, trova Iris nel Surrey, a cui è appena capitato di trovarsi nella sua stessa situazione. Invece di affittare la casa, Iris dice che desidera fare uno scambio di casa, a cui Amanda acconsente. Parole chiave: commedia romantico

L'amore sbagliato - L'emprise (2015) iTA AC3 2 CH WEB-Rip XviD

Language: | Size: 1.24 GB | Seed: 117 | Leech: 22

Description:

L'emprise Francia, Belgio 2015 Genere: Biografico durata 98' film per la tv Regia di Claude-Michel Rome Con Odile Vuillemin, Fred Testot, Marc Lavoine, Sam Karmann, Lolita Chammah, Micky Sébastian, Raphaëlle Lubansu, Laura Sepul... Trama Alexandra, madre di quattro figli, nel marzo 2012 viene arrestata con l'accusa di aver ucciso il padre dei suoi bambini con un coltello. Durante i tre giorni del processo, emergono i dettagli della quotidianità della donna, una madre che la società non ha mai protetto dal mostro che lei amava. Parole chiave: biografico

L'androide (1989)

Language: | Size: 973.54 MB | Seed: 650 | Leech: 25

Description:

In un'epoca imprecisata del futuro, la Terra è completamente inquinata. Gli oceani sono morti, la vegetazione scomparsa, l'aria irrespirabile. Per sopravvivere l'umanità è costretta a spostarsi nel sottosuolo, in tunnel labirintici scavati sotto la superficie per collegare i vari insediamenti umani. Lungo uno di questi fugge Lori, una ragazza che ha trafugato alcuni microchip illegali, con Danner, un androide bio-sintetico al quale lei ha chiesto di farle da guida. Il viaggio sotterraneo, che dovrebbe portarli da Los Angeles a New York, è irto di pericoli, perchè i due sono inseguiti dalla polizia, che vuole recuperare la refurtiva, e dalla banda di PlugHead, il malvivente al quale Lori li ha sottratti e che vuole tornarne in possesso. Con l'aiuto di un personaggio dal poco rassicurante nome di Leech (sanguisuga), e che si rivela invece prezioso, perchè fornisce le bombole di ossigeno che permettono loro di uscire alla superficie, i fuggiaschi superano ogni ostacolo e riescono a raggiungere la loro meta. Ma arrivano anche banditi e poliziotti, e New York è il teatro dello scontro finale tra Lori, Danner, Leech ed i loro inseguitori...

L'Ape Maia - Il film 2014 iTALiAN AC3 HDRip XviD

Language: | Size: 1.54 GB | Seed: 245 | Leech: 41

Description:

Titolo originale: Maya the Bee Movie Nazione: Australia Anno: 2014 Genere: Animazione Durata: 79' Regia: Alexs Stadermann, Simon Pickard Sito ufficiale: Cast (voci originali): Kodi Smit-McPhee, Noah Taylor, Richard Roxburgh, Jacki Weaver, Miriam Margolyes, Justine Clarke, Andy McPhee, Coco Jack Gillies Produzione: Buzz Studios, Studio 100 Media Distribuzione: Notorius Pictures Data di uscita: 18 Settembre 2014 (cinema) Trama: Sullo sfondo di una lotta secolare tra api e vespe, la piccola e anticonformista Maia nasce in un alveare dove non è facile essere diversi. I suoi buffi sforzi per essere come gli altri e diventare una brava ape la mettono in conflitto con la malvagia consigliera dell'Ape Regina che nel frattempo sta organizzando un grosso furto di pappa reale. Quando Maia scoprirà il suo piano minaccioso, chiamerà a raccolta tutti gli insetti, comprese le temute vespe, che si riveleranno ottimi alleati.

L'Attesa (2015), [H264 - Ita Aac - Sub Ita Eng] Drammatico

Language: | Size: 1.35 GB | Seed: 9 | Leech: 0

Description:

Titolo originale: L'attesa Nazionalità: Italia, Francia Anno: 2015 Genere: Drammatico Regia: Piero Messina Sceneggiatura: Andrea Paolo Massara, Piero Messina Fotografia: Francesco Di Giacomo Produzione: Indigo Film in collaborazione con Medusa Film Distribuzione: Medusa Film DURATA: 1h 35 Min 50 Sec Cast: Juliette Binoche, Lou de Laâge, Giorgio Colangeli, Domenico Diele, Antonio Folletto, Corinna Lo Castro, Giovanni Anzaldo Lingua: Italiano Sottotitoli Italiano Inglese Nel paese siciliano, poco distante dalla villa in cui Anna vive con il fedele inserviente Pietro, si è appena tenuto un funerale e la donna è stravolta dal dolore. Arriva però dalla Francia la giovane Jeanne, fidanzata con il figlio Giuseppe, la quale, quando riesce ad incontrarla, desidera sapere perché Giuseppe non si sia presentato per accoglierla. Riceverà risposte che occultano la verità perché la stessa è troppo dura per confessarla persino a se stessa. Piero Messina al suo primo lungometraggio ha centrato l’obiettivo vanificando subito i sospetti di chi, sapendolo aiuto regista di Sorrentino, temeva che fosse affetto da qualche forma di manierismo ereditato dal maestro. Non è così, se si esclude la sequenza peraltro significante dei titoli di testa. Dichiarando la propria remota fonte di ispirazione in “La vita che ti diedi” di Pirandello il regista mette invece in gioco la propria sicilianità (è nato a Caltagirone) depurandola immediatamente da qualsiasi notazione folcloristica per porre invece al centro lo spazio, sia esso quello degli interni della villa su cui pesa il senso della perdita che quello del paesaggio che la circonda. Evidenzia poi uno sguardo attento alla ritualità più ancestrale quando fa della processione della Settimana Santa un momento nodale della vicenda. Perché quella che viene narrata è la storia di una Passione (si pensi alla prima fondamentale inquadratura) vista però dal punto di vista della Mater Dolorosa. Anna non può e non sa accettare la separazione da Giuseppe e nel momento in cui si trova davanti Jeanne comprende di avere l’inattesa opportunità di poter prolungare, suo tramite, la presenza di chi non c’è più. Il progressivo avvicinamento tra le due donne (che Messina presenta come entrambe di origine francese facilitandone quindi la comunicazione) dovrebbe proteggere la giovane da un dolore difficile da gestire ma in realtà è fondamentalmente funzionale al bisogno inconfessabile della madre. L’attesa di chi non c’è (o non c’è più), grazie all’interpretazione della Binoche ma anche a quella per nulla intimidita di Lou De Läage, diventa così uno scavo nelle dinamiche di un’elaborazione di un lutto da un lato e di una ipotetica presa di consapevolezza di una separazione da qualcuno che è ancora vivo dall’altro. Una delle domande a cui spetta allo spettatore fornire una risposta personale è quale sia la più difficile da superare.(MyMovies)

L'avvocato Del Diavolo - The Devil's Advocate (1997) BDRip 720p - H264 - Eng Ita Ac3 - MultiSub

Language: | Size: 3.84 GB | Seed: 866 | Leech: 78

Description:

http://pad.mymovies.it/filmclub/2002/08/227/locandina.jpg

L'era glaciale - In rotta di collisione - (2016) 720p WEBRip x264

Language: | Size: 2.36 GB | Seed: 32 | Leech: 12

Description:

DATA USCITA: 22 agosto 2016 GENERE: Animazione , Avventura , Family ANNO: 2016 REGIA: Mike Thurmeier, Galen T. Chu ATTORI: Claudio Bisio, Pino Insegno, Lee Ryan, Massimo Giuliani, Filippo Timi, Isabelle Adriani, Roberta Lanfranchi, Hong-hu Ada , Ray Romano, John Leguizamo, Denis Leary, Queen Latifah, Chris Wedge, Keke Palmer, Seann William Scott, Josh Peck, Jennifer Lopez, Simon Pegg, Jesse Tyler Ferguson, Adam DeVine SCENEGGIATURA: Michael J. Wilson FOTOGRAFIA: Renato Falcão MONTAGGIO: James Palumbo MUSICHE: John Powell PRODUZIONE: Blue Sky Studios, Twentieth Century Fox Animation DISTRIBUZIONE: 20th Century Fox PAESE: USA DURATA: 100 Min FORMATO: 2D e 3D Sempre all'inseguimento della mitica ghianda, Scrat verrà catapultato nello spazio dove, accidentalmente, darà origine ad una serie di eventi cosmici che trasformeranno e minacceranno il mondo dell'Era Glaciale. Per salvarsi Sid, Manny, Diego e il resto del gruppo dovranno abbandonare la loro casa e intraprendere un'avventura ricca di comicità, viaggiando attraverso nuove terre esotiche e incontrando nuovi e coloratissimi personaggi.

L'era glaciale 4 - Continenti alla deriva (2012) XviD - Ita Ac3 5.1

Language: | Size: 1.61 GB | Seed: 12 | Leech: 19

Description:

Titolo originale: Ice Age: Continental Drift Nazione: USA Anno: 2012 Genere: Animazione, Avventura, Commedia Durata: 94'' Regia: Steve Martino, Mike Thurmeier Sito ufficiale: www.iceagemovie.com Sito italiano: www.leraglaciale4ilfilm.it Cast (voci): Ray Romano, Queen Latifah, Denis Leary, Jennifer Lopez, John Leguizamo, Chris Wedge, Josh Peck, Peter Dinklage, Jennette McCurdy, Keke Palmer Produzione: Blue Sky Studios Data di uscita: 28 Settembre 2012 (cinema) Trama: La forsennata caccia all'inafferrabile ghianda da parte di Scrat, iniziata nella notte dei tempi, ha delle conseguenze catastrofiche per il mondo intero: un cataclisma di dimensioni continentali che sfocia in un'avventura grandiosa per Manny (Ray Romano), Diego (Denis Leary) e Sid (John Leguizamo). Durante le loro peripezie, Sid ritrova la sua bisbetica Nonnina e il branco incontra una combriccola di pirati assortiti decisi a impedire loro di tornare a casa.

L'esercito di terracotta - nuove scoperte dalla Cina (2013)

Language: | Size: 1.7 GB | Seed: 968 | Leech: 47

Description:

Il ritrovamento dell'esercito cinese di terracotta nel 1974 ha catturato l’immaginario del mondo intero, ma quel primo scavo ha rivelato soltanto una frazione dell'enorme e straordinario tesoro. Da allora, gli scienziati hanno ripreso il lavoro sul sito e la loro ricerca ha portato alla luce una serie di nuove verità circa i guerrieri e gli artigiani che li hanno creati più di due millenni fa. Con accesso esclusivo alla ricerca pionieristica condotta dalla University College London e al Museo dell'esercito di terracotta, il documentario svela gli ultimi segreti. Le ultime scoperte degli scienziati e degli archeologi restituiscono una vivida immagine della Cina del III secolo a.C.. Tra le numerose rivelazioni, il film mostra la reale portata del sito e del numero di guerrieri e il fatto che le armi impugnate dai guerrieri fossero pronte per l'uso militare, piuttosto che delle semplici riproduzioni: sono state infatti progettate per uccidere nel modo più efficiente. Gli straordinari approfondimenti sulla realizzazione pratica delle figure, tra cui la rivoluzionaria modellazione digitale 3D delle teste dei guerrieri, sfidano la tradizionale spiegazione e cambiano la nostra comprensione riguardo alle sofisticate tecnologie e società dell'Antica Cina. AUTORE serj tankian CATEGORIA Film INFOHASH AEED655607A75E4EC6614A675AEC50B1655B3C5C FILE(1) Files TRAKER Traker Non ci sono commenti Powered by sbdev_ci Executed in 0.03

L'esorcismo di Molly Hartley (2015), [Mux - XviD - Eng Ita Ac3]

Language: | Size: 1.43 GB | Seed: 14 | Leech: 3

Description:

Trama Molly Hartley è tutt'ora cresciuta, ma il demone vive dentro di lei. Sei anni dopo la laurea di scuola superiore, scopre un patto segreto col Diavolo. Molly è sospettata di omicidio e confinata in un ospedale psichiatrico, dove seminano il terrore soprannaturale sul personale e pazienti. La sua unica speranza è un esorcismo da un prete spretato in cerca di riscattarsi e salvare la vita di Molly prima della sua orrenda "trasformazione" ...ma Satana ha altri piani! Titolo originale : The Exorcism of Molly Hartley Lingua originale : Inglese Paese : USA Genere : Horror Anno : 09.10.2015 Durata : 96 min.ca. Regia : Steven R. Monroe con : Sarah Lind : Molly Hartley Devon Sawa : Father John Barrow Gina Holden : Dr. Laurie Hawthorne Peter MacNeill : Chaplain Henry Davies Daina Leitold : Janet Jones Julia Arkos : Beatrice White Tom McLaren : Father James Bradley Sawatzky : Orderly #1 Steve Weller : Orderly #2 Ernesto Griffith : Orderly #3 Robert Borges : Orderly #4 Scott Johnson : Orderly #5 Andrew Cecon : Husband Eric Blais : Male Officer Kristen Harris : Officer #2

L'estasi Dell'oro 2015 I Look Upon Nature While I Live In A Steel City

Language: | Size: 140.82 MB | Seed: 1 | Leech: 0

Description:

Track List: Premeditating The First Gate Neue Bahnen I Know I Know Wavefront Kingdom Of North America, Citizen's Archival Recording #24 Bit Back Straight Spine Did It Good A Much Updated Ruin From A Much Outdated Style

L'estate addosso (2016).H264.Italian.Ac3.5.1.sub.ita.iCV-MIRCrew

Language: | Size: 1.25 GB | Seed: 13 | Leech: 153

Description:

L'estate addosso (2016).H264.Italian.Ac3.5.1.sub.ita.iCV-MIRCrew [center] [color=red][b][img]https://s23.postimg.org/b9yhws27f/0sc_Del1.png[/img] [u]NO FOUND ONLY ORIGINAL RELEASE[/u] [img]http://i.imgur.com/GDNQx1Z.png[/img] My release is always in double track audio italian and Original audio for select it use VLC or dvd player home not use wmp L'estate addosso (2016) [img]https://extraimage.net/images/2017/01/06/c6a43d34b45f97ce4836f7d90276dbb6.png[/img] [URL=http://www.imdb.com/title/tt4650414/][IMG]http://www.userlogos.org/files/logos/Sucka/imdb_new.png[/IMG][/URL] [img]http://i.imgur.com/fGu1rKv.png[/img] DATA USCITA: 14 settembre 2016 GENERE: Commedia, Drammatico ANNO: 2016 REGIA: Gabriele Muccino SCENEGGIATURA: Dale Nall, Gabriele Muccino MUSICHE: Jovanotti PRODUZIONE: Indiana Production Company con Rai Cinema DISTRIBUZIONE: 01 Distribution PAESE: Italia DURATA: 103 Min [img]http://i.imgur.com/W7kBqiE.png[/img] Brando Pacitto, Matilda Lutz, Joseph Haro, Taylor Frey [img]http://i.imgur.com/bFK3ggF.png[/img] Marco ha 18 anni, sta per diplomarsi al liceo ma di fronte alle fatali scelte della vita, è terribilmente angosciato dall'incertezza assoluta sul proprio futuro. L'estate "della maturità" subisce un improvviso colpo di scena quando, in seguito ad un incidente con lo scooter, Marco riceve dall'assicurazione un risarcimento che gli consentirà di partire per San Francisco. [img]http://i.imgur.com/48xHWWH.png[/img] A gay couple living in San Francisco takes in two strangers traveling from Italy to start a new life in America, discovering each other and forming the most unlikely of relationships along the [img]http://i.imgur.com/K8bfNTy.png[/img] [url=https://extraimage.net/image/2S7Y][img]http://extraimage.net/images/2017/01/06/075e16e21dbe442922083fd3c58cf0a8.th.png[/img][/url] [url=https://extraimage.net/image/2S7C][img]http://extraimage.net/images/2017/01/06/832946daf62dfe6ac221f6d1c44bc399.th.png[/img][/url] [url=https://extraimage.net/image/2S7p][img]http://extraimage.net/images/2017/01/06/1ec92e5dfe5c329b88fce06a55cd2ce3.th.png[/img][/url] [img]http://i.imgur.com/cWb6Z.gif[/img] [img]http://i.imgur.com/aVrMohH.png[/img] [spoiler] General Unique ID : 92641135192699414420053508208052815992 (0x45B2089C4D10F37E3E962D01875E4878) Complete name : L'estate addosso (2016).H264.ita.sub.ita.iCV-MIRCrew.mkv Format : Matroska Format version : Version 2 File size : 1.25 GiB Duration : 1h 43mn Overall bit rate : 1 726 Kbps Movie name : VISIT www.icv-crew.org Encoded date : UTC 2017-01-05 16:08:35 Writing application : Lavf54.63.100 Writing library : Lavf54.63.100 COPYRIGHT : robbyrs Video ID : 1 Format : AVC Format/Info : Advanced Video Codec Format profile : Main@L4.1 Format settings, CABAC : Yes Format settings, ReFrames : 2 frames Codec ID : V_MPEG4/ISO/AVC Duration : 1h 43mn Bit rate : 1 275 Kbps Width : 720 pixels Height : 300 pixels Display aspect ratio : 2.40:1 Original display aspect ratio : 2.40:1 Frame rate mode : Variable Frame rate : 24.000 fps Color space : YUV Chroma subsampling : 4:2:0 Bit depth : 8 bits Scan type : Progressive Bits/(Pixel*Frame) : 0.246 Stream size : 919 MiB (72%) Writing library : x264 core 130 r2273 Encoding settings : cabac=1 / ref=2 / deblock=1:0:0 / analyse=0x1:0x131 / me=hex / subme=7 / psy=1 / psy_rd=1.00:0.00 / mixed_ref=0 / me_range=16 / chroma_me=1 / trellis=1 / 8x8dct=0 / cqm=0 / deadzone=21,11 / fast_pskip=1 / chroma_qp_offset=-2 / threads=12 / lookahead_threads=2 / sliced_threads=0 / nr=0 / decimate=1 / interlaced=0 / bluray_compat=0 / constrained_intra=0 / bframes=3 / b_pyramid=0 / b_adapt=1 / b_bias=0 / direct=3 / weightb=1 / open_gop=0 / weightp=2 / keyint=240 / keyint_min=24 / scenecut=40 / intra_refresh=0 / rc_lookahead=40 / rc=2pass / mbtree=1 / bitrate=1275 / ratetol=1.0 / qcomp=0.60 / qpmin=10 / qpmax=69 / qpstep=4 / cplxblur=20.0 / qblur=0.5 / vbv_maxrate=24000 / vbv_bufsize=24000 / nal_hrd=none / ip_ratio=1.40 / aq=1:1.00 Language : English Default : Yes Forced : No DURATION : 01:43:18.709000000 NUMBER_OF_FRAMES : 148769 NUMBER_OF_BYTES : 7756374953 _STATISTICS_WRITING_APP : mkvmerge v8.7.0 ('All of the above') 64bit _STATISTICS_WRITING_DATE_UTC : 2016-12-30 16:34:31 _STATISTICS_TAGS : BPS DURATION NUMBER_OF_FRAMES NUMBER_OF_BYTES Audio ID : 2 Format : AC-3 Format/Info : Audio Coding 3 Mode extension : CM (complete main) Codec ID : A_AC3 Duration : 1h 43mn Bit rate mode : Constant Bit rate : 448 Kbps Channel(s) : 6 channels Channel positions : Front: L C R, Side: L R, LFE Sampling rate : 48.0 KHz Bit depth : 16 bits Compression mode : Lossy Delay relative to video : 1mn 5s Stream size : 331 MiB (26%) Title : AC3 ITA Language : Italian Default : No Forced : No DURATION : 01:43:18.848000000 NUMBER_OF_FRAMES : 193714 NUMBER_OF_BYTES : 495907840 _STATISTICS_WRITING_APP : mkvmerge v8.7.0 ('All of the above') 64bit _STATISTICS_WRITING_DATE_UTC : 2016-12-30 16:34:31 _STATISTICS_TAGS : BPS DURATION NUMBER_OF_FRAMES NUMBER_OF_BYTES Text #1 ID : 3 Format : UTF-8 Codec ID : S_TEXT/UTF8 Codec ID/Info : UTF-8 Plain Text Title : FORZATI Language : Italian Default : Yes Forced : No DURATION : 01:24:47.333000000 NUMBER_OF_FRAMES : 644 NUMBER_OF_BYTES : 23625 _STATISTICS_WRITING_APP : mkvmerge v8.7.0 ('All of the above') 64bit _STATISTICS_WRITING_DATE_UTC : 2016-12-30 16:34:31 _STATISTICS_TAGS : BPS DURATION NUMBER_OF_FRAMES NUMBER_OF_BYTES Text #2 ID : 4 Format : UTF-8 Codec ID : S_TEXT/UTF8 Codec ID/Info : UTF-8 Plain Text Title : REGULAR Language : Italian Default : No Forced : No DURATION : 01:35:49.875000000 NUMBER_OF_FRAMES : 1070 NUMBER_OF_BYTES : 48245 _STATISTICS_WRITING_APP : mkvmerge v8.7.0 ('All of the above') 64bit _STATISTICS_WRITING_DATE_UTC : 2016-12-30 16:34:31 _STATISTICS_TAGS : BPS DURATION NUMBER_OF_FRAMES NUMBER_OF_BYTES Menu 00:00:00.000 : :00:00:00.000 00:10:37.250 : :00:10:37.250 00:21:08.375 : :00:21:08.375 00:32:11.042 : :00:32:11.042 00:40:05.958 : :00:40:05.958 00:50:40.000 : :00:50:40.000 00:59:15.000 : :00:59:15.000 01:08:59.417 : :01:08:59.417 01:17:58.042 : :01:17:58.042 01:27:05.250 : :01:27:05.250 01:32:02.042 : :01:32:02.042 01:37:16.000 : :01:37:16.000 [/spoiler] [/color][/b][/center]

L'estate di Kikujiro (Kitano 1999) 720p x264 - Ita Jap AC3 - Multisub

Language: | Size: 4.51 GB | Seed: 319 | Leech: 83

Description:

L'estate di Kikujiro (1999) Titolo originale » 菊次郎の夏 (Kikujirô no natsu) Nazionalità » Giappone Anno » 1999 Durata » 121' Genere » Drammatico, Commedia Regia » Takeshi Kitano Cast: Takeshi Kitano, Yusuke Sekiguchi, Kayoko Kishimoto, Kazuko Yoshikuyi, Yuuko Daike, Great Gidayu, Rakkyo Ide, Nezumi Mamura, Akaji Maro, Fumie Hosokawa, Beat Kiyoshi. Tokio. È estate e la scuola è finita. Per il piccolo Masao, che vive con la nonna da quando sua madre si è trasferita un una nuova cittadina, si prospetta un periodo di vacanza da passare in solitudine: la nonna deve lavorare e gli amici di scuola sono tutti partiti. Dopo aver trovato una foto di sua mamma con l'indirizzo della nuova residenza, Masao decide di andare a cercarla, ma non può affrontare il viaggio da solo. Ad accompagnarlo nella sua ricerca ci pensa Kikujiro, un amico della nonna, uomo bizzarro, insolente, opportunista e rozzo. I due viaggiano attraverso il Giappone tra imprevisti e incontri bizzarri e l'avventura estiva si rivela per entrambi una importante lezione di vita.

L'età d'oro (2016 Ita)[BRRip-H264-AAC 5.1]

Language: | Size: 1.47 GB | Seed: 14 | Leech: 0

Description:

.: SCHEDA :. DATA USCITA: 07 aprile 2016 GENERE: Drammatico ANNO: 2016 REGIA: Emanuela Piovano ATTORI: Laura Morante, Giulio Scarpati, Gabriele Dell'Aiera, Gigio Alberti, Eugenia Costantini, Stefano Fresi, Pietro De Silva , Giselda Volodi, Elena Cotta, Adriano Aprà SCENEGGIATURA: Emanuela Piovano, Francesca Romana Massaro, Gualtiero Rosella, Silvana Silvestri FOTOGRAFIA: Marc Van Put MONTAGGIO: Roberto Perpignani PRODUZIONE: Kitchenfilm DISTRIBUZIONE: Bolero Film PAESE: Italia DURATA: 94 Min .: TRAMA :. Dopo decenni d'incomprensioni e liti con la madre Arabella, dovuti a un modo di vedere e affrontare la vita che da bambino non poteva accettare, Sid è chiamato a tornare alle sue radici. Dalla Torino savoiarda sarà costretto a spostarsi nell'allegra e naïf comunità pugliese in cui si trova Arabella. Ma il vero viaggio all'interno della vita e dei ricordi della madre e degli amici che hanno colorato le giornate della sua infanzia, faranno capire a Sid che l'amore di una mamma può avere mille sfumature e che la stessa Arabella è stata una, dieci, cento donne differenti. Tutte generose, tutte valorose. È stata la regista, la femme fatale, l'amica, la fondatrice dell'arena cinematografica e dei suoi festival, l'anima del paesino nel quale vive da anni. Sid, però, ha conosciuto e capito la vera natura di quell'ammaliante e brillante figura troppo tardi. Eppure Arabella neppure in questo caso si comporterà in maniera banale. Anzi, sarà proprio lei a stuzzicare, rimbrottare e guidare suo figlio alla scoperta di que la figura tanto combattuta e poliedrica.