Search Top Tags














Elizabeth - The Golden Age (2007) BDRip 1080p HEVC ITA DTS ITA ENG AC3 PirateMKV.mkv

Language: | Size: 4.31 GB | Seed: 51 | Leech: 53

Description:

Nel 1585 l'Europa è scossa dalla Guerra santa intrapresa da Filippo II di Spagna: solo la regina anglicana d'Inghilterra, Elisabetta, osa opporglisi. La regina, oltre alle preoccupazioni di politica estera, deve anche interessarsi dei problemi interni al suo regno dal momento che, non essendosi sposata e non avendo figli, il suo trono potrebbe essere ereditato dalla sua cugina cattolica Mary Stuart, regina di Scozia, tenuta prigioniera dalla sovrana inglese in un castello. A mature Queen Elizabeth endures multiple crises late in her reign including court intrigues, an assassination plot, the Spanish Armada, and romantic disappointments.

Elizabeth.1998.iTA-ENG.Bluray.1080p.H265.ICV-MIRCrew.mkv

Language: | Size: 5.51 GB | Seed: 10 | Leech: 30

Description:

A film of the early years of the reign of Elizabeth I of England and her difficult task of learning what is necessary to be a monarch.

Hibike! Euphonium S02e01-13 [720p - H264 - Jap Aac - Hardsub ita]

Language: | Size: 4.77 GB | Seed: 10 | Leech: 63

Description:

Hibike! Euphonium S02e01-13 [720p - H264 - Jap Aac - Hardsub ita] .: Trama :. Un tempo il club dell'orchestra di strumenti del liceo Kitauji gareggiava ai tornei nazionali ed era uno dei favoriti per la vittoria. Tuttavia, dal cambiamento del suo consulente in poi, non è più neanche in grado di partecipare al torneo di qualificazione. Con l'arrivo di Taki, il severo sostituto della signora Rikako, le cose iniziano nuovamente ad andare bene e, dopo litigi su chi deve interpretare gli assoli, membri che danno la priorità allo studio e altri che saltano le attività del club, arriva il tanto atteso giorno del concorso... .: Scheda :. Titolo originale: Hibike! Yūfoniamu 2 (響け!ユーフォニアム2) Anno: 5 ottobre – 28 dicembre 2016 Genere: Musica, Scolastico, Slice of Life, Yuri Studio: Kyoto Animation Distribuzione: Giappone Tokyo MX1, SUN, KBS, TVA, BS11, AT-X / Italia Crunchyroll Numero episodi: 13 (completa) Durata approssimativa: 24 minuti (tranne il 1º ep. da 48 min.) .: Dati tecnici del file :. Info sul file Nome: Hibike! Euphonium S02e01 - Fanfara di mezza estate - [TnC].mp4 Data: 11/12/2016 15:43:24 Dimensione: 712,995,855 bytes (679.966 MB) Info generiche Durata: 00:47:40 (2860.21 s) Tipo di contenitore: MP4/MOV Major brand: ISO Base Media version 1 Compatible brands: JVT AVC Data creazione: 16/10/2016 22:09:46 UTC Data modifica: 16/10/2016 22:09:46 UTC Streams totali: 2 Tipo stream n. 1: video (avc1) Tipo stream n. 2: audio (AAC Low complexity) Audio streams: 1 Dati rilevanti Risoluzione: 1280 x 720 Larghezza: multipla di 32 Altezza: multipla di 16 Traccia video Codec: avc1 Risoluzione: 1280 x 720 Frame aspect ratio: 16:9 = 1.777777 Pixel aspect ratio: 1:1 = 1 Display aspect ratio: 16:9 = 1.777777 Framerate: 23.976023 fps Frames totali: 68573 Bitrate: 1841.999026 kbps Traccia audio Codec: AAC Low complexity Bitrate: 148.493751 kbps Canali: 2 Frequenza: 44100 Hz Info sulla codifica H.264 User data: x264 User data: core 148 r2638 7599210 User data: H.264/MPEG-4 AVC codec User data: Copyleft 2003-2015 User data: http://www.videolan.org/x264.html User data: cabac=1 User data: ref=3 User data: deblock=1:0:0 User data: analyse=0x3:0x113 User data: me=hex User data: subme=7 User data: psy=1 User data: psy_rd=1.00:0.00 User data: mixed_ref=1 User data: me_range=16 User data: chroma_me=1 User data: trellis=1 User data: 8x8dct=1 User data: cqm=0 User data: deadzone=21,11 User data: fast_pskip=1 User data: chroma_qp_offset=-2 User data: threads=6 User data: lookahead_threads=1 User data: sliced_threads=0 User data: nr=0 User data: decimate=1 User data: interlaced=0 User data: bluray_compat=0 User data: constrained_intra=0 User data: bframes=3 User data: b_pyramid=2 User data: b_adapt=1 User data: b_bias=0 User data: direct=1 User data: weightb=1 User data: open_gop=0 User data: weightp=2 User data: keyint=240 User data: keyint_min=23 User data: scenecut=40 User data: intra_refresh=0 User data: rc_lookahead=40 User data: rc=2pass User data: mbtree=1 User data: bitrate=1842 User data: ratetol=1.0 User data: qcomp=0.60 User data: qpmin=0 User data: qpmax=69 User data: qpstep=4 User data: cplxblur=20.0 User data: qblur=0.5 User data: ip_ratio=1.40 User data: aq=1:1.00 SPS id: 0 Profile: [email protected] Num ref frames: 4 Aspect ratio: Square pixels Chroma format idc: YUV 4:2:0 PPS id: 0 (SPS: 0) Codifica entropica: CABAC Weighted prediction: P slices - explicit weighted prediction Weighted bipred idc: B slices - implicit weighted prediction 8x8dct: Sì Profile compliancy Profilo da testare: MTK PAL 6000 Risoluzione: 1280 x 720 > 720 x 576 Framerate: 23.976023 <> 25 Rapporto generato da AVInaptic (18-11-2007) in data 11 feb 2017, h 12:53:44

The Tom And Jerry Show 2014 Complete SE1 Burntodisc

Language: | Size: 15.56 GB | Seed: 5 | Leech: 33

Description:

The series normally follows the antics of Tom in his pursuit of Jerry SE1: 2 DISCS EPISODES: 26 episodes 52 segments SIZE: DVD9 VIDEO CODEC: MPEG2 RESOLUTION: 720x480 ASPECT RATIO: NTSC 16:9 FRAMERATE: 29.97fps AUDIO: English 192kb/s SUBTITLES: None MENU: Yes CHAPTERS: Yes DISC COVER: Custom

Trolls (2016).H264.Italian.English.Ac3.5.1.sub.ita.eng.iCV-MIRCrew

Language: | Size: 1.33 GB | Seed: 5 | Leech: 22

Description:

Trolls (2016).H264.Italian.English.Ac3.5.1.sub.ita.eng.iCV-MIRCrew [center] [color=red][b][img]http://extraimago.com/images/2016/07/16/oCo82IVa08d8.png[/img] [u]NO FOUND ONLY ORIGINAL RELEASE[/u] [img]http://i.imgur.com/GDNQx1Z.png[/img] My release is always in double track audio italian and Original audio for select it use VLC or dvd player home not use wmp Trolls (2016) [img]https://extraimage.net/images/2017/02/13/034522ded02c8ff50098dd156e2b897a.png[/img] [URL=http://www.imdb.com/title/tt1679335/][IMG]http://www.userlogos.org/files/logos/Sucka/imdb_new.png[/IMG][/URL] [img]http://i.imgur.com/Q5gAZRt.png[/img] Titolo originale Trolls Lingua originale inglese Paese di produzione Stati Uniti Anno 2016 Durata 92 minuti Rapporto 1,85:1 Genere animazione, musicale, commedia Regia Mike Mitchell, Walt Dohrn Soggetto Troll dolls di Thomas Dam Sceneggiatura Erica Rivinoja Produttore Gina Shay Produttore esecutivo Dannie Festa Casa di produzione DreamWorks Animation Distribuzione (Italia) 20th Century Fox Montaggio Julie Rogers Musiche Christophe Beck [img]http://i.imgur.com/Jtvgw7x.png[/img] Doppiatori originali Anna Kendrick: Principessa Poppy Justin Timberlake: Branch Zooey Deschanel: Brigida Russell Brand: Creek James Corden: Grandino Gwen Stefani: DJ Suki Icona Pop: Seta e Ciniglia Christopher Mintz-Plasse: Re Gristle John Cleese: Re Gristle Sr. Jeffrey Tambor: Re Peppy Christine Baranski: Chef Ron Funches: Cooper Kunal Nayyar: Guy Diamante GloZell Green: Rosiepuff Meg DeAngelis: Moxie Dewdrop Ricky Dillon: Aspen Heitz Kandee Johnson: Mandy Sparkledust Walt Dohrn: Signor Nuvola Doppiatori italiani Elisa: Principessa Poppy Alessio Bernabei: Branch Francesca Manicone: Brigida (dialoghi) Carlotta Centanni: Brigida (canto) Emiliano Coltorti: Creek Luigi Morville: Grandino Giuppy Izzo: DJ Suki Rossa Caputo: Seta Gemma Donati: Ciniglia Gabriele Patriarca: Re Gristle Giorgio Lopez: Re Gristle Sr. Pino Insegno: Re Peppy Emanuela Rossi: Chef Nanni Baldini: Cooper Stefano Thermes: Guy Diamante Mirta Pepe: Rosiepuff Micaela Incitti: Moxie Dewdrop Giulia Catania: Aspen Heitz Irene Trotta: Mandy Sparkledust Francesco De Francesco: Signor Nuvola; Minuta [img]http://i.imgur.com/hL3n1m8.png[/img] I Troll sono piccole creature che vivono in uno stato quasi perpetuo di felicità, cantando, ballando ed abbracciandosi tutto il giorno. Tuttavia vengono scoperti dai Bergen, enormi creature che pensano di non poter provare allegria, e che si convincono di poterla ottenere mangiando un Troll;.............. [img]http://i.imgur.com/MTp7cO6.png[/img] After the Bergens invade Troll Village, Poppy, the happiest Troll ever born, and the curmudgeonly Branch set off on a journey to rescue her friends. ............. [img]http://i.imgur.com/6TgqSmf.png[/img] [url=https://extraimage.net/image/2zeX][img]https://extraimage.net/images/2017/02/13/1b8858da57bae724e1e12dcebe4cde31.th.png[/img][/url] [url=https://extraimage.net/image/2zeP][img]https://extraimage.net/images/2017/02/13/c1f120956ecbbbadd62ef482cae7113a.th.png[/img][/url] [url=https://extraimage.net/image/2zeg][img]https://extraimage.net/images/2017/02/13/897f1a6e5f93047cf29637ab9acfcc47.th.png[/img][/url] [img]http://i.imgur.com/t8N3Ia1.png[/img] [spoiler] General Unique ID : 85432298368665845196444429472489329088 (0x4045A9839E960A707B56769F5B20D1C0) Complete name : Trolls (2016).H264.ita.eng.sub.ita.eng.iCV-MIRCrew.mkv Format : Matroska Format version : Version 2 File size : 1.33 GiB Duration : 1h 32mn Overall bit rate : 2 053 Kbps Movie name : VISIT www.icv-crew.org Encoded date : UTC 2017-02-09 06:28:40 Writing application : Lavf54.63.100 Writing library : Lavf54.63.100 COPYRIGHT : robbyrs Video ID : 1 Format : AVC Format/Info : Advanced Video Codec Format profile : [email protected] Format settings, CABAC : Yes Format settings, ReFrames : 2 frames Codec ID : V_MPEG4/ISO/AVC Duration : 1h 32mn Bit rate : 1 280 Kbps Width : 720 pixels Height : 304 pixels Display aspect ratio : 2.35:1 Original display aspect ratio : 2.35:1 Frame rate mode : Variable Frame rate : 23.976 fps Color space : YUV Chroma subsampling : 4:2:0 Bit depth : 8 bits Scan type : Progressive Bits/(Pixel*Frame) : 0.244 Stream size : 823 MiB (61%) Writing library : x264 core 130 r2273 Encoding settings : cabac=1 / ref=2 / deblock=1:0:0 / analyse=0x1:0x131 / me=hex / subme=7 / psy=1 / psy_rd=1.00:0.00 / mixed_ref=0 / me_range=16 / chroma_me=1 / trellis=1 / 8x8dct=0 / cqm=0 / deadzone=21,11 / fast_pskip=1 / chroma_qp_offset=-2 / threads=12 / lookahead_threads=2 / sliced_threads=0 / nr=0 / decimate=1 / interlaced=0 / bluray_compat=0 / constrained_intra=0 / bframes=3 / b_pyramid=0 / b_adapt=1 / b_bias=0 / direct=3 / weightb=1 / open_gop=0 / weightp=2 / keyint=230 / keyint_min=23 / scenecut=40 / intra_refresh=0 / rc_lookahead=40 / rc=2pass / mbtree=1 / bitrate=1280 / ratetol=1.0 / qcomp=0.60 / qpmin=10 / qpmax=69 / qpstep=4 / cplxblur=20.0 / qblur=0.5 / vbv_maxrate=24000 / vbv_bufsize=24000 / nal_hrd=none / ip_ratio=1.40 / aq=1:1.00 Language : Italian Default : Yes Forced : No DURATION : 01:32:26.917000000 NUMBER_OF_FRAMES : 132993 NUMBER_OF_BYTES : 6792096980 _STATISTICS_WRITING_APP : mkvmerge v8.3.0 ('Over the Horizon') 64bit _STATISTICS_WRITING_DATE_UTC : 2017-02-09 06:28:40 _STATISTICS_TAGS : BPS DURATION NUMBER_OF_FRAMES NUMBER_OF_BYTES Audio #1 ID : 2 Format : AC-3 Format/Info : Audio Coding 3 Mode extension : CM (complete main) Codec ID : A_AC3 Duration : 1h 32mn Bit rate mode : Constant Bit rate : 384 Kbps Channel(s) : 6 channels Channel positions : Front: L C R, Side: L R, LFE Sampling rate : 48.0 KHz Bit depth : 16 bits Compression mode : Lossy Delay relative to video : 1mn 5s Stream size : 254 MiB (19%) Language : Italian Default : Yes Forced : No DURATION : 01:32:27.904000000 NUMBER_OF_FRAMES : 173372 NUMBER_OF_BYTES : 266299392 _STATISTICS_WRITING_APP : mkvmerge v8.3.0 ('Over the Horizon') 64bit _STATISTICS_WRITING_DATE_UTC : 2017-02-09 06:28:40 _STATISTICS_TAGS : BPS DURATION NUMBER_OF_FRAMES NUMBER_OF_BYTES Audio #2 ID : 3 Format : AC-3 Format/Info : Audio Coding 3 Mode extension : CM (complete main) Codec ID : A_AC3 Duration : 1h 32mn Bit rate mode : Constant Bit rate : 384 Kbps Channel(s) : 6 channels Channel positions : Front: L C R, Side: L R, LFE Sampling rate : 48.0 KHz Bit depth : 16 bits Compression mode : Lossy Delay relative to video : 1mn 5s Stream size : 254 MiB (19%) Language : English Default : No Forced : No DURATION : 01:32:26.976000000 NUMBER_OF_FRAMES : 173343 NUMBER_OF_BYTES : 443758080 _STATISTICS_WRITING_APP : mkvmerge v8.3.0 ('Over the Horizon') 64bit _STATISTICS_WRITING_DATE_UTC : 2017-02-09 06:28:40 _STATISTICS_TAGS : BPS DURATION NUMBER_OF_FRAMES NUMBER_OF_BYTES Text #1 ID : 4 Format : UTF-8 Codec ID : S_TEXT/UTF8 Codec ID/Info : UTF-8 Plain Text Title : FORCED iTA Language : Italian Default : Yes Forced : No DURATION : 00:00:36.036000000 NUMBER_OF_FRAMES : 8 NUMBER_OF_BYTES : 268 _STATISTICS_WRITING_APP : mkvmerge v8.3.0 ('Over the Horizon') 64bit _STATISTICS_WRITING_DATE_UTC : 2017-02-09 06:28:40 _STATISTICS_TAGS : BPS DURATION NUMBER_OF_FRAMES NUMBER_OF_BYTES Text #2 ID : 5 Format : UTF-8 Codec ID : S_TEXT/UTF8 Codec ID/Info : UTF-8 Plain Text Title : REGULAR iTA Language : Italian Default : No Forced : No DURATION : 01:31:26.737000000 NUMBER_OF_FRAMES : 1364 NUMBER_OF_BYTES : 40490 _STATISTICS_WRITING_APP : mkvmerge v8.3.0 ('Over the Horizon') 64bit _STATISTICS_WRITING_DATE_UTC : 2017-02-09 06:28:40 _STATISTICS_TAGS : BPS DURATION NUMBER_OF_FRAMES NUMBER_OF_BYTES Text #3 ID : 6 Format : UTF-8 Codec ID : S_TEXT/UTF8 Codec ID/Info : UTF-8 Plain Text Title : REGULAR ENG Language : English Default : No Forced : No DURATION : 01:29:54.089000000 NUMBER_OF_FRAMES : 1678 NUMBER_OF_BYTES : 46344 _STATISTICS_WRITING_APP : mkvmerge v8.3.0 ('Over the Horizon') 64bit _STATISTICS_WRITING_DATE_UTC : 2017-02-09 06:28:40 _STATISTICS_TAGS : BPS DURATION NUMBER_OF_FRAMES NUMBER_OF_BYTES Text #4 ID : 7 Format : UTF-8 Codec ID : S_TEXT/UTF8 Codec ID/Info : UTF-8 Plain Text Title : NON UDENTI ENG Language : English Default : No Forced : No DURATION : 01:29:54.089000000 NUMBER_OF_FRAMES : 1895 NUMBER_OF_BYTES : 52073 _STATISTICS_WRITING_APP : mkvmerge v8.3.0 ('Over the Horizon') 64bit _STATISTICS_WRITING_DATE_UTC : 2017-02-09 06:28:40 _STATISTICS_TAGS : BPS DURATION NUMBER_OF_FRAMES NUMBER_OF_BYTES Menu 00:00:00.000 : :00:00:00.000 00:02:20.474 : :00:02:20.474 00:06:22.924 : :00:06:22.924 00:10:42.642 : :00:10:42.642 00:13:26.597 : :00:13:26.597 00:18:34.363 : :00:18:34.363 00:22:12.790 : :00:22:12.790 00:25:41.081 : :00:25:41.081 00:28:53.732 : :00:28:53.732 00:32:55.098 : :00:32:55.098 00:36:33.107 : :00:36:33.107 00:40:56.787 : :00:40:56.787 00:44:21.659 : :00:44:21.659 00:47:27.970 : :00:47:27.970 00:51:27.084 : :00:51:27.084 00:55:45.675 : :00:55:45.675 00:59:58.761 : :00:59:58.761 01:03:17.084 : :01:03:17.084 01:05:17.663 : :01:05:17.663 01:07:56.530 : :01:07:56.530 01:10:25.262 : :01:10:25.262 01:13:31.657 : :01:13:31.657 01:16:21.243 : :01:16:21.243 01:21:44.733 : :01:21:44.733 [/spoiler] [/color][/b][/center]

The Accountant (2016).H264.Italian.English.Ac3.5.1.sub.ita.eng.iCV-MIRCrew

Language: | Size: 1.83 GB | Seed: 5 | Leech: 172

Description:

The Accountant (2016).H264.Italian.English.Ac3.5.1.sub.ita.eng.iCV-MIRCrew [center] [color=red][b][img]http://s23.postimg.org/b9yhws27f/0sc_Del1.png[/img] [u]NO FOUND ONLY ORIGINAL RELEASE[/u] [img]http://i.imgur.com/GDNQx1Z.png[/img] My release is always in double track audio italian and Original audio for select it use VLC or dvd player home not use wmp The Accountant (2016) [img]https://extraimage.net/images/2017/02/13/7db1f851073b64850d76319fc083eaed.png[/img] [URL=http://www.imdb.com/title/tt2140479/][IMG]http://www.userlogos.org/files/logos/Sucka/imdb_new.png[/IMG][/URL] [img]http://i.imgur.com/fGu1rKv.png[/img] DATA USCITA: 27 ottobre 2016 GENERE: Drammatico ANNO: 2016 REGIA: Gavin O'Connor SCENEGGIATURA: Bill Dubuque FOTOGRAFIA: Seamus McGarvey MONTAGGIO: Richard Pearson MUSICHE: Mark Isham PRODUZIONE: Electric City Entertainment, Zero Gravity Management DISTRIBUZIONE: Warner Bros. PAESE: USA DURATA: 128 Min [img]http://i.imgur.com/W7kBqiE.png[/img] Ben Affleck, Anna Kendrick, Jon Bernthal, J.K. Simmons, John Lithgow, Jeffrey Tambor, Alison Wright, Cynthia Addai-Robinson, Ron Yuan [img]http://i.imgur.com/bFK3ggF.png[/img] Christian Wolff, un genio matematico che ha più affinità con i numeri che con le persone, lavora sotto copertura in un piccolo studio come contabile freelance per alcune delle più pericolose organizzazioni criminali del pianeta [img]http://i.imgur.com/48xHWWH.png[/img] As a math savant uncooks the books for a new client, the Treasury Department closes in on his activities and the body count starts to rise. [img]http://i.imgur.com/K8bfNTy.png[/img] [url=https://extraimage.net/image/2zZM][img]https://extraimage.net/images/2017/02/13/88448b9a45fca53dd07467147eaa5f1b.th.png[/img][/url] [url=https://extraimage.net/image/2zZU][img]https://extraimage.net/images/2017/02/13/33de62460afb3955ef346704b700adc6.th.png[/img][/url] [url=https://extraimage.net/image/2zZz][img]https://extraimage.net/images/2017/02/13/cf13f17f8de369b1cf55f3f8024b7563.th.png[/img][/url] [img]http://i.imgur.com/aVrMohH.png[/img] [spoiler] General Unique ID : 245323344504455298737863210057651670622 (0xB88F8EB9E1D0C5008C2C7D7949034E5E) Complete name : The Accountant (2016).H264.ita.eng.sub.ita.eng.iCV-MIRCrew.mkv Format : Matroska Format version : Version 2 File size : 1.83 GiB Duration : 2h 7mn Overall bit rate : 2 053 Kbps Movie name : VISIT www.icv-crew.org Encoded date : UTC 2017-02-12 15:46:48 Writing application : Lavf54.63.100 Writing library : Lavf54.63.100 COPYRIGHT : robbyrs Video ID : 1 Format : AVC Format/Info : Advanced Video Codec Format profile : [email protected] Format settings, CABAC : Yes Format settings, ReFrames : 2 frames Codec ID : V_MPEG4/ISO/AVC Duration : 2h 7mn Bit rate : 1 280 Kbps Width : 720 pixels Height : 300 pixels Display aspect ratio : 2.40:1 Frame rate mode : Variable Frame rate : 23.976 fps Color space : YUV Chroma subsampling : 4:2:0 Bit depth : 8 bits Scan type : Progressive Bits/(Pixel*Frame) : 0.247 Stream size : 1.11 GiB (61%) Writing library : x264 core 130 r2273 Encoding settings : cabac=1 / ref=2 / deblock=1:0:0 / analyse=0x1:0x131 / me=hex / subme=7 / psy=1 / psy_rd=1.00:0.00 / mixed_ref=0 / me_range=16 / chroma_me=1 / trellis=1 / 8x8dct=0 / cqm=0 / deadzone=21,11 / fast_pskip=1 / chroma_qp_offset=-2 / threads=12 / lookahead_threads=2 / sliced_threads=0 / nr=0 / decimate=1 / interlaced=0 / bluray_compat=0 / constrained_intra=0 / bframes=3 / b_pyramid=0 / b_adapt=1 / b_bias=0 / direct=3 / weightb=1 / open_gop=0 / weightp=2 / keyint=230 / keyint_min=23 / scenecut=40 / intra_refresh=0 / rc_lookahead=40 / rc=2pass / mbtree=1 / bitrate=1280 / ratetol=1.0 / qcomp=0.60 / qpmin=10 / qpmax=69 / qpstep=4 / cplxblur=20.0 / qblur=0.5 / vbv_maxrate=24000 / vbv_bufsize=24000 / nal_hrd=none / ip_ratio=1.40 / aq=1:1.00 Language : Italian Default : Yes Forced : No DURATION : 02:07:54.250000000 NUMBER_OF_FRAMES : 183998 NUMBER_OF_BYTES : 9565578531 _STATISTICS_WRITING_APP : mkvmerge v8.3.0 ('Over the Horizon') 64bit _STATISTICS_WRITING_DATE_UTC : 2017-02-09 06:56:07 _STATISTICS_TAGS : BPS DURATION NUMBER_OF_FRAMES NUMBER_OF_BYTES Audio #1 ID : 2 Format : AC-3 Format/Info : Audio Coding 3 Mode extension : CM (complete main) Codec ID : A_AC3 Duration : 2h 7mn Bit rate mode : Constant Bit rate : 384 Kbps Channel(s) : 6 channels Channel positions : Front: L C R, Side: L R, LFE Sampling rate : 48.0 KHz Bit depth : 16 bits Compression mode : Lossy Delay relative to video : 1mn 5s Stream size : 351 MiB (19%) Language : Italian Default : Yes Forced : No DURATION : 02:07:53.344000000 NUMBER_OF_FRAMES : 239792 NUMBER_OF_BYTES : 368320512 _STATISTICS_WRITING_APP : mkvmerge v8.3.0 ('Over the Horizon') 64bit _STATISTICS_WRITING_DATE_UTC : 2017-02-09 06:56:07 _STATISTICS_TAGS : BPS DURATION NUMBER_OF_FRAMES NUMBER_OF_BYTES Audio #2 ID : 3 Format : AC-3 Format/Info : Audio Coding 3 Mode extension : CM (complete main) Codec ID : A_AC3 Duration : 2h 7mn Bit rate mode : Constant Bit rate : 384 Kbps Channel(s) : 6 channels Channel positions : Front: L C R, Side: L R, LFE Sampling rate : 48.0 KHz Bit depth : 16 bits Compression mode : Lossy Delay relative to video : 1mn 5s Stream size : 351 MiB (19%) Language : English Default : No Forced : No DURATION : 02:07:54.240000000 NUMBER_OF_FRAMES : 239820 NUMBER_OF_BYTES : 613939200 _STATISTICS_WRITING_APP : mkvmerge v8.3.0 ('Over the Horizon') 64bit _STATISTICS_WRITING_DATE_UTC : 2017-02-09 06:56:07 _STATISTICS_TAGS : BPS DURATION NUMBER_OF_FRAMES NUMBER_OF_BYTES Text #1 ID : 4 Format : UTF-8 Codec ID : S_TEXT/UTF8 Codec ID/Info : UTF-8 Plain Text Title : FORCED iTA Language : Italian Default : Yes Forced : No DURATION : 01:53:26.682000000 NUMBER_OF_FRAMES : 27 NUMBER_OF_BYTES : 815 _STATISTICS_WRITING_APP : mkvmerge v8.3.0 ('Over the Horizon') 64bit _STATISTICS_WRITING_DATE_UTC : 2017-02-09 06:56:07 _STATISTICS_TAGS : BPS DURATION NUMBER_OF_FRAMES NUMBER_OF_BYTES Text #2 ID : 5 Format : UTF-8 Codec ID : S_TEXT/UTF8 Codec ID/Info : UTF-8 Plain Text Title : REGULAR iTA Language : Italian Default : No Forced : No DURATION : 01:58:57.471000000 NUMBER_OF_FRAMES : 1536 NUMBER_OF_BYTES : 49681 _STATISTICS_WRITING_APP : mkvmerge v8.3.0 ('Over the Horizon') 64bit _STATISTICS_WRITING_DATE_UTC : 2017-02-09 06:56:07 _STATISTICS_TAGS : BPS DURATION NUMBER_OF_FRAMES NUMBER_OF_BYTES Text #3 ID : 6 Format : UTF-8 Codec ID : S_TEXT/UTF8 Codec ID/Info : UTF-8 Plain Text Title : NON UDENTI ENG Language : English Default : No Forced : No DURATION : 02:07:13.041000000 NUMBER_OF_FRAMES : 1702 NUMBER_OF_BYTES : 57484 _STATISTICS_WRITING_APP : mkvmerge v8.3.0 ('Over the Horizon') 64bit _STATISTICS_WRITING_DATE_UTC : 2017-02-09 06:56:07 _STATISTICS_TAGS : BPS DURATION NUMBER_OF_FRAMES NUMBER_OF_BYTES Menu 00:00:00.000 : :00:00:00.000 00:13:01.447 : :00:13:01.447 00:20:36.277 : :00:20:36.277 00:29:30.394 : :00:29:30.394 00:38:44.656 : :00:38:44.656 00:49:33.679 : :00:49:33.679 01:00:05.435 : :01:00:05.435 01:13:39.707 : :01:13:39.707 01:25:57.069 : :01:25:57.069 01:39:15.658 : :01:39:15.658 01:54:31.156 : :01:54:31.156 02:01:40.251 : :02:01:40.251 [/spoiler] [/color][/b][/center]

Atjazz - Lab Results [Flac][TntVillage]

Language: | Size: 427.11 MB | Seed: 62 | Leech: 27

Description:

[img]http://i.imgur.com/Q0E01LL.jpg[/img] Artist...............: Atjazz Album................: Lab Results Genre................: Acid Jazz Electronic Source...............: CD Year.................: 2001 Ripper...............: EAC (Secure mode) / LAME 3.92 & Asus CD-S520 Codec................: Free Lossless Audio Codec (FLAC) Version..............: reference libFLAC 1.3.1 20141125 Quality..............: Lossless, (avg. compression: 60 %) Channels.............: Stereo / 44100 HZ / 16 Bit Tags.................: VorbisComment Information..........: TntVillage Ripped by............: Leonenero on 12/02/2017 Posted by............: Leonenero on 12/02/2017 News Server..........: news.astraweb.com News Group(s)........: TNTVILLAGE Included.............: NFO, M3U, LOG, CUE Covers...............: Front Back CD --------------------------------------------------------------------- Tracklisting --------------------------------------------------------------------- 1. Atjazz - Harmony (Dixon's Late Night Mix) [05:32] 2. Atjazz - Wrong Type Of Day [05:49] 3. Atjazz - Touch The Sun (Dzihan & Kamien's Sun Care Remix) [05:48] 4. Atjazz - Witchbender [06:52] 5. Atjazz - Day 2001 (Brooks Flood Loop Remix) [05:31] 6. Atjazz - Rain Angel [06:17] 7. Atjazz - Harmony (Little Big Bee Remix) [08:50] 8. Atjazz - It's Complete (Chateau Flight Dark Side Remix) [05:05] 9. Atjazz - The Walk Home [06:35] 10. Atjazz - It's Complete (Phil Barnell's Pushin' Your Love Remix) [05:30] 11. Atjazz - Touch The Sun (King Britt's Scuba Journey) [08:53] Playing Time.........: 01:10:48 Total Size...........: 426,61 MB Atjazz wisely handed a few of his Lab Funk productions to cooler heads than his own for the remixes-and-originals full-length Lab Results. dZihan & Kamien do a good job roughing up "Touch the Sun," Chateau Flight's warped version of "It's Complete" improves the rather bland original, and King Britt and Dixon do solid work as well. Of the originals, "Witchbender" recalls the sublime bleep techno of As One and LFO, though "Rain Angel" descends into the worst excesses of quiet storm.

Atjazz - Labfunk [Flac][TntVillage]

Language: | Size: 477.74 MB | Seed: 37 | Leech: 18

Description:

[img]http://i.imgur.com/07g0t10.jpg[/img] Artist...............: Atjazz Album................: Labfunk Genre................: Acid Jazz Electronic Source...............: CD Year.................: 2001 Ripper...............: EAC (Secure mode) / LAME 3.92 & Asus CD-S520 Codec................: Free Lossless Audio Codec (FLAC) Version..............: reference libFLAC 1.3.1 20141125 Quality..............: Lossless, (avg. compression: 65 %) Channels.............: Stereo / 44100 HZ / 16 Bit Tags.................: VorbisComment Information..........: TntVillage Ripped by............: Leonenero on 12/02/2017 Posted by............: Leonenero on 12/02/2017 News Server..........: news.astraweb.com News Group(s)........: TNTVILLAGE Included.............: NFO, M3U, LOG, CUE Covers...............: Front Back CD --------------------------------------------------------------------- Tracklisting --------------------------------------------------------------------- 1. Atjazz - Labfunk [06:38] 2. Atjazz - Touch The Sun [07:13] 3. Atjazz - Day 2001 [05:40] 4. Atjazz - Strike [07:19] 5. Atjazz - Kidnapped [07:12] 6. Atjazz - All That [09:02] 7. Atjazz - It's Complete [07:12] 8. Atjazz - Interlude [01:20] 9. Atjazz - Harmony [07:21] 10. Atjazz - Heavy Weather [07:20] 11. Atjazz - Casa De Ilusion [06:04] Playing Time.........: 01:12:26 Total Size...........: 477,33 MB Martin Iveson is best known as the music and sound effect producer for the illustrious Tomb Raider video games and a slew of remixes and 12-inch releases on Nottingham's DIY Records. Upon resurrection of his Mantis Recordings in 1998, he hooked up with jazz musician Pete Wraight (who's played with Charles Webster and extensively on Herbert's Bodily Functions) and Atjazz was born.Labfunk is an album that skirts on the outer rim of both deep house and broken beat, in which organic elements and heavily synthesized sounds happily co-exist. Iveson has a very keen ear for both time-honored music and fast-forward future sounds. Tracks like "Strike" exalt this, with a Herbie Hancock-esque neoprene bassline, muted trumpets and ultra-clean drum break. "Kidnapped" continues on the same path, with an aggressive bassline and more of Atjazz's signature '70s throwback muted horns, while "It's Complete" is on more of a mellow tip, with a subtle drum break, star-kissed synths and a synthetic bass line. The true standout of the album is "Harmony," the only female vocal oriented track that makes a very sudden (and tasteful) change-up from broken beat to straight house music mid-way through the track. This is an expertly programmed album that breaks genre barriers and will appeal to fans of house, broken beat, downtempo and funk. This electronic fusion avoids the syrupy, overwrought instrumentation that has plagued this sound for so long. It's an impure record for purists of all genres, and above all, it's damn good.

Gli Aristogatti - The Aristocats (1970 Ita/Eng) + EXTRA [1080p] [iCV-MIRCrew]

Language: | Size: 4.89 GB | Seed: 2 | Leech: 2

Description:

Titolo originale: The Aristocats Nazionalità: USA Anno: 1970 Genere: animazione, avventura, commedia, musicale Regia: Wolfgang Reitherman Durata: 78 min Trama: Madame Adelaide, una ricca attrice a riposo ormai sulla strada della vecchiaia, nomina eredi universali i suoi quattro gatti: Mamma Duchessa e i cuccioli Minou, Bizet e Matisse. Il maggiordomo Edgar, destinato a sua volta ad ereditare le intere sostanze alla morte dei gatti, e ansioso di mettere al piu' presto le mani sulle ricchezze della padrona, decide di sbarazzarsi degli incomodi concorrenti a quattro zampe. Condottili in una zona isolata di periferia, si accinge ad eliminarli, ma viene messo in fuga dall'intervento di due ferocissimi cani randagi. Rimasti soli, Mamma Duchessa e i suoi tre micetti si imbattono in Romeo, un gatto vagabondo dal cuore d'oro, il quale si impegna a ricondurli dalla loro padrona. Report: http://freetexthost.com/uplx3b0o43 Extra: In questa versione sono compresi gli extra: 1 - L'inizio perduto 2 - "Oui Oui Marie" Video musicale 3 - Canzone eliminata del Classico Originale: "She Never Felt Alone" Dietro le quinte Disney del Classico Originale: 1 - I fratelli Sherman: gli aristocratici delle canzoni Disney 2 - La grande famiglia dei gatti (estratto) 19 settembre 1956 5 - Musica & altro del Classico Originale 6 - Cortometraggio del Classico Originale "Bath Day"

Big Hero 6 (2014 Ita/Eng) + EXTRA [1080p] [iCV-MIRCrew]

Language: | Size: 6.58 GB | Seed: 1 | Leech: 1

Description:

Titolo originale: Big Hero 6 Nazionalità: USA Anno: 2014 Genere: animazione, commedia, drammatico, fantascienza, azione Regia: Don Hall, Chris Williams Durata: 102 min Trama: Big Hero 6 è una commedia d’avventura ricca d’azione sull’enfant prodige esperto di robot Hiro Hamada, che impara a gestire le sue geniali capacità grazie a suo fratello, il brillante Tadashi e ai suoi amici: l’adrenalica Go Go Tamago, il maniaco dell’ordine Wasabi No-Ginger, la maga della chimica Honey Lemon e l’entusiasta Fred. Quando una serie di circostanze disastrose catapultano i protagonisti al centro di un pericoloso complotto che si consuma sulle strade di San Fransokyo, Hiro si rivolge al suo amico più caro, un robot di nome Baymax, e trasforma il suo gruppo di amici in una squadra altamente tecnologica, per riuscire a rivolvere il mistero. Report: http://freetexthost.com/sdwgrbvtxw Extra: In questa versione sono compresi gli extra: 1 - Corto cinematografico: Winston 2 - L'origine di Big Hero 6: il viaggio di Hiro 3 - Big Animator 6: i protagonisti dietro ai personaggi 4 - Scene eliminate con le introduzioni dei registi Don Hall e Chris Williams 5 - Big Hero 6 Trailer cinematografico 6 - Corto di Topolino - Odissea a Tokyo

La.Verita.Sta.In.Cielo.2016.iTALiAN.AC3.DVDRip.XviD-T4P3

Language: | Size: 1.37 GB | Seed: 295 | Leech: 430

Description:

La verità sta in cielo Titolo originale: La verità sta in cielo Conosciuto anche come: Nazione: Italia Anno: 2016 Genere: Thriller Durata: 94' Regia: Roberto Faenza Cast: Riccardo Scamarcio, Maya Sansa, Greta Scarano, Valentina Lodovini, Anthony Souter, Randall Paul, Andrea Iaia, Simone Coppo, Pino Torcasio, Mino Sferra Produzione: Jean Vigo Italia, Rai Cinema Distribuzione: 01 Distribution Data di uscita: 06 Ottobre 2016 (cinema) Trama: Il 22 giugno 1983 Emanuela Orlandi, quindicenne cittadina vaticana, figlia di un messo pontificio, sparisce dal centro di Roma, dando inizio a uno dei più clamorosi casi irrisolti mai accaduti in Italia, conosciuto anche all’estero. Dopo decine di indagini, oscure ipotesi, coinvolgimento di “poteri forti”, depistaggi di ogni genere, una cosa è certa: Emanuela non ha fatto più ritorno a casa. Sollecitata dallo scandalo “Mafia capitale” che attanaglia Roma ai giorni nostri, una rete televisiva inglese decide di inviare a Roma una giornalista di origine italiana per raccontare dove tutto ebbe inizio: quel 22 giugno di tanti anni prima. Con l’aiuto di un’altra giornalista, inviata di un noto programma televisivo italiano, che ha scoperto una nuova pista, entra in scena un personaggio inquietante: Sabrina Minardi. E’ l’amante di Enrico De Pedis, meglio conosciuto come Renatino, il boss che ha saputo gestire meglio di ogni altro il malaffare della capitale, poi finendo sotto i colpi della banda rivale della Magliana. Nonostante il suo passato, Renatino verrà sepolto nella Basilica di S. Apollinare, nel cuore di Roma, proprio accanto alla scuola di musica frequentata da Emanuela: un altro mistero. La Minardi si decide a raccontare quanto afferma di sapere sul sequestro della ragazza. E’ la verità? Quale intreccio indicibile si cela dietro i delitti rimasti impuniti nell’arco di trent’anni?

Hibike! Euphonium S01e01-13 - OAV e Specials [720p - H264 - Jap Aac - Hardsub ita]

Language: | Size: 4.17 GB | Seed: 35 | Leech: 33

Description:

Hibike! Euphonium S01e01-13 - OAV e Specials [720p - H264 - Jap Aac - Hardsub ita] .: Trama :. Un tempo il club dell'orchestra di strumenti del liceo Kitauji gareggiava ai tornei nazionali ed era uno dei favoriti per la vittoria. Tuttavia, dal cambiamento del suo consulente in poi, non è più neanche in grado di partecipare al torneo di qualificazione. Con l'arrivo di Taki, il severo sostituto della signora Rikako, le cose iniziano nuovamente ad andare bene e, dopo litigi su chi deve interpretare gli assoli, membri che danno la priorità allo studio e altri che saltano le attività del club, arriva il tanto atteso giorno del concorso... .: Scheda :. Titolo originale: Hibike! Yūfoniamu (響け!ユーフォニアム) Anno: 7 aprile – 30 giugno 2015 Genere: Musica, Scolastico, Slice of Life, Yuri Studio: Kyoto Animation Distribuzione: Giappone Tokyo MX1, SUN, KBS, TVA, BS11, AT-X / Italia Crunchyroll Numero episodi: 13 (completa), +1 OAV e 7 Specials Durata approssimativa: 24 minuti .: Dati tecnici del file :. Info sul file Nome: Hibike! Euphonium S01e01 - Benvenuti al liceo - [TnC].mp4 Data: 11/12/2016 14:16:28 Dimensione: 314,719,770 bytes (300.14 MB) Info generiche Durata: 00:23:40 (1420.316666 s) Tipo di contenitore: MP4/MOV Major brand: ISO Base Media version 1 Compatible brands: JVT AVC Data creazione: 8/04/2015 20:28:18 UTC Data modifica: 8/04/2015 20:28:18 UTC Streams totali: 2 Tipo stream n. 1: video (avc1) Tipo stream n. 2: audio (AAC Low complexity) Audio streams: 1 Dati rilevanti Risoluzione: 1280 x 720 Larghezza: multipla di 32 Altezza: multipla di 16 Traccia video Codec: avc1 Risoluzione: 1280 x 720 Frame aspect ratio: 16:9 = 1.777777 Pixel aspect ratio: 1:1 = 1 Display aspect ratio: 16:9 = 1.777777 Framerate: 23.976023 fps Frames totali: 34049 Bitrate: 1620.406769 kbps Traccia audio Codec: AAC Low complexity Bitrate: 148.677969 kbps Canali: 2 Frequenza: 44100 Hz Info sulla codifica H.264 User data: x264 User data: core 146 r2538 121396c User data: H.264/MPEG-4 AVC codec User data: Copyleft 2003-2015 User data: http://www.videolan.org/x264.html User data: cabac=1 User data: ref=3 User data: deblock=1:0:0 User data: analyse=0x3:0x113 User data: me=hex User data: subme=7 User data: psy=1 User data: psy_rd=1.00:0.00 User data: mixed_ref=1 User data: me_range=16 User data: chroma_me=1 User data: trellis=1 User data: 8x8dct=1 User data: cqm=0 User data: deadzone=21,11 User data: fast_pskip=1 User data: chroma_qp_offset=-2 User data: threads=3 User data: lookahead_threads=1 User data: sliced_threads=0 User data: nr=0 User data: decimate=1 User data: interlaced=0 User data: bluray_compat=0 User data: constrained_intra=0 User data: bframes=3 User data: b_pyramid=2 User data: b_adapt=1 User data: b_bias=0 User data: direct=1 User data: weightb=1 User data: open_gop=0 User data: weightp=2 User data: keyint=240 User data: keyint_min=23 User data: scenecut=40 User data: intra_refresh=0 User data: rc_lookahead=40 User data: rc=2pass User data: mbtree=1 User data: bitrate=1619 User data: ratetol=1.0 User data: qcomp=0.60 User data: qpmin=0 User data: qpmax=69 User data: qpstep=4 User data: cplxblur=20.0 User data: qblur=0.5 User data: ip_ratio=1.40 User data: aq=1:1.00 SPS id: 0 Profile: [email protected] Num ref frames: 4 Aspect ratio: Square pixels Chroma format idc: YUV 4:2:0 PPS id: 0 (SPS: 0) Codifica entropica: CABAC Weighted prediction: P slices - explicit weighted prediction Weighted bipred idc: B slices - implicit weighted prediction 8x8dct: Sì Profile compliancy Profilo da testare: MTK PAL 6000 Risoluzione: 1280 x 720 > 720 x 576 Framerate: 23.976023 <> 25 Rapporto generato da AVInaptic (18-11-2007) in data 9 feb 2017, h 11:25:13

Ouija - L'Origine Del Male (2016) (by emi) ITA - ENG mkv 720p

Language: | Size: 1.39 GB | Seed: 26 | Leech: 2

Description:

Ouija - L'Origine Del Male (2016) (by emi) ITA - ENG mkv 720p Titolo originale:Ouija 2 Nazione:U.S.A. Anno:2016 Genere:Horror, Thriller Durata:99' Regia:Mike Flanagan Cast:Kate Siegel, Henry Thomas, Doug Jones, Elizabeth Reaser, Lin Shaye, Parker Mack, Sam Anderson, Alexis G. Zall, Lulu Wilson, Annalise Basso Produzione:Allspark Pictures, Blumhouse Productions, Hasbro, Platinum Dunes Distribuzione:Universal Pictures Italia Trama: Nella Los Angeles del 1965, una madre vedova e le sue due figlie introducono un nuovo trucco alle loro consuete frodi spiritiche per ravvivare l'attività di famiglia, finendo per attirare senza volerlo un autentico spirito maligno nella propria casa. Quando la figlia più giovane viene posseduta dall'implacabile entità, questa piccola famiglia dovrà fare i conti con paure inimmaginabili per poterla salvare e rispedire il suo possessore nell'aldilà. In Los Angeles in 1965, a widowed mother and her two daughters introduce a new trick to their usual spiritualistic frauds to revive the family business, only to unwittingly attract genuine evil spirit in their home. When the youngest daughter is possessed by the implacable entities, this small family will have to deal with unimaginable fears to be able to save and to send back its owner in the afterlife. Generale: ID univoco : 207743337285388479349971068505669371983 (0x9C49E951AC61E03420FE8B1A81B2084F) Nome completo : C:\Users\Ouija - L'Origine Del Male (2016) (by emi) ITA - ENG mkv 720p.mkv Formato : Matroska Versione formato : Version 4 / Version 2 Dimensione : 1,39 GiB Durata : 1 o 38 min Bitrate totale : 2.015 kb/s Data codifica : UTC 2017-02-09T19:29:11Z Creato con : HandBrake 1.0.1 2016122900 Compressore : Lavf57.7.2 / Lavf57.7.2 Video ID : 1 Formato : AVC Formato/Informazioni : Advanced Video Codec Profilo formato : [email protected] Impostazioni formato, CABAC : Si Impostazioni formato, ReFrames : 4 frame ID codec : V_MPEG4/ISO/AVC Durata : 1 o 38 min Bitrate : 1.207 kb/s Larghezza : 1.280 pixel Altezza : 690 pixel Rapporto aspetto visualizzazione : 1,85:1 Rapporto aspetto originale : 1,85:1 Modalità frame rate : Costante Frame rate : 23,976 (24000/1001) FPS Spazio colore : YUV Croma subsampling : 4:2:0 Profondità bit : 8 bit Tipo scansione : Progressivo Bit/(pixel*frame) : 0.057 Dimensione della traccia : 854MiB (60%) Compressore : x264 core 148 r2708 86b7198 Impostazioni compressione : cabac=1 / ref=2 / deblock=1:0:0 / analyse=0x1:0x111 / me=hex / subme=6 / psy=1 / psy_rd=1.00:0.00 / mixed_ref=1 / me_range=16 / chroma_me=1 / trellis=1 / 8x8dct=0 / cqm=0 / deadzone=21,11 / fast_pskip=1 / chroma_qp_offset=-2 / threads=12 / lookahead_threads=2 / sliced_threads=0 / nr=0 / decimate=1 / interlaced=0 / bluray_compat=0 / constrained_intra=0 / bframes=3 / b_pyramid=2 / b_adapt=1 / b_bias=0 / direct=1 / weightb=1 / open_gop=0 / weightp=1 / keyint=240 / keyint_min=24 / scenecut=40 / intra_refresh=0 / rc_lookahead=30 / rc=crf / mbtree=1 / crf=22.0 / qcomp=0.60 / qpmin=0 / qpmax=69 / qpstep=4 / vbv_maxrate=20000 / vbv_bufsize=25000 / crf_max=0.0 / nal_hrd=none / filler=0 / ip_ratio=1.40 / aq=1:1.00 Default : Si Forced : No colour_range : Limited Colori primari : BT.709 Caratteristiche trasferimento : BT.709 Coefficienti matrici : BT.709 Audio #1 ID : 2 Formato : AC-3 Formato/Informazioni : Audio Coding 3 Estensione modo : CM (complete main) Impostazioni formato, Endianness : Big ID codec : A_AC3 Durata : 1 o 38 min Modalità bitrate : Costante Bitrate : 384 kb/s Canali : 6 canali Posizione canali : Front: L C R, Side: L R, LFE Frequenza campionamento : 48,0 kHz Frame rate : 31,250 FPS (1536 spf) Modo compressione : Con perdita Ritardo video : -5 ms Dimensione della traccia : 272MiB (19%) Titolo : Surround Lingua : Italiano Default : Si Forced : No Audio #2 ID : 3 Formato : AC-3 Formato/Informazioni : Audio Coding 3 Estensione modo : CM (complete main) Impostazioni formato, Endianness : Big ID codec : A_AC3 Durata : 1 o 38 min Modalità bitrate : Costante Bitrate : 384 kb/s Canali : 6 canali Posizione canali : Front: L C R, Side: L R, LFE Frequenza campionamento : 48,0 kHz Frame rate : 31,250 FPS (1536 spf) Modo compressione : Con perdita Ritardo video : -5 ms Dimensione della traccia : 272MiB (19%) Titolo : Surround Lingua : Inglese Default : No Forced : No Testo #1 ID : 4 Formato : ASS ID codec : S_TEXT/ASS ID codec/Informazioni : Advanced Sub Station Alpha Modo compressione : Senza perdita Lingua : Italiano Default : Si Forced : Si Testo #2 ID : 5 Formato : ASS ID codec : S_TEXT/ASS ID codec/Informazioni : Advanced Sub Station Alpha Modo compressione : Senza perdita Lingua : Italiano Default : No Forced : No Testo #3 ID : 6 Formato : ASS ID codec : S_TEXT/ASS ID codec/Informazioni : Advanced Sub Station Alpha Modo compressione : Senza perdita Lingua : Inglese Default : No Forced : No

Moonwalkers (2015).H264.Italian.English.Ac3.5.1.sub.ita.eng.iCV-MIRCrew

Language: | Size: 1.47 GB | Seed: 50 | Leech: 37

Description:

Moonwalkers (2015).H264.Italian.English.Ac3.5.1.sub.ita.eng.iCV-MIRCrew [center] [color=red][b][img]http://s23.postimg.org/b9yhws27f/0sc_Del1.png[/img] [u]NO FOUND ONLY ORIGINAL RELEASE[/u] [img]http://i.imgur.com/GDNQx1Z.png[/img] My release is always in double track audio italian and Original audio for select it use VLC or dvd player home not use wmp Moonwalkers (2015) [img]https://extraimage.net/images/2017/02/12/96818eaaf9bff650736f15b39465d344.png[/img] [URL=http://www.imdb.com/title/tt2718440/][IMG]http://www.userlogos.org/files/logos/Sucka/imdb_new.png[/IMG][/URL] [img]http://i.imgur.com/fGu1rKv.png[/img] Titolo Originale Moonwalkers Paese Francia Anno 2015 Durata 96 Min Genere Commedia Regia Antoine Bardou-Jacquet. Sceneggiatura Dean Craig Casa Di Produzione Partizan Films, Nexus Factory, Potemkino Distribuzione Blue Swan Fotografia Glynn Speeckaert Montaggio Chris Gill Musiche Matthieu Sibony [img]http://i.imgur.com/W7kBqiE.png[/img] Ron Perlman, Rupert Grint, Robert Sheehan, Stephen Campbell Moore, Jeanne Abraham, Kerry Shale, Eric Lampaert, Jay Benedict, John Flanders, Tom Audenaert, Dan Poole. [img]http://i.imgur.com/bFK3ggF.png[/img] 1969: il governo americano ha bisogno delle riprese di un falso allunaggio per battere sul tempo i russi e manda a Londra un agente della CIA traumatizzato dal Vietnam perché convinca Kubrick a girarlo [img]http://i.imgur.com/48xHWWH.png[/img] What if Apollo 11 never actually made it? What if, in reality, Stanley Kubrick secretly shot the famous images of the moon landing in a studio, working for the US administration? This is the premise of a totally plausible conspiracy theory that takes us to swinging sixties London, where a stubborn CIA agent will never find Kubrick but instead is forced to team up with a lousy manager of a seedy rock band to develop the biggest con of all time, in this riotous, high-tempo action-comedy [img]http://i.imgur.com/K8bfNTy.png[/img] [img]https://extraimage.net/images/2017/02/12/1d2fcbc3cd37ac4b6833b8bf48d5c25c.png[/img] [img]https://extraimage.net/images/2017/02/12/ec93b0876bbb0bf54b622a8c8ab70c8d.png[/img] [img]https://extraimage.net/images/2017/02/12/607af60ac0b1b46cf3b91458a0c8a60f.png[/img] [img]https://extraimage.net/images/2017/02/12/c826d0989b3d5cfc8368de21c2e283ea.png[/img] [img]http://i.imgur.com/aVrMohH.png[/img] [spoiler] General Unique ID : 3146144963669364822330664894973650878 (0x25DECEC3954A5F0019306EED030A7BE) Complete name : Moonwalkers (2015).H264.ita.eng.sub.ita.eng.iCV-MIRCrew.mkv Format : Matroska Format version : Version 2 File size : 1.47 GiB Duration : 1h 36mn Overall bit rate : 2 181 Kbps Movie name : VISIT www.icv-crew.org Encoded date : UTC 2017-02-10 17:18:25 Writing application : Lavf54.63.100 Writing library : Lavf54.63.100 COPYRIGHT : robbyrs Video ID : 1 Format : AVC Format/Info : Advanced Video Codec Format profile : [email protected] Format settings, CABAC : Yes Format settings, ReFrames : 2 frames Codec ID : V_MPEG4/ISO/AVC Duration : 1h 36mn Bit rate : 1 280 Kbps Width : 720 pixels Height : 304 pixels Display aspect ratio : 2.40:1 Frame rate mode : Variable Frame rate : 23.976 fps Color space : YUV Chroma subsampling : 4:2:0 Bit depth : 8 bits Scan type : Progressive Bits/(Pixel*Frame) : 0.244 Stream size : 856 MiB (57%) Writing library : x264 core 130 r2273 Encoding settings : cabac=1 / ref=2 / deblock=1:0:0 / analyse=0x1:0x131 / me=hex / subme=7 / psy=1 / psy_rd=1.00:0.00 / mixed_ref=0 / me_range=16 / chroma_me=1 / trellis=1 / 8x8dct=0 / cqm=0 / deadzone=21,11 / fast_pskip=1 / chroma_qp_offset=-2 / threads=12 / lookahead_threads=2 / sliced_threads=0 / nr=0 / decimate=1 / interlaced=0 / bluray_compat=0 / constrained_intra=0 / bframes=3 / b_pyramid=0 / b_adapt=1 / b_bias=0 / direct=3 / weightb=1 / open_gop=0 / weightp=2 / keyint=230 / keyint_min=23 / scenecut=40 / intra_refresh=0 / rc_lookahead=40 / rc=2pass / mbtree=1 / bitrate=1280 / ratetol=1.0 / qcomp=0.60 / qpmin=10 / qpmax=69 / qpstep=4 / cplxblur=20.0 / qblur=0.5 / vbv_maxrate=24000 / vbv_bufsize=24000 / nal_hrd=none / ip_ratio=1.40 / aq=1:1.00 Language : Italian Default : Yes Forced : No DURATION : 01:36:22.360000000 NUMBER_OF_FRAMES : 138638 NUMBER_OF_BYTES : 7279516299 _STATISTICS_WRITING_APP : mkvmerge v8.7.0 ('All of the above') 64bit _STATISTICS_WRITING_DATE_UTC : 2017-02-07 17:29:00 _STATISTICS_TAGS : BPS DURATION NUMBER_OF_FRAMES NUMBER_OF_BYTES Audio #1 ID : 2 Format : AC-3 Format/Info : Audio Coding 3 Mode extension : CM (complete main) Codec ID : A_AC3 Duration : 1h 36mn Bit rate mode : Constant Bit rate : 448 Kbps Channel(s) : 6 channels Channel positions : Front: L C R, Side: L R, LFE Sampling rate : 48.0 KHz Bit depth : 16 bits Compression mode : Lossy Delay relative to video : 1mn 5s Stream size : 309 MiB (21%) Title : AC3 ITA Language : Italian Default : No Forced : No DURATION : 01:36:22.240000000 NUMBER_OF_FRAMES : 180695 NUMBER_OF_BYTES : 462579200 _STATISTICS_WRITING_APP : mkvmerge v8.7.0 ('All of the above') 64bit _STATISTICS_WRITING_DATE_UTC : 2017-02-07 17:29:00 _STATISTICS_TAGS : BPS DURATION NUMBER_OF_FRAMES NUMBER_OF_BYTES Audio #2 ID : 3 Format : AC-3 Format/Info : Audio Coding 3 Mode extension : CM (complete main) Codec ID : A_AC3 Duration : 1h 36mn Bit rate mode : Constant Bit rate : 448 Kbps Channel(s) : 6 channels Channel positions : Front: L C R, Side: L R, LFE Sampling rate : 48.0 KHz Bit depth : 16 bits Compression mode : Lossy Delay relative to video : 1mn 5s Stream size : 309 MiB (21%) Title : AC3 ENG Language : English Default : No Forced : No DURATION : 01:36:22.496000000 NUMBER_OF_FRAMES : 180703 NUMBER_OF_BYTES : 462599680 _STATISTICS_WRITING_APP : mkvmerge v8.7.0 ('All of the above') 64bit _STATISTICS_WRITING_DATE_UTC : 2017-02-07 17:29:00 _STATISTICS_TAGS : BPS DURATION NUMBER_OF_FRAMES NUMBER_OF_BYTES Text #1 ID : 4 Format : ASS Codec ID : S_TEXT/ASS Codec ID/Info : Advanced Sub Station Alpha Compression mode : Lossless Title : REGULAR Language : Italian Default : No Forced : No DURATION : 01:30:48.324000000 NUMBER_OF_FRAMES : 1284 NUMBER_OF_BYTES : 36799 _STATISTICS_WRITING_APP : mkvmerge v8.7.0 ('All of the above') 64bit _STATISTICS_WRITING_DATE_UTC : 2017-02-07 17:29:00 _STATISTICS_TAGS : BPS DURATION NUMBER_OF_FRAMES NUMBER_OF_BYTES Text #2 ID : 5 Format : UTF-8 Codec ID : S_TEXT/UTF8 Codec ID/Info : UTF-8 Plain Text Title : REGULAR Language : English Default : No Forced : No DURATION : 01:30:48.709000000 NUMBER_OF_FRAMES : 1301 NUMBER_OF_BYTES : 37850 _STATISTICS_WRITING_APP : mkvmerge v8.7.0 ('All of the above') 64bit _STATISTICS_WRITING_DATE_UTC : 2017-02-07 17:29:00 _STATISTICS_TAGS : BPS DURATION NUMBER_OF_FRAMES NUMBER_OF_BYTES Menu 00:00:00.000 : :A Big Night 00:07:01.017 : :Backup Plan 00:16:52.275 : :Getting Kubrick 00:25:18.864 : :A Low Profile 00:33:10.335 : :Serious Triuble 00:41:52.899 : :Best Film Idea 00:59:57.425 : :Creative Differences 01:08:03.635 : :Relaxed State 01:15:29.205 : :Phase Two 01:23:17.965 : :Crashing the Party 01:32:41.069 : :Credits [/spoiler] [/color][/b][/center]

Wolverine Anime 2011 The Complete Series Burntodisc

Language: | Size: 7.7 GB | Seed: 38 | Leech: 52

Description:

Logan is asked by his old friend, a cop from Japan, to help him take down Shingen Yashida's crime syndicate and save Mariko, Logan's lost love, from forced marriage arranged by her father Shingen. Yukio, a female assassin, helps him. DISCS IN SET: 1 EPISODES: 12 SIZE: DVD9 VIDEO CODEC: MPEG2 RESOLUTION: 720x480 ASPECT RATIO: NTSC 16:9 FRAMERATE: 29.97fps AUDIO: English 192kb/s SUBTITLES: None MENU: Yes CHAPTERS: Yes DISC COVER: Yes [url]http://www.imdb.com/title/tt1847521/[/url] [url]http://en.wikipedia.org/wiki/List_of_Marvel_Anime_episodes[/url]

Un ragazzo, un cane, due inseparabili amici (1975).H264.Italian.English.Ac3.5.sub.ita.iCV-MIRCrew

Language: | Size: 1.27 GB | Seed: 128 | Leech: 93

Description:

A Boy and His Dog - Apocalipse 2024 - Un ragazzo, un cane, due inseparabili amici (1975).H264.Italian.English.Ac3.5.sub.ita.iCV-MIRCrew [center] [color=red][b][img]http://extraimago.com/images/2016/07/16/oCo82IVa08d8.png[/img] [u]NO FOUND ONLY ORIGINAL RELEASE[/u] [img]http://i.imgur.com/GDNQx1Z.png[/img] My release is always in double track audio italian and Original audio for select it use VLC or dvd player home not use wmp Apocalipse 2024 - Un ragazzo, un cane, due inseparabili amici - A Boy and His Dog (1975) [img]https://extraimage.net/images/2017/02/12/92f2ff5d928375c8f9522fc454fcda3e.png[/img] [URL=http://www.imdb.com/title/tt0072730/][IMG]http://www.userlogos.org/files/logos/Sucka/imdb_new.png[/IMG][/URL] [img]http://i.imgur.com/Q5gAZRt.png[/img] Titolo originale A Boy and His Dog Paese di produzione Stati Uniti d'America Anno 1975 Durata 91 min Genere fantascienza Regia L.Q. Jones Soggetto Harlan Ellison Sceneggiatura L.Q. Jones Alvy Moore Wayne Cruseturner (non accreditato) Produttore L.Q. Jones Alvy Moore Fotografia John Arthur Morrill Montaggio Scott Conrad [img]http://i.imgur.com/Jtvgw7x.png[/img] Don Johnson: Vic Susanne Benton: Quilla Jane Holmes Alvy Moore: Dott. Moore Jason Robards: Lou Craddock Helene Winston: Mez Smith Michael Rupert: Gery [img]http://i.imgur.com/hL3n1m8.png[/img] Nell'Arizona post-apocalittica del 2024, dopo la quarta guerra mondiale, il giovane Vic riesce a comunicare telepaticamente con il suo cane Blood, con il quale interagisce soprattutto per cercare ragazze, che dopo l'apocalisse stanno nascoste, e anche per evitare che il giovane finisca nelle mire dei nomadi mutanti radioattivi.............. [img]http://i.imgur.com/MTp7cO6.png[/img] A post-apocalyptic tale based on a novella by Harlan Ellison. A boy communicates telepathically with his dog as they scavenge for food and sex, and they stumble into an underground society ................... [img]http://i.imgur.com/6TgqSmf.png[/img] [url=https://extraimage.net/image/2zav][img]https://extraimage.net/images/2017/02/12/4e4145c485db4e447c0ec42e9c947c37.th.png[/img][/url] [url=https://extraimage.net/image/2zau][img]https://extraimage.net/images/2017/02/12/f9dff222ef366f682f9690efce9018cd.th.png[/img][/url] [url=https://extraimage.net/image/2zaA][img]https://extraimage.net/images/2017/02/12/c80937ca3b8d934991767a3506d1c020.th.png[/img][/url] [img]http://i.imgur.com/t8N3Ia1.png[/img] [spoiler] General Unique ID : 238938499501050752541147955175960883725 (0xB3C1E1902304757D827E6413C828320D) Complete name : Apocalipse 2024 - Un ragazzo, un cane, due inseparabili amici - A Boy and His Dog (1975).mkv Format : Matroska Format version : Version 2 File size : 1.27 GiB Duration : 1h 26mn Overall bit rate : 2 109 Kbps Movie name : APOCALYPSE_2024.Title2 by www.icv-crew.org Encoded date : UTC 2017-02-10 16:41:27 Writing application : DVDFab 9.1.5.7 Writing library : libebml v0.7.8 + libmatroska v0.8.1 Video ID : 1 Format : AVC Format/Info : Advanced Video Codec Format profile : [email protected] Format settings, CABAC : Yes Format settings, ReFrames : 2 frames Codec ID : V_MPEG4/ISO/AVC Duration : 1h 26mn Bit rate : 1 235 Kbps Width : 720 pixels Height : 404 pixels Display aspect ratio : 16:9 Frame rate : 25.000 fps Color space : YUV Chroma subsampling : 4:2:0 Bit depth : 8 bits Scan type : Progressive Bits/(Pixel*Frame) : 0.170 Stream size : 764 MiB (59%) Writing library : x264 core Default : Yes Forced : No Color primaries : BT.601-6 525, BT.1358 525, BT.1700 NTSC, SMPTE 170M Transfer characteristics : BT.709-5, BT.1361 Matrix coefficients : BT.601-6 525, BT.1358 525, BT.1700 NTSC, SMPTE 170M Audio #1 ID : 2 Format : AC-3 Format/Info : Audio Coding 3 Mode extension : CM (complete main) Codec ID : A_AC3 Duration : 1h 26mn Bit rate mode : Constant Bit rate : 448 Kbps Channel(s) : 6 channels Channel positions : Front: L C R, Side: L R, LFE Sampling rate : 48.0 KHz Bit depth : 16 bits Compression mode : Lossy Stream size : 277 MiB (21%) Language : Italian Default : Yes Forced : No Audio #2 ID : 3 Format : AC-3 Format/Info : Audio Coding 3 Mode extension : CM (complete main) Codec ID : A_AC3 Duration : 1h 26mn Bit rate mode : Constant Bit rate : 192 Kbps Channel(s) : 2 channels Channel positions : Front: L R Sampling rate : 48.0 KHz Bit depth : 16 bits Compression mode : Lossy Stream size : 119 MiB (9%) Default : No Forced : No Audio #3 ID : 4 Format : AC-3 Format/Info : Audio Coding 3 Mode extension : CM (complete main) Codec ID : A_AC3 Duration : 1h 26mn Bit rate mode : Constant Bit rate : 192 Kbps Channel(s) : 2 channels Channel positions : Front: L R Sampling rate : 48.0 KHz Bit depth : 16 bits Compression mode : Lossy Stream size : 119 MiB (9%) Default : No Forced : No Text ID : 5 Format : VobSub Codec ID : S_VOBSUB Codec ID/Info : The same subtitle format used on DVDs Language : Italian Default : Yes Forced : No Menu 00:00:00.000 : en:(01)00:00:00:000 00:07:28.440 : en:(02)00:07:28:440 00:14:20.760 : en:(03)00:14:20:760 00:21:03.960 : en:(04)00:21:03:960 00:27:59.880 : en:(05)00:27:59:880 00:34:59.760 : en:(06)00:34:59:760 00:41:59.760 : en:(07)00:41:59:760 00:49:50.640 : en:(08)00:49:50:640 00:55:59.640 : en:(09)00:55:59:640 01:02:59.880 : en:(10)01:02:59:880 01:10:05.760 : en:(11)01:10:05:760 01:17:04.320 : en:(12)01:17:04:320 01:26:33.040 : en:(13)01:26:33:040 [/spoiler] [/color][/b][/center]

Wolverine And The X-Men Anime The Complete Series 2009 - Burntodisc

Language: | Size: 15.38 GB | Seed: 5 | Leech: 5

Description:

After an explosion at the school, the x-men went their separate ways. But, they must unite once again under the leadership of Wolverine to prevent an inevitable war while also dealing with present problem. DISCS IN SET: 2 EPISODES: 13 SIZE: DVD9 VIDEO CODEC: MPEG2 RESOLUTION: 720x480 ASPECT RATIO: NTSC 16:9 FRAMERATE: 29.97fps AUDIO: English 192kb/s SUBTITLES: None MENU: Yes CHAPTERS: Yes DISC COVER: Yes [url]http://www.imdb.com/title/tt0772145/[/url] [url]http://en.wikipedia.org/wiki/List_of_Wolverine_and_the_X-Men_episodes[/url]

The Model (2016).H264.Italian.English.Ac3.5.1.sub.ita.iCV-MIRCrew

Language: | Size: 1.65 GB | Seed: 801 | Leech: 80

Description:

The Model (2016).H264.Italian.English.Ac3.5.1.sub.ita.iCV-MIRCrew [center] [color=red][b][img]http://s23.postimg.org/b9yhws27f/0sc_Del1.png[/img] [u]NO FOUND ONLY ORIGINAL RELEASE[/u] [img]http://i.imgur.com/GDNQx1Z.png[/img] My release is always in double track audio italian and Original audio for select it use VLC or dvd player home not use wmp The Model (2016) [img]https://extraimage.net/images/2017/02/12/d4b45a065259b762333e9bfedb568b08.png[/img] [URL=http://www.imdb.com/title/tt4074364/][IMG]http://www.userlogos.org/files/logos/Sucka/imdb_new.png[/IMG][/URL] [img]http://i.imgur.com/fGu1rKv.png[/img] Original title: The Model Year: 2016 Running time: 105 min. Country: Denmark Director: Mads Matthiesen Screenwriter: Anders Frithiof August, Mads Matthiesen, Martin Zandvliet Cinematography: Petrus Sjövik Producer: Zentropa Entertainments Genre: Drama. Romanc [img]http://i.imgur.com/W7kBqiE.png[/img] Maria Palm, Ed Skrein, Yvonnick Muller, Claire Tran, Marco Ilsø, Dominic Allburn, Thierry Hancisse, David L. Price, Virgile Bramly, Aleksandra Yermak, Christian Abart, Elise Lissague, Mehdi Senoussi, Charlotte Tomaszewiska [img]http://i.imgur.com/bFK3ggF.png[/img] Emma (Maria Palm), top model che lotta per entrare nella scena della moda parigina, sviluppa un'ossessione fatale per il fotografo Shane White (Ed Skrein). [img]http://i.imgur.com/48xHWWH.png[/img] Emma, an emerging model, struggles to enter the Parisian fashion scene and develops a dangerous obsession for fashion photographer Shane White. [img]http://i.imgur.com/K8bfNTy.png[/img] [url=https://extraimage.net/image/2UWm][img]https://extraimage.net/images/2017/02/12/ebb30c790e04f75e0d518d7e4525dfa9.th.png[/img][/url] [url=https://extraimage.net/image/2UWR][img]https://extraimage.net/images/2017/02/12/04251adb716a6e35ae9d41f977d294cf.th.png[/img][/url] [url=https://extraimage.net/image/2UWi][img]https://extraimage.net/images/2017/02/12/5d658c591eed3c0218b2877f3602c041.th.png[/img][/url] [url=https://extraimage.net/image/2UWl][img]https://extraimage.net/images/2017/02/12/9b4ee9b6d682c9d7200c2a9a8116f52b.th.png[/img][/url] [img]http://i.imgur.com/aVrMohH.png[/img] [spoiler] General Unique ID : 74381544897541160676287118796114684048 (0x37F55D4D6F0CA09E091D8CF767D0E890) Complete name : The Model (2016).H264.ita.eng.sub.ita.iCV-MIRCrew.mkv Format : Matroska Format version : Version 2 File size : 1.65 GiB Duration : 1h 48mn Overall bit rate : 2 181 Kbps Movie name : VISIT www.icv-crew.org Encoded date : UTC 2017-02-10 19:07:25 Writing application : Lavf54.63.100 Writing library : Lavf54.63.100 COPYRIGHT : robbyrs Video ID : 1 Format : AVC Format/Info : Advanced Video Codec Format profile : [email protected] Format settings, CABAC : Yes Format settings, ReFrames : 2 frames Codec ID : V_MPEG4/ISO/AVC Duration : 1h 48mn Bit rate : 1 280 Kbps Width : 720 pixels Height : 388 pixels Display aspect ratio : 1.856 Frame rate mode : Variable Frame rate : 24.000 fps Color space : YUV Chroma subsampling : 4:2:0 Bit depth : 8 bits Scan type : Progressive Bits/(Pixel*Frame) : 0.191 Stream size : 960 MiB (57%) Writing library : x264 core 130 r2273 Encoding settings : cabac=1 / ref=2 / deblock=1:0:0 / analyse=0x1:0x131 / me=hex / subme=7 / psy=1 / psy_rd=1.00:0.00 / mixed_ref=0 / me_range=16 / chroma_me=1 / trellis=1 / 8x8dct=0 / cqm=0 / deadzone=21,11 / fast_pskip=1 / chroma_qp_offset=-2 / threads=12 / lookahead_threads=2 / sliced_threads=0 / nr=0 / decimate=1 / interlaced=0 / bluray_compat=0 / constrained_intra=0 / bframes=3 / b_pyramid=0 / b_adapt=1 / b_bias=0 / direct=3 / weightb=1 / open_gop=0 / weightp=2 / keyint=240 / keyint_min=24 / scenecut=40 / intra_refresh=0 / rc_lookahead=40 / rc=2pass / mbtree=1 / bitrate=1280 / ratetol=1.0 / qcomp=0.60 / qpmin=10 / qpmax=69 / qpstep=4 / cplxblur=20.0 / qblur=0.5 / vbv_maxrate=24000 / vbv_bufsize=24000 / nal_hrd=none / ip_ratio=1.40 / aq=1:1.00 Language : Italian Default : Yes Forced : No DURATION : 01:48:02.334000000 NUMBER_OF_FRAMES : 155576 NUMBER_OF_BYTES : 7764368037 _STATISTICS_WRITING_APP : mkvmerge v8.3.0 ('Over the Horizon') 64bit _STATISTICS_WRITING_DATE_UTC : 2017-02-08 20:10:18 _STATISTICS_TAGS : BPS DURATION NUMBER_OF_FRAMES NUMBER_OF_BYTES Audio #1 ID : 2 Format : AC-3 Format/Info : Audio Coding 3 Mode extension : CM (complete main) Codec ID : A_AC3 Duration : 1h 48mn Bit rate mode : Constant Bit rate : 448 Kbps Channel(s) : 6 channels Channel positions : Front: L C R, Side: L R, LFE Sampling rate : 48.0 KHz Bit depth : 16 bits Compression mode : Lossy Delay relative to video : 1mn 5s Stream size : 346 MiB (21%) Title : AC3 iTA Language : Italian Default : No Forced : No DURATION : 01:48:00.352000000 NUMBER_OF_FRAMES : 202511 NUMBER_OF_BYTES : 518428160 _STATISTICS_WRITING_APP : mkvmerge v8.3.0 ('Over the Horizon') 64bit _STATISTICS_WRITING_DATE_UTC : 2017-02-08 20:10:18 _STATISTICS_TAGS : BPS DURATION NUMBER_OF_FRAMES NUMBER_OF_BYTES Audio #2 ID : 3 Format : AC-3 Format/Info : Audio Coding 3 Mode extension : CM (complete main) Codec ID : A_AC3 Duration : 1h 48mn Bit rate mode : Constant Bit rate : 448 Kbps Channel(s) : 6 channels Channel positions : Front: L C R, Side: L R, LFE Sampling rate : 48.0 KHz Bit depth : 16 bits Compression mode : Lossy Delay relative to video : 1mn 5s Stream size : 346 MiB (21%) Title : AC3 ENG Language : English Default : No Forced : No DURATION : 01:48:02.368000000 NUMBER_OF_FRAMES : 202574 NUMBER_OF_BYTES : 518589440 _STATISTICS_WRITING_APP : mkvmerge v8.3.0 ('Over the Horizon') 64bit _STATISTICS_WRITING_DATE_UTC : 2017-02-08 20:10:18 _STATISTICS_TAGS : BPS DURATION NUMBER_OF_FRAMES NUMBER_OF_BYTES Text #1 ID : 4 Format : UTF-8 Codec ID : S_TEXT/UTF8 Codec ID/Info : UTF-8 Plain Text Title : FORCED iTA Language : Italian Default : Yes Forced : No DURATION : 00:15:18.916000000 NUMBER_OF_FRAMES : 5 NUMBER_OF_BYTES : 249 _STATISTICS_WRITING_APP : mkvmerge v8.3.0 ('Over the Horizon') 64bit _STATISTICS_WRITING_DATE_UTC : 2017-02-08 20:10:18 _STATISTICS_TAGS : BPS DURATION NUMBER_OF_FRAMES NUMBER_OF_BYTES Text #2 ID : 5 Format : UTF-8 Codec ID : S_TEXT/UTF8 Codec ID/Info : UTF-8 Plain Text Title : REGULAR iTA Language : Italian Default : No Forced : No DURATION : 01:41:23.083000000 NUMBER_OF_FRAMES : 849 NUMBER_OF_BYTES : 23918 _STATISTICS_WRITING_APP : mkvmerge v8.3.0 ('Over the Horizon') 64bit _STATISTICS_WRITING_DATE_UTC : 2017-02-08 20:10:18 _STATISTICS_TAGS : BPS DURATION NUMBER_OF_FRAMES NUMBER_OF_BYTES Menu 00:00:00.000 : :00:00:00.000 00:14:13.625 : :00:14:13.625 00:28:03.792 : :00:28:03.792 00:39:34.833 : :00:39:34.833 00:54:22.250 : :00:54:22.250 01:07:10.875 : :01:07:10.875 01:21:59.750 : :01:21:59.750 01:32:51.542 : :01:32:51.542 [/spoiler] [/color][/b][/center]

Festival di Sanremo 2017 - 5° Puntata 11 02 2017 [Serata Finale]

Language: | Size: 3.31 GB | Seed: 3 | Leech: 27

Description:

67° Festival della Canzone Italiana di Sanremo - Serata Finale La serata finale della 67ma edizione del Festival di Sanremo condotto da Carlo Conti insieme a Maria De Filippi vede il trionfo di Francesco Gabbani con la sua 'Occidentali's Karma'. Secondo posto per Fiorella Mannoia con il brano 'Che sia benedetta' , terzo posto per Ermal Meta con il brano 'Vietato morire'. Tra gli ospiti della serata Zucchero, Enrico Montesano, Alvaro Soler e Geppi Cucciari

Deadbeats Compilation Vol. 1 (2017) Upload By JayDeDeJay

Language: | Size: 70.37 MB | Seed: 265 | Leech: 9

Description:

Qualità Audio: MP3 320kbps Genere: Electronic Dance Music Tracce: 9

Various Artists - Lovy Metal [Flac][TntVillage]

Language: | Size: 387.81 MB | Seed: 48 | Leech: 41

Description:

[img]http://i.imgur.com/x1nzgKU.jpg[/img] Artist...............: Various Artists Album................: Lovy Metal Genre................: Other Source...............: CD Year.................: 2007 Ripper...............: EAC (Secure mode) / LAME 3.92 & Asus CD-S520 Codec................: Free Lossless Audio Codec (FLAC) Version..............: reference libFLAC 1.3.1 20141125 Quality..............: Lossless, (avg. compression: 67 %) Channels.............: Stereo / 44100 HZ / 16 Bit Tags.................: VorbisComment Information..........: TntVillage Ripped by............: Leonenero on 09/02/2017 Posted by............: Leonenero on 11/02/2017 News Server..........: news.astraweb.com News Group(s)........: TNTVILLAGE Included.............: NFO, PLS, M3U, LOG, CUE Covers...............: Front Back CD --------------------------------------------------------------------- Tracklisting --------------------------------------------------------------------- 1. Mr. Mister - Broken Wings [03:18] 2. Warrant - Heaven [03:55] 3. Winger - Miles Away [04:09] 4. Stryper - I Believe in You [03:13] 5. Marc Ferr - Die for Love [03:48] 6. Scorpions - Still Loving You [04:23] 7. Whitesnake - Is This Love [04:37] 8. KISS - Forever [03:49] 9. Skid Row - I Remember You [05:11] 10. Limp Bizkit - Behind Blue Eyes [04:29] 11. The Calling - Wherever You Will Go [03:26] 12. Scorpions - Under The Same Sun [04:53] 13. Cutting Crew - I've Been in Love Before [03:41] 14. Firehouse - I Live My Life for Love [04:19] Playing Time.........: 57:17 Total Size...........: 387,24 MB

Kolya - Director's Cut (1996 Ita/Cze) [720p] [iCV-MIRCrew]

Language: | Size: 3.54 GB | Seed: 2 | Leech: 4

Description:

Titolo originale: Kolja Nazionalità: Repubblica Ceca Anno: 1996 Genere: drammatico Regia: Jan Svěrák Durata: 111 min Trama: A Praga nel 1988 il violoncellista Frantisek ha avuto un alterco con un funzionario del partito comunista ed ora non lavora più, ridotto a suonare esclusivamente in occasione di funerali. Ha bisogno di soldi, e un giorno un amico gli propone di sposare una giovane russa che ha bisogno di documenti cechi per espatriare. In cambio riceverà una buona somma di denaro. Dopo molte esitazioni, Frantisek accetta, ma poco dopo il matrimonio, ha una sgradita sorpresa: la moglie è scappata in Germania dove c'è il suo innamorato ma ha lasciato a Praga il figlioletto di cinque anni che viene depositato davanti alla porta di casa di Frantisek. Questi è all'inizio disperato e smarrito, il bambino parla solo russo, i due non si capiscono e lui non sa come fare per accudirlo. La polizia lo interroga ripetutamente, ma Frantisek riesce a non cedere, tiene con sè il piccolo e, dopo un periodo iniziale difficile, tra i due nasce un rapporto caloroso ed affettuoso. Ora Frantisek capisce di dover pensare alla felicità e al futuro della creatura che gli è capitata, e così insieme fanno un viaggio attraverso la campagna ceca. Quando arriva il 1989, con la caduta del muro di Berlino, la mamma di Kolya torna a Praga per riprendersi il figlio e chiedere il divorzio. Tutto va come previsto, ed anche Frantisek riprende il suo posto all'orchestra Filarmonica. Ma il ricordo di Kolya lo accompagnerà per sempre. Report: http://freetexthost.com/egqldnzb56

VA - Sanremo 2017

Language: | Size: 318.6 MB | Seed: 566 | Leech: 226

Description:

CD 1: BIG Elodie – Tutta colpa mia Fiorella Mannoia – Che sia benedetta Nesli e Alice Paba – Do retta a te Giusy Ferreri – Fa talmente male Samuel – Vedrai Michele Bravi – Il diario degli errori Clementino – Ragazzi Fuori Raige e Giulia Luzi – Togliamoci la voglia Francesco Gabbani – Occidentali’s Karma Sergio Sylvestre – Con Te Lodovica Comello – Il cielo non mi basta Ermal Meta – Vietato morire Gigi D’Alessio – La prima stella Paola Turci – Fatti bella per te Ron – L’ottava meraviglia Alessio Bernabei – Nel mezzo di un applauso Michele Zarrillo – Mani nelle mani Fabrizio Moro – Portami Via Al Bano – Di Rose e di Spine Marco Masini – Spostato di un secondo Chiara – Nessun posto è casa mia CD 2: Nuove Proposte & Cover Leonardo Lamacchia – Ciò che resta (Nuove Proposte) [Video] Maldestro – Canzone per Federica (Nuove Proposte) [Video] Marianne Mirage – Le canzoni fanno male (Nuove Proposte) Lele – Ora mai (Nuove Proposte) Francesco Guasti – Universo (Nuove Proposte) [Video] Tommaso Pini – Cose che danno ansia (Nuove Proposte) [Video – Backstage Video] Valeria Farinacci – Insieme (Nuove Proposte) [Video] Braschi – Nel mare ci sono i coccodrilli (Nuove Proposte) [Video] Clementino – Svalutation (Cover) Nesli e Alice Paba – Ma il cielo è sempre più blu (Cover) Michele Zarrillo – Se tu non torni (Cover) Michele Bravi – La stagione dell’amore (Cover) Lodovica Comello – Le mille bolle blu (Cover) Marco Masini – Signor Tenente (Cover) Al Bano – Pregherò (Cover) Raige e Giulia Luzi – C’era un ragazzo che come me amava i Beatles e i Rolling Stones (Cover) Ermal Meta – Amara Terra mia (Cover) Paola Turci – Un’emozione da poco (Cover) La Rua – Tutta la vita questa vita (bonus track – Sigla del Dopo Festival 2017) [Video]

Mine (2016) + Bonus 28 m..H264.Italian.Ac3.5.1.sub.ita.iCV-MIRCrew

Language: | Size: 1.5 GB | Seed: 69 | Leech: 101

Description:

Mine (2016) + Bonus 28 m..H264.Italian.Ac3.5.1.sub.ita.iCV-MIRCrew [center] [color=red][b][img]http://s23.postimg.org/b9yhws27f/0sc_Del1.png[/img] [u]NO FOUND ONLY ORIGINAL RELEASE[/u] [img]http://i.imgur.com/GDNQx1Z.png[/img] My release is always in double track audio italian and Original audio for select it use VLC or dvd player home not use wmp Mine (2016) + Bonus 28 m. [img]https://extraimage.net/images/2017/02/11/c98a15d3ee6a9ae914dc855f78094aae.png[/img] [URL=http://www.imdb.com/title/tt3707104/][IMG]http://www.userlogos.org/files/logos/Sucka/imdb_new.png[/IMG][/URL] [img]http://i.imgur.com/fGu1rKv.png[/img] DATA USCITA: 06 ottobre 2016 GENERE: Thriller ANNO: 2016 REGIA: Fabio Guaglione, Fabio Resinaro SCENEGGIATURA: Fabio Guaglione, Fabio Resinaro MONTAGGIO: Filippo Mauro Boni, Fabio Guaglione, Matteo Santi MUSICHE: Luca Balboni PRODUZIONE: The Safran Company DISTRIBUZIONE: Eagle Pictures PAESE: USA DURATA: 106 Min [img]http://i.imgur.com/W7kBqiE.png[/img] Armie Hammer, Annabelle Wallis, Tom Cullen, Juliet Aubrey, Geoff Bell, Clint Dyer [img]http://i.imgur.com/bFK3ggF.png[/img] Afghanistan: un soldato (Armie Hammer) sta tornando al campo base dopo una missione, ma inavvertitamente poggia il piede su una mina antiuomo. Non può più muoversi, altrimenti salterà in aria..................... [img]http://i.imgur.com/48xHWWH.png[/img] After a failed assassination attempt, a soldier finds himself stranded in the desert. Exposed to the elements, he must survive the dangers of the desert and battle the psychological and physical toll of the treacherous conditions............. [img]http://i.imgur.com/K8bfNTy.png[/img] [url=https://extraimage.net/image/2U4z][img]https://extraimage.net/images/2017/02/11/63617519bd051e1e64732f5010e95a9b.th.png[/img][/url] [url=https://extraimage.net/image/2U4U][img]https://extraimage.net/images/2017/02/11/c575079ab0075791a0c93843b89fd656.th.png[/img][/url] [url=https://extraimage.net/image/2U40][img]https://extraimage.net/images/2017/02/11/37d487d1e693b24eb181ed6fb1216119.th.png[/img][/url] [img]http://i.imgur.com/aVrMohH.png[/img] [spoiler] General Unique ID : 71968960954651214635680604752844126879 (0x3624B7BAFBE952B73DE4FE63F7837A9F) Complete name : Mine (2016).H264.ita.sub.ita.+28m.bonus.iCV-MIRCrew\Mine (2016).H264.ita.sub.ita.+28m. bonus.iCV-MIRCrew.mkv Format : Matroska Format version : Version 2 File size : 1.23 GiB Duration : 1h 42mn Overall bit rate : 1 724 Kbps Encoded date : UTC 2017-02-10T17:24:31Z Writing application : HandBrake 0.10.5 2016021100 Writing library : Lavf55.12.0 By : www.icv-crew.org Video ID : 1 Format : AVC Format/Info : Advanced Video Codec Format profile : [email protected] Format settings, CABAC : Yes Format settings, ReFrames : 4 frames Codec ID : V_MPEG4/ISO/AVC Duration : 1h 42mn Bit rate : 1 280 Kbps Width : 720 pixels Height : 304 pixels Display aspect ratio : 2.35:1 Frame rate mode : Variable Frame rate : 25.000 fps Color space : YUV Chroma subsampling : 4:2:0 Bit depth : 8 bits Scan type : Progressive Bits/(Pixel*Frame) : 0.163 Stream size : 908 MiB (72%) Writing library : x264 core 142 r2479 dd79a61 Encoding settings : cabac=1 / ref=1 / deblock=1:0:0 / analyse=0x1:0x111 / me=hex / subme=2 / psy=1 / psy_rd=1.00:0.00 / mixed_ref=0 / me_range=16 / chroma_me=1 / trellis=0 / 8x8dct=0 / cqm=0 / deadzone=21,11 / fast_pskip=1 / chroma_qp_offset=0 / threads=3 / lookahead_threads=1 / sliced_threads=0 / nr=0 / decimate=1 / interlaced=0 / bluray_compat=0 / constrained_intra=0 / bframes=3 / b_pyramid=2 / b_adapt=1 / b_bias=0 / direct=1 / weightb=1 / open_gop=0 / weightp=1 / keyint=250 / keyint_min=25 / scenecut=40 / intra_refresh=0 / rc_lookahead=10 / rc=abr / mbtree=1 / bitrate=1280 / ratetol=1.0 / qcomp=0.60 / qpmin=0 / qpmax=69 / qpstep=4 / vbv_maxrate=20000 / vbv_bufsize=25000 / nal_hrd=none / filler=0 / ip_ratio=1.40 / aq=1:1.00 Default : Yes Forced : No Color primaries : BT.470-6 System B, BT.470-6 System G, BT.601-6 625, BT.1358 625, BT.1700 625 PAL, BT.1700 625 SECAM Transfer characteristics : BT.709-5, BT.1361 Matrix coefficients : BT.601-6 525, BT.1358 525, BT.1700 NTSC, SMPTE 170M Audio ID : 2 Format : AC-3 Format/Info : Audio Coding 3 Mode extension : CM (complete main) Codec ID : A_AC3 Duration : 1h 42mn Bit rate mode : Constant Bit rate : 448 Kbps Channel(s) : 6 channels Channel positions : Front: L C R, Side: L R, LFE Sampling rate : 48.0 KHz Bit depth : 16 bits Compression mode : Lossy Delay relative to video : 1mn 5s Stream size : 328 MiB (26%) Title : Surround Language : Italian Default : Yes Forced : No Text ID : 3 Format : VobSub Codec ID : S_VOBSUB Codec ID/Info : The same subtitle format used on DVDs Language : Italian Default : No Forced : No Menu 00:00:00.000 : :Chapter 1 00:06:18.680 : :Chapter 2 00:13:31.440 : :Chapter 3 00:24:02.920 : :Chapter 4 00:34:14.320 : :Chapter 5 00:41:10.400 : :Chapter 6 00:48:23.640 : :Chapter 7 01:01:00.320 : :Chapter 8 01:08:39.160 : :Chapter 9 01:17:24.200 : :Chapter 10 01:25:42.920 : :Chapter 11 01:39:07.560 : :Chapter 12 [/spoiler] [/color][/b][/center]

Alla ricerca di Dory - Finding Dory (2016 Ita/Eng) + EXTRA [1080p] [iCV-MIRCrew]

Language: | Size: 11.86 GB | Seed: 574 | Leech: 44

Description:

Titolo originale: Finding Dory Nazionalità: USA Anno: 2016 Genere: Animazione, Avventura, Commedia Regia: Andrew Stanton, Angus MacLane (co-regia) Durata: 97 min Trama: Dory vive felicemente sulla barriera corallina insieme a Nemo e Marlin: è passato un anno dall'avventura che cambiò le loro vite. Quando si ricorda improvvisamente di avere una famiglia che forse la sta cercando, Dory parte insieme a ai suoi amici per una straordinaria avventura attraverso l'oceano che la condurrà fino al prestigioso Parco Oceanografico, in California: un acquario che è anche un centro di riabilitazione. Per riuscire a trovare sua madre e suo padre, Dory chiederà aiuto ai tre abitanti più stravaganti del PO: Hank, un irascibile polpo che tenta continuamente la fuga, Bailey, un beluga convinto di avere un sonar difettoso, e Destiny, uno squalo balena miope. Esplorando con destrezza le complesse regole del Parco Oceanografico, Dory e i suoi compagni di avventura scopriranno l'amicizia, il senso della famiglia e la magia che si cela nei loro difetti. Report: http://freetexthost.com/e26nyurtqj Extra: In questa versione sono compresi gli extra tutti in 1080p: 1 - Piper 2 - Interviste al Parco Oceanografico 3 - Il Polpo che quasi sconfisse la Pixar 4 - Di che stavamo parlando 5 - Carpool informale 6 - Animazione e Recitazione 7 - Nel fitto delle alghe 8 - Caratteristiche delle creature 9 - Scene eliminate Dietro le quinte: 1 - Pattinare e disegnare con Jason Deamer 2 - Il Tema di Dory 3 - Una giornata dura sulla Barriera Corallina 4 - Alla Ricerca Di Nemo narrato con gli Emoji 5 - Scenette a base di pesce Trailer: 1 - Nuotare nel sonno - Trailer USA 2 - Pay-off cinematografico - Trailer Giapponese 3 - Non Ricordo - Trailer Spagnolo 4 - Viaggio - Trailer Russo

Aladdin (1992 Ita/Eng) + EXTRA [1080p] [iCV-MIRCrew]

Language: | Size: 6.82 GB | Seed: 17 | Leech: 15

Description:

Titolo originale: Aladdin Nazionalità: USA Anno: 1992 Genere: animazione, avventura, sentimentale, musicale Regia: Ron Clements e John Musker Durata: 91 min Trama: Ambientato sullo sfondo del mitico regno orientale di Agrabah, Aladdin narra le avventure di un giovane intraprendente, un diamante grezzo che sogna di fuggire da una misera esistenza di strada per sposare la bellissima principessa Jasmine, figlia del Sultano. Il destino vuole che Aladdin venga incaricato dal Vizir del Sultano, l'infido Jafar, di recuperare una lampada dalle proprietà soprannaturali, celata nelle profondità della "Caverna delle Meraviglie". Aladdin riesce a trovare la lampada e, con essa, il vivacissimo genio che la abita, conquistando così la possibilità di esprimere tre desideri, scatenando però le ire del potente Jafar. Pur spacciandosi per un ricco e bellissimo principe, Aladdin non riesce a far colpo sulla principessa e scopre che la bella Jasmine in realtà è sempre stata innamorata del vero Aladdin. Con l'aiuto del suo amico genio, dell'inseparabile scimmietta Abù e di un tappeto magico, Aladdin, volendo dimostrare il suo valore, decide di salvare il regno dalle perfide macchinazioni di Jafar, per divenire finalmente "padrone" del proprio destino. Report: http://freetexthost.com/yxn44ri63l Extra: In questa versione sono compresi gli extra Scene eliminate: 1 - Il primo incontro di Aladdin e Jasmine 2 - Aladdin nel lusso sfrenato Video musicale: 1 - A whole new world - Video musicale di Regina Belle e Peabo Bryson 2 - A whole new world - Video musicale di Nick Lachey e Jessica Simpson 3 - Proud of Your Boy - Video musicale di Clay Aiken Canzoni eliminate: 1 - You can count on me 2 - Humiliate the Boy 3 - Why Me 4 - Proud of Your Boy - Registrazione demo originale Un Diamante allo stato grezzo - il making of di Aladdin

Rod Stewart - When We Were The New Boys (1998), [Mp3][Tnt]

Language: | Size: 96.2 MB | Seed: 1 | Leech: 2

Description:

Artist: Rod Stewart Title: When We Were The New Boys Year Of Release: 1998 Genre: Pop Rock, Hard Rock Label: |Warner Bros. Records Tracks: 10 CDs: 1 Format: Mp3 Quality: 320 kbps Included Scans: Si Archive Size: 96 Mb ---------- 01. Cigarettes And Alcohol [0:04:03.70] 02. Ooh La La [0:04:16.20] 03. Rocks [0:04:45.07] 04. Superstar [0:04:20.68] 05. Secret Heart [0:04:07.22] 06. Hotel Chambermaid [0:03:49.53] 07. Shelly My Love [0:03:38.05] 08. When We Were The New Boys [0:04:40.45] 09. Weak [0:04:37.05] 10. What Do You Want Me To Do [0:03:34.57]

Joao Gilberto - Voz e Violao [Flac][TntVillage]

Language: | Size: 125.68 MB | Seed: 40 | Leech: 20

Description:

[img]http://i.imgur.com/KUoTzgV.jpg[/img] Artist...............: Joao Gilberto Album................: Joao voz e violao Genre................: Bossanova Source...............: CD Year.................: 2000 Ripper...............: EAC (Secure mode) / LAME 3.92 & Asus CD-S520 Codec................: Free Lossless Audio Codec (FLAC) Version..............: reference libFLAC 1.3.1 20141125 Quality..............: Lossless, (avg. compression: 41 %) Channels.............: Stereo / 44100 HZ / 16 Bit Tags.................: VorbisComment Information..........: TntVillage Ripped by............: Leonenero on 06/02/2017 Posted by............: Leonenero on 07/02/2017 News Server..........: news.astraweb.com News Group(s)........: TNTVILLAGE Included.............: NFO, M3U, LOG, CUE Covers...............: Front Back CD --------------------------------------------------------------------- Tracklisting --------------------------------------------------------------------- 1. Joao Gilberto - Chega de Saudade [03:26] 2. Joao Gilberto - Desde que o Samba E Samba [03:54] 3. Joao Gilberto - Voce Vai Ver [02:56] 4. Joao Gilberto - Eclipse [03:04] 5. Joao Gilberto - Nao Vou pra Casa [02:56] 6. Joao Gilberto - Desafinado [03:27] 7. Joao Gilberto - Eu Vim da Bahia [02:34] 8. Joao Gilberto - Coracao Vagabundo [02:08] 9. Joao Gilberto - Da Cor do Pecado [02:29] 10. Joao Gilberto - Segredo [03:15] Playing Time.........: 30:13 Total Size...........: 125,13 MB Music, as all other arts, has creators, imitators and developers. Of the second category there is little to say; they basically jump the wagon and profit whatever they can from the creator, while the developer tries his best to make the original creation grow further. In Brazil, samba had been around for ages, but it took the genius of Bahia-born João Gilberto to develop the local beat and blend it with elements of cool jazz, thus creating a whole new style, Bossa Nova, which swept the planet during the late fifties and early sixties, and still influences a great number of musicians, from Charlie Byrd and Stan Getz in their time to George Michael and Tuck & Patty nowadays. Pray silence now, for the man who created the whole thing, with the support of Antonio Carlos Jobim (who ,against his own will took the credit for himself), Vinicius de Morais and others has just released a new studio album, eight years after 1992's "João" and three after the live "Eu Sei Que Vou Te Amar" (all titles, are, by the way, available in the U.S.). And this time, alas, he plays by himself. Just the man, his guitar and his voice, and no audience sounds. The album, properly titled "Joao Voz e Violao (Joao, Voice and Guitar )opens with Caetano Veloso-penned "Desde Que O Samba É Samba" (Ever Since Samba Was Samba). Veloso,also a son of Bahia, wrote the song in 1993 as a tribute to samba and Bossa-Nova. In João Gilberto's voice, the the lyric is taken to a whole new dimension: A tristeza é senhora/ Desde que o samba é samba é assim/ A lágrima clara sobre a pele escura A chuva fria que cai lá fora Solidão apavora Tudo demorando em ser tão ruim Mas há uma coisa no tanto agora em mim Cantando mando a tristeza embora... (Sadness is dominant/Ever since samba was samba it has been like that/the clear tear over the dark skin/The cold rain falling on the outside/Solitude is frightening/Bad things taking so long/ But there is something inside me/By singing I send sadness away...) Caetano Veloso,who produced the album, is an innovator in his own right; he was the co-founder of of yet another wave in Brazilian popular music which blended Bossa Nova and other elements of Brazilian sounds with the influence of late sixties psychedelics and came up, in 1968, with a whole new sound, labeled "tropicalism." With time,he became more and more refined in his songwriting, and João Gilberto's influence became more and more evident in his work, to the point of recording a rare Gilberto composition, "Você Esteve Com Meu Bem?" (Have You Been With My Sweetheart?", never recorded by its composer) in his 1996 "Fina Estampa En Vivo". Veloso and Gilberto are friends, and the latter was instrumental in Veloso's return from his politically enforced exile after three years in Europe. The album also contains two classics which are present on virtually every Bossa Nova or João Gilberto collection: Desafinado (Off-Key) and Chega de Saudade, which are both Tom Jobim co-compositions. The first was present in 1964's quadruple Grammy award winner Getz/Gilberto. The second one is considered by music historians the song that, in 1959, started the whole Bossa Nova wave. In this album, the songs are performed like Gilberto does onstage these days, with no accompaniment. I believe the singer and Veloso decided to re-make the two songs (specially "Chega de Saudade")in order to have a "proper" studio versions, since the earlier ones, recorded years ago, where too much in the musical format of the time, and Gilberto's guitar playing was not very well heard. There are, of course, the live version, but the applause somewhat damages the recording, specially when you're dealing with a very subtle vocalist and guitarist. The other tracks are equally interesting. My personal favorite is "Não Vou Para Casa"(I'm not Going Home), a humorous samba in which the singer is urged to go back home, but refuses to return "before the sun rises". Very good are also Tom Jobim's "Você Vai Ver"(You'll See) and another Veloso composition, "Coração Vagabundo"(Vagabond Heart). The only bad thing about the CD is that is is too short for the price; it has merely 35 minutes, which gives the listener a feeling of dissatisfaction as the album ends. The cover of the album shows a girl with her finger on her lips,requesting silence. It is a direct message to the public of Credicard Hall in São Paulo that booed Joao Gilberto during his 1999 performance, when, ever the perfectionist, complained of excessive feedback from the sound system. He reacted by showing his tongue to the public and left Caetano Veloso, who was also performing that night, alone on stage to finish the show. One can be almost sure that the idea for the cover came from Veloso. One fact that gives this CD great importance is the fact that many of the original Bossa Nova players are no longer in this world. Stan Getz passed away in 1991, Jobim in 1994, Vinicius de Morais in 1980 and Charlie Byrd left us recently. Of course they left us countless recordings of their music, but fresh work from them is very rare, as João Gilberto himself rarely does studio work. The album, yes, is short, but it is a very good addition to the collection of a listener of good music. A fine wine will go well with the album. A splendid time is guaranteed for all.

Festival di Sanremo 2017 - 4° Puntata 10 02 2017

Language: | Size: 2.95 GB | Seed: 0 | Leech: 8

Description:

67° Festival della Canzone Italiana di Sanremo - Quarta serata La quarta serata del 67° Festival di Sanremo condotta da Carlo Conti con Maria De Filippi. Lele vince tra le Nuove Proposte, mentre nella categoria dei Campioni non raggiungono la finale Al Bano, Giusy Ferreri, Gigi D'Alessio e Ron. Tra gli ospiti della serata: Virginia Raffaele, Luca Zingaretti, Giorgio Moroder, Robin Schulz, Marica Pellegrinelli e Antonella Clerici

Sausage.Party.Vita.Segreta.Di.Una.Salsiccia.2016.iTALiAN.AC3.BRRip.XviD-T4P3

Language: | Size: 1.47 GB | Seed: 138 | Leech: 74

Description:

Sausage Party: vita segreta di una salsiccia Titolo originale: Sausage Party Nazione: U.S.A. Anno: 2016 Genere: Animazione, Avventura, Commedia Durata: 83' Regia: Greg Tiernan, Conrad Vernon Cast (voci originali): Paul Rudd, Kristen Wiig, James Franco, Salma Hayek, David Krumholtz, Seth Rogen, Bill Hader, Jonah Hill, Edward Norton, Michael Cera, Danny McBride, Craig Robinson, Nick Kroll Produzione: Annapurna Pictures, Nitrogen Studios Canada, Point Grey Pictures, Sony Pictures Animation, Sony Pictures Entertainment Distribuzione: Warner Bros. Pictures Italia Data di uscita: 31 Ottobre 2016 (cinema) Trama: Una salsiccia in crisi esistenziale alla testa di un gruppo di prodotti da supermercato in missione per scoprire la verità su ciò che realmente accade quando vengono scelti e lasciano il negozio di alimentari, tra corridoi e strani incontri, non sarà semplice.