Search Top Tags














I Griffin - Family Guy S11e02, [Mux - H264 - Ita Eng Aac - SoftSub Ita Eng]

Language: | Size: 80.55 MB | Seed: 2 | Leech: 0

Description:

Il programma ruota attorno alle avventure di Peter Griffin e della sua famiglia residenti a Quahog, cittadina immaginaria del Rhode Island. Peter è un operaio incompetente, obeso ed ottuso, ed il suo comportamento è particolarmente mutevole: a volte è un padre assente e dedito all'alcool, che non riesce a farsi rispettare dai propri cari, altre volte invece, seppur per poco, riesce a svolgere degnamente il ruolo di capo famiglia. Sua moglie, Lois Pewterschmidt, è una bella e brava casalinga, insegnante di pianoforte (anche se raramente la si vede praticare quest'attività) che dimostra talvolta velleità artistiche ed esibisce comportamenti disinibiti. La coppia ha tre figli: Meg è la tipica ragazza con problemi adolescenziali, come il non essere accettati o le difficoltà nei rapporti sentimentali; Chris è anche lui obeso, ingenuo e, per quanto tutt'altro che talentuoso, con la passione per il disegno; infine il diabolico Stewie, un neonato intelligentissimo, in grado di costruire fantascientifici strumenti per liberarsi della madre, considerata l'ostacolo alla conquista del mondo. Con la famiglia vive anche un cane antropomorfo, Brian, il miglior amico di Peter, che deve fare i conti con i suoi grossi problemi di dipendenza dall'alcool e, in alcuni casi, dalla droga.

I Griffin - Family Guy S11e01, [Mux - H264 - Ita Eng Aac - SoftSub Ita Eng]

Language: | Size: 198.69 MB | Seed: 1 | Leech: 0

Description:

Il programma ruota attorno alle avventure di Peter Griffin e della sua famiglia residenti a Quahog, cittadina immaginaria del Rhode Island. Peter è un operaio incompetente, obeso ed ottuso, ed il suo comportamento è particolarmente mutevole: a volte è un padre assente e dedito all'alcool, che non riesce a farsi rispettare dai propri cari, altre volte invece, seppur per poco, riesce a svolgere degnamente il ruolo di capo famiglia. Sua moglie, Lois Pewterschmidt, è una bella e brava casalinga, insegnante di pianoforte (anche se raramente la si vede praticare quest'attività) che dimostra talvolta velleità artistiche ed esibisce comportamenti disinibiti. La coppia ha tre figli: Meg è la tipica ragazza con problemi adolescenziali, come il non essere accettati o le difficoltà nei rapporti sentimentali; Chris è anche lui obeso, ingenuo e, per quanto tutt'altro che talentuoso, con la passione per il disegno; infine il diabolico Stewie, un neonato intelligentissimo, in grado di costruire fantascientifici strumenti per liberarsi della madre, considerata l'ostacolo alla conquista del mondo. Con la famiglia vive anche un cane antropomorfo, Brian, il miglior amico di Peter, che deve fare i conti con i suoi grossi problemi di dipendenza dall'alcool e, in alcuni casi, dalla droga.

I Griffin - Family Guy - Tutti i Torrent Stagioni 1-2-3, [DivX - Ita Eng Mp3]

Language: | Size: 921.09 KB | Seed: 5 | Leech: 0

Description:

La famiglia protagonista del cartone è la dissacrante rappresentazione della tipica American way of life. Le loro vicende sono fuori dalla realtà, con continui flashback in vari punti della storia che esplicano i comportamenti dei personaggi. Le trame degli episodi molto spesso non seguono un senso logico, ma sono sempre dotate di una forte vena umoristico-demenziale.

I Give It A Year 2013 iTALiAN BDRip XviD-NOiR

Language: | Size: 1.37 GB | Seed: 518 | Leech: 23

Description:

TITOLO ORIGINALE: I Give It A Year PAESE: Gran Bretagna ANNO: 2013 GENERE: Commedia DURATA: 01:37:22 REGIA: Dan Mazer ATTORI: Rose Byrne, Anna Faris, Simon Baker, Rafe Spall, Stephen Merchant DATA USCITA: N.D. TRAMA :La storia di una coppia dalle abitudini stravaganti che tenta di sopravvivere alle difficoltà del primo anno di matrimonio. Ad interpretare i due sposini troviamo Rose Byrne (28 settimane dopo) e Rafe Spall (Anonymous), mentre, in ruoli secondari, ci sono Anna Faris (la star femminile della saga Scary Movie) e Simon Baker (divo della serie televisiva The Mentalist). Scritta e diretta da Dan Mazer (autore del dissacrante Borat), I Give It a Year è una commedia romantica scandita da gag comiche che, visto lo stile dei creatori, promette di non essere buonista. VIDEO: 720 x 320 (2.25), 23.976 fps, XviD ~1554 kbps AUDIO: 48 kHz, AC3 Dolby Digital, 3/2 (L,C,R,l,r) + LFE ch, ~448 kbps VALUTAZIONE:

I Give It A Year 2013 iTA ENG 720p Bluray x264-NOiR

Language: | Size: 3.89 GB | Seed: 637 | Leech: 2

Description:

TITOLO ORIGINALE: I Give It A Year PAESE: Gran Bretagna ANNO: 2013 GENERE: Commedia DURATA: 01:37:22 REGIA: Dan Mazer ATTORI: Rose Byrne, Anna Faris, Simon Baker, Rafe Spall, Stephen Merchant DATA USCITA: N.D. TRAMA :La storia di una coppia dalle abitudini stravaganti che tenta di sopravvivere alle difficoltà del primo anno di matrimonio. Ad interpretare i due sposini troviamo Rose Byrne (28 settimane dopo) e Rafe Spall (Anonymous), mentre, in ruoli secondari, ci sono Anna Faris (la star femminile della saga Scary Movie) e Simon Baker (divo della serie televisiva The Mentalist). Scritta e diretta da Dan Mazer (autore del dissacrante Borat), I Give It a Year è una commedia romantica scandita da gag comiche che, visto lo stile dei creatori, promette di non essere buonista. VIDEO: 720 x 320 (2.25), 23.976 fps, XviD ~1554 kbps AUDIO: 48 kHz, AC3 Dolby Digital, 3/2 (L,C,R,l,r) + LFE ch, ~448 kbps iTA, 48 kHz, DTS, 3/2 (L,C,R,l,r) + LFE ch, ~768 kbps ENG VALUTAZIONE:

I Flintstones (1994)

Language: | Size: 3.2 GB | Seed: 0 | Leech: 0

Description:

Il film apre con un dialogo nell'ufficio del direttore della cava dove lavorano i protagonisti, con il direttore che espone il suo piano di frodare la sua stessa azienda e di farne ricadere la colpa su di un capro espiatorio da trovare tra i suoi dipendenti. Passando ai protagonisti si scopre che Fred Flintstone ha prestato una grossa somma di denaro ai vicini Barney e Betty Rumble per permettergli di adottare un figlio, Bamm-Bamm. Come gesto di gratitudine per questo prestito Barney, durante un esame volto ad individuare un nuovo dirigente (il capro espiatorio), scambia segretamente il suo esame con quello di Fred, per sua stessa ammissione pieno di errori. Il test originalmente fatto da Barney si rivela essere il migliore tra tutti gli operai e, di conseguenza, Fred viene promosso vicedirettore della cava. Purtroppo, il primo compito del neo-dirigente Fred è licenziare l'operaio che risulta aver effettuato il test peggiore: Barney. Fred a malincuore licenzia l'amico, che in breve tempo si ritrova spiantato e senza tetto. Fred accetta di ospitare Barney in casa sua ma, nel giro di poco, l'ospitalità si trasforma in un rapporto di lavoro tra i benestanti Flintstone e gli indigenti Rubble, che si ritrovano loro malgrado ad essere i domestici dei loro amici. Questa distanza sociale porta alla rottura dell'amicizia tra le due famiglie, con Barney che confessa dello scambio di test e di come dovrebbe trovarsi Fred al suo posto, provocando anche la separazione tra Fred e Wilma. Nel frattempo il piano del direttore della cava sta per arrivare a compimento, con Fred che riceve tutte le responsabilità del fallimento dell'azienda e rischiando di essere linciato dai suoi ex-colleghi restati senza lavoro. Tuttavia, grazie alla redenzione della segretaria del direttore, del suo "dittavolo" (o dittafono) che ne aveva registrato la confessione e di un riappacificato Barney, Fred riesce a fermare il suo capo, salvare la famiglia e la cava. Forte della lezione di umiltà ricevuta, Fred declina l'offerta di un posto da direttore meritato grazie alla sua accidentale invenzione del cemento durante la lotta, e

I Fine Thank You Love You (2015) 1080p BDRip ENG Sub [2014, Comedy, Romance Blu-Ray Disc] TH

Language: | Size: 4.79 GB | Seed: 302 | Leech: 9

Description:

Title: I Fine Thank You Love You (2015) 1080p BDRip ENG Sub Country: Thailand Region: Asian movies Genre: Comedy, Romance Duration: 01:55:00 Year: 2014 Language: TH Subtitle: English Director: Mez Tharatorn Cast: Sunny Suwanmethanon, Preechaya Pongthananikorn, Sora Aoi Description: Yim goes to English school to keep his Japanese girlfriend in this Thai romantic comedy. Rating: Quality: Blu-Ray Disc Format: MKV Video codec: 5132 Kbps, 1920*980 (1.959:1), 25.000 fps, x264 Audio codec: 448 Kbps, 48.0 KHz, 6 Channels, AC3

I Feel Good [Reparado] - ESP XViD DVDrip

Language: | Size: 1.56 GB | Seed: 23 | Leech: 1

Description:

Título: I Feel Good Título original: Get On Up País: Estados Unidos Estreno en USA: 01/08/2014 Estreno en España: 12/12/2014 Productora: Imagine Entertainment, Jagged Films Director: Tate Taylor Guión: Jez Butterworth, John-Henry Butterworth Reparto: Chadwick Boseman, Nelsan Ellis, Viola Davis, Octavia Spencer, Jill Scott, Tika Sumpter, Dan Aykroyd, Keith Robinson, Lennie James, Ralph E. Tresvant, Donald Watkins, Julius Tennon, Joseph Stephens Jr., Corey Sorenson, Billy Slaughter Calificación: No recomendada para menores de 12 años Género: Drama | Biográfico. Música SINOPSIS: Chadwick Boseman encarna a James Brown en I Feel Good . Basada en la increíble vida del padrino del soul, la película profundiza en la música, la vida y los estados de ánimo del músico, desde su dura infancia hasta que se convierte en una de las figuras más influyentes del siglo XX. Relaccionados

I due volti di gennaio (2014) iTALiAN AC3 HDRip XviD

Language: | Size: 1.27 GB | Seed: 425 | Leech: 76

Description:

Titolo originale: The Two Faces of January Nazione: Regno Unito, U.S.A., Francia Anno: 2014 Genere: Thriller Durata: 96' Regia: Hossein Amini Sito ufficiale: www.thetwofacesofjanuary.com/uk Sito italiano: iduevoltidigennaio.movieplayer.it Cast: Viggo Mortensen, Kirsten Dunst, Oscar Isaac, David Warshofsky, Daisy Bevan, Aleifer Prometheus Produzione: Timnick Films, StudioCanal, Working Title Films Distribuzione: Videa CDE Data di uscita: Berlino 2014 09 Ottobre 2014 (cinema) Trama: Grecia 1962. Tre esistenze si incrociano in un torbido triangolo: quella di Chester, elegante e carismatico consulente d'affari americano, di sua moglie Colette, giovane seducente e inquieta, e di Rydal, una guida turistica in fuga dai fantasmi del passato. Tra le rovine del Partenone, Rydal resta affascinato dalla bellezza di Colette e impressionato dalla ricchezza e raffinatezza del marito. Ma non tutto è come sembra: l'apparente affabilità di Chester nasconde un labirinto di segreti, sangue e bugie. Gli eventi prendono una piega sinistra e, dopo un omicidio, in un crescendo di tensione e mistero, nessuno dei tre avrà più sotto controllo le proprie emozioni e i propri istinti... Tratto dall'omonimo romanzo di Patricia Highsmith. Parole chiave: thriller

I due evasi di Sing Sing (1964), [XviD - Ita Mp3]

Language: | Size: 699.97 MB | Seed: 0 | Leech: 2

Description:

:::->Trama<-::: Sing Sing. I cugini Bacalone vengono condotti nella camera a gas per eseguire la sentenza che grava su di loro, ma un piccolo malfunzionamento del cianuro fa ritardare l'esecuzione quel tanto che basta per ricevere la notizia del loro avvocato che è riuscito ad ottenere la sospensione della condanna. Nell'attesa di scoprire se si tratta di un provvedimento momentaneo o definitivo, i due vengono ricondotti in cella. Franco ne approfitta per terminare di scrivere il suo memoriale e inizia a raccontare la loro storia: Franco e Ciccio lavoravano in uno stabilimento di bagni turchi. Un giorno venne al loro bagno il noto gangster Attanasia e, creando confusione, i due cugini sventano casualmente un attentato organizzato dal rivale di Attanasia, Tristano. Entrano così nelle grazie del mafioso, un boss veramente potente (pensate che con una telefonata può mutare a proprio piacimento la messa in onda dei programmi tv!). Attanasia intende entrare in affari nel giro delle scommesse del pugilato, pertanto decide di lanciare Franco nel mondo del pugilato e Ciccio lo affianca come allenatore. Inizia così il mito di Frankie la Belva, un mito truccato visto che è il gangster a comprare ogni incontro. Franco, vinta la paura iniziale, si illude di essere realmente forte ed arriva imbattuto allo scontro per il titolo mondiale. Proprio alla vigilia dell'atteso match, Attanasia e Tristano giungono ad un compromesso per spartirsi il mercato delle scommesse: a questo punto, Franco dovrà perdere ed essere eliminato assieme a Ciccio. Grazie ad una serie di situazioni fortuite, Franco vince a sorpresa l'incontro e da ciò nasce una guerra spietata tra le due bande. Franco e Ciccio sono al centro della sparatoria che avviene negli studi televisivi di Attanasia e, alla fine, il gangster viene ucciso e quando i poliziotti fanno irruzione, trovano e arrestano soltanto i due cugini, gli unici che non centravano nulla. Così i due siculo-americani, non riuscendo a provare la loro innocenza, vengono condannati a 99 anni di carcere. In cella incontrano il killer che voleva far fuori loro e Attanasia, ma alla fine era finito in prigione per colpa dei Bacalone. Egli vorrebbe vendicarsi su di loro, ma decide di servirsene per organizzare un'evasione. Il loro primo piano è quello di scavare una galleria, ma per la goffagine dei cugini, vengono scoperti. Al secondo tentativo, quando viene organizzata una rivolta, Franco e Ciccio riescono a fuggire e corrono alla ricerca di Agnello e Pastrano, due malviventi che facevano parte della banda di Attanasia, gli unici in grado di testimoniare a loro favore. Purtroppo quando li trovano, causano una lite e i due gangster si ammazzano a vicenda. Proprio in quel istante irrompe di nuovo la polizia e questa volta per i due cugini si prospetta una pena peggiore del carcere: la morte. Qui il racconto si interrompe e la storia riprende laddove avevamo lasciato Franco e Ciccio all'inizio, cioè in attesa nella loro cella. Il direttore del carcere dà loro una bella notizia: il loro avvocato è riuscito a scagionarli! Purtroppo Franco e Ciccio non credono né a lui né a fonti più autorevoli (prendono perfino a pernacchie il Pentagono!) e si barricano nella cella fino al 1990, quando pur essendo ormai vecchi e stanchi continua a resistere e a non uscire assolutamente! :::->Scheda del film<-::: Paese Italia Anno 1964 Genere commedia Regia Lucio Fulci Soggetto Marcello Ciorciolini Sceneggiatura Marcello Ciorciolini e Lucio Fulci Cast: * Franco Franchi .... Franco * Ciccio Ingrassia .... Ciccio * Arturo Dominici .... Attanasia * Gloria Paul .... Molly * Poldo Bendandi * Livio Lorenzon .... Tristan

I don't want to go back alone (2010)

Language: | Size: 341.28 MB | Seed: 1 | Leech: 0

Description:

Eu não quero voltar sozinho cattura tutta la tenerezza del primo amore (prime gelosie comprese) risolvendosi nello spazio di pochi minuti ma trovando il tempo di mettere in evidenza i tratti dei tre personaggi principali, raccontando in modo efficace il tema della scoperta di sé e dei propri sentimenti più profondi. Aiutato dalla bellissima fotografia e da tre ottimi interpreti, che contribuiscono in modo determinante al tono naturalistico del film, Daniel Ribeiro realizza un film promettente, coinvolgente e riuscito. [...] (Roberto Rippa) AUTORE admin CATEGORIA Film INFOHASH 13F696DEB1A78DA0C90223ACBFAF58BC2634A876 FILE(2) Files TRAKER Traker Non ci sono commenti

I Don't Feel at Home in This World Anymore (2017).ita.eng.iCV-MIRCrew

Language: | Size: 1.48 GB | Seed: 95 | Leech: 30

Description:

I Don't Feel at Home in This World Anymore (2017).H264.Italian.English.Ac3.5.1.sub.ita.eng.iCV-MIRCrew [center] [color=red][b][img]http://s23.postimg.org/b9yhws27f/0sc_Del1.png[/img] [u]NO FOUND ONLY ORIGINAL RELEASE[/u] [img]http://i.imgur.com/GDNQx1Z.png[/img] My release is always in double track audio italian and Original audio for select it use VLC or dvd player home not use wmp I Don't Feel at Home in This World Anymore (2017) [img]https://extraimage.net/images/2017/03/12/c44f53b7b6263ad57ae3659411695581.png[/img] [URL=http://www.imdb.com/title/tt5710514/][IMG]http://www.userlogos.org/files/logos/Sucka/imdb_new.png[/IMG][/URL] [img]http://i.imgur.com/fGu1rKv.png[/img] Lingua originale inglese Paese di produzione Stati Uniti d'America Anno 2017 Durata 96 min Rapporto 2,35:1 Genere drammatico, commedia, thriller Regia Macon Balir Sceneggiatura Macon Blair Produttore Neil Kopp, Vincent Savino, Anish Savjani, Mette-Marie Kongsved Produttore esecutivo Ian Bricke, Matt Levin Casa di produzione Film Science, XYZ Films Distribuzione (Italia) Netflix Fotografia Larkin Seiple Montaggio Tomas Vengris Musiche Brooke Blair, Will Blair Scenografia Tyler B. Robinson [img]http://i.imgur.com/W7kBqiE.png[/img] Melanie Lynskey: Ruth Kimke Elijah Wood: Tony David Yow: Marshall Jane Levy: Dez Devon Graye: Christian Christine Woods: Meredith Robert Longstreet: Chris Rumack Gary Anthony Williams: Detective William Bendix Lee Eddy: Angie Derek Mears: Donkey Jason Manuel Olazabal: Cesar Matt Orduna: Dan Michelle Moreno: Jana Huff [img]http://i.imgur.com/bFK3ggF.png[/img] Ruth è una depressa assistente infermiera che lavora in una clinica post-operatoria, dalla vita sociale inesistente. Un giorno, tornata a casa dal lavoro, trova parte della casa sottosopra e si rende conto di essere stata derubata. Quasi imbarazzata, denuncia alla polizia il furto di alcuni medicinali, l'argenteria della nonna e di un computer portatile e viene ammonita dal detective Bendix a chiudere meglio la porta.............. [img]http://i.imgur.com/48xHWWH.png[/img] When a depressed woman is burglarized, she finds a new sense of purpose by tracking down the thieves alongside her obnoxious neighbor. But they soon find themselves dangerously out of their depth against a pack of degenerate criminals. [img]http://i.imgur.com/K8bfNTy.png[/img] [url=https://extraimage.net/image/2PaF][img]https://extraimage.net/images/2017/03/12/060ebefbfcbcfedc416897bcb41528d9.th.png[/img][/url] [url=https://extraimage.net/image/2PaH][img]https://extraimage.net/images/2017/03/12/11af3d85019bf22e8f8da31d3ddf518a.th.png[/img][/url] [url=https://extraimage.net/image/2Pak][img]https://extraimage.net/images/2017/03/12/f0184a26af30525f76e49565217168fe.th.png[/img][/url] [img]http://i.imgur.com/aVrMohH.png[/img] [spoiler] General Unique ID : 227881528191695744325587581091498289477 (0xAB7062C9CC96EE4852318D556D71E945) Complete name : I Don't Feel at Home in This World Anymore (2017).H264.ita.eng.sub.ita.eng.iCV-MIRCrew.mkv Format : Matroska Format version : Version 2 File size : 1.48 GiB Duration : 1h 36mn Overall bit rate : 2 185 Kbps Movie name : VISIT www.icv-crew.org Encoded date : UTC 2017-03-11 17:08:13 Writing application : Lavf54.63.100 Writing library : Lavf54.63.100 COPYRIGHT : robbyrs Video ID : 1 Format : AVC Format/Info : Advanced Video Codec Format profile : [email protected] Format settings, CABAC : Yes Format settings, ReFrames : 2 frames Codec ID : V_MPEG4/ISO/AVC Duration : 1h 36mn Bit rate : 1 290 Kbps Width : 720 pixels Height : 300 pixels Display aspect ratio : 2.40:1 Frame rate mode : Variable Frame rate : 24.000 fps Color space : YUV Chroma subsampling : 4:2:0 Bit depth : 8 bits Scan type : Progressive Bits/(Pixel*Frame) : 0.249 Stream size : 863 MiB (57%) Writing library : x264 core 130 r2273 Encoding settings : cabac=1 / ref=2 / deblock=1:0:0 / analyse=0x1:0x131 / me=hex / subme=7 / psy=1 / psy_rd=1.00:0.00 / mixed_ref=0 / me_range=16 / chroma_me=1 / trellis=1 / 8x8dct=0 / cqm=0 / deadzone=21,11 / fast_pskip=1 / chroma_qp_offset=-2 / threads=12 / lookahead_threads=2 / sliced_threads=0 / nr=0 / decimate=1 / interlaced=0 / bluray_compat=0 / constrained_intra=0 / bframes=3 / b_pyramid=0 / b_adapt=1 / b_bias=0 / direct=3 / weightb=1 / open_gop=0 / weightp=2 / keyint=240 / keyint_min=24 / scenecut=40 / intra_refresh=0 / rc_lookahead=40 / rc=2pass / mbtree=1 / bitrate=1290 / ratetol=1.0 / qcomp=0.60 / qpmin=10 / qpmax=69 / qpstep=4 / cplxblur=20.0 / qblur=0.5 / vbv_maxrate=24000 / vbv_bufsize=24000 / nal_hrd=none / ip_ratio=1.40 / aq=1:1.00 Language : Italian Default : Yes Forced : No DURATION : 01:36:27.125000000 NUMBER_OF_FRAMES : 138891 NUMBER_OF_BYTES : 5784894428 _STATISTICS_WRITING_APP : mkvmerge v7.2.0 ('On Every Street') 64bit built on Sep 13 2014 15:52:10 _STATISTICS_WRITING_DATE_UTC : 2017-02-26 03:09:18 _STATISTICS_TAGS : BPS DURATION NUMBER_OF_FRAMES NUMBER_OF_BYTES Audio #1 ID : 2 Format : AC-3 Format/Info : Audio Coding 3 Mode extension : CM (complete main) Codec ID : A_AC3 Duration : 1h 36mn Bit rate mode : Constant Bit rate : 448 Kbps Channel(s) : 6 channels Channel positions : Front: L C R, Side: L R, LFE Sampling rate : 48.0 KHz Bit depth : 16 bits Compression mode : Lossy Delay relative to video : 1mn 5s Stream size : 310 MiB (21%) Title : AC3 iTA Language : Italian Default : Yes Forced : Yes DURATION : 01:36:53.280000000 NUMBER_OF_FRAMES : 181665 NUMBER_OF_BYTES : 325543680 _STATISTICS_WRITING_APP : mkvmerge v7.2.0 ('On Every Street') 64bit built on Sep 13 2014 15:52:10 _STATISTICS_WRITING_DATE_UTC : 2017-02-26 03:09:18 _STATISTICS_TAGS : BPS DURATION NUMBER_OF_FRAMES NUMBER_OF_BYTES Audio #2 ID : 3 Format : AC-3 Format/Info : Audio Coding 3 Mode extension : CM (complete main) Codec ID : A_AC3 Duration : 1h 36mn Bit rate mode : Constant Bit rate : 448 Kbps Channel(s) : 6 channels Channel positions : Front: L C R, Side: L R, LFE Sampling rate : 48.0 KHz Bit depth : 16 bits Compression mode : Lossy Delay relative to video : 1mn 5s Stream size : 310 MiB (21%) Title : AC3 ENG Language : English Default : No Forced : No DURATION : 01:36:53.280000000 NUMBER_OF_FRAMES : 181665 NUMBER_OF_BYTES : 465062400 _STATISTICS_WRITING_APP : mkvmerge v7.2.0 ('On Every Street') 64bit built on Sep 13 2014 15:52:10 _STATISTICS_WRITING_DATE_UTC : 2017-02-26 03:09:18 _STATISTICS_TAGS : BPS DURATION NUMBER_OF_FRAMES NUMBER_OF_BYTES Text #1 ID : 4 Format : UTF-8 Codec ID : S_TEXT/UTF8 Codec ID/Info : UTF-8 Plain Text Title : FORCED iTA Language : Italian Default : Yes Forced : Yes DURATION : 01:35:42.278000000 NUMBER_OF_FRAMES : 24 NUMBER_OF_BYTES : 685 _STATISTICS_WRITING_APP : mkvmerge v7.2.0 ('On Every Street') 64bit built on Sep 13 2014 15:52:10 _STATISTICS_WRITING_DATE_UTC : 2017-02-26 03:09:18 _STATISTICS_TAGS : BPS DURATION NUMBER_OF_FRAMES NUMBER_OF_BYTES Text #2 ID : 5 Format : UTF-8 Codec ID : S_TEXT/UTF8 Codec ID/Info : UTF-8 Plain Text Title : REGULAR iTA Language : Italian Default : No Forced : No DURATION : 01:36:18.481000000 NUMBER_OF_FRAMES : 932 NUMBER_OF_BYTES : 23992 _STATISTICS_WRITING_APP : mkvmerge v7.2.0 ('On Every Street') 64bit built on Sep 13 2014 15:52:10 _STATISTICS_WRITING_DATE_UTC : 2017-02-26 03:09:18 _STATISTICS_TAGS : BPS DURATION NUMBER_OF_FRAMES NUMBER_OF_BYTES Text #3 ID : 6 Format : UTF-8 Codec ID : S_TEXT/UTF8 Codec ID/Info : UTF-8 Plain Text Title : NON UDENTI ENG Language : English Default : No Forced : No DURATION : 01:35:13.916000000 NUMBER_OF_FRAMES : 1321 NUMBER_OF_BYTES : 38878 _STATISTICS_WRITING_APP : mkvmerge v7.2.0 ('On Every Street') 64bit built on Sep 13 2014 15:52:10 _STATISTICS_WRITING_DATE_UTC : 2017-02-26 03:09:18 _STATISTICS_TAGS : BPS DURATION NUMBER_OF_FRAMES NUMBER_OF_BYTES [/spoiler] [/color][/b][/center]

I dominatori dell'universo - Masters of the Universe (1987)

Language: | Size: 904.66 MB | Seed: 724 | Leech: 67

Description:

Le forze del maligno Skeletor attaccano il Castello di Greyskull dopo aver sconfitto gran parte delle armate di Eternia. Nel castello, Skeletor imprigiona la Maga di Greyskull con l'intento di acquisirne i poteri e sfruttare l'Occhio della Galassia, un portale nella Sala del Trono che gli permetterebbe di essere invincibile. Mentre le forze di Eternia sono ormai in rotta, una delle pattuglie di Skeletor viene attaccata da He-Man, il più grande guerriero di Eternia e nemesi di Skeletor. Aiutato da Man-At-Arms e sua figlia Teela, He-Man sgomina la pattuglia e salva un bizzarro inventore, Gwildor, che Skeletor aveva fatto catturare per impossessarsi della Chiave Cosmica da lui inventata. Tale Chiave, infatti, permette di aprire portali dimensionali verso qualunque tempo e luogo. In questo modo Skeletor era riuscito a penetrare nel Castello, ma Gwildor aveva conservato il prototipo della Chiave. Gwildor rivela a He-Man e ai suoi compagni un passaggio segreto nel Castello per la Sala del Trono, ma quando arrivano sul posto, si trovano circondati dalle truppe di Skeletor guidate dalla perfida Evil-Lyn. Gwildor, per riuscire a sfuggire ai soldati, apre un accesso casuale con la Chiave, catapultandosi con He-Man e gli altri sulla Terra.

I Disertori - A Field In England (2013) DVDRip XviD - Ita Ac3 5.1

Language: | Size: 1.37 GB | Seed: 698 | Leech: 54

Description:

A Field in England Gran Bretagna 2013 Genere: Horror Durata 90' Regia di Ben Wheatley Con Julian Barratt, Michael Smiley, Reece Shearsmith, Peter Ferdinando, Ryan Pope, Richard Glover Trama Nel 1648, nelle campagne inglesi tormentate dalla guerra, un gruppo di disertori fugge dal campo in cui infuria la battaglia. Dopo essere stati catturati, vengono costretti ad aiutare uno dei loro carcerieri nella ricerca del tesoro che questi crede sepolto nel campo. Da quel momento, il gruppo gradualmente scivola in un caos fatto di aspre discussioni, di lotte e di paranoia. Quando poi diventa chiaro che il tesoro potrebbe essere qualcosa di molto diverso dall'oro che credevano, si scoprono vittime di energie terrificanti intrappolate nel campo. Parole chiave: horror

I Custodi Del Risveglio - iTA AC3 DVDRip XviD

Language: | Size: 1.9 GB | Seed: 0 | Leech: 0

Description:

Il film Air – I Custodi Del Risveglio 2015 e un genere di Fantascienza.. Guardare questo sito Air – I Custodi Del Risveglio 2015 online gratis. Ho pubblicato in questa pagina, questo film Air – I Custodi Del Risveglio 2015 per voi in streaming. Se ti e piaciuto il film Air – I Custodi Del Risveglio 2015 non dimenticare di condividere con i tuoi amici. Due custodi tentano di mantenere salda la loro salute mentale mentre vivono in un bunker sotterraneo che ospita persone criogenicamente congelate, destinate a ripopolare il mondo. CATEGORIA Film

I cieli di Escaflowne S01e22-26 [BDmux 1080p - H264 - Ita Jap Aac]

Language: | Size: 6.34 GB | Seed: 14 | Leech: 9

Description:

I cieli di Escaflowne S01e22-26 [BDmux 1080p - H264 - Ita Jap Aac] .: Trama :. Hitomi Kanzaki è una tipica ragazza delle scuole superiori con tutti i problemi relativi ad un'adolescente della sua età. Tra le sue compagne di classe è famosa per l'abilità di prevedere il futuro con i tarocchi, capacità che le permette anche di avere visioni. Durante una di esse le appare un mondo alieno nel cui cielo si stagliano la Luna e la Terra. In un modo a lei sconosciuto e incomprensibile, Hitomi arriverà nel mondo sconosciuto di Gaia con un giovane spadaccino, Van. In questo mondo vi sono diversi Paesi in guerra fra loro, con una tecnologia piuttosto diversa da quella presente sulla Terra... .: Scheda :. Titolo originale: The Vision of Escaflowne (天空のエスカフローネ Tenkū no Esukafurōne) Anno: Giappone 2 aprile – 24 agosto 1996 / Italia 26 dicembre 2000 – 19 giugno 2001 Genere: Avventura, Fantasy, Romantico, Mecha Studio: Sunrise Distribuzione: Giappone TV Tokyo (1996), Animax, BS11 / Italia Dynit, MTV Italia, AXN (Animax, 2008), Ka-Boom Numero episodi: 26 (completa) Durata approssimativa: 25 minuti .: Dati tecnici del file :. Info sul file Nome: I cieli di Escaflowne S01e22 - L'angelo dalle ali nere - [Mux By MPT].mkv Data: 18/01/2017 20:29:56 Dimensione: 1,367,762,875 bytes (1304.4 MB) Info generiche Durata: 00:23:08 (1388.437 s) Tipo di contenitore: matroska Data creazione: 18/01/2017 19:27:28 UTC Streams totali: 4 Tipo stream n. 1: video (V_MPEG4/ISO/AVC) Tipo stream n. 2: audio (A_AAC (AAC Low complexity)) {Italiano} Tipo stream n. 3: audio (A_AAC (AAC Low complexity)) {Giapponese} Tipo stream n. 4: subtitle (S_TEXT/ASS) {Cartelli} Audio streams: 2 Muxing Application: libebml v1.3.4 + libmatroska v1.4.5 Writing Application: mkvmerge v9.6.0 ('Slave To Your Mind') 64bit Dati rilevanti Risoluzione: 1440 x 1080 Larghezza: multipla di 32 Altezza: multipla di 8 Traccia video Codec ID: V_MPEG4/ISO/AVC Risoluzione: 1440 x 1080 Frame aspect ratio: 4:3 = 1.333333 Pixel aspect ratio: 1:1 = 1 Display aspect ratio: 4:3 = 1.333333 Framerate: 23.976024 fps Traccia audio n. 1 Codec ID: A_AAC (AAC Low complexity) Canali (contenitore): 2 Frequenza: 48000 Hz Traccia audio n. 2 Codec ID: A_AAC (AAC Low complexity) Canali (contenitore): 2 Frequenza: 48000 Hz Info sulla codifica H.264 User data: x264 User data: core 120 r2120bm 0c7dab9 User data: H.264/MPEG-4 AVC codec User data: Copyleft 2003-2011 User data: http://www.videolan.org/x264.html User data: cabac=1 User data: ref=5 User data: deblock=1:1:1 User data: analyse=0x3:0x133 User data: me=umh User data: subme=9 User data: psy=1 User data: psy_rd=0.80:0.20 User data: mixed_ref=1 User data: me_range=24 User data: chroma_me=1 User data: trellis=1 User data: 8x8dct=1 User data: cqm=0 User data: deadzone=21,11 User data: fast_pskip=0 User data: chroma_qp_offset=-3 User data: threads=6 User data: sliced_threads=0 User data: nr=0 User data: decimate=1 User data: interlaced=0 User data: bluray_compat=0 User data: constrained_intra=0 User data: bframes=5 User data: b_pyramid=2 User data: b_adapt=2 User data: b_bias=0 User data: direct=3 User data: weightb=1 User data: open_gop=0 User data: weightp=2 User data: keyint=250 User data: keyint_min=23 User data: scenecut=40 User data: intra_refresh=0 User data: rc_lookahead=50 User data: rc=2pass User data: mbtree=1 User data: bitrate=7424 User data: ratetol=1.0 User data: qcomp=0.60 User data: qpmin=0 User data: qpmax=69 User data: qpstep=4 User data: cplxblur=20.0 User data: qblur=0.5 User data: ip_ratio=1.40 User data: aq=1:1.40 SPS id: 0 Profile: [email protected] Num ref frames: 5 Aspect ratio: Square pixels Chroma format idc: YUV 4:2:0 PPS id: 0 (SPS: 0) Codifica entropica: CABAC Weighted prediction: P slices - explicit weighted prediction Weighted bipred idc: B slices - implicit weighted prediction 8x8dct: Sì Profile compliancy Profilo da testare: MTK PAL 6000 Risoluzione: 1440 x 1080 > 720 x 576 Framerate: 23.976024 <> 25 Rapporto generato da AVInaptic (18-11-2007) in data 23 gen 2017, h 15:54:

I cieli di Escaflowne S01e17-21 [BDmux 1080p - H264 - Ita Jap Aac]

Language: | Size: 6.35 GB | Seed: 0 | Leech: 2

Description:

I cieli di Escaflowne S01e17-21 [BDmux 1080p - H264 - Ita Jap Aac] .: Trama :. Hitomi Kanzaki è una tipica ragazza delle scuole superiori con tutti i problemi relativi ad un'adolescente della sua età. Tra le sue compagne di classe è famosa per l'abilità di prevedere il futuro con i tarocchi, capacità che le permette anche di avere visioni. Durante una di esse le appare un mondo alieno nel cui cielo si stagliano la Luna e la Terra. In un modo a lei sconosciuto e incomprensibile, Hitomi arriverà nel mondo sconosciuto di Gaia con un giovane spadaccino, Van. In questo mondo vi sono diversi Paesi in guerra fra loro, con una tecnologia piuttosto diversa da quella presente sulla Terra... .: Scheda :. Titolo originale: The Vision of Escaflowne (天空のエスカフローネ Tenkū no Esukafurōne) Anno: Giappone 2 aprile – 24 agosto 1996 / Italia 26 dicembre 2000 – 19 giugno 2001 Genere: Avventura, Fantasy, Romantico, Mecha Studio: Sunrise Distribuzione: Giappone TV Tokyo (1996), Animax, BS11 / Italia Dynit, MTV Italia, AXN (Animax, 2008), Ka-Boom Numero episodi: 26 (completa) Durata approssimativa: 25 minuti .: Dati tecnici del file :. Info sul file Nome: I cieli di Escaflowne S01e17 - La fine di questo mondo - [Mux By MPT].mkv Data: 16/01/2017 15:46:24 Dimensione: 1,372,701,854 bytes (1309.111 MB) Info generiche Durata: 00:23:09 (1388.586 s) Tipo di contenitore: matroska Data creazione: 16/01/2017 14:45:25 UTC Streams totali: 4 Tipo stream n. 1: video (V_MPEG4/ISO/AVC) Tipo stream n. 2: audio (A_AAC (AAC Low complexity)) {Italiano} Tipo stream n. 3: audio (A_AAC (AAC Low complexity)) {Giapponese} Tipo stream n. 4: subtitle (S_TEXT/ASS) {Cartelli} Audio streams: 2 Muxing Application: libebml v1.3.4 + libmatroska v1.4.5 Writing Application: mkvmerge v9.6.0 ('Slave To Your Mind') 64bit Dati rilevanti Risoluzione: 1440 x 1080 Larghezza: multipla di 32 Altezza: multipla di 8 Traccia video Codec ID: V_MPEG4/ISO/AVC Risoluzione: 1440 x 1080 Frame aspect ratio: 4:3 = 1.333333 Pixel aspect ratio: 1:1 = 1 Display aspect ratio: 4:3 = 1.333333 Framerate: 23.976024 fps Traccia audio n. 1 Codec ID: A_AAC (AAC Low complexity) Canali (contenitore): 2 Frequenza: 48000 Hz Traccia audio n. 2 Codec ID: A_AAC (AAC Low complexity) Canali (contenitore): 2 Frequenza: 48000 Hz Info sulla codifica H.264 User data: x264 User data: core 120 r2120bm 0c7dab9 User data: H.264/MPEG-4 AVC codec User data: Copyleft 2003-2011 User data: http://www.videolan.org/x264.html User data: cabac=1 User data: ref=5 User data: deblock=1:1:1 User data: analyse=0x3:0x133 User data: me=umh User data: subme=9 User data: psy=1 User data: psy_rd=0.80:0.20 User data: mixed_ref=1 User data: me_range=24 User data: chroma_me=1 User data: trellis=1 User data: 8x8dct=1 User data: cqm=0 User data: deadzone=21,11 User data: fast_pskip=0 User data: chroma_qp_offset=-3 User data: threads=6 User data: sliced_threads=0 User data: nr=0 User data: decimate=1 User data: interlaced=0 User data: bluray_compat=0 User data: constrained_intra=0 User data: bframes=5 User data: b_pyramid=2 User data: b_adapt=2 User data: b_bias=0 User data: direct=3 User data: weightb=1 User data: open_gop=0 User data: weightp=2 User data: keyint=250 User data: keyint_min=23 User data: scenecut=40 User data: intra_refresh=0 User data: rc_lookahead=50 User data: rc=2pass User data: mbtree=1 User data: bitrate=7451 User data: ratetol=1.0 User data: qcomp=0.60 User data: qpmin=0 User data: qpmax=69 User data: qpstep=4 User data: cplxblur=20.0 User data: qblur=0.5 User data: ip_ratio=1.40 User data: aq=1:1.40 SPS id: 0 Profile: [email protected] Num ref frames: 5 Aspect ratio: Square pixels Chroma format idc: YUV 4:2:0 PPS id: 0 (SPS: 0) Codifica entropica: CABAC Weighted prediction: P slices - explicit weighted prediction Weighted bipred idc: B slices - implicit weighted prediction 8x8dct: Sì Profile compliancy Profilo da testare: MTK PAL 6000 Risoluzione: 1440 x 1080 > 720 x 576 Framerate: 23.976024 <> 25 Rapporto generato da AVInaptic (18-11-2007) in data 23 gen 2017, h 15:52:52

I cieli di Escaflowne S01e12-16 [BDmux 1080p - H264 - Ita Jap Aac]

Language: | Size: 6.33 GB | Seed: 11 | Leech: 29

Description:

I cieli di Escaflowne S01e12-16 [BDmux 1080p - H264 - Ita Jap Aac] .: Trama :. Hitomi Kanzaki è una tipica ragazza delle scuole superiori con tutti i problemi relativi ad un'adolescente della sua età. Tra le sue compagne di classe è famosa per l'abilità di prevedere il futuro con i tarocchi, capacità che le permette anche di avere visioni. Durante una di esse le appare un mondo alieno nel cui cielo si stagliano la Luna e la Terra. In un modo a lei sconosciuto e incomprensibile, Hitomi arriverà nel mondo sconosciuto di Gaia con un giovane spadaccino, Van. In questo mondo vi sono diversi Paesi in guerra fra loro, con una tecnologia piuttosto diversa da quella presente sulla Terra... .: Scheda :. Titolo originale: The Vision of Escaflowne (天空のエスカフローネ Tenkū no Esukafurōne) Anno: Giappone 2 aprile – 24 agosto 1996 / Italia 26 dicembre 2000 – 19 giugno 2001 Genere: Avventura, Fantasy, Romantico, Mecha Studio: Sunrise Distribuzione: Giappone TV Tokyo (1996), Animax, BS11 / Italia Dynit, MTV Italia, AXN (Animax, 2008), Ka-Boom Numero episodi: 26 (completa) Durata approssimativa: 25 minuti .: Screenshot :. [img]http://i.imgur.com/eybWC1T.jpg[/img] .: Dati tecnici del file :. Info sul file Nome: I cieli di Escaflowne S01e12 - La porta segreta - [Mux By MPT].mkv Data: 14/01/2017 13:52:16 Dimensione: 1,355,374,291 bytes (1292.586 MB) Info generiche Durata: 00:23:08 (1388.266 s) Tipo di contenitore: matroska Data creazione: 14/01/2017 12:50:17 UTC Streams totali: 4 Tipo stream n. 1: video (V_MPEG4/ISO/AVC) Tipo stream n. 2: audio (A_AAC (AAC Low complexity)) {Italiano} Tipo stream n. 3: audio (A_AAC (AAC Low complexity)) {Giapponese} Tipo stream n. 4: subtitle (S_TEXT/ASS) {Cartelli} Audio streams: 2 Muxing Application: libebml v1.3.4 + libmatroska v1.4.5 Writing Application: mkvmerge v9.6.0 ('Slave To Your Mind') 64bit Dati rilevanti Risoluzione: 1440 x 1080 Larghezza: multipla di 32 Altezza: multipla di 8 Traccia video Codec ID: V_MPEG4/ISO/AVC Risoluzione: 1440 x 1080 Frame aspect ratio: 4:3 = 1.333333 Pixel aspect ratio: 1:1 = 1 Display aspect ratio: 4:3 = 1.333333 Framerate: 23.976024 fps Traccia audio n. 1 Codec ID: A_AAC (AAC Low complexity) Canali (contenitore): 2 Frequenza: 48000 Hz Traccia audio n. 2 Codec ID: A_AAC (AAC Low complexity) Canali (contenitore): 2 Frequenza: 48000 Hz Info sulla codifica H.264 User data: x264 User data: core 120 r2120bm 0c7dab9 User data: H.264/MPEG-4 AVC codec User data: Copyleft 2003-2011 User data: http://www.videolan.org/x264.html User data: cabac=1 User data: ref=5 User data: deblock=1:1:1 User data: analyse=0x3:0x133 User data: me=umh User data: subme=9 User data: psy=1 User data: psy_rd=0.80:0.20 User data: mixed_ref=1 User data: me_range=24 User data: chroma_me=1 User data: trellis=1 User data: 8x8dct=1 User data: cqm=0 User data: deadzone=21,11 User data: fast_pskip=0 User data: chroma_qp_offset=-3 User data: threads=6 User data: sliced_threads=0 User data: nr=0 User data: decimate=1 User data: interlaced=0 User data: bluray_compat=0 User data: constrained_intra=0 User data: bframes=5 User data: b_pyramid=2 User data: b_adapt=2 User data: b_bias=0 User data: direct=3 User data: weightb=1 User data: open_gop=0 User data: weightp=2 User data: keyint=250 User data: keyint_min=23 User data: scenecut=40 User data: intra_refresh=0 User data: rc_lookahead=50 User data: rc=2pass User data: mbtree=1 User data: bitrate=7401 User data: ratetol=1.0 User data: qcomp=0.60 User data: qpmin=0 User data: qpmax=69 User data: qpstep=4 User data: cplxblur=20.0 User data: qblur=0.5 User data: ip_ratio=1.40 User data: aq=1:1.40 SPS id: 0 Profile: [email protected] Num ref frames: 5 Aspect ratio: Square pixels Chroma format idc: YUV 4:2:0 PPS id: 0 (SPS: 0) Codifica entropica: CABAC Weighted prediction: P slices - explicit weighted prediction Weighted bipred idc: B slices - implicit weighted prediction 8x8dct: Sì Profile compliancy Profilo da testare: MTK PAL 6000 Risoluzione: 1440 x 1080 > 720 x 576 Framerate: 23.976024 <> 25 Rapporto generato da AVInaptic (18-11-2007) in data 19 gen 2017, h 12:55:56

I cieli di Escaflowne S01e07-11 [BDmux 1080p - H264 - Ita Jap Aac]

Language: | Size: 6.32 GB | Seed: 13 | Leech: 29

Description:

I cieli di Escaflowne S01e07-11 [BDmux 1080p - H264 - Ita Jap Aac] .: Trama :. Hitomi Kanzaki è una tipica ragazza delle scuole superiori con tutti i problemi relativi ad un'adolescente della sua età. Tra le sue compagne di classe è famosa per l'abilità di prevedere il futuro con i tarocchi, capacità che le permette anche di avere visioni. Durante una di esse le appare un mondo alieno nel cui cielo si stagliano la Luna e la Terra. In un modo a lei sconosciuto e incomprensibile, Hitomi arriverà nel mondo sconosciuto di Gaia con un giovane spadaccino, Van. In questo mondo vi sono diversi Paesi in guerra fra loro, con una tecnologia piuttosto diversa da quella presente sulla Terra... .: Scheda :. Titolo originale: The Vision of Escaflowne (天空のエスカフローネ Tenkū no Esukafurōne) Anno: Giappone 2 aprile – 24 agosto 1996 / Italia 26 dicembre 2000 – 19 giugno 2001 Genere: Avventura, Fantasy, Romantico, Mecha Studio: Sunrise Distribuzione: Giappone TV Tokyo (1996), Animax, BS11 / Italia Dynit, MTV Italia, AXN (Animax, 2008), Ka-Boom Numero episodi: 26 (completa) Durata approssimativa: 25 minuti .: Screenshot :. [img]http://i.imgur.com/X3v6gNI.jpg[/img] .: Dati tecnici del file :. Info sul file Nome: I cieli di Escaflowne S01e07 - Un addio inaspettato - [Mux By MPT].mkv Data: 12/01/2017 20:10:00 Dimensione: 1,352,855,260 bytes (1290.183 MB) Info generiche Durata: 00:24:48 (1487.872 s) Tipo di contenitore: matroska Data creazione: 12/01/2017 19:08:11 UTC Streams totali: 4 Tipo stream n. 1: video (V_MPEG4/ISO/AVC) Tipo stream n. 2: audio (A_AAC (AAC Low complexity)) {Italiano} Tipo stream n. 3: audio (A_AAC (AAC Low complexity)) {Giapponese} Tipo stream n. 4: subtitle (S_TEXT/ASS) {Cartelli} Audio streams: 2 Muxing Application: libebml v1.3.4 + libmatroska v1.4.5 Writing Application: mkvmerge v9.6.0 ('Slave To Your Mind') 64bit Dati rilevanti Risoluzione: 1440 x 1080 Larghezza: multipla di 32 Altezza: multipla di 8 Traccia video Codec ID: V_MPEG4/ISO/AVC Risoluzione: 1440 x 1080 Frame aspect ratio: 4:3 = 1.333333 Pixel aspect ratio: 1:1 = 1 Display aspect ratio: 4:3 = 1.333333 Framerate: 23.976024 fps Traccia audio n. 1 Codec ID: A_AAC (AAC Low complexity) Canali (contenitore): 2 Frequenza: 48000 Hz Traccia audio n. 2 Codec ID: A_AAC (AAC Low complexity) Canali (contenitore): 2 Frequenza: 48000 Hz Info sulla codifica H.264 User data: x264 User data: core 120 r2120bm 0c7dab9 User data: H.264/MPEG-4 AVC codec User data: Copyleft 2003-2011 User data: http://www.videolan.org/x264.html User data: cabac=1 User data: ref=5 User data: deblock=1:1:1 User data: analyse=0x3:0x133 User data: me=umh User data: subme=9 User data: psy=1 User data: psy_rd=0.80:0.20 User data: mixed_ref=1 User data: me_range=24 User data: chroma_me=1 User data: trellis=1 User data: 8x8dct=1 User data: cqm=0 User data: deadzone=21,11 User data: fast_pskip=0 User data: chroma_qp_offset=-3 User data: threads=6 User data: sliced_threads=0 User data: nr=0 User data: decimate=1 User data: interlaced=0 User data: bluray_compat=0 User data: constrained_intra=0 User data: bframes=5 User data: b_pyramid=2 User data: b_adapt=2 User data: b_bias=0 User data: direct=3 User data: weightb=1 User data: open_gop=0 User data: weightp=2 User data: keyint=250 User data: keyint_min=23 User data: scenecut=40 User data: intra_refresh=0 User data: rc_lookahead=50 User data: rc=2pass User data: mbtree=1 User data: bitrate=6851 User data: ratetol=1.0 User data: qcomp=0.60 User data: qpmin=0 User data: qpmax=69 User data: qpstep=4 User data: cplxblur=20.0 User data: qblur=0.5 User data: ip_ratio=1.40 User data: aq=1:1.40 SPS id: 0 Profile: [email protected] Num ref frames: 5 Aspect ratio: Square pixels Chroma format idc: YUV 4:2:0 PPS id: 0 (SPS: 0) Codifica entropica: CABAC Weighted prediction: P slices - explicit weighted prediction Weighted bipred idc: B slices - implicit weighted prediction 8x8dct: Sì Profile compliancy Profilo da testare: MTK PAL 6000 Risoluzione: 1440 x 1080 > 720 x 576 Framerate: 23.976024 <> 25 Rapporto generato da AVInaptic (18-11-2007) in data 17 gen 2017, h 15:46:11

I cieli di Escaflowne S01e01-06 [BDmux 1080p - H264 - Ita Jap Aac]

Language: | Size: 7.56 GB | Seed: 17 | Leech: 14

Description:

I cieli di Escaflowne S01e01-06 [BDmux 1080p - H264 - Ita Jap Aac] .: Trama :. Hitomi Kanzaki è una tipica ragazza delle scuole superiori con tutti i problemi relativi ad un'adolescente della sua età. Tra le sue compagne di classe è famosa per l'abilità di prevedere il futuro con i tarocchi, capacità che le permette anche di avere visioni. Durante una di esse le appare un mondo alieno nel cui cielo si stagliano la Luna e la Terra. In un modo a lei sconosciuto e incomprensibile, Hitomi arriverà nel mondo sconosciuto di Gaia con un giovane spadaccino, Van. In questo mondo vi sono diversi Paesi in guerra fra loro, con una tecnologia piuttosto diversa da quella presente sulla Terra... .: Scheda :. Titolo originale: The Vision of Escaflowne (天空のエスカフローネ Tenkū no Esukafurōne) Anno: Giappone 2 aprile – 24 agosto 1996 / Italia 26 dicembre 2000 – 19 giugno 2001 Genere: Avventura, Fantasy, Romantico, Mecha Studio: Sunrise Distribuzione: Giappone TV Tokyo (1996), Animax, BS11 / Italia Dynit, MTV Italia, AXN (Animax, 2008), Ka-Boom Numero episodi: 26 (completa) Durata approssimativa: 25 minuti .: Dati tecnici del file :. Info sul file Nome: I cieli di Escaflowne S01e01 - Una dichiarazione segnata dal destino - [Mux By MPT].mkv Data: 10/01/2017 15:56:56 Dimensione: 1,355,338,162 bytes (1292.551 MB) Info generiche Durata: 00:24:51 (1491.057 s) Tipo di contenitore: matroska Data creazione: 10/01/2017 14:55:34 UTC Streams totali: 4 Tipo stream n. 1: video (V_MPEG4/ISO/AVC) Tipo stream n. 2: audio (A_AAC (AAC Low complexity)) {Italiano} Tipo stream n. 3: audio (A_AAC (AAC Low complexity)) {Giapponese} Tipo stream n. 4: subtitle (S_TEXT/ASS) {Cartelli} Audio streams: 2 Muxing Application: libebml v1.3.4 + libmatroska v1.4.5 Writing Application: mkvmerge v9.6.0 ('Slave To Your Mind') 64bit Dati rilevanti Risoluzione: 1440 x 1080 Larghezza: multipla di 32 Altezza: multipla di 8 Traccia video Codec ID: V_MPEG4/ISO/AVC Risoluzione: 1440 x 1080 Frame aspect ratio: 4:3 = 1.333333 Pixel aspect ratio: 1:1 = 1 Display aspect ratio: 4:3 = 1.333333 Framerate: 23.976024 fps Traccia audio n. 1 Codec ID: A_AAC (AAC Low complexity) Canali (contenitore): 2 Frequenza: 48000 Hz Traccia audio n. 2 Codec ID: A_AAC (AAC Low complexity) Canali (contenitore): 2 Frequenza: 48000 Hz Info sulla codifica H.264 User data: x264 User data: core 120 r2120bm 0c7dab9 User data: H.264/MPEG-4 AVC codec User data: Copyleft 2003-2011 User data: http://www.videolan.org/x264.html User data: cabac=1 User data: ref=5 User data: deblock=1:1:1 User data: analyse=0x3:0x133 User data: me=umh User data: subme=9 User data: psy=1 User data: psy_rd=0.60:0.00 User data: mixed_ref=1 User data: me_range=24 User data: chroma_me=1 User data: trellis=1 User data: 8x8dct=1 User data: cqm=0 User data: deadzone=21,11 User data: fast_pskip=0 User data: chroma_qp_offset=-2 User data: threads=6 User data: sliced_threads=0 User data: nr=0 User data: decimate=1 User data: interlaced=0 User data: bluray_compat=0 User data: constrained_intra=0 User data: bframes=5 User data: b_pyramid=2 User data: b_adapt=2 User data: b_bias=0 User data: direct=3 User data: weightb=1 User data: open_gop=0 User data: weightp=2 User data: keyint=250 User data: keyint_min=25 User data: scenecut=40 User data: intra_refresh=0 User data: rc=cqp User data: mbtree=0 User data: qp=1 User data: ip_ratio=1.40 User data: pb_ratio=1.30 User data: aq=0 SPS id: 0 Profile: [email protected] Num ref frames: 5 Aspect ratio: Square pixels Chroma format idc: YUV 4:2:0 PPS id: 0 (SPS: 0) Codifica entropica: CABAC Weighted prediction: P slices - explicit weighted prediction Weighted bipred idc: B slices - implicit weighted prediction 8x8dct: Sì Profile compliancy Profilo da testare: MTK PAL 6000 Risoluzione: 1440 x 1080 > 720 x 576 Framerate: 23.976024 <> 25 Rapporto generato da AVInaptic (18-11-2007) in data 15 gen 2017, h 12:42:48

I Capolavori Di Mogol-Battisti

Language: | Size: 279.52 MB | Seed: 34 | Leech: 23

Description:

TRACKLIST: Disco 1: 1 Un’avventura; 2 Emozioni; 3 Fiori rosa, fiori di pesco; 4 29 Settembre; 5 Non è Francesca; 6 Mi ritorni in mente; 7 Anna; 8 Pensieri e parole; 9 Il tempo di morire; 10 Acqua azzurra, acqua chiara; 11 Il vento; 12 La mia canzone per Maria; 13 La canzone del sole; 14 Io vivrò senza te; 15 Anche per te; 16 I giardini di marzo; 17 Ma è un canto brasileiro; 18 Respirando (Versione Spagnola “Respirando”) Disco 2: 1 Vendo casa; 2 Nel cuore, nell’anima; 3 Il nostro caro angelo; 4 Ancora tu; 5 Respirando; 6 Dove arriva quel cespuglio; 7 Al cinema; 8 Prendila così; 9 Perché no; 10 Aver paura d’innamorarsi troppo; 11 Con Il nastro rosa; 12 Gelosa cara; 13 La compagnia; 14 Una giornata uggiosa; 15 De nuevo tu (Versione Spagnola “Ancora tu”)

I cacciatori di tesori: Cronache della tribù fantasma (2015).H264.Italian.Chn.Ac3.5.1.sub.ita.iCV-MIRCrew

Language: | Size: 1.8 GB | Seed: 2 | Leech: 7

Description:

I cacciatori di tesori: Cronache della tribù fantasma (2015).H264.Italian.Chn.Ac3.5.1.sub.ita.iCV-MIRCrew [center] [color=red][b][img]http://s23.postimg.org/b9yhws27f/0sc_Del1.png[/img] [u]NO FOUND ONLY ORIGINAL RELEASE[/u] [img]http://i.imgur.com/GDNQx1Z.png[/img] My release is always in double track audio italian and Original audio for select it use VLC or dvd player home not use wmp I cacciatori di tesori: Cronache della tribù fantasma (2015) [img]https://extraimage.net/images/2017/03/04/868685f4f974ddfee53f7c2c969d9626.png[/img] [URL=http://www.imdb.com/title/tt4819498/][IMG]http://www.userlogos.org/files/logos/Sucka/imdb_new.png[/IMG][/URL] [img]http://i.imgur.com/fGu1rKv.png[/img] (Jiu ceng yao ta) Regia: Chan Lu Paese: Cina Anno: 2015 Produzione: Eagle Pictures, 2017 Distribuzione: Eagle Pictures Durata: 118 min [img]http://i.imgur.com/W7kBqiE.png[/img] Mark Chao, Yang Tang [img]http://i.imgur.com/bFK3ggF.png[/img] Nel 1979, sulle montagne di Kunlun al confine con la Mongolia, viene scoperta una caverna contenente gli scheletri di mostruose creature. Un gruppo di soldati viene mandato in esplorazione e rinviene alcune di queste antiche creature ancora conservate nel ghiaccio. Ma dietro la scoperta si nasconde qualcosa di ancor più incredibile: quello che sembrava un tempio pare in realtà opera di... [img]http://i.imgur.com/48xHWWH.png[/img] The Mongolian Border, 1979: Massive fossils of unknown creatures are discovered in the mountains, and the research team assigned to excavate the remains includes acclaimed Professor Yang. [img]http://i.imgur.com/K8bfNTy.png[/img] [url=https://extraimage.net/image/2Y7R][img]https://extraimage.net/images/2017/03/04/35c8ac59355f9a6e9828248303c96390.th.png[/img][/url] [url=https://extraimage.net/image/2Y7Q][img]https://extraimage.net/images/2017/03/04/c067ab71b2b162e10ba24e0a30e368b7.th.png[/img][/url] [url=https://extraimage.net/image/2Y7m][img]https://extraimage.net/images/2017/03/04/e0cb5d466f1d8b7368019bb1d1396a8c.th.png[/img][/url] [url=https://extraimage.net/image/2Y7i][img]https://extraimage.net/images/2017/03/04/b75644d7329a099a86acf083f704c623.th.png[/img][/url] [img]http://i.imgur.com/aVrMohH.png[/img] [spoiler] General Unique ID : 180120367454605352847160876989738415721 (0x8781EBC1E758E2D0B2F44998AEC07669) Complete name : I cacciatori di tesori (2015).H264.ita.chn.sub.ita.iCV-MIRCrew.mkv Format : Matroska Format version : Version 2 File size : 1.80 GiB Duration : 1h 58mn Overall bit rate : 2 180 Kbps Movie name : VISIT www.icv-crew.org Encoded date : UTC 2017-02-14 10:21:40 Writing application : Lavf54.63.100 Writing library : Lavf54.63.100 COPYRIGHT : robbyrs Video ID : 1 Format : AVC Format/Info : Advanced Video Codec Format profile : [email protected] Format settings, CABAC : Yes Format settings, ReFrames : 2 frames Codec ID : V_MPEG4/ISO/AVC Duration : 1h 58mn Bit rate : 1 280 Kbps Width : 720 pixels Height : 304 pixels Display aspect ratio : 2.40:1 Frame rate mode : Variable Frame rate : 23.976 fps Color space : YUV Chroma subsampling : 4:2:0 Bit depth : 8 bits Scan type : Progressive Bits/(Pixel*Frame) : 0.244 Stream size : 1.03 GiB (57%) Writing library : x264 core 130 r2273 Encoding settings : cabac=1 / ref=2 / deblock=1:0:0 / analyse=0x1:0x131 / me=hex / subme=7 / psy=1 / psy_rd=1.00:0.00 / mixed_ref=0 / me_range=16 / chroma_me=1 / trellis=1 / 8x8dct=0 / cqm=0 / deadzone=21,11 / fast_pskip=1 / chroma_qp_offset=-2 / threads=12 / lookahead_threads=2 / sliced_threads=0 / nr=0 / decimate=1 / interlaced=0 / bluray_compat=0 / constrained_intra=0 / bframes=3 / b_pyramid=0 / b_adapt=1 / b_bias=0 / direct=3 / weightb=1 / open_gop=0 / weightp=2 / keyint=230 / keyint_min=23 / scenecut=40 / intra_refresh=0 / rc_lookahead=40 / rc=2pass / mbtree=1 / bitrate=1280 / ratetol=1.0 / qcomp=0.60 / qpmin=10 / qpmax=69 / qpstep=4 / cplxblur=20.0 / qblur=0.5 / vbv_maxrate=24000 / vbv_bufsize=24000 / nal_hrd=none / ip_ratio=1.40 / aq=1:1.00 Language : Italian Default : Yes Forced : No DURATION : 01:58:27.517000000 NUMBER_OF_FRAMES : 170410 NUMBER_OF_BYTES : 9235635851 _STATISTICS_WRITING_APP : mkvmerge v8.7.0 ('All of the above') 64bit _STATISTICS_WRITING_DATE_UTC : 2017-02-14 10:21:40 _STATISTICS_TAGS : BPS DURATION NUMBER_OF_FRAMES NUMBER_OF_BYTES Audio #1 ID : 2 Format : AC-3 Format/Info : Audio Coding 3 Mode extension : CM (complete main) Codec ID : A_AC3 Duration : 1h 58mn Bit rate mode : Constant Bit rate : 448 Kbps Channel(s) : 6 channels Channel positions : Front: L C R, Side: L R, LFE Sampling rate : 48.0 KHz Bit depth : 16 bits Compression mode : Lossy Delay relative to video : 1mn 5s Stream size : 380 MiB (21%) Title : AC3 ITA Language : Italian Default : Yes Forced : No DURATION : 01:58:01.952000000 NUMBER_OF_FRAMES : 221311 NUMBER_OF_BYTES : 566556160 _STATISTICS_WRITING_APP : mkvmerge v8.7.0 ('All of the above') 64bit _STATISTICS_WRITING_DATE_UTC : 2017-02-14 10:21:40 _STATISTICS_TAGS : BPS DURATION NUMBER_OF_FRAMES NUMBER_OF_BYTES Audio #2 ID : 3 Format : AC-3 Format/Info : Audio Coding 3 Mode extension : CM (complete main) Codec ID : A_AC3 Duration : 1h 58mn Bit rate mode : Constant Bit rate : 448 Kbps Channel(s) : 6 channels Channel positions : Front: L C R, Side: L R, LFE Sampling rate : 48.0 KHz Bit depth : 16 bits Compression mode : Lossy Delay relative to video : 1mn 5s Stream size : 380 MiB (21%) Title : AC3 CHI Language : Chinese Default : No Forced : No DURATION : 01:58:27.584000000 NUMBER_OF_FRAMES : 222112 NUMBER_OF_BYTES : 568606720 _STATISTICS_WRITING_APP : mkvmerge v8.7.0 ('All of the above') 64bit _STATISTICS_WRITING_DATE_UTC : 2017-02-14 10:21:40 _STATISTICS_TAGS : BPS DURATION NUMBER_OF_FRAMES NUMBER_OF_BYTES Text #1 ID : 4 Format : UTF-8 Codec ID : S_TEXT/UTF8 Codec ID/Info : UTF-8 Plain Text Title : FORCED Language : Italian Default : Yes Forced : No DURATION : 00:40:29.232000000 NUMBER_OF_FRAMES : 16 NUMBER_OF_BYTES : 662 _STATISTICS_WRITING_APP : mkvmerge v8.7.0 ('All of the above') 64bit _STATISTICS_WRITING_DATE_UTC : 2017-02-14 10:21:40 _STATISTICS_TAGS : BPS DURATION NUMBER_OF_FRAMES NUMBER_OF_BYTES Text #2 ID : 5 Format : UTF-8 Codec ID : S_TEXT/UTF8 Codec ID/Info : UTF-8 Plain Text Title : REGULAR Language : Italian Default : No Forced : No DURATION : 01:48:33.225000000 NUMBER_OF_FRAMES : 1030 NUMBER_OF_BYTES : 26575 _STATISTICS_WRITING_APP : mkvmerge v8.7.0 ('All of the above') 64bit _STATISTICS_WRITING_DATE_UTC : 2017-02-14 10:21:40 _STATISTICS_TAGS : BPS DURATION NUMBER_OF_FRAMES NUMBER_OF_BYTES Menu 00:00:00.000 : :00:00:00.000 00:08:28.967 : :00:08:28.967 00:17:16.869 : :00:17:16.869 00:26:41.350 : :00:26:41.350 00:37:16.985 : :00:37:16.985 00:47:42.777 : :00:47:42.777 00:57:22.439 : :00:57:22.439 01:07:31.214 : :01:07:31.214 01:17:20.219 : :01:17:20.219 01:27:38.920 : :01:27:38.920 01:37:38.019 : :01:37:38.019 01:50:59.695 : :01:50:59.695 [/spoiler] [/color][/b][/center]

I Am Wrath 2016 720p WEB-DL DD5 1 H264-FGT

Language: | Size: 2.85 GB | Seed: 12 | Leech: 1

Description:

Movie: I Am Wrath Detected quality: HDRiP IMDb link: 3212232 Watch on Solarmovie: I Am Wrath Genres: Action, Drama, Thriller, Crime add I Am Wrath to bookmarks Release date: 15 April 2016 Writers: Yvan Gauthier (story), Paul Sloan Director: Chuck Russell Language: English Cast: John Travolta, Rebecca De Mornay, Christopher Meloni, Amanda Schull and others Summary: A man is out for justice after a group of corrupt police officers are unable to catch his wife's killer.

I Am Wrath (2016) 1080p BDRip [2016, Action, Crime, Drama Blu-Ray Disc] EN

Language: | Size: 3.25 GB | Seed: 583 | Leech: 68

Description:

Title: I Am Wrath (2016) 1080p BDRip Country: USA Region: Hollywood movies Genre: Action, Crime, Drama Duration: 01:30:00 Year: 2016 Language: EN Subtitle: English Director: Chuck Russell Cast: John Travolta, Amanda Schull, Rebecca De Mornay Description: A man is out for justice after a group of corrupt police officers are unable to catch his wife's killer. Rating: Quality: Blu-Ray Disc Format: MKV Video codec: 4500 Kbps, 1920*800 (2.40:1), 23.976 fps, x264 Audio codec: 640 Kbps, 48.0 KHz, 6 Channels, AC3

I Am Wrath (2016) .mkv FullHD m1080p iTA AC3 2.0 192 x264 Sub

Language: | Size: 1.85 GB | Seed: 282 | Leech: 61

Description:

I Am Wrath USA 2016 Genere: Azione Durata 92' Regia di Chuck Russell Con John Travolta, Amanda Schull, Rebecca De Mornay, Christopher Meloni, Sam Trammell, David Hutchison, Patrick St. Esprit, Luis Da Silva Jr.... Trama Ingegnere disoccupato, Stanley Hill assiste all'omicidio della moglie Vivian in un parcheggio. Devastato dal senso di colpa, Stanley è ossessionato dall'immagine di Vivian che muore tra le sue braccia e, quando il detective Gibson e gli altri poliziotti corrotti si mostrano incapaci e disinteressati a garantirgli giustizia, si rivolge al vecchio amico Dennis, decidendo di prendere la situazione in mano. Ciò porta rapidamente alla luce il passato nascosto che i due amici condividono, rivelandosi molto più pericolosi di quanto si immaginasse. Subs iTA: Forced/Full

I am Weapon Revival [2016, Action (Shooters, MMO FPS, TPS), Strategy (RTS)] EN

Language: | Size: 2.8 GB | Seed: 468 | Leech: 56

Description:

tle: I am Weapon Revival Genre: Action (Shooters, MMO FPS, TPS), Strategy (RTS) Platform: Windows Multiplayer: No Year: 2016 Type of publication: Language of the game: EN Crack: Description : Have you ever faced your worst nightmare? What if you have no choice but to move on and see what's behind it? Then you'd better arm yourself with a couple of big guns, stock up on ammo and show them all what a real nightmare is INSTALL NOTES 1 Unpack 2 Mount / burn image 3 Install 4 Copy content from 'Crack' folder and replace game dir files 5 Play game 6 If U like it, buy it System requirements:

I am Setsuna [2016, ] EN

Language: | Size: 1.29 GB | Seed: 111 | Leech: 69

Description:

tle: I am Setsuna Genre: Platform: Windows Multiplayer: No Year: 2016 Type of publication: Language of the game: EN Crack: Not Required Description : The I am Setsuna Collectors Edition includes the full game and the beautiful 27 melody original soundtrack Winters End by composer Tomoki Miyoshi. This is the story of Setsuna; a young woman of incredible inner strength and the sacrifice she must make to save the people of her land. The Island had a custom. To maintain peace, once a decade, a sacrifice was offered to a fiend on the island. - Extract - Burn or mount the .iso - Run setup.exe and install - Copy crack from CODEX dir to installdir - Play System requirements:

I Am Kawehi 2015 Evolution

Language: | Size: 56.75 MB | Seed: 0 | Leech: 1

Description:

Track List: Corporation Disco Party Battlefield Interwebz 2.0 Youtube Troll Evolution Farewell

I Am Ali (2014).H264.Italian.English.Ac3.5.1.iCV-MIRCrew

Language: | Size: 1.59 GB | Seed: 3 | Leech: 70

Description:

I Am Ali (2014).H264.Italian.English.Ac3.5.1.iCV-MIRCrew [center] [color=red][b][img]http://s23.postimg.org/b9yhws27f/0sc_Del1.png[/img] [u]NO FOUND ONLY ORIGINAL RELEASE[/u] [img]http://i.imgur.com/GDNQx1Z.png[/img] My release is always in double track audio italian and Original audio for select it use VLC or dvd player home not use wmp I Am Ali (2014) [img]https://extraimage.net/images/2017/02/08/f86d499ca85f79e2c9f1c7ff2a353170.png[/img] [URL=http://www.imdb.com/title/tt4008652/][IMG]http://www.userlogos.org/files/logos/Sucka/imdb_new.png[/IMG][/URL] [img]http://i.imgur.com/fGu1rKv.png[/img] Titolo originale: I Am Ali Nazione,Anno: Gran Bretagna, USA 2014. Regia: Clare Lewins Genere: Film sportivo/Film biografico Durata: 01:51:32 [img]http://i.imgur.com/W7kBqiE.png[/img] Mike Tyson Tom Jones George Foreman Jim Brown [img]http://i.imgur.com/bFK3ggF.png[/img] Un accesso senza precedenti all'archivio personale dei 'giornali audio' di Muhammad Ali, così come le interviste e le testimonianze dalla sua cerchia di familiari e amici che vengono utilizzati per raccontare la leggenda della sua vita. [img]http://i.imgur.com/48xHWWH.png[/img] Unprecedented access to Muhammad Ali's personal archive of "audio journals" as well as interviews and testimonials from his inner circle of family and friends are used to tell the legend's life story. [img]http://i.imgur.com/K8bfNTy.png[/img] [img]https://extraimage.net/images/2017/02/08/a99859f150a0bc6b27d5ab4e07bb0fc9.png[/img] [img]https://extraimage.net/images/2017/02/08/462177dec27497ee0aa2b7999fda72d9.png[/img] [img]http://i.imgur.com/aVrMohH.png[/img] [spoiler] General Unique ID : 249502410422860798426526393055200217636 (0xBBB46A9574BEE9752D50ED782A990A24) Complete name : I Am Ali (2014).ita.eng.iCV-MIRCrew.mkv Format : Matroska Format version : Version 2 File size : 1.59 GiB Duration : 1h 51mn Overall bit rate : 2 043 Kbps Encoded date : UTC 2017-01-25T16:34:10Z Writing application : HandBrake 0.10.5 2016021100 Writing library : Lavf55.12.0 Video ID : 1 Format : AVC Format/Info : Advanced Video Codec Format profile : [email protected] Format settings, CABAC : Yes Format settings, ReFrames : 4 frames Codec ID : V_MPEG4/ISO/AVC Duration : 1h 51mn Bit rate : 1 280 Kbps Width : 688 pixels Height : 398 pixels Display aspect ratio : 16:9 Original display aspect ratio : 16:9 Frame rate mode : Variable Frame rate : 23.976 fps Color space : YUV Chroma subsampling : 4:2:0 Bit depth : 8 bits Scan type : Progressive Bits/(Pixel*Frame) : 0.195 Stream size : 985 MiB (60%) Writing library : x264 core 142 r2479 dd79a61 Encoding settings : cabac=1 / ref=1 / deblock=1:0:0 / analyse=0x1:0x111 / me=hex / subme=2 / psy=1 / psy_rd=1.00:0.00 / mixed_ref=0 / me_range=16 / chroma_me=1 / trellis=0 / 8x8dct=0 / cqm=0 / deadzone=21,11 / fast_pskip=1 / chroma_qp_offset=0 / threads=12 / lookahead_threads=3 / sliced_threads=0 / nr=0 / decimate=1 / interlaced=0 / bluray_compat=0 / constrained_intra=0 / bframes=3 / b_pyramid=2 / b_adapt=1 / b_bias=0 / direct=1 / weightb=1 / open_gop=0 / weightp=1 / keyint=240 / keyint_min=24 / scenecut=40 / intra_refresh=0 / rc_lookahead=10 / rc=abr / mbtree=1 / bitrate=1280 / ratetol=1.0 / qcomp=0.60 / qpmin=0 / qpmax=69 / qpstep=4 / vbv_maxrate=20000 / vbv_bufsize=25000 / nal_hrd=none / filler=0 / ip_ratio=1.40 / aq=1:1.00 Default : Yes Forced : No Color primaries : BT.709-5, BT.1361, IEC 61966-2-4, SMPTE RP177 Transfer characteristics : BT.709-5, BT.1361 Matrix coefficients : BT.709-5, BT.1361, IEC 61966-2-4 709, SMPTE RP177 Audio #1 ID : 2 Format : AC-3 Format/Info : Audio Coding 3 Mode extension : CM (complete main) Codec ID : A_AC3 Duration : 1h 51mn Bit rate mode : Constant Bit rate : 384 Kbps Channel(s) : 6 channels Channel positions : Front: L C R, Side: L R, LFE Sampling rate : 48.0 KHz Bit depth : 16 bits Compression mode : Lossy Delay relative to video : 1mn 5s Stream size : 306 MiB (19%) Title : Surround Language : Italian Default : Yes Forced : No Audio #2 ID : 3 Format : AC-3 Format/Info : Audio Coding 3 Mode extension : CM (complete main) Codec ID : A_AC3 Duration : 1h 51mn Bit rate mode : Constant Bit rate : 384 Kbps Channel(s) : 6 channels Channel positions : Front: L C R, Side: L R, LFE Sampling rate : 48.0 KHz Bit depth : 16 bits Compression mode : Lossy Delay relative to video : 1mn 5s Stream size : 306 MiB (19%) Title : Surround Language : English Default : No Forced : No [/spoiler] [/color][/b][/center]

Hyperdimension Neptunia Re Birth2-CODEX [2015, Role-playing (RPG)] EN

Language: | Size: 6.99 GB | Seed: 926 | Leech: 8

Description:

Hyperdimension Neptunia Re Birth2-CODEX Genre: Role-playing (RPG) Platform: Windows Multiplayer: No Year: 2015 Type of publication: Language of the game: EN Crack: Available Description : Key Features Gamindustri in 1080! Experience all the humor, turn based battle, and crazy HDD transformations of Re;Birth2 with the sheen of 1080p excellence! Four or More for War! Have up to 4 characters on the battlefield, and 4 more on the sidelines, ready to jump in and give their support! Stella goes Rogue! Send Stella out to brave Gamindustris dungeons in this realtime mini-game and shell collect all kinds of treasure for you you just sit back and eat pudding! For more infos go to: http://store.steampowered.com/app/351710/ Extract Burn or mount the .iso Run setup.exe and install Copy crack from CODEX dir to installdir Play System requirements: Size: 6.99 GB