Search Top Tags














Zemana AntiMalware Premium 2.50.2.83 Multilingual + Crack

Language: | Size: 19.1 MB | Seed: 0 | Leech: 0

Description:

Zemana AntiMalware is a second opinion cloud-based multi-engine malware scanner designed to rescue your computer from malware that have infected your computer despite all the security measures you have taken. Fast, efficient scanning and malware removal Zemana AntiMalware rescues your computer even when other security software has let you down. There’s no need to tinker with confusing settings—with years of experience built-in, it just works “out of the box”. All you have to do is download and run AntiMalware… then sit back for about few minutes while it scans your machine and eliminates all potential threats. AntiMalware is highly optimized and lightweight with virus definitions stored in the cloud, not cluttering up your drive. Dramatically improve your security AntiMalware bypasses malware infections to perform a thorough scan, and cleans even the most advanced threats like rootkit and bootkits. AntiMalware uses the Scan Cloud, a highly-optimized cluster of computers running 10 always-up-to-date Antivirus Engines. This gives you the power of multi-scanning without any of the downsides such as drain on system resources and conflicts between programs. How it works Once you’ve downloaded Zemana AntiMalware, you can start a scan. Zemana AntiMalware does not store virus definitions on your PC. Instead, when our software finds a suspicious file, it passes the fingerprint to the Scan Cloud where 10 different anti-virus engines perform checks. Milliseconds later, the Scan Cloud marks the file as safe or malicious, or else asks AntiMalware to upload it for further examination. Zemana AntiMalware rapidly sets about removing any confirmed malicious software. Why cloud-based multi-engine scanning? Currently, at least 300K malware threats are detected daily. Not all engines can detect all threats, so one antivirus engine is no longer enough. Only multi-engine scanning technology can ensure no threat goes undetected. That’s why we use 10 different antivirus engines. The best place for these engines is on the cloud, rather than interfering with each other and using up your system resources—hence our Scan Cloud. Cloud-based multi-engine scanning provides many benefits including: Reduced detection time for new virus outbreaks. Increased zero hour detection rates for all types of malware. Rapid simultaneous scanning by multiple engines without conflicts or system resource issues. Scan Cloud Scan Cloud is highly-optimized cluster of Virtual Machines running on Microsoft Azure platform and uses 5 best AV engines from “Metascan 16” plus our in-house developed engine. Zemana Anti-Malware Benefits: Removes unwanted apps, annoying toolbars or browser add-ons. Finds and removes even deeply embedded advanced threats like rootkits and bootkits. Multi-AV engine scanning. Scans thousands of files per second. Compatible with other antivirus solutions. In-house algorithms for zero false positives. Doesn't slow down your PC.

ZD Soft Screen Recorder v10.0 Final + Keygen

Language: | Size: 6.48 MB | Seed: 0 | Leech: 0

Description:

============= :: Name Of the App :: ============= ZD Soft Screen Recorder ============= :: Description :: ============= ZD Soft Screen Recorder is a high-performance and easy-to-use screen recording software program for Windows. It captures screen activities and sound, and saves as video files. You can use it to create tutorial videos, make demo videos convert presentations to videos, capture streaming videos record PC gameplays and so on. It’s a lightweight, fast and reliable software tool you would love in seconds. ============= :: Screenshot :: ============= https://i0.wp.com/fullstuff.co/wp-content/uploads/2016/06/zdsoft10.0.png

WPS Office 2016 Premium v10.1.0.5785 Multilingual Incl Patch

Language: | Size: 17.47 MB | Seed: 0 | Leech: 0

Description:

WPS Office 2016 (formerly Kingsoft Office) is the powefull office suite, which can open almost any file type fully compatible with Microsoft Office and save your documents as a PDF. WPS Office includes three state-of-the-art office programs: Word text processor, Presentation creator and Spreadsheet program for data processing and data analysis. It allows you to create…

Wondershare AllMyTube v4.9.2.10 Final + Serial Key

Language: | Size: 34.85 MB | Seed: 0 | Leech: 0

Description:

============= :: Name Of the App :: ============= Wondershare AllMyTube v4.9.2.10 ============= :: Description :: ============= Wondershare AllMyTube is a fast and easy YouTube downloader and YouTube converter to help you download any videos you desired from 100+ video sharing sites and put them to portable devices for watching. With a single click, you can download any videos playing on IE, Firefox or Chrome. Worry about the video compatiblity with portable devices? Why bother? Wondershare AllMyTube converts and optimizes downloaded videos for almost all kinds of portable devices. ============= :: Screenshot :: ============= https://i2.wp.com/fullstuff.co/wp-content/uploads/2016/10/wondershareallmytube.jpg

WinToHDD 2.1 Enterprise Multilanguage

Language: | Size: 11.64 MB | Seed: 0 | Leech: 0

Description:

WinToHDD is a handy and useful Windows software that allows you to install or reinstall Windows without using a CD/DVD or USB drive. With this All-in-One Windows Setup software, you can easily reinstall Windows, install Windows onto disks other than the one where your Windows operating system is installed, or clone current Windows OS installation (Windows vista or later) to other disk. Tips: Install and run Windows operating system on a USB drive, or clone your current Windows OS installation to a USB drive as a portable Windows, please try WinToUSB. Change Log: WinToHDD Enterprise v2.1 - System cloning improvements - Windows PE creation improvements - Russian language support - Update Korean translation - Fix other minor bugs System requirements: - Windows XP or later (32/64-bit). - Intel® Pentium® processor. - 512MB of available RAM (1G or more recommended). - 500MB of free space on your hard drive. - 1024x768 graphic device (higher resolution recommended). https://i2.wp.com/www.4realtorrentz.com/wp-content/uploads/2016/02/4realtorrentz.com-2016-02-04-21-20-29-360.jpg Instructions: 1. Unpack and install 2. Copy and replace crack to installation directory 3. Done.

Winjay moviejaySX Automation v2.2.5 Final + Crack

Language: | Size: 119.79 MB | Seed: 0 | Leech: 0

Description:

============= :: Name Of the App :: ============= Winjay moviejaySX Automation v2.2.5 Final ============= :: Description :: ============= moviejaySX automation – Schedule and play “any format” video clips up to 4K, add overlay graphics, integrate external feeds, stream your contents out to the world in a few mouse click with an incredible ease of use never seen before.moviejaySX brings the broadcast-grade TV playout within the budget of small local channels, web TV, education centers, as well as cost-effective solution to multi-channel satellite uplink providers. True multiformat SD/HD playout, integrated playlist scheduler, multilayer CG, h264 & h265 streaming/IP output. CG Editor and µMAM (micro MAM) features, to always get broadcast-grade results without any compromise. ============= :: Screenshot :: ============= https://i0.wp.com/fullstuff.co/wp-content/uploads/2016/10/moviejaysx.jpg

uTorrent Pro 3.4.9 Build 42606 Stable + Portable

Language: | Size: 67.79 MB | Seed: 0 | Leech: 0

Description:

uTorrent is an efficient BitTorrent client for Windows. Most of the features present in other BitTorrent clients are present in uTorrent, including bandwidth prioritization, scheduling, RSS auto-downloading, and Mainline DHT. Additionally, uTorrent supports the protocol encryption joint specification and peer exchange. Unlike many torrent clients, it does not hog valuable system resources–typically using less than 6MB of memory, allowing you to use the computer as if it weren’t there at all. µTorrent PRO features: - Stream Instantly Watch or preview torrents as they download, without waiting for the completed file. - Convert, download and play in many formats µTorrent Pro includes an HD media player or convert to play on any mobile device. - Premium New Features µTorrent Pro is always adding new features. Enjoy them at no extra cost. - Anti-Virus Protection Keep your PC safe by automatically scanning downloads for viruses and malware. - Early Access Gain access to updates and cutting-edge features before anyone else. - No Ads As a Pro user and a supporter of µTorrent, you can enjoy an ad-free experience. More Features of µTorrent PRO: - Multiple simultaneous downloads - Configurable bandwidth scheduler - Global and per-torrent speed limiting - Quick-resumes interrupted transfers - RSS Downloader - Trackerless support (Mainline DHT) http://i1.wp.com/extraimago.com/images/2016/10/01/2c7f0192f1d574338ae8948e15c49d67.jpg Instructions: 1. Unpack and install 2. Copy and replace contents of pro folder to installation directory 3. Done.

Telestream Wirecast Pro 7.1.0 Multilingual (x64) + Crack

Language: | Size: 129.93 MB | Seed: 0 | Leech: 0

Description:

Telestream Wirecast Pro 7.1.0 Multilingual (x64) Everything you need to stream live video from your desktop to the world! Wirecast lets you capture an unlimited number of input devices from live camera feeds, iOS cameras (coming soon), computer desktop, Web feeds, and more. Then add polish and professionalism to your broadcast with live switching, transitions, titles, lower thirds, and more. You Can Use Telestream Wirecast Pro For: – Capture your content. – Produce your show. – Stream it live. – Live Events / Entertainment – News / Sports – Education – Houses of Worship What’s New in Wirecast Pro 7: – Faster…

StartIsBack++ v1.3.4 Final Pre-Cracked

Language: | Size: 1.27 MB | Seed: 0 | Leech: 0

Description:

============= :: Name Of the App :: ============= StartIsBack++ v1.3.4 Final ============= :: Description :: ============= StartIsBack is fully native lightweight zero-privileges program, cheap and fair, fast, stable and secure. Boot to desktop; Original fully-featured Windows start menu; Desktop and Modern interfaces clearly separated; Make Start screen clutter-free; Totally native; Rich customization and configuration; And More to come! ============= :: Screenshot :: ============= https://i1.wp.com/fullstuff.co/wp-content/uploads/2016/10/startisbackcracked.jpg

Mine.2016.iTALiAN.AC3.BRRip.XviD-T4P3

Language: | Size: 1.46 GB | Seed: 264 | Leech: 576

Description:

Mine Titolo originale: Mine Conosciuto anche come: Nazione: U.S.A., Italia, Spagna Anno: 2016 Genere: Thriller Durata: 106' Regia: Fabio Guaglione, Fabio Resinaro Cast: Armie Hammer, Annabelle Wallis, Tom Cullen, Juliet Aubrey, Geoff Bell, Clint Dyer Produzione: The Safran Company, Roxbury, MiBAC Distribuzione: Eagle Pictures Data di uscita: 06 Ottobre 2016 (cinema) Trama: Afghanistan: un soldato sta tornando al campo base dopo una missione, ma inavvertitamente poggia il piede su una mina antiuomo. Non può più muoversi, altrimenti salterà in aria. In attesa di soccorsi per due giorni e due notti, dovrà sopravvivere non solo ai pericoli del deserto ma anche alla terribile pressione psicologica della tutt'altro che semplice situazione.

Scuola Di Mostri (1987) (by emi) ITA - ENG mkv 720p

Language: | Size: 1.78 GB | Seed: 11 | Leech: 2

Description:

Scuola Di Mostri GENERE: Fantasy ANNO: 1987 REGIA: Fred Dekker ATTORI: Leonardo Cimino, Andre' Cower, Jonathan Gries, Robby Kicer, Stephen Macht, Duncan Regehr, Mary Ellen Trainor SCENEGGIATURA: Fred Dekker, Shane Black FOTOGRAFIA: Bradford May MONTAGGIO: James Mitchell MUSICHE: Bruce Broughton PRODUZIONE: TAFT ENTERTEINNMENT PICTURES KEITH BARISH PRODUCT. DISTRIBUZIONE: COLUMBIA TRI STAR FILMS ITALIA (1989) - PANARECORD PAESE: USA DURATA: 84 Min FORMATO: SCOPE A COLORI Trama: Alcuni ragazzi americani, Sean, Horace, Del, Patrick e Hugh, tutti fanatici di storie horror, hanno formato una "squadra antimostro" proprio quando nella loro cittadina si radunano mostri importanti: il conte Dracula, l'Uomo lupo, la Mummia, il mostro di Frankenstein e quello della Laguna nera, che vogliono impadronirsi di un antico e potente amuleto, nascosto in quella località molti anni prima. Sean, il capo della squadra, ha ricevuto in dono dalla madre un antico libro scritto in tedesco, in cui è riprodotto il famoso amuleto e, fattosi tradurre il testo da un anziano signore tedesco. I ragazzi apprendono che vi è scritta una formula magica, la quale, se pronunciata da una vergine, è capace di distruggere qualunque creatura del Male. Intanto Ely, la deliziosa sorellina di Sean, ha fatto amicizia col mostro di Frankenstein, che, commosso dalla dolcezza della bambina, diventa perciò un prezioso alleato dei ragazzi. Mentre la polizia locale, il cui capo è il padre di Sean, tenta invano di fronteggiare una pericolosa situazione, che non riesce a comprendere, i ragazzi, che hanno conquistato il famoso talismano, si battono coraggiosamente contro le creature diaboliche, che vogliono impossessarsene. Nel momento decisivo, la piccola Ely, con l'aiuto del tedesco, e sempre sotto la vigile protezione del mostro di Frankenstein, recita la formula magica e i nemici vengono sconfitti: Dracula è infilzato col paletto, e l'Uomo lupo è ucciso con una palla d'argento, come prescrivono le regole. Poi le creature del Male sono miracolosamente risucchiate da un enorme turbine, che le trasporta lontano per sempre. Liberata dall'incubo la città, la "squadra antimostro" può godersi il meritato trionfo. Generale ID univoaco : 192661075514039005955139089046301544068 (0x90F12C66E4CBE7FA9983DCBF0F1F8E84) Nome completo : C:\Desktop\Scuola Di Mostri (1987) (by emi) ITA - ENG mkv 720p.mkv Formato : Matroska Versione formato : Version 2 Dimensione : 1,78 GiB Durata : 1 o 22 min Bitrate totale : 3.098 kb/s Film : Scuola.Di.Mostri.1987.720p Data codifica : UTC 2017-01-29 17:42:28 Creato con : DVDFab 9.3.0.5 Compressore : libebml v0.7.8 + libmatroska v0.8.1 Video ID : 1 Formato : AVC Formato/Informazioni : Advanced Video Codec Profilo formato : [email protected] Impostazioni formato, CABAC : Si Impostazioni formato, ReFrames : 2 frame ID codec : V_MPEG4/ISO/AVC Durata : 1 o 22 min Bitrate : 2.505 kb/s Larghezza : 1.280 pixel Altezza : 544 pixel Rapporto aspetto visualizzazione : 2,35:1 Modalità frame rate : Costante Frame rate : 23,976 (24000/1001) FPS Spazio colore : YUV Croma subsampling : 4:2:0 Profondità bit : 8 bit Tipo scansione : Progressivo Bit/(pixel*frame) : 0.150 Dimensione della traccia : 1,38 GiB (77%) Compressore : x264 core 142 Impostazioni compressione : cabac=1 / ref=1 / deblock=1:-1:-1 / analyse=0x3:0 / me=hex / subme=5 / psy=0 / mixed_ref=0 / me_range=16 / chroma_me=1 / trellis=0 / 8x8dct=1 / cqm=0 / deadzone=21,11 / fast_pskip=0 / chroma_qp_offset=0 / threads=4 / lookahead_threads=1 / sliced_threads=0 / nr=0 / decimate=1 / interlaced=0 / bluray_compat=0 / constrained_intra=0 / bframes=2 / b_pyramid=0 / b_adapt=1 / b_bias=0 / direct=1 / weightb=0 / open_gop=0 / weightp=0 / keyint=24 / keyint_min=13 / scenecut=40 / intra_refresh=0 / rc=abr / mbtree=0 / bitrate=2505 / ratetol=1.0 / qcomp=0.60 / qpmin=0 / qpmax=69 / qpstep=4 / ip_ratio=1.40 / pb_ratio=1.30 / aq=1:1.00 Default : Si Forced : No colour_range : Limited Colori primari : BT.709 Caratteristiche trasferimento : BT.709 Coefficienti matrici : BT.709 Audio #1 ID : 2 Formato : AC-3 Formato/Informazioni : Audio Coding 3 Estensione modo : CM (complete main) Impostazioni formato, Endianness : Big ID codec : A_AC3 Durata : 1 o 22 min Modalità bitrate : Costante Bitrate : 320 kb/s Canali : 2 canali Posizione canali : Front: L R Frequenza campionamento : 48,0 kHz Frame rate : 31,250 FPS (1536 spf) Modo compressione : Con perdita Dimensione della traccia : 188MiB (10%) Lingua : Italiano Default : Si Forced : No Audio #2 ID : 3 Formato : AC-3 Formato/Informazioni : Audio Coding 3 Estensione modo : CM (complete main) Impostazioni formato, Endianness : Big ID codec : A_AC3 Durata : 1 o 22 min Modalità bitrate : Costante Bitrate : 320 kb/s Canali : 6 canali Posizione canali : Front: L C R, Side: L R, LFE Frequenza campionamento : 48,0 kHz Frame rate : 31,250 FPS (1536 spf) Modo compressione : Con perdita Dimensione della traccia : 188MiB (10%) Lingua : Inglese Default : No Forced : No Menu 00:00:00.000 : en:00:00:00.000 00:06:25.802 : en:00:06:25.802 00:10:57.532 : en:00:10:57.532 00:14:56.187 : en:00:14:56.187 00:21:31.248 : en:00:21:31.248 00:26:43.936 : en:00:26:43.936 00:30:18.567 : en:00:30:18.567 00:34:32.779 : en:00:34:32.779 00:39:32.120 : en:00:39:32.120 00:44:25.288 : en:00:44:25.288 00:49:41.478 : en:00:49:41.478 00:57:56.556 : en:00:57:56.556 01:01:39.571 : en:01:01:39.571 01:04:13.683 : en:01:04:13.683 01:08:50.585 : en:01:08:50.585 01:12:21.087 : en:01:12:21.087

Split.2017.HD-TS.x264.ita.MD.eng.AC3-CPG

Language: | Size: 1.83 GB | Seed: 70 | Leech: 19

Description:

Anche se Kevin (James McAvoy) ha mostrato ben 23 personalità alla sua psichiatra di fiducia, la dottoressa Fletcher (Betty Buckley), ne rimane ancora una nascosta, in attesa di materializzarsi e dominare tutte le altre. Dopo aver rapito tre ragazze adolescenti guidate da Casey (Anya Taylor-Joy, The Witch), ragazza molto attenta ed ostinata, nasce una guerra per la sopravvivenza, sia nella mente di Kevin – tra tutte le personalità che convivono in lui - che intorno a lui, mentre le barriere delle le sue varie personalità cominciano ad andare in frantumi.

I cieli di Escaflowne S01e17-21 [BDmux 1080p - H264 - Ita Jap Aac]

Language: | Size: 6.35 GB | Seed: 0 | Leech: 2

Description:

I cieli di Escaflowne S01e17-21 [BDmux 1080p - H264 - Ita Jap Aac] .: Trama :. Hitomi Kanzaki è una tipica ragazza delle scuole superiori con tutti i problemi relativi ad un'adolescente della sua età. Tra le sue compagne di classe è famosa per l'abilità di prevedere il futuro con i tarocchi, capacità che le permette anche di avere visioni. Durante una di esse le appare un mondo alieno nel cui cielo si stagliano la Luna e la Terra. In un modo a lei sconosciuto e incomprensibile, Hitomi arriverà nel mondo sconosciuto di Gaia con un giovane spadaccino, Van. In questo mondo vi sono diversi Paesi in guerra fra loro, con una tecnologia piuttosto diversa da quella presente sulla Terra... .: Scheda :. Titolo originale: The Vision of Escaflowne (天空のエスカフローネ Tenkū no Esukafurōne) Anno: Giappone 2 aprile – 24 agosto 1996 / Italia 26 dicembre 2000 – 19 giugno 2001 Genere: Avventura, Fantasy, Romantico, Mecha Studio: Sunrise Distribuzione: Giappone TV Tokyo (1996), Animax, BS11 / Italia Dynit, MTV Italia, AXN (Animax, 2008), Ka-Boom Numero episodi: 26 (completa) Durata approssimativa: 25 minuti .: Dati tecnici del file :. Info sul file Nome: I cieli di Escaflowne S01e17 - La fine di questo mondo - [Mux By MPT].mkv Data: 16/01/2017 15:46:24 Dimensione: 1,372,701,854 bytes (1309.111 MB) Info generiche Durata: 00:23:09 (1388.586 s) Tipo di contenitore: matroska Data creazione: 16/01/2017 14:45:25 UTC Streams totali: 4 Tipo stream n. 1: video (V_MPEG4/ISO/AVC) Tipo stream n. 2: audio (A_AAC (AAC Low complexity)) {Italiano} Tipo stream n. 3: audio (A_AAC (AAC Low complexity)) {Giapponese} Tipo stream n. 4: subtitle (S_TEXT/ASS) {Cartelli} Audio streams: 2 Muxing Application: libebml v1.3.4 + libmatroska v1.4.5 Writing Application: mkvmerge v9.6.0 ('Slave To Your Mind') 64bit Dati rilevanti Risoluzione: 1440 x 1080 Larghezza: multipla di 32 Altezza: multipla di 8 Traccia video Codec ID: V_MPEG4/ISO/AVC Risoluzione: 1440 x 1080 Frame aspect ratio: 4:3 = 1.333333 Pixel aspect ratio: 1:1 = 1 Display aspect ratio: 4:3 = 1.333333 Framerate: 23.976024 fps Traccia audio n. 1 Codec ID: A_AAC (AAC Low complexity) Canali (contenitore): 2 Frequenza: 48000 Hz Traccia audio n. 2 Codec ID: A_AAC (AAC Low complexity) Canali (contenitore): 2 Frequenza: 48000 Hz Info sulla codifica H.264 User data: x264 User data: core 120 r2120bm 0c7dab9 User data: H.264/MPEG-4 AVC codec User data: Copyleft 2003-2011 User data: http://www.videolan.org/x264.html User data: cabac=1 User data: ref=5 User data: deblock=1:1:1 User data: analyse=0x3:0x133 User data: me=umh User data: subme=9 User data: psy=1 User data: psy_rd=0.80:0.20 User data: mixed_ref=1 User data: me_range=24 User data: chroma_me=1 User data: trellis=1 User data: 8x8dct=1 User data: cqm=0 User data: deadzone=21,11 User data: fast_pskip=0 User data: chroma_qp_offset=-3 User data: threads=6 User data: sliced_threads=0 User data: nr=0 User data: decimate=1 User data: interlaced=0 User data: bluray_compat=0 User data: constrained_intra=0 User data: bframes=5 User data: b_pyramid=2 User data: b_adapt=2 User data: b_bias=0 User data: direct=3 User data: weightb=1 User data: open_gop=0 User data: weightp=2 User data: keyint=250 User data: keyint_min=23 User data: scenecut=40 User data: intra_refresh=0 User data: rc_lookahead=50 User data: rc=2pass User data: mbtree=1 User data: bitrate=7451 User data: ratetol=1.0 User data: qcomp=0.60 User data: qpmin=0 User data: qpmax=69 User data: qpstep=4 User data: cplxblur=20.0 User data: qblur=0.5 User data: ip_ratio=1.40 User data: aq=1:1.40 SPS id: 0 Profile: [email protected] Num ref frames: 5 Aspect ratio: Square pixels Chroma format idc: YUV 4:2:0 PPS id: 0 (SPS: 0) Codifica entropica: CABAC Weighted prediction: P slices - explicit weighted prediction Weighted bipred idc: B slices - implicit weighted prediction 8x8dct: Sì Profile compliancy Profilo da testare: MTK PAL 6000 Risoluzione: 1440 x 1080 > 720 x 576 Framerate: 23.976024 <> 25 Rapporto generato da AVInaptic (18-11-2007) in data 23 gen 2017, h 15:52:52

Lettere.Da.Berlino.2016.iTALiAN.AC3.BRRip.XviD-T4P3

Language: | Size: 1.44 GB | Seed: 177 | Leech: 54

Description:

Lettere da Berlino Titolo originale: Alone in Berlin Conosciuto anche come: Jeder stirbt für sich allein Nazione: Regno Unito, Francia, Germania Anno: 2016 Genere: Drammatico Durata: 97' Regia: Vincent Pérez Cast: Emma Thompson, Brendan Gleeson, Daniel Brühl, Mikael Persbrandt, Katharina Schüttler, Louis Hofmann, Jacob Matschenz, Uwe Preuss Produzione: X-Filme Creative Pool, FilmWave, Master Movies Distribuzione: Videa - CDE Data di uscita: Berlino 2016 13 Ottobre 2016 (cinema) Trama: Berlino 1940. La città è paralizzata dalla paura. Otto e Anna Quangel sono una coppia appartenente alla classe operaia che vive in un appartamento malmesso e che, come tutti, cerca di stare alla larga dai guai durante la dominazione nazista. Quando il loro unico figlio viene ucciso al fronte, la perdita spinge Otto e Anna a compiere uno straordinario atto di resistenza e rivolta. Iniziano così a diffondere per tutta la città cartoline anonime contro il regime di Hitler, con il rischio concreto di essere scoperti e giustiziati. Presto la loro campagna antinazista richiama l'attenzione dell'ispettore della Gestapo Escherich e inizia una spietata caccia all’uomo. Nella loro ribellione silenziosa ma decisa, i Quangel riescono a sfidare il regime spietato e dispotico di Hitler con la sola forza delle parole.

Robinson Crusoe (2016).H264.Italian.English.Ac3.5.1.sub.ita.iCV-MIRCrew

Language: | Size: 1.36 GB | Seed: 100 | Leech: 12

Description:

itolo originale The Wild Life Lingua originale inglese, tedesco, francese Paese di produzione Belgio, Francia Anno 2016 Durata 90 min Colore colore Audio sonoro Genere animazione, commedia, avventura Regia Vincent Kesteloot e Ben Stassen Sceneggiatura Lee Christopher, Domonic Paris, Graham Welldon Produttore Gina Gallo, Mimi Maynard, Domonic Paris, Ben Stassen, Caroline Van Iseghem Musiche Ramin Djawadi

Zero Dark Thirty (2012).H264.Italian.English.Ac3.5.1.multisub.iCV-MIRCrew

Language: | Size: 2.17 GB | Seed: 60 | Leech: 27

Description:

Zero Dark Thirty (2012).H264.Italian.English.Ac3.5.1.multisub.iCV-MIRCrew [center] [color=red][b][img]http://s23.postimg.org/b9yhws27f/0sc_Del1.png[/img] [u]NO FOUND ONLY ORIGINAL RELEASE[/u] [img]http://i.imgur.com/GDNQx1Z.png[/img] My release is always in double track audio italian and Original audio for select it use VLC or dvd player home not use wmp Zero Dark Thirty (2012) [img]https://extraimage.net/images/2017/01/29/b57d866be807afee650beba8b9a72715.png[/img] [URL=http://www.imdb.com/title/tt1790885/][IMG]http://www.userlogos.org/files/logos/Sucka/imdb_new.png[/IMG][/URL] [img]http://i.imgur.com/fGu1rKv.png[/img] Titolo originale Zero Dark Thirty Lingua originale inglese Paese di produzione Stati Uniti d'America Anno 2012 Durata 157 min Genere azione, thriller, spionaggio, storico Regia Kathryn Bigelow Soggetto Mark Boal Sceneggiatura Mark Boal Produttore Kathryn Bigelow, Mark Boal, Megan Ellison Produttore esecutivo Colin Wilson, Greg Shapiro, Ted Schipper Casa di produzione Annapurna Pictures Distribuzione (Italia) Universal Pictures Fotografia Greig Fraser Montaggio Dylan Tichenor, William Goldenberg Musiche Alexandre Desplat Scenografia Jeremy Hindle Costumi George L. Little Trucco Corinne Bossu [img]http://i.imgur.com/W7kBqiE.png[/img] Jessica Chastain: Maya Lambert Joel Edgerton: Patrick (DEVGRU) Jason Clarke: Dan Jennifer Ehle: Jessica Mark Strong: George Kyle Chandler: Joseph Bradley Édgar Ramírez: Larry Fredric Lehne: The Wolf Fares Fares: Hakim Scott Adkins: John Jeremy Strong: Thomas Harold Perrineau Jr.: Jack Mark Duplass: Steve John Barrowman: Jeremy J.J. Kandel: J.J. Daniel Lapaine: Tim Jessie Collins: Debbie Chris Pratt: Justin (DEVGRU) Taylor Kinney: Jared (DEVGRU) [img]http://i.imgur.com/bFK3ggF.png[/img] Maya Lambert è una giovane agente della CIA impiegata a tempo pieno nella ricerca di Osama bin Laden, il capo di Al-Qaida ritenuto responsabile degli attacchi dell'11 settembre 2001. Nel 2003, ancora fresca di laurea, viene assegnata all'ambasciata americana in Pakistan, ad Islamabad, per lavorare a fianco dell'esperto agente Dan. Così assiste alle torture che vengono impartite regolarmente ai detenuti per carpire informazioni............. [img]http://i.imgur.com/48xHWWH.png[/img] A chronicle of the decade-long hunt for al-Qaeda terrorist leader Osama bin Laden after the September 2001 attacks, and his death at the hands of the Navy S.E.A.L.s Team 6 in May 2011. [img]http://i.imgur.com/K8bfNTy.png[/img] [img]https://extraimage.net/images/2017/01/29/fac707c33ffdf22309b96f6c9328d3a4.png[/img] [img]https://extraimage.net/images/2017/01/29/ca2eb33b28a298ed3a789cb2cbed30d8.png[/img] [img]https://extraimage.net/images/2017/01/29/34d013922d7baeed7c662f166b5e6056.png[/img] [img]http://i.imgur.com/aVrMohH.png[/img] [spoiler] General Complete name : Zero Dark Thirty (2012).ita.eng.multisub.iCV-MIRCrew.avi Format : AVI Format/Info : Audio Video Interleave Format profile : OpenDML File size : 2.15 GiB Duration : 2h 30mn Overall bit rate : 2 039 Kbps Writing application : VirtualDubMod 1.5.4.1 (build 2178/release) Writing library : VirtualDubMod build 2178/release Video ID : 0 Format : MPEG-4 Visual Format profile : Advanced [email protected] Format settings, BVOP : 1 Format settings, QPel : No Format settings, GMC : No warppoints Format settings, Matrix : Custom Codec ID : XVID Codec ID/Hint : XviD Duration : 2h 30mn Bit rate : 1 259 Kbps Width : 720 pixels Height : 400 pixels Display aspect ratio : 16:9 Frame rate : 25.000 fps Color space : YUV Chroma subsampling : 4:2:0 Bit depth : 8 bits Scan type : Progressive Compression mode : Lossy Bits/(Pixel*Frame) : 0.175 Stream size : 1.33 GiB (62%) Writing library : XviD 1.2.0.dev47 (UTC 2006-11-01) Audio #1 ID : 1 Format : AC-3 Format/Info : Audio Coding 3 Mode extension : CM (complete main) Codec ID : 2000 Duration : 2h 30mn Bit rate mode : Constant Bit rate : 384 Kbps Channel(s) : 6 channels Channel positions : Front: L C R, Side: L R, LFE Sampling rate : 48.0 KHz Bit depth : 16 bits Compression mode : Lossy Stream size : 414 MiB (19%) Alignment : Split accross interleaves Interleave, duration : 96 ms (2.40 video frames) Interleave, preload duration : 96 ms Language : Italian Audio #2 ID : 2 Format : AC-3 Format/Info : Audio Coding 3 Mode extension : CM (complete main) Codec ID : 2000 Duration : 2h 30mn Bit rate mode : Constant Bit rate : 384 Kbps Channel(s) : 6 channels Channel positions : Front: L C R, Side: L R, LFE Sampling rate : 48.0 KHz Bit depth : 16 bits Compression mode : Lossy Stream size : 414 MiB (19%) Alignment : Split accross interleaves Interleave, duration : 96 ms (2.40 video frames) Interleave, preload duration : 96 ms Language : English [/spoiler] [/color][/b][/center]

Gernika - Guernica - Cronaca di una strage (2016).H264.Italian.Spanish.Ac3.5.1.sub.ita.eng

Language: | Size: 1.58 GB | Seed: 125 | Leech: 51

Description:

Gernika - Guernica - Cronaca di una strage (2016).H264.Italian.Spanish.Ac3.5.1.sub.ita.eng.iCV-MIRCrew [center] [color=red][b][img]http://s23.postimg.org/b9yhws27f/0sc_Del1.png[/img] [u]NO FOUND ONLY ORIGINAL RELEASE[/u] [img]http://i.imgur.com/GDNQx1Z.png[/img] My release is always in double track audio italian and Original audio for select it use VLC or dvd player home not use wmp ENGLISH SUBTITLE INSIDE Guernica - Cronaca di una strage - Gernika (2016) [img]https://extraimage.net/images/2017/01/29/5ef895d3a023dc1db2f0beaf538a5a26.png[/img] [URL=http://www.imdb.com/title/tt2556114/][IMG]http://www.userlogos.org/files/logos/Sucka/imdb_new.png[/IMG][/URL] [img]http://i.imgur.com/fGu1rKv.png[/img] Guernica: cronaca di una strage (Gernika) Spagna, 2016, Drammatico, Politico sociale, 110 min Regia: Koldo Serra Sceneggiatura: José Alba, Carlos Clavijo Cobos Musica: Fernando Velázquez fotografia: Unax Mendia montaggio: José Manuel Jiménez [img]http://i.imgur.com/W7kBqiE.png[/img] James D'Arcy, Burn Gorman, Jack Davenport, María Valverde, Hugo Silva [img]http://i.imgur.com/bFK3ggF.png[/img] Aprile 1937. La legione Condor sorvola la città di Guernica e distrugge tutto ciò che incontra nel bombardamento dettato dalla guerra civile in corso. Nel mezzo del caos generato, mentre la città sta cadendo a pezzi, si incrociano i destini di Henry, un cinico reporter americano, e di Teresa, una dei censori incaricati per filtrare le notizie che escono dal paese. [img]http://i.imgur.com/48xHWWH.png[/img] The fates of Henry - a cynical American correspondent who has lost his soul - and Teresa, one of the Republic's censors and in charge of overseeing the news that journalists can send abroad, cross in Gernika. [img]http://i.imgur.com/K8bfNTy.png[/img] [url=https://extraimage.net/image/2ddI][img]https://extraimage.net/images/2017/01/29/a2b03ef0a937dca2a9a56895872f7767.th.png[/img][/url] [url=https://extraimage.net/image/2ddl][img]https://extraimage.net/images/2017/01/29/29fcb8a2f861f5d929ef7ceb534974c3.th.png[/img][/url] [url=https://extraimage.net/image/2ddd][img]https://extraimage.net/images/2017/01/29/2a37235269032bdf6e5be66ddd516b8b.th.png[/img][/url] [img]http://i.imgur.com/aVrMohH.png[/img] [spoiler] General Unique ID : 272083683154523069337419302403993886725 (0xCCB169496D224A2B9DE815773249E005) Complete name : Guernica - Cronaca di una strage (2016).ita.spa.sub.ita.eng.icv-MIRCrew.mkv Format : Matroska Format version : Version 2 File size : 1.58 GiB Duration : 1h 50mn Overall bit rate : 2 043 Kbps Movie name : VISIT www.icv-crew.org Encoded date : UTC 2017-01-22 16:48:15 Writing application : Lavf54.63.100 Writing library : Lavf54.63.100 COPYRIGHT : robbyrs Video ID : 1 Format : AVC Format/Info : Advanced Video Codec Format profile : [email protected] Format settings, CABAC : Yes Format settings, ReFrames : 2 frames Codec ID : V_MPEG4/ISO/AVC Duration : 1h 50mn Bit rate : 1 270 Kbps Width : 720 pixels Height : 304 pixels Display aspect ratio : 2.40:1 Frame rate mode : Variable Frame rate : 24.000 fps Color space : YUV Chroma subsampling : 4:2:0 Bit depth : 8 bits Scan type : Progressive Bits/(Pixel*Frame) : 0.242 Stream size : 979 MiB (60%) Writing library : x264 core 130 r2273 Encoding settings : cabac=1 / ref=2 / deblock=1:0:0 / analyse=0x1:0x131 / me=hex / subme=7 / psy=1 / psy_rd=1.00:0.00 / mixed_ref=0 / me_range=16 / chroma_me=1 / trellis=1 / 8x8dct=0 / cqm=0 / deadzone=21,11 / fast_pskip=1 / chroma_qp_offset=-2 / threads=12 / lookahead_threads=2 / sliced_threads=0 / nr=0 / decimate=1 / interlaced=0 / bluray_compat=0 / constrained_intra=0 / bframes=3 / b_pyramid=0 / b_adapt=1 / b_bias=0 / direct=3 / weightb=1 / open_gop=0 / weightp=2 / keyint=240 / keyint_min=24 / scenecut=40 / intra_refresh=0 / rc_lookahead=40 / rc=2pass / mbtree=1 / bitrate=1270 / ratetol=1.0 / qcomp=0.60 / qpmin=10 / qpmax=69 / qpstep=4 / cplxblur=20.0 / qblur=0.5 / vbv_maxrate=24000 / vbv_bufsize=24000 / nal_hrd=none / ip_ratio=1.40 / aq=1:1.00 Language : Italian Default : Yes Forced : No DURATION : 01:50:50.292000000 NUMBER_OF_FRAMES : 159607 NUMBER_OF_BYTES : 8034777742 _STATISTICS_WRITING_APP : mkvmerge v8.3.0 ('Over the Horizon') 64bit _STATISTICS_WRITING_DATE_UTC : 2017-01-16 00:13:40 _STATISTICS_TAGS : BPS DURATION NUMBER_OF_FRAMES NUMBER_OF_BYTES Audio #1 ID : 2 Format : AC-3 Format/Info : Audio Coding 3 Mode extension : CM (complete main) Codec ID : A_AC3 Duration : 1h 50mn Bit rate mode : Constant Bit rate : 384 Kbps Channel(s) : 6 channels Channel positions : Front: L C R, Side: L R, LFE Sampling rate : 48.0 KHz Bit depth : 16 bits Compression mode : Lossy Delay relative to video : 1mn 5s Stream size : 304 MiB (19%) Language : Italian Default : Yes Forced : Yes DURATION : 01:50:51.232000000 NUMBER_OF_FRAMES : 207851 NUMBER_OF_BYTES : 319259136 _STATISTICS_WRITING_APP : mkvmerge v8.3.0 ('Over the Horizon') 64bit _STATISTICS_WRITING_DATE_UTC : 2017-01-16 00:13:40 _STATISTICS_TAGS : BPS DURATION NUMBER_OF_FRAMES NUMBER_OF_BYTES Audio #2 ID : 3 Format : AC-3 Format/Info : Audio Coding 3 Mode extension : CM (complete main) Codec ID : A_AC3 Duration : 1h 50mn Bit rate mode : Constant Bit rate : 384 Kbps Channel(s) : 6 channels Channel positions : Front: L C R, Side: L R, LFE Sampling rate : 48.0 KHz Bit depth : 16 bits Compression mode : Lossy Delay relative to video : 1mn 5s Stream size : 304 MiB (19%) Language : Spanish Default : No Forced : No DURATION : 01:50:50.304000000 NUMBER_OF_FRAMES : 207822 NUMBER_OF_BYTES : 532024320 _STATISTICS_WRITING_APP : mkvmerge v8.3.0 ('Over the Horizon') 64bit _STATISTICS_WRITING_DATE_UTC : 2017-01-16 00:13:40 _STATISTICS_TAGS : BPS DURATION NUMBER_OF_FRAMES NUMBER_OF_BYTES Menu 00:00:00.000 : :00:00:00.000 00:06:57.042 : :00:06:57.042 00:15:43.500 : :00:15:43.500 00:24:56.625 : :00:24:56.625 00:31:38.708 : :00:31:38.708 00:43:28.458 : :00:43:28.458 00:51:43.958 : :00:51:43.958 01:00:13.542 : :01:00:13.542 01:10:32.667 : :01:10:32.667 01:19:28.542 : :01:19:28.542 01:25:53.667 : :01:25:53.667 01:33:01.583 : :01:33:01.583 [/spoiler] [/color][/b][/center]

X-Men.2000.iTA.DTS.1080p.x265.mkv

Language: | Size: 5.25 GB | Seed: 481 | Leech: 76

Description:

Gli X-Men, che rappresentano uno stadio successivo dell'evoluzione umana, sono supereroi mutanti, caratterizzati cioè da una particolare mutazione genetica che conferisce un potere sovrumano che essi hanno posto al servizio dell'umanità. Ma gli uomini temono ciò che non possono comprendere e gli X-Men dovranno presto fare i conti con l'intolleranza, il pregiudizio e il rifiuto della razza umana per la quale lottano.

Demolition - Amare E Vivere (2015).H264.Italian.English.Ac3.5.1.sub.ita.eng.iCV-MIRCrew

Language: | Size: 1.44 GB | Seed: 77 | Leech: 30

Description:

Demolition - Amare E Vivere (2015).H264.Italian.English.Ac3.5.1.sub.ita.eng.iCV-MIRCrew [center] [color=red][b][img]http://s23.postimg.org/b9yhws27f/0sc_Del1.png[/img] [u]NO FOUND ONLY ORIGINAL RELEASE[/u] [img]http://i.imgur.com/GDNQx1Z.png[/img] My release is always in double track audio italian and Original audio for select it use VLC or dvd player home not use wmp Demolition - Amare E Vivere (2015) [img]https://extraimage.net/images/2017/01/28/602164ddecb1c0fe81e2bd775834ddcb.png[/img] [URL=http://www.imdb.com/title/tt1172049/][IMG]http://www.userlogos.org/files/logos/Sucka/imdb_new.png[/IMG][/URL] [img]http://i.imgur.com/fGu1rKv.png[/img] Titolo originale Demolition Lingua originale inglese Paese di produzione Stati Uniti d'America Anno 2015 Durata 101 min Colore colore Audio sonoro Genere drammatico, commedia Regia Jean-Marc Vallée Sceneggiatura Bryan Sipe Produttore Lianne Halfon, Russell Smith, Molly Smith, Trent Luckinbill, Sidney Kimmel, Jean-Marc Vallée Produttore esecutivo Thad Luckinbill, Ellen H. Schwartz, Carla Hacken, Bruce Toll, Nathan Ross, John Malkovich, Jason Reitman, Helen Estabrook Casa di produzione Black Label Media, Mr. Mudd, Right of Way Films, Sidney Kimmel Entertainment Distribuzione (Italia) Good Films Fotografia Yves Bélanger Scenografia John Paino Costumi Leah Katznelson [img]http://i.imgur.com/W7kBqiE.png[/img] Jake Gyllenhaal: Davis Mitchell Naomi Watts: Karen Moreno Chris Cooper: Phil Eastwood Judah Lewis: Chris Moreno C.J. Wilson: Carl Polly Draper: Margot Eastwood Heather Lind: Julia Malachy Cleary: padre di Davis Debra Monk: madre di Davis [img]http://i.imgur.com/bFK3ggF.png[/img] La vita di Davis, un investitore di successo, viene sconvolta quando la moglie muore in un incidente stradale. Nonostante il padre lo sproni a continuare a vivere, Davis diventa sempre più depresso. Una sera, scrivendo una lettera di reclamo a una società di distributori automatici [img]http://i.imgur.com/48xHWWH.png[/img] A successful investment banker struggles after losing his wife in a tragic car crash. With the help of a customer service rep and her young son, he starts to rebuild, beginning with the demolition of the life he once knew. [img]http://i.imgur.com/K8bfNTy.png[/img] [url=https://extraimage.net/image/2dw0][img]http://extraimage.net/images/2017/01/28/f425c05e454dfaf0610ecb7495d76ec5.th.png[/img][/url] [url=https://extraimage.net/image/2dwz][img]http://extraimage.net/images/2017/01/28/65f90c57b03d88ed714e4004fb269496.th.png[/img][/url] [url=https://extraimage.net/image/2dwJ][img]http://extraimage.net/images/2017/01/28/731252089615dc60cc99fa6e10161631.th.png[/img][/url] [img]http://i.imgur.com/aVrMohH.png[/img] [spoiler] General Unique ID : 303128872863604957726917366287022494165 (0xE40C7F50BBA198E26C34DEC8F89D11D5) Complete name : Demolition - Amare E Vivere (2016).H264.ita.eng.sub.ita.eng.iCV-MIRCrew.mkv Format : Matroska Format version : Version 2 File size : 1.44 GiB Duration : 1h 40mn Overall bit rate : 2 043 Kbps Movie name : VISIT www.icv-crew.org Encoded date : UTC 2017-01-25 16:44:28 Writing application : Lavf54.63.100 Writing library : Lavf54.63.100 COPYRIGHT : robbyrs Video ID : 1 Format : AVC Format/Info : Advanced Video Codec Format profile : [email protected] Format settings, CABAC : Yes Format settings, ReFrames : 2 frames Codec ID : V_MPEG4/ISO/AVC Duration : 1h 40mn Bit rate : 1 270 Kbps Width : 720 pixels Height : 304 pixels Display aspect ratio : 2.35:1 Original display aspect ratio : 2.35:1 Frame rate mode : Variable Frame rate : 23.976 fps Color space : YUV Chroma subsampling : 4:2:0 Bit depth : 8 bits Scan type : Progressive Bits/(Pixel*Frame) : 0.242 Stream size : 891 MiB (60%) Writing library : x264 core 130 r2273 Encoding settings : cabac=1 / ref=2 / deblock=1:0:0 / analyse=0x1:0x131 / me=hex / subme=7 / psy=1 / psy_rd=1.00:0.00 / mixed_ref=0 / me_range=16 / chroma_me=1 / trellis=1 / 8x8dct=0 / cqm=0 / deadzone=21,11 / fast_pskip=1 / chroma_qp_offset=-2 / threads=12 / lookahead_threads=2 / sliced_threads=0 / nr=0 / decimate=1 / interlaced=0 / bluray_compat=0 / constrained_intra=0 / bframes=3 / b_pyramid=0 / b_adapt=1 / b_bias=0 / direct=3 / weightb=1 / open_gop=0 / weightp=2 / keyint=230 / keyint_min=23 / scenecut=40 / intra_refresh=0 / rc_lookahead=40 / rc=2pass / mbtree=1 / bitrate=1270 / ratetol=1.0 / qcomp=0.60 / qpmin=10 / qpmax=69 / qpstep=4 / cplxblur=20.0 / qblur=0.5 / vbv_maxrate=24000 / vbv_bufsize=24000 / nal_hrd=none / ip_ratio=1.40 / aq=1:1.00 Language : English Default : Yes Forced : No DURATION : 01:40:53.006000000 NUMBER_OF_FRAMES : 145127 NUMBER_OF_BYTES : 7436259859 _STATISTICS_WRITING_APP : mkvmerge v8.7.0 ('All of the above') 64bit _STATISTICS_WRITING_DATE_UTC : 2017-01-24 10:45:03 _STATISTICS_TAGS : BPS DURATION NUMBER_OF_FRAMES NUMBER_OF_BYTES Audio #1 ID : 2 Format : AC-3 Format/Info : Audio Coding 3 Mode extension : CM (complete main) Codec ID : A_AC3 Duration : 1h 40mn Bit rate mode : Constant Bit rate : 384 Kbps Channel(s) : 6 channels Channel positions : Front: L C R, Side: L R, LFE Sampling rate : 48.0 KHz Bit depth : 16 bits Compression mode : Lossy Delay relative to video : 1mn 5s Stream size : 277 MiB (19%) Language : Italian Default : Yes Forced : No DURATION : 01:40:53.056000000 NUMBER_OF_FRAMES : 189158 NUMBER_OF_BYTES : 290546688 _STATISTICS_WRITING_APP : mkvmerge v8.7.0 ('All of the above') 64bit _STATISTICS_WRITING_DATE_UTC : 2017-01-24 10:45:03 _STATISTICS_TAGS : BPS DURATION NUMBER_OF_FRAMES NUMBER_OF_BYTES Audio #2 ID : 3 Format : AC-3 Format/Info : Audio Coding 3 Mode extension : CM (complete main) Codec ID : A_AC3 Duration : 1h 40mn Bit rate mode : Constant Bit rate : 384 Kbps Channel(s) : 6 channels Channel positions : Front: L C R, Side: L R, LFE Sampling rate : 48.0 KHz Bit depth : 16 bits Compression mode : Lossy Delay relative to video : 1mn 5s Stream size : 277 MiB (19%) Language : English Default : No Forced : No DURATION : 01:40:53.088000000 NUMBER_OF_FRAMES : 189159 NUMBER_OF_BYTES : 484247040 _STATISTICS_WRITING_APP : mkvmerge v8.7.0 ('All of the above') 64bit _STATISTICS_WRITING_DATE_UTC : 2017-01-24 10:45:03 _STATISTICS_TAGS : BPS DURATION NUMBER_OF_FRAMES NUMBER_OF_BYTES Text #1 ID : 4 Format : UTF-8 Codec ID : S_TEXT/UTF8 Codec ID/Info : UTF-8 Plain Text Title : FORCED Language : Italian Default : Yes Forced : No DURATION : 00:00:02.409000000 NUMBER_OF_FRAMES : 1 NUMBER_OF_BYTES : 42 _STATISTICS_WRITING_APP : mkvmerge v8.7.0 ('All of the above') 64bit _STATISTICS_WRITING_DATE_UTC : 2017-01-24 10:45:03 _STATISTICS_TAGS : BPS DURATION NUMBER_OF_FRAMES NUMBER_OF_BYTES Text #2 ID : 5 Format : UTF-8 Codec ID : S_TEXT/UTF8 Codec ID/Info : UTF-8 Plain Text Title : REGULAR Language : Italian Default : No Forced : No DURATION : 01:39:28.823000000 NUMBER_OF_FRAMES : 1251 NUMBER_OF_BYTES : 39165 _STATISTICS_WRITING_APP : mkvmerge v8.7.0 ('All of the above') 64bit _STATISTICS_WRITING_DATE_UTC : 2017-01-24 10:45:03 _STATISTICS_TAGS : BPS DURATION NUMBER_OF_FRAMES NUMBER_OF_BYTES Text #3 ID : 6 Format : UTF-8 Codec ID : S_TEXT/UTF8 Codec ID/Info : UTF-8 Plain Text Title : NON UDENTI Language : English Default : No Forced : No DURATION : 01:39:57.492000000 NUMBER_OF_FRAMES : 1440 NUMBER_OF_BYTES : 40094 _STATISTICS_WRITING_APP : mkvmerge v8.7.0 ('All of the above') 64bit _STATISTICS_WRITING_DATE_UTC : 2017-01-24 10:45:03 _STATISTICS_TAGS : BPS DURATION NUMBER_OF_FRAMES NUMBER_OF_BYTES Menu 00:00:00.000 : :00:00:00.000 00:03:09.815 : :00:03:09.815 00:07:28.281 : :00:07:28.281 00:11:11.671 : :00:11:11.671 00:15:55.997 : :00:15:55.997 00:19:23.037 : :00:19:23.037 00:23:14.768 : :00:23:14.768 00:28:21.325 : :00:28:21.325 00:32:39.040 : :00:32:39.040 00:37:16.693 : :00:37:16.693 00:42:31.382 : :00:42:31.382 00:47:09.952 : :00:47:09.952 00:51:39.805 : :00:51:39.805 00:56:23.005 : :00:56:23.005 01:00:27.290 : :01:00:27.290 01:04:41.878 : :01:04:41.878 01:09:10.188 : :01:09:10.188 01:14:08.444 : :01:14:08.444 01:18:14.523 : :01:18:14.523 01:22:22.354 : :01:22:22.354 01:26:28.475 : :01:26:28.475 01:29:15.475 : :01:29:15.475 01:33:43.618 : :01:33:43.618 01:36:41.838 : :01:36:41.838 [/spoiler] [/color][/b][/center]

Caffe.2016.iTALiAN.AC3.DVDRip.XviD-T4P3

Language: | Size: 1.37 GB | Seed: 94 | Leech: 25

Description:

Caffè Titolo originale: Caffè Conosciuto anche come: Nazione: Italia, Cina, Belgio Anno: 2016 Genere: Drammatico Durata: 112' Regia: Cristiano Bortone Cast: Dario Aita, Miriam Dalmazio, Ennio Fantastichini, Fangsheng Lu, Zhuo Tan, Yimo Li, Qiuge Zhang, Michael Schermi, Giovanni Galati Produzione: Savage Film, Road Pictures, China Blue films, Orisa Produzioni Distribuzione: Officine Ubu Data di uscita: Venezia 2016 - Giornate degli autori 13 Ottobre 2016 (cinema) Trama: In Belgio, Hamed, fuggito dall'Iraq alla ricerca di una vita migliore, è il proprietario di un piccolo banco dei pegni. Durante una violenta manifestazione di protesta il suo negozio viene assaltato e un'antica caffetteria d'argento a cui era legato da generazioni viene rubata. L'uomo scopre l'identità del ladro e, andando contro la sua indole pacifica, cerca di farsi giustizia da solo, ma le cose non andranno come previsto. Il protagonista della storia italiana è Renzo, un giovane sommelier del caffè che lavora sottopagato in un bar di paese. Quando la sua fidanzata Gaia scopre di essere incinta, Renzo finisce per farsi coinvolgere in una rapina ad una torrefazione che prenderà una piega inaspettata. Dall'altra parte del mondo, nel cuore della Cina, Fei è un giovane manager di successo che sta per sposarsi con la figlia del magnate dell'industria chimica per cui lavora. Tutto procede in modo perfetto, finché non gli viene chiesto di occuparsi di un grave incidente negli impianti dello Yunnan, regione dalla quale proviene e patria della produzione del caffè. In un paesaggio straordinario una misteriosa artista costringerà Fei a fare i conti con i valori della vita.

B.B. King - Makin' Love Is Good For You (2000), [Mp3][Tnt]

Language: | Size: 126.33 MB | Seed: 0 | Leech: 0

Description:

Artist: B.B. King Title: Makin' Love Is Good For You Year Of Release: 2000 Genre: Blues Label: MCA Tracks: 14 CDs: 1 Format: Mp3 Quality: 320 kbps Included Scans: Si Archive Size: 126 Mb ---------- 01. I Got To Leave This Woman [3:36] 02. Since I Fell For You [5:54] 03. I Know [3:49] 04. Peace Of Mind [4:04] 05. Monday Woman [3:37] 06. Ain't No One Like My Baby [3:50] 07. Makin' Love Is Good For You [3:47] 08. Don't Go No Further [4:08] 09. Actions Speak Louder Than Words [3:08] 10. What You Bet [3:50] 11. You're On Top [3:12] 12. Too Good To You baby [3:15] 13. I'm In The Wrong Business [4:37] 14. She's My Baby [4:14]

The Corrs - The Best Of *2001*[Flac][TntVillage]

Language: | Size: 529.15 MB | Seed: 87 | Leech: 18

Description:

[img]http://s16.imagestime.com/out.php/i1096736_Front.jpg[/img] Artist...............: The Corrs Album................: Best of The Corrs Genre................: Pop Source...............: CD Year.................: 2001 Ripper...............: EAC (Secure mode) / LAME 3.92 & Asus CD-S520 Codec................: Free Lossless Audio Codec (FLAC) Version..............: reference libFLAC 1.3.1 20141125 Quality..............: Lossless, (avg. compression: 69 %) Channels.............: Stereo / 44100 HZ / 16 Bit Tags.................: VorbisComment Information..........: TntVillage Ripped by............: Leonenero on 22/01/2017 Posted by............: Leonenero on 26/01/2017 News Server..........: news.astraweb.com News Group(s)........: alt.binaries.sounds.mp3.m Flac Included.............: NFO, M3U, LOG, CUE Covers...............: Front Back CD --------------------------------------------------------------------- Tracklisting --------------------------------------------------------------------- 1. The Corrs - Forgiven, Not Forgotten [04:17] 2. The Corrs - Lough Erin Shore (unplugged) [04:28] 3. The Corrs - Only When I Sleep [03:51] 4. The Corrs - Love to Love You [03:23] 5. The Corrs - All the Love in the World (remix) [03:56] 6. The Corrs - Everybody Hurts (unplugged) [05:49] 7. The Corrs - Give Me a Reason [03:29] 8. The Corrs - Dreams [04:01] 9. The Corrs - Make You Mine [03:14] 10. The Corrs - Una noche [05:16] [With Alejandro Sanz][Bonus Track] 11. The Corrs - Would You Be Happier? [03:26] 12. The Corrs - So Young (K-Klass remix) [04:14] 13. The Corrs - Runaway [03:47] 14. The Corrs - Breathless [03:26] 15. The Corrs - Radio (unplugged) [04:14] 16. The Corrs - What Can I Do (Tin Tin Out remix) [04:15] 17. The Corrs - The Right Time [04:07] 18. The Corrs - I Never Loved You Anyway [03:54] 19. The Corrs - Irresistible [03:40] Playing Time.........: 01:16:56 Total Size...........: 528,92 MB Best of The Corrs is a compilation album by the Irish pop rock band The Corrs, released in Ireland on 19 October 2001. The album consisted of the band's best-selling singles since their first chart appearance in 1995 with "Runaway", up to the Robert John "Mutt" Lange remix of their 2001 single "All the Love in the World", which charted at number twenty-four on the US Adult Contemporary chart. The album also featured the new single "Would You Be Happier?", as well as a new version of the Talk on Corners outtake, "Make You Mine". By the end of 2001, the album had sold over 2.4 million copies worldwide. This is a Latin Americnan Version with bonus track.

FarCryPrimalhighSPEED.torrent

Language: | Size: 14.19 GB | Seed: 335 | Leech: 86

Description:

R E L E A S E D F O R Y O U RELEASE NAME Far.Cry.Primal-CPY RELEASE DATE 08/01/2016 SHOP RELEASE DATE 29/02/2016 RELEASE TYPE GAME KIND FPS FORMAT ISO PROTECTION uPlay + Denuvo x64 + Custom Mumbo Jumbo FILES N 61x250MB The award-winning Far Cry franchise returns with its innovative open world gameplay, bringing together massive beasts, breathtaking environments, and unpredictable savage encounters. Welcome to the Stone Age, a time of danger and adventure. Instructions: - Burn or mount the image - Install the game - Copy the crack - Enjoy "Always Outnumbered, Never Outgunned" Established in 1999, we are possibly the oldest Italian-based release group still in activity. We express a big THANK YOU to all those friends who helped us in various forms throughout thes years! Don't forget to support the companies and to keep the Scene about FUN. Fondato nel 1999, CPY e' probabilmente il piu' vecchio gruppo release in Italia ancora in attivita'. Ringraziamo DI CUORE tutti gli amici che ci hanno aiutati in ogni maniera in questi anni! Ricordate di supportare le compagnie cinematografiche e di software, e che la Scena dev'essere basata sul DIVERTIMENTO. Greets to CODEX, ENCRyPTED - iAT & all our friends. Ascii gK System Requirements: OS: Windows 7, Windows 8.1, Windows 10 (64-bit versions only) Processor: Intel Core i3-550 | AMD Phenom II X4 955 or equivalent Memory: 4 GB RAM Graphics: NVIDIA GeForce GTX 460 (1GB VRAM) | AMD Radeon HD 5770 (1GB VRAM) or equivalent Storage: 20 GB available space Additional Notes: Windows-compatible keyboard, mouse, headset.

Brunori Sas - A casa tutto bene (2017)

Language: | Size: 107.22 MB | Seed: 317 | Leech: 27

Description:

Tracklist La verità 5:02 L’uomo nero 4:27 Canzone contro la paura 3:42 Lamezia Milano 3:52 Colpo di pistola 5:01 La vita liquida 3:26 Diego e io 4:15 Sabato bestiale 3:42 Don Abbondio 3:54 Il costume da torero 2:22 Secondo me 4:42 La vita pensata 2:41

NONPOINT (DISCOGRAFIA 2000-2016) -

Language: | Size: 694.96 MB | Seed: 0 | Leech: 0

Description:

ALBUM Separate Yourself (the beginning 1997-199 2000 - Statement 2002 - Development 2004 - Recoil 2005 - To The Pain 2006 - Nonpoint-Live_And_Kicking 2007 - Vengeance 2016 - The_Poison_Red-_Deluxe_Edition Demo

The Revanant - Redivivo (2015) [DVD9 - MultiLang 5.1 - Multisubs]

Language: | Size: 7.64 GB | Seed: 19 | Leech: 9

Description:

Titolo originale: The Revenant Nazione: Usa Anno: 2015 Genere: Biografico, Drammatico, Western, Thriller Durata: 149' Regia: Alejandro González Iñárritu Produzione: 20th Century Fox, Regency Enterprises, RatPac-Dune Entertainment, Anonymous Content, M Productions, Appain Way Productions Sito ufficiale: http://www.foxmovies.com/movies/the-revenant Cast: Leonardo DiCaprio, Tom Hardy, Domhnall Gleeson, Will Poulter, Forrest Goodluck Data di uscita: Sabato 16 Gennaio 2015 (Cinema) Trama: Nord Dakota, 1823: il trapper Hugh Glass, assunto come guida per una battuta di caccia alla ricerca di pelli e pellicce, sfugge a un attacco di indiani Arikara, durante il quale comunque vengono uccisi 33 uomini della spedizione. Con lui si salvano una dozzina di uomini, tra cui anche il figlio adolescente Hawk, avuto dalla moglie, una donna Pawnee, uccisa anni prima durante un attacco di soldati statunitensi al loro villaggio indiano. Preoccupati dal fatto che gli indiani siano sulle loro tracce, gli uomini (su consiglio di Glass stesso) abbandonano la barca su cui stanno ridiscendendo il fiume, nascondono le pelli salvate dall'attacco degli indiani e decidono di tornare al loro villaggio a piedi, preferendo la prospettiva di settimane di cammino al freddo alla possibilità di venire accerchiati e attaccati lungo il corso del fiume. Sulla via del ritorno Glass viene attaccato e gravemente ferito da una femmina di orso grizzly, particolarmente aggressiva in difesa dei cuccioli. Glass, nonostante la grande quantità di ferite subite, riesce ad abbattere l'animale, colpendolo dapprima con una fucilata e successivamente alla giugulare con il suo coltello. Il comandante della missione, Capitano Henry, pur soccorrendolo, medicandolo e cercando in tutti i modi di curarlo, lo crede in punto di morte, e anche i compagni di viaggio credono che lo sventurato possa sopravvivere solo per alcuni giorni. Non essendo trasportabile, gli uomini della spedizione lo lasciano in compagnia del figlio Hawk, del giovane e premuroso Bridger e del cacciatore Fitzgerald, ordinando ai tre di vegliarlo sino all'ultimo momento, per poi dargli una degna sepoltura. Fitzgerald, che è rimasto unicamente per la ricompensa in denaro promessa dal capitano, si dimostra spietato e insofferente. Approfittando dell'assenza dei due ragazzi, il cacciatore, dopo aver istigato al suicidio Glass, facendo leva sul fatto che la sua morte avrebbe comportato maggiori possibilità di sopravvivenza per il figlio, cerca di soffocarlo per poter tornare all'accampamento il prima possibile e poter ritirare il lauto compenso di 300 dollari pattuito per la loro sorveglianza; viene tuttavia scoperto da Hawk, che tenta di fermarlo, venendo a sua volta accoltellato a morte dal cacciatore. Tutto questo sotto gli occhi del moribondo Glass che, debilitato dalle ferite, non ha potuto fare niente per il giovane figlio. Fitzgerald nasconde quindi il cadavere del ragazzo e inganna Bridger, dicendogli di aver perso di vista Hawk e di aver scorto una ventina di Arikara a poca distanza, convincendolo ad abbandonare l'indifeso Glass in una fossa improvvisata. L'uomo, però, dopo essere uscito a fatica dalla fossa dove stava per essere sepolto vivo e aver giurato vendetta sul corpo del figlio, comincia a trascinarsi per i boschi, cercando di sopravvivere con ogni mezzo. Incrocia più volte gli Arikara a cavallo, sfuggendo alla cattura anche grazie alla propria fortuna. Dopo giorni trascorsi tra stenti e gelide tormente, Glass viene sfamato e curato da un solitario indiano Pawnee - che ha perso anch'egli la sua famiglia e vuole ricongiungersi con la sua tribù - con il quale stringe amicizia. I due proseguono insieme il loro viaggio verso sud, finché non vengono sorpresi da una tormenta di neve. Glass, debilitato dalle ferite in suppurazione, viene curato dall'indiano con una terapia larvale e lasciato al riparo sotto una capanna improvvisata, dove l'uomo può riposare, riscaldarsi e proseguire il processo di guarigione.

Noi e la Giulia (2015).H264.Italian.Ac3.5.1.sub.ita.iCV-MIRCrew

Language: | Size: 1.36 GB | Seed: 59 | Leech: 4

Description:

Noi e la Giulia (2015).H264.Italian.English.Ac3.5.1.sub.ita.iCV-MIRCrew [center] [color=red][b][img]http://s23.postimg.org/b9yhws27f/0sc_Del1.png[/img] [u]NO FOUND ONLY ORIGINAL RELEASE[/u] [img]http://i.imgur.com/GDNQx1Z.png[/img] My release is always in double track audio italian and Original audio for select it use VLC or dvd player home not use wmp ENGLISH SUBTITLE INSIDE Noi e la Giulia (2015) [img]http://extraimage.net/images/2017/01/25/3720d03ae26556cfa75b4679cce3b5fb.png[/img] [URL=http://www.imdb.com/title/tt3809308/][IMG]http://www.userlogos.org/files/logos/Sucka/imdb_new.png[/IMG][/URL] [img]http://i.imgur.com/fGu1rKv.png[/img] DATA USCITA: 19 febbraio 2015 GENERE: Commedia ANNO: 2015 REGIA: Edoardo Leo SCENEGGIATURA: Marco Bonini, Edoardo Leo FOTOGRAFIA: Alessandro Pesci MONTAGGIO: Patrizio Marone PRODUZIONE: Warner Bros. Entertainment Italia e Italian International Film DISTRIBUZIONE: Warner Bros. Italia PAESE: Italia DURATA: 115 Min [img]http://i.imgur.com/W7kBqiE.png[/img] Luca Argentero, Edoardo Leo, Claudio Amendola, Anna Foglietta, Stefano Fresi, Carlo Buccirosso [img]http://i.imgur.com/bFK3ggF.png[/img] Diego (Luca Argentero), Fausto (Edoardo Leo) e Claudio (Stefano Fresi) sono tre quarantenni insoddisfatti e in fuga dalla città e dalle proprie vite, che da perfetti sconosciuti si ritrovano uniti nell'impresa di aprire un agriturismo. A loro si unirà Sergio (Claudio Amendola), un cinquantenne invasato e fuori tempo massimo, ed Elisa (Anna Foglietta), una giovane donna incinta decisamente fuori di testa................... [img]http://i.imgur.com/48xHWWH.png[/img] Diego, Claudio and Fausto don't know each other, but they are all looking for a turning point in their lives, each one for a different reason. The occasion comes with an offer for an abandoned agritourism, for which they decide to build a society being for them impossible to afford the buying price by itself. The project is joined by Sergio, a communist-nostalgic middle-aged. But some trouble with the local Camorra will made them sort it out in a dangerous way.. [img]http://i.imgur.com/K8bfNTy.png[/img] [img]http://extraimage.net/images/2017/01/25/6e68f2497aae102358bfa21f684255ca.png[/img] [img]http://extraimage.net/images/2017/01/25/997b5c6c9d66b8adda037b2c1e01c2cc.png[/img] [img]http://extraimage.net/images/2017/01/25/5d2edb12059f8484a4cfd2c547a25695.png[/img] [img]http://i.imgur.com/aVrMohH.png[/img] [spoiler] General Unique ID : 321200880437782557053059680104373645154 (0xF1A50A14CC88C790039D3F69FD2D6F62) Complete name : Noi e la Giulia (2015).ita.sub.ita.eng.iCV-MIRCrew.mkv Format : Matroska Format version : Version 2 File size : 1.36 GiB Duration : 1h 56mn Overall bit rate : 1 662 Kbps Encoded date : UTC 2017-01-22T14:59:35Z Writing application : HandBrake 0.10.5 2016021100 Writing library : Lavf55.12.0 Video ID : 1 Format : AVC Format/Info : Advanced Video Codec Format profile : [email protected] Format settings, CABAC : Yes Format settings, ReFrames : 4 frames Codec ID : V_MPEG4/ISO/AVC Duration : 1h 56mn Bit rate : 1 270 Kbps Width : 688 pixels Height : 288 pixels Display aspect ratio : 2.40:1 Original display aspect ratio : 2.40:1 Frame rate mode : Variable Frame rate : 23.976 fps Color space : YUV Chroma subsampling : 4:2:0 Bit depth : 8 bits Scan type : Progressive Bits/(Pixel*Frame) : 0.267 Stream size : 1.02 GiB (75%) Writing library : x264 core 142 r2479 dd79a61 Encoding settings : cabac=1 / ref=1 / deblock=1:0:0 / analyse=0x1:0x111 / me=hex / subme=2 / psy=1 / psy_rd=1.00:0.00 / mixed_ref=0 / me_range=16 / chroma_me=1 / trellis=0 / 8x8dct=0 / cqm=0 / deadzone=21,11 / fast_pskip=1 / chroma_qp_offset=0 / threads=12 / lookahead_threads=2 / sliced_threads=0 / nr=0 / decimate=1 / interlaced=0 / bluray_compat=0 / constrained_intra=0 / bframes=3 / b_pyramid=2 / b_adapt=1 / b_bias=0 / direct=1 / weightb=1 / open_gop=0 / weightp=1 / keyint=240 / keyint_min=24 / scenecut=40 / intra_refresh=0 / rc_lookahead=10 / rc=abr / mbtree=1 / bitrate=1270 / ratetol=1.0 / qcomp=0.60 / qpmin=0 / qpmax=69 / qpstep=4 / vbv_maxrate=20000 / vbv_bufsize=25000 / nal_hrd=none / filler=0 / ip_ratio=1.40 / aq=1:1.00 Default : Yes Forced : No Color primaries : BT.709-5, BT.1361, IEC 61966-2-4, SMPTE RP177 Transfer characteristics : BT.709-5, BT.1361 Matrix coefficients : BT.709-5, BT.1361, IEC 61966-2-4 709, SMPTE RP177 Audio ID : 2 Format : AC-3 Format/Info : Audio Coding 3 Mode extension : CM (complete main) Codec ID : A_AC3 Duration : 1h 56mn Bit rate mode : Constant Bit rate : 384 Kbps Channel(s) : 6 channels Channel positions : Front: L C R, Side: L R, LFE Sampling rate : 48.0 KHz Bit depth : 16 bits Compression mode : Lossy Delay relative to video : 1mn 5s Stream size : 321 MiB (23%) Title : Surround Language : Italian Default : Yes Forced : No Text #1 ID : 3 Format : ASS Codec ID : S_TEXT/ASS Codec ID/Info : Advanced Sub Station Alpha Compression mode : Lossless Language : Italian Default : No Forced : No Text #2 ID : 4 Format : VobSub Codec ID : S_VOBSUB Codec ID/Info : The same subtitle format used on DVDs Language : Italian Default : No Forced : No Text #3 ID : 5 Format : VobSub Codec ID : S_VOBSUB Codec ID/Info : The same subtitle format used on DVDs Language : English Default : No Forced : No Menu 00:00:00.000 : :Capitolo 01 00:09:43.583 : :Capitolo 02 00:19:31.378 : :Capitolo 03 00:29:52.665 : :Capitolo 04 00:40:18.707 : :Capitolo 05 00:50:51.757 : :Capitolo 06 01:00:08.563 : :Capitolo 07 01:10:02.197 : :Capitolo 08 01:20:00.086 : :Capitolo 09 01:31:05.376 : :Capitolo 10 01:40:17.845 : :Capitolo 11 01:49:59.509 : :Capitolo 12 01:53:06.362 : :Capitolo 13 [/spoiler] [/color][/b][/center]

Little Big Soldier (2010).H264.Italian.English.Ac3.5.1.sub.ita.iCV-MIRCrew

Language: | Size: 1.45 GB | Seed: 27 | Leech: 12

Description:

Little Big Soldier (2010).H264.Italian.English.Ac3.5.1.sub.ita.iCV-MIRCrew [center] [color=red][b][img]http://s23.postimg.org/b9yhws27f/0sc_Del1.png[/img] [u]NO FOUND ONLY ORIGINAL RELEASE[/u] [img]http://i.imgur.com/GDNQx1Z.png[/img] My release is always in double track audio italian and Original audio for select it use VLC or dvd player home not use wmp Little Big Soldier (2010) [img]http://extraimage.net/images/2017/01/25/670e1fc64e9d5db608066ba1142dffbf.png[/img] [URL=http://www.imdb.com/title/tt1319718/][IMG]http://www.userlogos.org/files/logos/Sucka/imdb_new.png[/IMG][/URL] [img]http://i.imgur.com/fGu1rKv.png[/img] Titolo originale 大兵小將 Lingua originale cinese Paese di produzione Cina, Hong Kong Anno 2011 Durata 96 min Rapporto 2,35 : 1 Genere azione, avventura, commedia Regia Sheng Ding Produttore Jackie Chan Distribuzione (Italia) One Movie [img]http://i.imgur.com/W7kBqiE.png[/img] Jackie Chan: Piccolo Soldato Leehom Wang: Grande Generale Yu Rongguang: Deputy General Yu Ken Lo: Guard Yong Sung-jun Yoo: Principe Wen Peng Lin: Cantante Baoqiang Wang: Esploratore Yue Wu: Amazzone indigena Xiao Dong Mei: Lou Fan Yan Jun He: Qin General B Song Jin: Lou Fan Wei Yuming Du: Guard Wu [img]http://i.imgur.com/bFK3ggF.png[/img] Cina. Durante il periodo dei regni combattenti (III secolo a.C.) un vecchio e codardo soldato semplice dell'esercito del regno di Liang riesce ad evitare ogni battaglia con una sua semplice invenzione: una freccia finta che, tirando una cordicella, si alza dalla corazza e dà l'impressione che sia stato trafitto. [img]http://i.imgur.com/48xHWWH.png[/img] An old soldier kidnaps a young general of an enemy state and takes him on a long journey to collect the reward. [img]http://i.imgur.com/K8bfNTy.png[/img] [img]http://extraimage.net/images/2017/01/25/7f986e4c873591e4627b3855a6b1f774.png[/img] [img]http://extraimage.net/images/2017/01/25/e655e9365339f6d8434b35d9322aedcd.png[/img] [img]http://extraimage.net/images/2017/01/25/f59dcdf10c1d3b28dd16158076078038.png[/img] [img]http://i.imgur.com/aVrMohH.png[/img] [spoiler] General Unique ID : 34426657896434352271716204688833061524 (0x19E6554830CE183E425C459831392294) Complete name : Little Big Soldier (2010).H264.ita.eng.sub.ita.iCV-MIRCrew.mkv Format : Matroska Format version : Version 2 File size : 1.45 GiB Duration : 1h 35mn Overall bit rate : 2 177 Kbps Movie name : VISIT www.icv-crew.org Encoded date : UTC 2017-01-03 22:58:13 Writing application : Lavf54.63.100 Writing library : Lavf54.63.100 COPYRIGHT : robbyrs Video ID : 1 Format : AVC Format/Info : Advanced Video Codec Format profile : [email protected] Format settings, CABAC : Yes Format settings, ReFrames : 2 frames Codec ID : V_MPEG4/ISO/AVC Duration : 1h 35mn Bit rate : 1 270 Kbps Width : 688 pixels Height : 296 pixels Display aspect ratio : 2.35:1 Original display aspect ratio : 2.35:1 Frame rate mode : Variable Frame rate : 24.000 fps Color space : YUV Chroma subsampling : 4:2:0 Bit depth : 8 bits Scan type : Progressive Bits/(Pixel*Frame) : 0.260 Stream size : 845 MiB (57%) Writing library : x264 core 130 r2273 Encoding settings : cabac=1 / ref=2 / deblock=1:0:0 / analyse=0x1:0x131 / me=hex / subme=7 / psy=1 / psy_rd=1.00:0.00 / mixed_ref=0 / me_range=16 / chroma_me=1 / trellis=1 / 8x8dct=0 / cqm=0 / deadzone=21,11 / fast_pskip=1 / chroma_qp_offset=-2 / threads=12 / lookahead_threads=2 / sliced_threads=0 / nr=0 / decimate=1 / interlaced=0 / bluray_compat=0 / constrained_intra=0 / bframes=3 / b_pyramid=0 / b_adapt=1 / b_bias=0 / direct=3 / weightb=1 / open_gop=0 / weightp=2 / keyint=240 / keyint_min=24 / scenecut=40 / intra_refresh=0 / rc_lookahead=40 / rc=2pass / mbtree=1 / bitrate=1270 / ratetol=1.0 / qcomp=0.60 / qpmin=10 / qpmax=69 / qpstep=4 / cplxblur=20.0 / qblur=0.5 / vbv_maxrate=24000 / vbv_bufsize=24000 / nal_hrd=none / ip_ratio=1.40 / aq=1:1.00 Language : Italian Default : Yes Forced : No DURATION : 01:35:23.459000000 NUMBER_OF_FRAMES : 137363 NUMBER_OF_BYTES : 4005503647 _STATISTICS_WRITING_APP : mkvmerge v9.7.1 ('Pandemonium') 64bit _STATISTICS_WRITING_DATE_UTC : 2017-01-03 22:58:13 _STATISTICS_TAGS : BPS DURATION NUMBER_OF_FRAMES NUMBER_OF_BYTES Audio #1 ID : 2 Format : AC-3 Format/Info : Audio Coding 3 Mode extension : CM (complete main) Codec ID : A_AC3 Duration : 1h 35mn Bit rate mode : Constant Bit rate : 448 Kbps Channel(s) : 6 channels Channel positions : Front: L C R, Side: L R, LFE Sampling rate : 48.0 KHz Bit depth : 16 bits Compression mode : Lossy Delay relative to video : 1mn 5s Stream size : 306 MiB (21%) Language : Italian Default : Yes Forced : No DURATION : 01:35:24.224000000 NUMBER_OF_FRAMES : 178882 NUMBER_OF_BYTES : 320556544 _STATISTICS_WRITING_APP : mkvmerge v9.7.1 ('Pandemonium') 64bit _STATISTICS_WRITING_DATE_UTC : 2017-01-03 22:58:13 _STATISTICS_TAGS : BPS DURATION NUMBER_OF_FRAMES NUMBER_OF_BYTES Audio #2 ID : 3 Format : AC-3 Format/Info : Audio Coding 3 Mode extension : CM (complete main) Codec ID : A_AC3 Duration : 1h 35mn Bit rate mode : Constant Bit rate : 448 Kbps Channel(s) : 6 channels Channel positions : Front: L C R, Side: L R, LFE Sampling rate : 48.0 KHz Bit depth : 16 bits Compression mode : Lossy Delay relative to video : 1mn 5s Stream size : 306 MiB (21%) Language : English Default : No Forced : No DURATION : 01:35:24.224000000 NUMBER_OF_FRAMES : 178882 NUMBER_OF_BYTES : 320556544 _STATISTICS_WRITING_APP : mkvmerge v9.7.1 ('Pandemonium') 64bit _STATISTICS_WRITING_DATE_UTC : 2017-01-03 22:58:13 _STATISTICS_TAGS : BPS DURATION NUMBER_OF_FRAMES NUMBER_OF_BYTES Text #2 ID : 5 Format : VobSub Codec ID : S_VOBSUB Codec ID/Info : The same subtitle format used on DVDs Title : Italiano Language : Italian Default : No Forced : No DURATION : 01:31:38.326000000 NUMBER_OF_FRAMES : 788 NUMBER_OF_BYTES : 4672625 _STATISTICS_WRITING_APP : mkvmerge v9.7.1 ('Pandemonium') 64bit _STATISTICS_WRITING_DATE_UTC : 2017-01-03 22:58:13 _STATISTICS_TAGS : BPS DURATION NUMBER_OF_FRAMES NUMBER_OF_BYTES Menu 00:00:00.000 : :Capitolo 01 00:11:07.500 : :Capitolo 02 00:16:30.208 : :Capitolo 03 00:23:06.375 : :Capitolo 04 00:31:52.833 : :Capitolo 05 00:40:48.125 : :Capitolo 06 00:51:53.750 : :Capitolo 07 01:05:12.500 : :Capitolo 08 01:11:55.667 : :Capitolo 09 01:15:08.667 : :Capitolo 10 01:22:07.875 : :Capitolo 11 01:25:00.708 : :Capitolo 12 [/spoiler] [/color][/b][/center]

Swelter - Vendetta e redenzione (2014).H264.Italian.English.Ac3.5.1.sub.ita.eng.iCV-MIRCrew

Language: | Size: 1.51 GB | Seed: 42 | Leech: 4

Description:

Swelter - Vendetta e redenzione (2014).H264.Italian.English.Ac3.5.1.sub.ita.eng.iCV-MIRCrew [center] [color=red][b][img]http://s23.postimg.org/b9yhws27f/0sc_Del1.png[/img] [u]NO FOUND ONLY ORIGINAL RELEASE[/u] [img]http://i.imgur.com/GDNQx1Z.png[/img] My release is always in double track audio italian and Original audio for select it use VLC or dvd player home not use wmp Vendetta e redenzione - Swelter (2014) [img]http://extraimage.net/images/2017/01/25/aee465badb7a47ce5834da8e714863c1.png[/img] [URL=http://www.imdb.com/title/tt2112277/][IMG]http://www.userlogos.org/files/logos/Sucka/imdb_new.png[/IMG][/URL] [img]http://i.imgur.com/fGu1rKv.png[/img] Titolo originale Swelter Paese di produzione Stati Uniti Anno 2014 Durata 96 min Genere azione, thriller Regia Keith Parmer Soggetto Keith Parmer Sceneggiatura Keith Parmer Produttore Eleonore Dailly Chris Ranta Casa di produzione Entertainm [img]http://i.imgur.com/W7kBqiE.png[/img] Jean-Claude Van Damme: Stillman Lennie James: Bishop Grant Bowler: Cole Josh Henderson: Boyd Alfred Molina: Doc, the town's physician [img]http://i.imgur.com/bFK3ggF.png[/img] La pellicola narra la vicenda della più famosa rapina nella storia di Las Vegas. Cinque uomini, soprannominati il Rat Pack (branco di ratti, ndr.), colpisce il Luxor Casino per oltre cento milioni di dollari. Quattro uomini vengono presto catturati, mentre uno (Van Damme) riesce a sfuggire per un pelo. Dieci anni più tardi, dopo aver creato con la dinamite la loro via d'uscita da una prigione di massima sicurezza............ [img]http://i.imgur.com/48xHWWH.png[/img] Ten years after their casino heist, four escaped convicts trace their former partner to a desert town, where he is now a lawman with no memory of his criminal past. [img]http://i.imgur.com/K8bfNTy.png[/img] [img]http://extraimage.net/images/2017/01/25/21409ff41b3a0287f571ed29f03ec39f.png[/img] [img]http://extraimage.net/images/2017/01/25/ad67e8ee3a9104009a2538e3ff029af5.png[/img] [img]http://extraimage.net/images/2017/01/25/cfce0d75fe7ad5f5e6f22553d2dc0bb9.png[/img] [img]http://i.imgur.com/aVrMohH.png[/img] [spoiler] General Unique ID : 254366058902476937063055623714944732850 (0xBF5D1EF7BBA26428175E5E9AAF9A4EB2) Complete name : Vendetta e redenzione - Swelter (2014).H264.ita.eng.sub.ita.eng.iCV-MIRCrew.mkv Format : Matroska Format version : Version 2 File size : 1.51 GiB Duration : 1h 39mn Overall bit rate : 2 170 Kbps Movie name : VISIT www.icv-crew.org Encoded date : UTC 2017-01-20 19:13:36 Writing application : Lavf54.63.100 Writing library : Lavf54.63.100 COPYRIGHT : robbyrs Video ID : 1 Format : AVC Format/Info : Advanced Video Codec Format profile : [email protected] Format settings, CABAC : Yes Format settings, ReFrames : 2 frames Codec ID : V_MPEG4/ISO/AVC Duration : 1h 39mn Bit rate : 1 270 Kbps Width : 720 pixels Height : 300 pixels Display aspect ratio : 2.40:1 Frame rate mode : Variable Frame rate : 23.976 fps Color space : YUV Chroma subsampling : 4:2:0 Bit depth : 8 bits Scan type : Progressive Bits/(Pixel*Frame) : 0.245 Stream size : 879 MiB (57%) Writing library : x264 core 130 r2273 Encoding settings : cabac=1 / ref=2 / deblock=1:0:0 / analyse=0x1:0x131 / me=hex / subme=7 / psy=1 / psy_rd=1.00:0.00 / mixed_ref=0 / me_range=16 / chroma_me=1 / trellis=1 / 8x8dct=0 / cqm=0 / deadzone=21,11 / fast_pskip=1 / chroma_qp_offset=-2 / threads=12 / lookahead_threads=2 / sliced_threads=0 / nr=0 / decimate=1 / interlaced=0 / bluray_compat=0 / constrained_intra=0 / bframes=3 / b_pyramid=0 / b_adapt=1 / b_bias=0 / direct=3 / weightb=1 / open_gop=0 / weightp=2 / keyint=230 / keyint_min=23 / scenecut=40 / intra_refresh=0 / rc_lookahead=40 / rc=2pass / mbtree=1 / bitrate=1270 / ratetol=1.0 / qcomp=0.60 / qpmin=10 / qpmax=69 / qpstep=4 / cplxblur=20.0 / qblur=0.5 / vbv_maxrate=24000 / vbv_bufsize=24000 / nal_hrd=none / ip_ratio=1.40 / aq=1:1.00 Language : English Default : Yes Forced : No DURATION : 01:39:46.481000000 NUMBER_OF_FRAMES : 143532 NUMBER_OF_BYTES : 7298493121 _STATISTICS_WRITING_APP : mkvmerge v8.7.0 ('All of the above') 64bit _STATISTICS_WRITING_DATE_UTC : 2017-01-11 17:44:24 _STATISTICS_TAGS : BPS DURATION NUMBER_OF_FRAMES NUMBER_OF_BYTES Audio #1 ID : 2 Format : AC-3 Format/Info : Audio Coding 3 Mode extension : CM (complete main) Codec ID : A_AC3 Duration : 1h 39mn Bit rate mode : Constant Bit rate : 448 Kbps Channel(s) : 6 channels Channel positions : Front: L C R, Side: L R, LFE Sampling rate : 48.0 KHz Bit depth : 16 bits Compression mode : Lossy Delay relative to video : 1mn 5s Stream size : 320 MiB (21%) Title : AC3 ITA Language : Italian Default : No Forced : No DURATION : 01:39:48.224000000 NUMBER_OF_FRAMES : 187132 NUMBER_OF_BYTES : 479057920 _STATISTICS_WRITING_APP : mkvmerge v8.7.0 ('All of the above') 64bit _STATISTICS_WRITING_DATE_UTC : 2017-01-11 17:44:24 _STATISTICS_TAGS : BPS DURATION NUMBER_OF_FRAMES NUMBER_OF_BYTES Audio #2 ID : 3 Format : AC-3 Format/Info : Audio Coding 3 Mode extension : CM (complete main) Codec ID : A_AC3 Duration : 1h 39mn Bit rate mode : Constant Bit rate : 448 Kbps Channel(s) : 6 channels Channel positions : Front: L C R, Side: L R, LFE Sampling rate : 48.0 KHz Bit depth : 16 bits Compression mode : Lossy Delay relative to video : 1mn 5s Stream size : 320 MiB (21%) Title : AC3 ENG Language : English Default : No Forced : No DURATION : 01:39:46.624000000 NUMBER_OF_FRAMES : 187082 NUMBER_OF_BYTES : 478929920 _STATISTICS_WRITING_APP : mkvmerge v8.7.0 ('All of the above') 64bit _STATISTICS_WRITING_DATE_UTC : 2017-01-11 17:44:24 _STATISTICS_TAGS : BPS DURATION NUMBER_OF_FRAMES NUMBER_OF_BYTES Text #1 ID : 4 Format : UTF-8 Codec ID : S_TEXT/UTF8 Codec ID/Info : UTF-8 Plain Text Title : Forced Language : Italian Default : Yes Forced : No DURATION : 00:52:23.518000000 NUMBER_OF_FRAMES : 18 NUMBER_OF_BYTES : 551 _STATISTICS_WRITING_APP : mkvmerge v8.7.0 ('All of the above') 64bit _STATISTICS_WRITING_DATE_UTC : 2017-01-11 17:44:24 _STATISTICS_TAGS : BPS DURATION NUMBER_OF_FRAMES NUMBER_OF_BYTES Text #2 ID : 5 Format : UTF-8 Codec ID : S_TEXT/UTF8 Codec ID/Info : UTF-8 Plain Text Title : Regular Language : Italian Default : No Forced : No DURATION : 01:36:46.146000000 NUMBER_OF_FRAMES : 861 NUMBER_OF_BYTES : 29762 _STATISTICS_WRITING_APP : mkvmerge v8.7.0 ('All of the above') 64bit _STATISTICS_WRITING_DATE_UTC : 2017-01-11 17:44:24 _STATISTICS_TAGS : BPS DURATION NUMBER_OF_FRAMES NUMBER_OF_BYTES Text #3 ID : 6 Format : UTF-8 Codec ID : S_TEXT/UTF8 Codec ID/Info : UTF-8 Plain Text Title : Regular Language : English Default : No Forced : No DURATION : 01:37:56.704000000 NUMBER_OF_FRAMES : 948 NUMBER_OF_BYTES : 32154 _STATISTICS_WRITING_APP : mkvmerge v8.7.0 ('All of the above') 64bit _STATISTICS_WRITING_DATE_UTC : 2017-01-11 17:44:24 _STATISTICS_TAGS : BPS DURATION NUMBER_OF_FRAMES NUMBER_OF_BYTES Menu 00:00:00.000 : :00:00:00.000 00:07:40.460 : :00:07:40.460 00:18:18.097 : :00:18:18.097 00:25:28.527 : :00:25:28.527 00:32:20.939 : :00:32:20.939 00:41:01.459 : :00:41:01.459 00:49:42.980 : :00:49:42.980 00:59:27.564 : :00:59:27.564 01:09:11.147 : :01:09:11.147 01:15:37.533 : :01:15:37.533 01:21:47.903 : :01:21:47.903 01:28:51.326 : :01:28:51.326 [/spoiler] [/color][/b][/center]

Citizenfour (2014).H264.Italian.English.Ac3.sub.ita.iCV-MIRCrew

Language: | Size: 1.48 GB | Seed: 28 | Leech: 6

Description:

Citizenfour (2014).H264.Italian.English.Ac3.sub.ita.iCV-MIRCrew [center] [color=red][b][img]http://i.imgur.com/0scDel1.png[/img] [u]NO FOUND ONLY ORIGINAL RELEASE[/u] [img]http://i.imgur.com/GDNQx1Z.png[/img] My release is always in double track audio italian and Original audio for select it use VLC or dvd player home not use wmp Citizenfour (2014) [img]http://extraimage.net/images/2017/01/25/425a95f6a1713f0cc218018a8dda79f1.png[/img] [URL=http://www.imdb.com/title/tt4044364/][IMG]http://www.userlogos.org/files/logos/Sucka/imdb_new.png[/IMG][/URL] [img]http://i.imgur.com/qKKNGHG.png[/img] DATA USCITA: 16 aprile 2015 GENERE: Documentario ANNO: 2014 REGIA: Laura Poitras FOTOGRAFIA: Laura Poitras, Kirsten Johnson, Trevor Paglen, Katy Scoggin MONTAGGIO: Mathilde Bonnefoy DISTRIBUZIONE: I Wonder Pictures PAESE: Germania, USA DURATA: 114 Min [img]http://i.imgur.com/VmqNvIa.png[/img] Edward Snowden, Julian Assange, Glenn Greenwald, Ewen MacAskill [img]http://i.imgur.com/NhlQr0j.png[/img] Ricostruzione della vicenda di Edward Snowden e dello scandalo sulle sorveglianze illegali della NSA americana raccontato dallo stesso protagonista, che ha contattato l'autrice del documentario offrendogli di diffondere ulteriormente la sua storia. [img]http://i.imgur.com/76fgzGF.png[/img] In January 2013, Laura Poitras started receiving anonymous encrypted e-mails from "CITIZENFOUR," who claimed to have evidence of illegal covert surveillance programs run by the NSA in collaboration with other intelligence agencies worldwide. Five months later, she and reporters Glenn Greenwald and Ewen MacAskill flew to Hong Kong for the first of many meetings with the man who turned out to be Edward Snowden. She brought her camera with her. The resulting film is history unfolding before our eyes. [img]http://i.imgur.com/DgAQhgU.png[/img] [img]http://extraimage.net/images/2017/01/25/4bc84f7f62c771bd58afa9d4a8134c29.png[/img] [img]http://extraimage.net/images/2017/01/25/d29d1facec8ce97b8bca9b23f16d9a22.png[/img] [img]http://extraimage.net/images/2017/01/25/843ea325ffc42ee1f52a26b47255594a.png[/img] [img]http://i.imgur.com/DhNFcEV.png[/img] [spoiler] General Unique ID : 188364132769554174961159050405484924853 (0x8DB59CC49AABA7E19B70A45949738FB5) Complete name : Citizenfour (2014).H264.ita.eng.sub.ita.iCV-MIRCrew.mkv Format : Matroska Format version : Version 2 File size : 1.48 GiB Duration : 1h 49mn Overall bit rate : 1 942 Kbps Movie name : CITIZENFOUR.Title1 Encoded date : UTC 2017-01-20 18:11:22 Writing application : DVDFab 9.1.5.7 Writing library : libebml v0.7.8 + libmatroska v0.8.1 Video ID : 1 Format : AVC Format/Info : Advanced Video Codec Format profile : [email protected] Format settings, CABAC : Yes Format settings, ReFrames : 2 frames Codec ID : V_MPEG4/ISO/AVC Duration : 1h 49mn Bit rate : 1 263 Kbps Width : 720 pixels Height : 404 pixels Display aspect ratio : 16:9 Frame rate : 25.000 fps Color space : YUV Chroma subsampling : 4:2:0 Bit depth : 8 bits Scan type : Progressive Bits/(Pixel*Frame) : 0.174 Stream size : 987 MiB (65%) Writing library : x264 core Default : Yes Forced : No Color primaries : BT.601-6 525, BT.1358 525, BT.1700 NTSC, SMPTE 170M Transfer characteristics : BT.709-5, BT.1361 Matrix coefficients : BT.601-6 525, BT.1358 525, BT.1700 NTSC, SMPTE 170M Audio #1 ID : 2 Format : AC-3 Format/Info : Audio Coding 3 Mode extension : CM (complete main) Codec ID : A_AC3 Duration : 1h 49mn Bit rate mode : Constant Bit rate : 192 Kbps Channel(s) : 2 channels Channel positions : Front: L R Sampling rate : 48.0 KHz Bit depth : 16 bits Compression mode : Lossy Stream size : 150 MiB (10%) Language : Italian Default : Yes Forced : No Audio #2 ID : 3 Format : AC-3 Format/Info : Audio Coding 3 Mode extension : CM (complete main) Codec ID : A_AC3 Duration : 1h 49mn Bit rate mode : Constant Bit rate : 448 Kbps Channel(s) : 6 channels Channel positions : Front: L C R, Side: L R, LFE Sampling rate : 48.0 KHz Bit depth : 16 bits Compression mode : Lossy Stream size : 350 MiB (23%) Language : English Default : No Forced : No Text #1 ID : 4 Format : VobSub Codec ID : S_VOBSUB Codec ID/Info : The same subtitle format used on DVDs Language : Italian Default : Yes Forced : No Text #2 ID : 5 Format : VobSub Codec ID : S_VOBSUB Codec ID/Info : The same subtitle format used on DVDs Language : Italian Default : No Forced : No Text #3 ID : 6 Format : VobSub Codec ID : S_VOBSUB Codec ID/Info : The same subtitle format used on DVDs Language : Italian Default : No Forced : No Menu 00:00:00.000 : en:(01)00:00:00:000 00:05:06.880 : en:(02)00:05:06:880 00:08:30.680 : en:(03)00:08:30:680 00:11:50.280 : en:(04)00:11:50:280 00:15:31.800 : en:(05)00:15:31:800 00:20:10.560 : en:(06)00:20:10:560 00:26:42.320 : en:(07)00:26:42:320 00:34:04.680 : en:(08)00:34:04:680 00:39:41.120 : en:(09)00:39:41:120 00:44:09.360 : en:(10)00:44:09:360 00:50:01.520 : en:(11)00:50:01:520 00:56:26.400 : en:(12)00:56:26:400 01:03:42.760 : en:(13)01:03:42:760 01:10:18.880 : en:(14)01:10:18:880 01:16:18.920 : en:(15)01:16:18:920 01:20:11.240 : en:(16)01:20:11:240 01:26:32.840 : en:(17)01:26:32:840 01:30:22.160 : en:(18)01:30:22:160 01:35:58.040 : en:(19)01:35:58:040 01:40:32.720 : en:(20)01:40:32:720 01:46:01.000 : en:(21)01:46:01:000 [/spoiler] [/color][/b][/center]