Search Top Tags














Avira System Speedup 3.0.0.3502 + Crack

Language: | Size: 13.28 MB | Seed: 0 | Leech: 0

Description:

Avira System Speedup 3.0.0.3502 + Crack [TechTools] Avira System Speedup can optimize your PC performance, make your PC faster, more comfortable and more secure with just a few mouse clicks. Avira System Speedup offers you a visual representation of your scores across 3 key characteristics: disk, performance, and privacy. The 1-click scan then drastically increases your speed, cleans your computer, and removes traces of your browsing activities. Additional privacy safeguards, such as file encryption and a digital file shredder, are also included. Avira System Speedup Features: Disk Analyzer. Analyzes hard disk usage and optimizes its use. Disk Doctor. Diagnoses malfunctioning hard drives. Recovery. Enables you to recover or back up files, registers, and master boot records. Network. Gives you a status overview and fixes Internet loss associated with certain types of software. Startup Manager. Improves boot up time by minimizing processes. Registry Cleaner. Detects and cleans registry errors. Junk File Cleaner. Locates and removes obsolete, duplicate, and empty files. Smart Defragmenter. Finds and converts minute, empty space it into useful memory. File Encryption. Makes your saved files unreadable to outsiders. File Shredder. Deletes files beyond recovery. Privacy Cleaner. Automatically erases daily browsing history and data (supports exclusion list and multiple profiles) Disk Wiper. Guarantees that hackers cannot retrieve deleted files. Battery Booster. Optimizes battery use, so the battery will not be drained from unnecessary processes. Uninstaller. Quickly, easily, and permanently uninstalls programs, leaving no trace. Process Manager. Gives you an overview of all active processes and how to stop them. Simple Controls. Your user interface (UI) provides an overview of your gains in performance. What's new : Superior master optimization run New standalone disk defragmenter in the Tools Defragmenter in the device optimization and standalone defragmenter now support SSD TRIM Fix various bugs localization Enhancements Improved interface OS : Windows 10/8/7/Vista/XP (32-bit/64-bit)

Advanced IP Scanner 2.4 Build 3021 + Crack

Language: | Size: 8.72 MB | Seed: 0 | Leech: 0

Description:

Installation Requirements: There is ONLY ONE requirement, 7-Zip installed in your computer. Installation Steps: 1. Download the program file and move to desired destination, either on pc or usb. 2. Double-click the program and installation extracts the files. 3. Then Enjoy the portable version of the software.

Wondershare Data Recovery 5.0.6.1 FULL + Crack

Language: | Size: 26.97 MB | Seed: 0 | Leech: 0

Description:

Wondershare Data Recovery 5.0.6.1 FULL + Crack [TechTools] The Best and Complete Recovery Software for Computer & Storage Devices. Recover files in 550+ formats from your computer storage quickly, safely and completely. Wondershare Data Recovery, a safe and effective data recovery software, retrieves your lost videos, photos, music, documents, emails, etc. from your PC\'s hard drive as well as from USB drives, external hard drives, and other storage devices. Wizard Mode Recovery Just follow the instructions and answer simple questions, then Wondershare Data Recovery will find your lost files immediately. Partition Recovery Efficiently restore your files from deleted, lost, damaged, resized and formatted partition in all file systems (NTFS/FAT 16/FAT 32/exFAT) Lost File Recovery Recover formatted and deleted files with their original file names and paths Raw Recovery It enables you to scan the raw hard drive partitions and provide real-time preview of all recoverable files, then it takes just one click to get the lost files back. Whats New : - File system supported updated. - Fix some bugs.

WinUtilities Pro v13.23 (86x&64x) + Crack

Language: | Size: 6.4 MB | Seed: 0 | Leech: 0

Description:

..: DESCRiPTiON :.. WinUtilities Pro is an award winning collection of tools to optimize and speedup your system performance. this suite contains utilities to clean registry, temporary files on your disks, erase your application and internet browser history, cache and cookies. it also supports to defragment your disk drives and improve computer performance and stability. built-in StartUp Cleaner allows you to control startup programs that load automatically with windows, find duplicate files, fix broken shortcuts and uninstall unneeded software. other features include secure file deletion, recycle bin shredding, system maintenance tasks scheduling and undelete deleted files. ..: iNSTALL/REGiSTER NOTES :.. Use our keymaker to register the application. Thanks for choosing (C)hallenge (O)f (R)everse (E)ngineering!

VSO ConvertXtoDVD V6.0.0.81 (86X&64X) + Crack

Language: | Size: 62.01 MB | Seed: 0 | Leech: 0

Description:

Description: VSO ConvertXtoDVD, VSO ConvertXtoDVD 6 is a software to convert your videos to DVD and watch on any DVD player. It allows to convert Avi to DVD, DivX to DVD, WMV to DVD, RM to DVD, YouTube to DVD etc…and burn automatically to DVD after video conversion. With ConvertXtoDVD and in a few clicks you can backup your movies to DVD playable on any home DVD player. ConvertXtoDVD, the AVI to DVD converter software, has included a conversion advisor tool that will automatically apply the best quality settings based on the videos you have added to your project. Create DVDs from various video formats to watch them on TV with any DVD player. Add 1 or more video files, insert a blank DVD and your videos will be converted and burnt automatically on to DVD with chapters and an elegant DVD menu. No external codecs needed. Features: Convert videos to DVD and watch on any DVD player Burn automatically to DVD after video conversion Excellent quality and fast converter Edit and customize videos http://i0.wp.com/www.4realtorrentz.com/wp-content/uploads/2016/07/2016-07-23-00_44_49-.png

VLC Media Player v2.2.4(64x) + Crack

Language: | Size: 30.61 MB | Seed: 0 | Leech: 0

Description:

VLC Media Player 2.2.1 x86/x64 Final The VideoLAN project targets multimedia streaming of MPEG-1, MPEG-2, MPEG-4 and DivX files, DVDs, digital satellite channels, digital terrestial television channels and live videos on a high-bandwidth IPv4 or IPv6 network in unicast or multicast under many OSes. VideoLAN also features a cross-platform multimedia player, VLC, which can be used to read the stream from the network or display video read locally on the computer under all GNU/Linux flavours, all BSD flavours, Windows, Mac OS X, BeOS, Solaris, QNX, Familiar Linux. VideoLAN is free software, and is released under the GNU General Public License. It started as a student project at the French École Centrale Paris but is now a worldwide project with developers from 20 countries https://2.bp.blogspot.com/--_dTMYKthOE/V1ZBHRU_ZfI/AAAAAAAAG-c/krlq7fV2XYEk7aTJsdaJTDwoB5cUzoCVwCLcB/s1600/vlc%2B1.jpg

Tipard 4K UHD Converter All in One 4K Video Converter + Crack

Language: | Size: 33.28 MB | Seed: 0 | Leech: 0

Description:

Description: Tipard 4K UHD Converter All in One 4K Video Converter, Tipard Video Converter supports converting common videos to HD video and even 3D video with fantastic conversion quality. Any video format like MP4, AVI, WMV, MPEG, 3GP, and more is highly supported by this magic Video Conversion. Just few clicks to get multiple video files. Features: Convert video format to tons of 2D/3D videos at 6X faster speed Support converting videos among MP4/AVI/MPEG/WMV/MOV and more Magic video effect, crop, watermark, clip functions to recreate video Define 3D modes at will – Side by Side, Top and Bottom, and Anaglyph 3D http://www.freedownload64.com/images/full/235979-4videosoft_4k_video_converter_audio___multimedia_rippers___converters.jpeg

Teorex FolderIco - Folder Color Changer v5.1 (86x&64x) + Crack

Language: | Size: 10.91 MB | Seed: 0 | Leech: 0

Description:

Don't you know how to change standard yellow folder to a colourful and bright? FolderIco is a unique application designed to enhance the color to Windows folders. With just a one click, colorize your folders, and discover a new intuitive way to classify your files. A quick look is now enough to identify the folder you are looking for! You can now classify your folders by Priority. Red is an Important folder, Orange is Urgent, Green is Familial. Choose the attributions that you like, so you'll never delete an important folder by error. FolderIco is a very light soft, that doesn't stay in memory. It uses a native functionality of Windows to be more efficient. Discover it's simplicity: with a single right-click on a folder you change it icon! FolderIco is integrated into your Windows Explorer! One right-click on any folder and FolderIco is ready to changing your folder's icon Here are some key features of "FolderIco": Organise your folders more easily: · Don't you know how to change standard yellow folder to a colourful and bright? With FolderIco, give some color to Windows folders. With just a one click, colorize your folders, and discover a new intuitive way to classify your files. A quick look is now enough to identify the folder you are looking for! Classify your folders by Priority: · You can now classify your folders by Priority. Red is an Important folder, Orange is Urgent, Green is Familial... Choose the attributions that you like, so you'll never delete an important folder by error. A fast and light tool: · FolderIco is a very light soft, that doesn't stay in memory. It uses a native functionality of Windows to be more efficient. Discover it's simplicity: with a single right-click on a folder you change it icon! Integration with Windows Explorer: · FolderIco is integrated into your Windows Explorer! One right-click on any folder and FolderIco is ready to changing your folder's icon. Whats New : Added abilty to create custom icons(customize color, folder image and folder overlay) Added dialog to easily select folder icon Added folder tooltip Added user icons manager(user can add and remove any image as folder icon) (1): Please use 7Zip/WinRAR/Universal Extractor to EXTRACT FILES (2): run the setup (3): Use the given serial key to activate (4): Enjoy and Support Developers, Buy It, They Deserved It!

4videosoft PDF Converter Ultimate v3.1.6 (86x&64x) With Crack

Language: | Size: 117.28 MB | Seed: 0 | Leech: 0

Description:

Acting as the professional and comprehensive PDF Converter, 4Videosoft PDF Converter Ultimate can easily convert PDF files to Image, Text, Word, Excel, Powerpoint, ePub, HTML, etc. With the advanced OCR technology, this PDF Converter can convert image-based scanned PDF to text-based TEXT, Word, HTML, ePub freely. To help you fully customize the output file, this PDF Converter Ultimate allows you to define the Layout, Text Encoding, Image Format/Quality/Resolution for the document file as well as setting Size and Color for the image file. Also you can specify the output page(s) and output folder. Convert PDF to Word/Image/Text/Excel/Powerpoint, etc. Define the PDF page(S) you want to convert and set output parameters Support OCR technology to convert image-based scanned PDF Support batches conversion Versatile Converting Function 4Videosoft PDF Converter Ultimate can help you convert PDF to Word in the form of .doc or .rtf for you to read and edit the file on Microsoft 97-2003, 2003, 2007 and 2010. You can use this PDF Converter to convert PDF to Text, then you can fully enjoy the files on WordPad. Also it can convert PDF to other document formats like Excel 97-2003, Excel 2007, Powerpoint 2007, HTML, ePub, etc. With this PDF Converter, you can easily convert PDF to Image JPEG, PNG, GIF, BMP, TGA, PPM, and JPEG2000 and TIFF with high quality. This PDF Converter Ultimate allows you to define the page(s) and page range(s) you want to convert the output file folder. You can choose to convert all pages or specific page(s). Batches conversion helps you input multiple PDF files at the same time and then convert them to different output formats. With this PDF Converter, you can check to keep the original layout. And you are enabled to specify the Text Encoding, Image Format/ Quality/ Resolution and so on. For document file, the OCR technology with this PDF Converter Ultimate can help you recognize the text from image-based PDF file to convert to text-based file. It supports different recognition languages for you to choose output languages so as to improve the accuracy of the output document file. Convenient and Efficient This PDF Converter supports multi-language PDF files, including English, Turkish, Thai, Latin, Korean, Greek, Cyrillic, Arabic, Japanese, and Chinese, etc. Four interface language English, Japanese, French and German is convenient for users from different language regions. 4Videosoft PDF Converter Ultimate has the intuitive interface and simple process, which is easy to use for even beginners without much computer knowledge. And this software can convert PDF files with high speed and quality. System Requirement of PDF Converter Ultimate OS Supported: Windows 8, Windows 7, Windows Vista, Windows XP (SP2 or later) Hardware Requirements: 800MHz Intel or AMD CPU, or above; 512MB RAM or more [INSTALLATION] - Unrar with you favorite archiver, such as WinRar - Run Setup and Install, - Copy the patch to installation dir, and run it from there with admin rights. - Ok, It's Activated! • Thats it! Done. • Supp0rt th3 D3v3lop3r if you liK3 it. 3Nj0Y!!!

4Videosoft DVD Converter Suite v5.0.56 (86x&64x) With Crack

Language: | Size: 105.97 MB | Seed: 0 | Leech: 0

Description:

4Videosoft DVD to Nokia Converter - rip DVD to mobile phones Nokia, support for Nokia MP4 and other formats, extract audio from DVD to Nokia MP3, AAC, WAV formats, support for Nokia N90, Nokia 6205, Nokia E71, Nokia 5800, Nokia E63, Nokia E75, Nokia E71, Nokia N96 and other select files to extract, Setting conservation, batch conversion, preview of the embedded player, audio normalization. Features: • rip DVD to Nokia mobile phones • Support for Nokia MP4 and other formats • Extract audio from DVD to Nokia MP3, AAC, WAV formats • Support for Nokia N90, Nokia 6205, Nokia E71, Nokia 5800, Nokia E63, Nokia E75, Nokia E71, Nokia N96 and other • Select files for recovery • Setting conservation • Batch conversion • Preview of the embedded player • Normalize audio • High speed • High quality results • Pleasant and easy to use interface Installation : Application : 4Videosoft DVD to Nokia Converter 3.3.30 Rar format * after downloading torrent,unrar it with winrar ** inside the unrar folder you will find the setup and crack *** run dvd-to-nokia-converter to install the program **** after installation dont run program yet ***** copy the crack folder contents to : C:\Program Files\4Videosoft Studio\4Videosoft DVD to Nokia Converter\dll and replace the original file ****** run the program and register it with anything Example : Name : TIMETRAVEL Serial : 777777 Done Enjoy >>>>

The High Sun - Sole alto - Zvizdan (2015).H264.Italian.Ac3.5.1.sub.eng.NUita.iCV-MIRCrew

Language: | Size: 1.59 GB | Seed: 14 | Leech: 3

Description:

The High Sun - Sole alto - Zvizdan (2015).H264.Italian.Ac3.5.1.sub.eng.NUita.iCV-MIRCrew [center] [color=red][b][img]http://i.imgur.com/0scDel1.png[/img] [u]NO FOUND ONLY ORIGINAL RELEASE[/u] [img]http://i.imgur.com/GDNQx1Z.png[/img] My release is always in double track audio italian and Original audio for select it use VLC or dvd player home not use wmp ENGLISH SUBTITLE INSIDE The High Sun - Sole alto - Zvizdan (2015) [img]http://extraimage.net/images/2017/01/19/52ada44fe61e99031409ec87137a5eca.png[/img] [URL=http://www.imdb.com/title/tt4593108/][IMG]http://www.userlogos.org/files/logos/Sucka/imdb_new.png[/IMG][/URL] [img]http://i.imgur.com/qKKNGHG.png[/img] GENERE: Drammatico ANNO: 2015 REGIA: Dalibor Matanic SCENEGGIATURA: Dalibor Matanic MONTAGGIO: Tomislav Pavlic PRODUZIONE: Kinorama, Gustav Film, See Film DISTRIBUZIONE: Tucker Film PAESE: Croazia DURATA: 123 Min [img]http://i.imgur.com/VmqNvIa.png[/img] Tihana Lazovic, Goran Markovic, Nives Ivankovic, Dado Cosic, Stipe Radoja [img]http://i.imgur.com/NhlQr0j.png[/img] Sole alto racconta l’amore fra un ragazzo croato e una ragazza serba. Un amore che il regista, Dalibor Matanić moltiplica per tre volte nell’arco di tre decenni consecutivi: stessi attori, ma coppie diverse, dentro il cuore avvelenato di due villaggi balcanici. [img]http://i.imgur.com/76fgzGF.png[/img] Three different love stories, set in three consecutive decades, in two neighbouring Balkan villages burdened with a long history of inter-ethnic hatred: this is a film about the dangers - and the enduring strength - of forbidden love. [img]http://i.imgur.com/DgAQhgU.png[/img] [url=https://extraimage.net/image/2mQS][img]http://extraimage.net/images/2017/01/19/0872394af0db054c58418ef8bf3c298c.th.png[/img][/url] [url=https://extraimage.net/image/2mQO][img]http://extraimage.net/images/2017/01/19/1f3b73b6c275d7802f0bdc38f877824a.th.png[/img][/url] [url=https://extraimage.net/image/2mQq][img]http://extraimage.net/images/2017/01/19/9f745657905f5f89ff5ba9225038fef3.th.png[/img][/url] [url=https://extraimage.net/image/2mQy][img]http://extraimage.net/images/2017/01/19/f672f78b48e1338d5c58ff526b9a8a6e.th.png[/img][/url] [img]http://i.imgur.com/DhNFcEV.png[/img] [spoiler] General Unique ID : 250359197190979631502018104054881326689 (0xBC596D6ED2DEC6F4A695DC68DDAA1661) Complete name : Sole alto - Zvizdan (2015).H264.ita.sub.NUita.eng.iCV-MIRCrew.mkv Format : Matroska Format version : Version 2 File size : 1.59 GiB Duration : 1h 58mn Overall bit rate : 1 917 Kbps Encoded date : UTC 2016-11-12 08:02:12 Writing application : DVDFab 9.1.5.7 Writing library : libebml v0.7.8 + libmatroska v0.8.1 Video ID : 1 Format : AVC Format/Info : Advanced Video Codec Format profile : [email protected] Format settings, CABAC : Yes Format settings, ReFrames : 2 frames Codec ID : V_MPEG4/ISO/AVC Duration : 1h 58mn Bit rate : 1 239 Kbps Width : 720 pixels Height : 300 pixels Display aspect ratio : 2.40:1 Frame rate : 25.000 fps Color space : YUV Chroma subsampling : 4:2:0 Bit depth : 8 bits Scan type : Progressive Bits/(Pixel*Frame) : 0.229 Stream size : 1.03 GiB (65%) Writing library : x264 core Default : Yes Forced : No Color primaries : BT.601-6 525, BT.1358 525, BT.1700 NTSC, SMPTE 170M Transfer characteristics : BT.709-5, BT.1361 Matrix coefficients : BT.601-6 525, BT.1358 525, BT.1700 NTSC, SMPTE 170M Audio #1 ID : 3 Format : AC-3 Format/Info : Audio Coding 3 Mode extension : CM (complete main) Codec ID : A_AC3 Duration : 1h 58mn Bit rate mode : Constant Bit rate : 448 Kbps Channel(s) : 6 channels Channel positions : Front: L C R, Side: L R, LFE Sampling rate : 48.0 KHz Bit depth : 16 bits Compression mode : Lossy Stream size : 381 MiB (23%) Language : Italian Default : No Forced : No Text #1 ID : 4 Format : VobSub Codec ID : S_VOBSUB Codec ID/Info : The same subtitle format used on DVDs Language : Italian Default : Yes Forced : No Text #2 ID : 5 Format : VobSub Codec ID : S_VOBSUB Codec ID/Info : The same subtitle format used on DVDs Language : Italian Default : No Forced : No Menu 00:00:00.000 : en:(01)00:00:00:000 00:07:29.520 : en:(02)00:07:29:520 00:14:10.160 : en:(03)00:14:10:160 00:21:19.840 : en:(04)00:21:19:840 00:26:18.920 : en:(05)00:26:18:920 00:30:47.960 : en:(06)00:30:47:960 00:37:11.840 : en:(07)00:37:11:840 00:42:39.440 : en:(08)00:42:39:440 00:48:05.840 : en:(09)00:48:05:840 00:56:25.120 : en:(10)00:56:25:120 01:01:18.040 : en:(11)01:01:18:040 01:09:08.720 : en:(12)01:09:08:720 01:16:14.600 : en:(13)01:16:14:600 01:23:12.320 : en:(14)01:23:12:320 01:29:45.160 : en:(15)01:29:45:160 01:39:59.400 : en:(16)01:39:59:400 01:48:04.400 : en:(17)01:48:04:400 01:54:52.960 : en:(18)01:54:52:960 [/spoiler] [/color][/b][/center]

Death Race 2050 (2016).H264.Italian.English.Ac3.5.1.sub.ita.eng.iCV-MIRCrew

Language: | Size: 1.41 GB | Seed: 63 | Leech: 13

Description:

Death Race 2050 (2016).H264.Italian.English.Ac3.5.1.sub.ita.eng.iCV-MIRCrew [center] [color=red][b][img]http://s23.postimg.org/b9yhws27f/0sc_Del1.png[/img] [u]NO FOUND ONLY ORIGINAL RELEASE[/u] [img]http://i.imgur.com/GDNQx1Z.png[/img] My release is always in double track audio italian and Original audio for select it use VLC or dvd player home not use wmp Death Race 2050 (2016) [img]http://boltimg.com/images/um7A7.png[/img] [URL=http://www.imdb.com/title/tt5493706/][IMG]http://www.userlogos.org/files/logos/Sucka/imdb_new.png[/IMG][/URL] [img]http://i.imgur.com/fGu1rKv.png[/img] Death Race 2050 USA 2016 Genere: Azione Durata 100' Regia di G.J. Echternkamp [img]http://i.imgur.com/W7kBqiE.png[/img] Manu Bennett, Malcolm McDowell, Marci Miller, Burt Grinstead, Folake Olowofoyeku, Anessa Ramsey, Yancy Butler, Charlie Farrell [img]http://i.imgur.com/bFK3ggF.png[/img] In un futuro non troppo lontano, l'America è controllata da un onnipotente governo aziendale che mantiene le masse sopite con intrattenimento a base di violenza e realtà virtuale. L'evento dell'anno è la Death Race, dove un vasto assortimento di piloti compete in una corsa su strada che attraversa il paese, segnando punti per la corsa investendo pedoni e uccidendosi a vicenda. [img]http://i.imgur.com/48xHWWH.png[/img] The year 2050 the planet has become overpopulated, to help control population the government develops a race. The Death Race. Annually competitors race across the country scoring points for... [img]http://i.imgur.com/K8bfNTy.png[/img] [img]http://boltimg.com/images/umR1f.png[/img] [url=https://postimg.org/image/4ncga2n0v/][img]https://s19.postimg.org/4ncga2n0v/vlcsnap_2017_01_19_14h39m25s170.png[/img][/url] [url=https://postimg.org/image/ovztvsmbz/][img]https://s19.postimg.org/ovztvsmbz/vlcsnap_2017_01_19_14h39m31s253.png[/img][/url] [url=https://postimg.org/image/ezyqw5gjz/][img]https://s19.postimg.org/ezyqw5gjz/vlcsnap_2017_01_19_14h39m45s136.png[/img][/url] [url=https://postimg.org/image/41nhdyryn/][img]https://s19.postimg.org/41nhdyryn/vlcsnap_2017_01_19_14h39m55s250.png[/img][/url] [img]http://i.imgur.com/aVrMohH.png[/img] [spoiler] Generale ID univoco : 83141062026991307369406535228359103980 (0x3E8C62D739F3F038DC74B260730AD5EC) Nome completo : Death Race 2050 (2016).H264.ita.eng.sub.ita.eng.iCV-MIRCrew.mkv Formato : Matroska Versione formato : Version 2 Dimensione : 1,41 GiB Durata : 1o 32min Bitrate totale : 2.171 Kbps Film : VISIT www.icv-crew.org Data codifica : UTC 2017-01-18 19:27:47 / UTC 2017-01-18 19:27:47 Creato con : Lavf54.63.100 Compressore : Lavf54.63.100 / Lavf54.63.100 Copyright : robbyrs Video ID : 1 Formato : AVC Formato/Informazioni : Advanced Video Codec Profilo formato : [email protected] Impostazioni formato, CABAC : Si Impostazioni formato, ReFrames : 2 frame ID codec : V_MPEG4/ISO/AVC Durata : 1o 32min Bitrate : 1.270 Kbps Larghezza : 720 pixel Altezza : 404 pixel Rapporto aspetto visualizzazione : 16:9 Modalità frame rate : Costante Frame rate : 23,976 (24000/1001) fps Spazio colore : YUV Croma subsampling : 4:2:0 Profondità bit : 8 bit Tipo scansione : Progressivo Bit/(pixel*frame) : 0.182 Dimensione della traccia : 817MiB (57%) Compressore : x264 core 130 r2273 Impostazioni compressione : cabac=1 / ref=2 / deblock=1:0:0 / analyse=0x1:0x131 / me=hex / subme=7 / psy=1 / psy_rd=1.00:0.00 / mixed_ref=0 / me_range=16 / chroma_me=1 / trellis=1 / 8x8dct=0 / cqm=0 / deadzone=21,11 / fast_pskip=1 / chroma_qp_offset=-2 / threads=12 / lookahead_threads=2 / sliced_threads=0 / nr=0 / decimate=1 / interlaced=0 / bluray_compat=0 / constrained_intra=0 / bframes=3 / b_pyramid=0 / b_adapt=1 / b_bias=0 / direct=3 / weightb=1 / open_gop=0 / weightp=2 / keyint=230 / keyint_min=23 / scenecut=40 / intra_refresh=0 / rc_lookahead=40 / rc=2pass / mbtree=1 / bitrate=1270 / ratetol=1.0 / qcomp=0.60 / qpmin=10 / qpmax=69 / qpstep=4 / cplxblur=20.0 / qblur=0.5 / vbv_maxrate=24000 / vbv_bufsize=24000 / nal_hrd=none / ip_ratio=1.40 / aq=1:1.00 Lingua : Inglese Default : Si Forced : No Statistics Tags Issue : mkvmerge v8.3.0 ('Over the Horizon') 64bit 2017-01-18 19:27:47 / Lavf54.63.100 2017-01-18 19:27:47 / UTC 2017-01-18 19:27:47 FromStats_BitRate : 9985546 FromStats_Duration : 01:32:42.516000000 FromStats_FrameCount : 133367 FromStats_StreamSize : 6943095040 Audio #1 ID : 2 Formato : AC-3 Formato/Informazioni : Audio Coding 3 Estensione modo : CM (complete main) Impostazioni formato, Endianness : Big ID codec : A_AC3 Durata : 1o 32min Modalità bitrate : Costante Bitrate : 448 Kbps Canali : 6 canali Posizione canali : Front: L C R, Side: L R, LFE Frequenza campionamento : 48,0 KHz Frame rate : 31,250 fps (1536 spf) Profondità bit : 16 bit Modo compressione : Con perdita Ritardo video : -5ms Dimensione della traccia : 297MiB (21%) Titolo : AC3 iTA Lingua : Italiano Default : No Forced : No Statistics Tags Issue : mkvmerge v8.3.0 ('Over the Horizon') 64bit 2017-01-18 19:27:47 / Lavf54.63.100 2017-01-18 19:27:47 / UTC 2017-01-18 19:27:47 FromStats_BitRate : 640000 FromStats_Duration : 01:32:42.592000000 FromStats_FrameCount : 173831 FromStats_StreamSize : 445007360 Audio #2 ID : 3 Formato : AC-3 Formato/Informazioni : Audio Coding 3 Estensione modo : CM (complete main) Impostazioni formato, Endianness : Big ID codec : A_AC3 Durata : 1o 32min Modalità bitrate : Costante Bitrate : 448 Kbps Canali : 6 canali Posizione canali : Front: L C R, Side: L R, LFE Frequenza campionamento : 48,0 KHz Frame rate : 31,250 fps (1536 spf) Profondità bit : 16 bit Modo compressione : Con perdita Ritardo video : -5ms Dimensione della traccia : 297MiB (21%) Titolo : AC3 ENG Lingua : Inglese Default : No Forced : No Statistics Tags Issue : mkvmerge v8.3.0 ('Over the Horizon') 64bit 2017-01-18 19:27:47 / Lavf54.63.100 2017-01-18 19:27:47 / UTC 2017-01-18 19:27:47 FromStats_BitRate : 640000 FromStats_Duration : 01:32:42.592000000 FromStats_FrameCount : 173831 FromStats_StreamSize : 445007360 Testo #1 ID : 4 Formato : ASS ID codec : S_TEXT/ASS ID codec/Informazioni : Advanced Sub Station Alpha Modo compressione : Senza perdita Titolo : FORCED iTA Lingua : Italiano Default : Si Forced : No Statistics Tags Issue : mkvmerge v8.3.0 ('Over the Horizon') 64bit 2017-01-18 19:27:47 / Lavf54.63.100 2017-01-18 19:27:47 / UTC 2017-01-18 19:27:47 FromStats_BitRate : 3 FromStats_Duration : 01:31:00.539000000 FromStats_FrameCount : 80 FromStats_StreamSize : 2320 Testo #2 ID : 5 Formato : UTF-8 ID codec : S_TEXT/UTF8 ID codec/Informazioni : UTF-8 Plain Text Titolo : REGULAR iTA Lingua : Italiano Default : No Forced : No Statistics Tags Issue : mkvmerge v8.3.0 ('Over the Horizon') 64bit 2017-01-18 19:27:47 / Lavf54.63.100 2017-01-18 19:27:47 / UTC 2017-01-18 19:27:47 FromStats_BitRate : 55 FromStats_Duration : 01:31:35.907000000 FromStats_FrameCount : 1154 FromStats_StreamSize : 38171 Testo #3 ID : 6 Formato : UTF-8 ID codec : S_TEXT/UTF8 ID codec/Informazioni : UTF-8 Plain Text Titolo : REGULAR ENG Lingua : Inglese Default : No Forced : No Statistics Tags Issue : mkvmerge v8.3.0 ('Over the Horizon') 64bit 2017-01-18 19:27:47 / Lavf54.63.100 2017-01-18 19:27:47 / UTC 2017-01-18 19:27:47 FromStats_BitRate : 55 FromStats_Duration : 01:27:44.052000000 FromStats_FrameCount : 1129 FromStats_StreamSize : 36648 Menu 00:00:00.000 : :00:00:00.000 00:04:27.917 : :00:04:27.917 00:10:59.292 : :00:10:59.292 00:18:33.375 : :00:18:33.375 00:26:30.750 : :00:26:30.750 00:31:21.500 : :00:31:21.500 00:40:50.167 : :00:40:50.167 00:46:56.083 : :00:46:56.083 00:55:54.125 : :00:55:54.125 01:03:34.625 : :01:03:34.625 01:09:01.500 : :01:09:01.500 01:14:45.083 : :01:14:45.083 01:15:18.222 : :01:15:18.222 01:21:26.882 : :01:21:26.882 01:24:49.668 : :01:24:49.668 01:28:54.829 : :01:28:54.829 [/spoiler] [/color][/b][/center]

Massimo Lopez, Anna Marchesini e Tullio Solenghi - I Promessi Sposi

Language: | Size: 2.73 GB | Seed: 0 | Leech: 18

Description:

I promessi sposi secondo il Trio (Massimo Lopez, Anna Marchesini e Tullio Solenghi)

Red Dawn - Alba Rossa (2012)

Language: | Size: 1014.26 MB | Seed: 1 | Leech: 1

Description:

Una potenza d'oltreoceano invade, a sorpresa, gli Stati Uniti D'America. Dopo lo shock iniziale, seguito da massacri e internamenti in campi di lavoro, i superstiti ancora in libertà decidono di coalizzarsi contro il nemico. Tra di loro vi è anche un gruppo di studenti fuggiti sulle montagne.

Festivalbar compilation 2001 CD Rossi

Language: | Size: 252.19 MB | Seed: 1 | Leech: 0

Description:

Festivalbar 2001 è una compilation di brani musicali famosi nel 2001, pubblicata nell'estate di quell'anno in concomitanza con l'edizione omonima del Festivalbar. La compilation, in realtà divisa in due diverse pubblicazioni e differenziata con copertine "rossa" e "blu", è composta da quattro cd da 18 tracce l'uno, e i dischi sono equamente divisi, due nella "rossa" e due nella "blu CD1 Vasco Rossi - Siamo soli Janet Jackson - All for You Ronan Keating - Lovin' Each Day Alex Britti - Io con la ragazza mia tu con la ragazza tua Nelly Furtado - I'm Like a Bird Gorillaz - Clint Eastwood Dakar and Grinser - Stay with Me Eve - Who's That Girl Tricarico - Drago Gazosa - www.mipiacitu Paulina Rubio - Lo haré por ti The Ark - It Takes a Fool to Remain Sane Modjo - Chillin' Depeche Mode - Dream On Reggae National Tickets - I Got U Baby Standfast - Carcrashes Paps'n'Skar - Get It On Bryan Adams - I'm Ready CD2 Bon Jovi - One Wild Night Texas - Inner Smile Emma Bunton - What Took You So Long? Neffa - La mia signorina Robbie Williams - Let Love Be Your Energy Mark Lopez - Guitar Noelia - Candela Davide De Marinis - La pancia Kelly Joyce - Avec l'amour Coldplay - Don't Panic Roxette - Real Sugar Lionel Richie - Cinderella Velvet - Boyband DeNiro - Rock with You Giuliano Palma & the Bluebeaters - Che cosa c'è Lùnapop - Vespa special Jarabe De Palo - Dos dias en la vida Bond - Victory

Prima.Di.Lunedi.2016.iTALiAN.AC3.DVDRip.XviD-T4P3

Language: | Size: 1.37 GB | Seed: 36 | Leech: 50

Description:

Prima di lunedì Titolo originale: Prima di lunedì Conosciuto anche come: Nazione: Italia Anno: 2016 Genere: Commedia Durata: 90' Regia: Massimo Cappelli Cast: Vincenzo Salemme, Fabio Troiano, Andrea Di Maria, Martina Stella, Sandra Milo, Sergio Muniz, Antonio Guerriero Produzione: Lime Film Distribuzione: Koch Media Data di uscita: 22 Settembre 2016 (cinema) Trama: Carlito, è una persona complessa, un esteta orgoglioso di essere italiano. Possiede molte vecchie 500 di tutti i colori e una catena di supermercati. Carlito deve far consegnare uno strano uovo di Pasqua molto appetibile... Siamo in agosto, è pomeriggio, Torino è deserta. Marco e Andrea, amici inseparabili, legati da Penelope, sorella di Andrea ed ex di Marco, sono proprio sulla strada di Carlito e della sua 500 verde. Penelope sta per sposarsi. Marco – che sta guidando - non è stato invitato. Mentre si affanna a convincere l’amico che non gli importa nulla del matrimonio e di Penelope, finisce dritto contro la 500. Ora i due sono in debito con Carlito...

Various Artists - Now That's What I Call Music! 95 (2016) (by emi)

Language: | Size: 229.45 MB | Seed: 706 | Leech: 237

Description:

mp3 a 192 kbps audio di qualità a 95 db Tracklist CD 1 01 - James Arthur - Say You Won't Let Go.mp3 (5.1 MB) 02 - Little Mix - Shout Out To My Ex.mp3 (5.9 MB) 03 - Clean Bandit (ft. Sean Paul & Anne-Marie) - Rockabye.mp3 (6.0 MB) 04 - The Chainsmokers (feat. Halsey) - Closer.mp3 (5.9 MB) 05 - Major Lazer (feat. Justin Bieber & M0) - Cold Water .mp3 (4.5 MB) 06 - Ariana Grande (feat. Nicki Minaj) - Side To Side.mp3 (5.4 MB) 07 - Sia - The Greatest.mp3 (5.0 MB) 08 - Calvin Harris - My Way.mp3 (5.3 MB) 09 - Hailee Steinfeld, Grey (feat. Zedd) - Starving .mp3 (4.4 MB) 10 - M.O - Who Do You Think Of.mp3 (5.4 MB) 11 - NEIKED (feat. Dyo) - Sexual.mp3 (4.6 MB) 12 - Anne-Marie - Alarm.mp3 (5.7 MB) 13 - Olly Murs - You Don't Know Love.mp3 (4.8 MB) 14 - M0 - Final Song.mp3 (6.0 MB) 15 - Maroon 5 - Don't Wanna Know.mp3 (5.2 MB) CD 2 01 - JP Cooper - September Song.mp3 (5.3 MB) 02 - Shawn Mendes - Mercy.mp3 (5.0 MB) 03 - Ellie Goulding - Still Falling For You.mp3 (5.8 MB) 04 - Emeli Sande - Hurts.mp3 (4.8 MB) 05 - Michael Buble - I Believe In You.mp3 (4.8 MB) 06 - Craig David - All We Needed.mp3 (5.2 MB) 07 - Drake (feat. Kyla & Wizki) - One Dance.mp3 (3.3 MB) 08 - DJ Snake (feat. Justin Bieber) - Let Me Love You.mp3 (5.0 MB) 09 - Fifth Harmony - That's My Girl.mp3 (5.4 MB) 10 - Sigma (feat. Birdy) - Find Me.mp3 (5.0 MB) 11 - Martin Garrix & Bebe Rexha - In The Name Of Love.mp3 (4.8 MB) 12 - Nevada (feat. Mark Morrison And Fetty Wap) - The Mack.mp3 (4.1 MB) 13 - Tieks (feat. Dan Harkna) - Sunshine.mp3 (6.1 MB) 14 - Zara Larsson - Ain't My Fault.mp3 (5.4 MB) 15 - Bob Marley (feat. LVNDSCAPE & Bolier) - Is This Love.mp3 (4.8 MB) CD 3 01 - Cash Cash & Digital Farm Animals (feat. Nelly) - Millionaire.mp3 (4.7 MB) 02 - Snakehips (feat. ZAYN) - Cruel.mp3 (6.2 MB) 03 - Matoma & Becky Hill - False Alarm.mp3 (5.3 MB) 04 - Galantis & Hook N Sling - Love On Me.mp3 (5.0 MB) 05 - Charli XCX (feat. Lil Yachty) - After The Afterparty.mp3 (5.3 MB) 06 - Dua Lipa - Blow Your Mind.mp3 (4.3 MB) 07 - Louisa Johnson - So Good.mp3 (4.6 MB) 08 - James TW - When You Love Someone.mp3 (5.5 MB) 09 - Wilkinson (feat. Karen Harding) - Sweet Lies.mp3 (5.5 MB) 10 - Craig David & Sigala - Ain't Giving Up.mp3 (3.9 MB) 11 - Charlie Puth - Dangerously.mp3 (4.8 MB) 12 - Offaiah - Trouble.mp3 (5.2 MB) 13 - Christine And The Queens - Tilted.mp3 (5.6 MB) 14 - Lady Gaga - Perfect Illusion.mp3 (4.4 MB) 15 - Niall Horan - This Town.mp3 (5.3 MB)

Lock e Stock - Pazzi scatenati (1998).H264.Italian.English.Ac3.5.1.iCV-MIRCrew

Language: | Size: 1.62 GB | Seed: 64 | Leech: 9

Description:

Lock, Stock and Two Smoking Barrels - Lock & Stock - Pazzi scatenati (1998).H264.Italian.English.Ac3.5.1.sub.ita.NUita.iCV-MIRCrew [center] [color=red][b][img]http://s23.postimg.org/b9yhws27f/0sc_Del1.png[/img] [u]NO FOUND ONLY ORIGINAL RELEASE[/u] [img]http://i.imgur.com/GDNQx1Z.png[/img] My release is always in double track audio italian and Original audio for select it use VLC or dvd player home not use wmp Lock & Stock - Pazzi scatenati - Lock, Stock and Two Smoking Barrels (1998) [img]https://extraimage.net/images/2017/01/18/f61a14a88b9882a53a8d78913a7554d1.png[/img] [URL=http://www.imdb.com/title/tt0120735/][IMG]http://www.userlogos.org/files/logos/Sucka/imdb_new.png[/IMG][/URL] [img]http://i.imgur.com/fGu1rKv.png[/img] GENERE: Commedia ANNO: 1998 REGIA: Guy Ritchie SCENEGGIATURA: Guy Ritchie FOTOGRAFIA: Tim Maurice-Jones MONTAGGIO: Niven Howie MUSICHE: David A. Hughes, John Murphy (II) PRODUZIONE: MATTHEW VAUGHN DISTRIBUZIONE: CECCHI GORI DISTRIBUZIONE (1999) - CECCHI GORI HOME VIDEO PAESE: Gran Bretagna DURATA: 107 Min [img]http://i.imgur.com/W7kBqiE.png[/img] Steven Mackintosh, Huggy Leaver, Nicholas Rowe, Steve Sweeney, Ronnie Fox, Sting, Nick Moran, Jason Statham, Vinnie Jones, Peter McNicholl, Frank Harper, Tony McMahon, Nick Marq, Charles Forbes, Lenny McLean, Dexter Fletcher, Jason Flemyng [img]http://i.imgur.com/bFK3ggF.png[/img] Quattro giovani della fascia proletaria di Londra, (Eddy, Bacon, Tom, Soap) mettono insieme la bella somma di 100mila sterline per potere giocare a poker allo stesso tavolo di Hatchet Harry, spietato gangster che spadroneggia nell'east end della città [img]http://i.imgur.com/48xHWWH.png[/img] A botched card game in London triggers four friends, thugs, weed-growers, hard gangsters, loan sharks and debt collectors to collide with each other in a series of unexpected events, all for the sake of weed, cash and two antique shotguns. [img]http://i.imgur.com/K8bfNTy.png[/img] [url=https://extraimage.net/image/2RHt][img]http://extraimage.net/images/2017/01/18/be48e5955ffbcdc59d0be8321c527bbe.th.png[/img][/url] [url=https://extraimage.net/image/2RHo][img]http://extraimage.net/images/2017/01/18/a331f76672af98e4a3be4eb522fb2776.th.png[/img][/url] [url=https://extraimage.net/image/2RHx][img]http://extraimage.net/images/2017/01/18/0c00d42ae7e49b51e7fe26f5140d1999.th.png[/img][/url] [img]http://i.imgur.com/aVrMohH.png[/img] [spoiler] General Unique ID : 221567656002870885972769099707945560320 (0xA6B060DAE9F9424376AFDF8B2DC3A900) Complete name : Lock, Stock and Two Smoking Barrels (1998).H264.ita.eng.sub.ita.iCV-MIRCrew.mkv Format : Matroska Format version : Version 2 File size : 1.62 GiB Duration : 1h 47mn Overall bit rate : 2 165 Kbps Movie name : VISIT www.icv-crew.org Encoded date : UTC 2012-07-21 18:56:54 Writing application : Lavf54.63.100 Writing library : Lavf54.63.100 COPYRIGHT : robbyrs Video ID : 1 Format : AVC Format/Info : Advanced Video Codec Format profile : [email protected] Format settings, CABAC : Yes Format settings, ReFrames : 2 frames Codec ID : V_MPEG4/ISO/AVC Duration : 1h 47mn Bit rate : 1 280 Kbps Width : 688 pixels Height : 374 pixels Display aspect ratio : 1.850 Frame rate mode : Variable Frame rate : 23.976 fps Color space : YUV Chroma subsampling : 4:2:0 Bit depth : 8 bits Scan type : Progressive Bits/(Pixel*Frame) : 0.207 Stream size : 941 MiB (57%) Writing library : x264 core 130 r2273 Encoding settings : cabac=1 / ref=2 / deblock=1:0:0 / analyse=0x1:0x131 / me=hex / subme=7 / psy=1 / psy_rd=1.00:0.00 / mixed_ref=0 / me_range=16 / chroma_me=1 / trellis=1 / 8x8dct=0 / cqm=0 / deadzone=21,11 / fast_pskip=1 / chroma_qp_offset=-2 / threads=12 / lookahead_threads=2 / sliced_threads=0 / nr=0 / decimate=1 / interlaced=0 / bluray_compat=0 / constrained_intra=0 / bframes=3 / b_pyramid=0 / b_adapt=1 / b_bias=0 / direct=3 / weightb=1 / open_gop=0 / weightp=2 / keyint=230 / keyint_min=23 / scenecut=40 / intra_refresh=0 / rc_lookahead=40 / rc=abr / mbtree=1 / bitrate=1280 / ratetol=1.0 / qcomp=0.60 / qpmin=10 / qpmax=69 / qpstep=4 / vbv_maxrate=24000 / vbv_bufsize=24000 / nal_hrd=none / ip_ratio=1.40 / aq=1:1.00 Language : Italian Default : Yes Forced : No Audio #1 ID : 2 Format : AC-3 Format/Info : Audio Coding 3 Mode extension : CM (complete main) Codec ID : A_AC3 Duration : 1h 47mn Bit rate mode : Constant Bit rate : 448 Kbps Channel(s) : 6 channels Channel positions : Front: L C R, Side: L R, LFE Sampling rate : 48.0 KHz Bit depth : 16 bits Compression mode : Lossy Delay relative to video : 1mn 5s Stream size : 344 MiB (21%) Language : Italian Default : Yes Forced : No Audio #2 ID : 3 Format : AC-3 Format/Info : Audio Coding 3 Mode extension : CM (complete main) Codec ID : A_AC3 Duration : 1h 47mn Bit rate mode : Constant Bit rate : 448 Kbps Channel(s) : 6 channels Channel positions : Front: L C R, Side: L R, LFE Sampling rate : 48.0 KHz Bit depth : 16 bits Compression mode : Lossy Delay relative to video : 1mn 5s Stream size : 344 MiB (21%) Language : English Default : No Forced : No Text #1 ID : 4 Format : UTF-8 Codec ID : S_TEXT/UTF8 Codec ID/Info : UTF-8 Plain Text Title : Sottotitoli SRT - Italiano Language : Italian Default : No Forced : No Text #2 ID : 5 Format : UTF-8 Codec ID : S_TEXT/UTF8 Codec ID/Info : UTF-8 Plain Text Title : Sottotitoli SRT - Italiano N.U. Language : Italian Default : No Forced : No Menu 00:00:00.000 : :In strada 00:03:01.306 : :Gli amici 00:05:25.075 : :Soap 00:06:40.483 : :"Accetta" 00:08:37.517 : :I vicini 00:12:37.507 : :Big Chris 00:15:36.477 : :Antiche armi 00:23:11.181 : :La partita 00:30:09.474 : :Debito 00:36:29.020 : :Idee 00:41:02.001 : :Il piano 00:43:40.451 : :Rory 00:46:39.964 : :I fucili 00:48:27.488 : :JD 00:51:31.588 : :Preparativi 00:53:43.345 : :Il colpo 01:04:13.725 : :Il furgone 01:06:54.636 : :Vigile 01:14:26.253 : :Truffato 01:18:24.658 : :Trovare i fucili 01:19:52.413 : :Sirtaki 01:30:51.655 : :Soluzione 01:37:01.315 : :Innocenti 01:40:40.409 : :Drin! [/spoiler] [/color][/b][/center]

Blow (2001).H264.Italian.English.Ac3.sub.ita.eng.iCV-MIRCrew

Language: | Size: 1.44 GB | Seed: 46 | Leech: 9

Description:

Blow (2001).H264.Italian.English.Ac3.sub.ita.eng.iCV-MIRCrew [center] [color=red][b][img]http://i.imgur.com/0scDel1.png[/img] [u]NO FOUND ONLY ORIGINAL RELEASE[/u] [img]http://i.imgur.com/GDNQx1Z.png[/img] My release is always in double track audio italian and Original audio for select it use VLC or dvd player home not use wmp Blow (2001) [img]http://extraimage.net/images/2017/01/18/907ad808e148ec736c8b3884bc335fcc.png[/img] [URL=http://www.imdb.com/title/tt0221027/][IMG]http://www.userlogos.org/files/logos/Sucka/imdb_new.png[/IMG][/URL] [img]http://i.imgur.com/qKKNGHG.png[/img] Titolo originale Blow Paese di produzione Stati Uniti d'America Anno 2001 Durata 124 min Genere biografico, drammatico Regia Ted Demme Soggetto Bruce Porter Sceneggiatura David McKenna e Nick Cassavetes Produttore Georgia Kacandes e Michael De Luca Fotografia Ellen Kuras Montaggio Kevin Tent Musiche Graeme Revell Scenografia David Ensley Costumi Mark Bridges Trucco Whitney L. James [img]http://i.imgur.com/VmqNvIa.png[/img] Johnny Depp: George Jung Penélope Cruz: Mirtha Jung Franka Potente: Barbara Buckely Ray Liotta: Fred Jung Rachel Griffiths: Ermine Jung Paul Reubens: Derek Foreal Jordi Molla: Diego Delgado Cliff Curtis: Pablo Escobar Michael Tucci: Dr. Bay Miguel Sandoval: Augusto Oliveras Ethan Suplee: Tonno Max Perlich: Kevin Dulli Kevin Gage: Leon Minghella Bobcat Goldthwait: Mr. T Jaime King: Kristina Jung Emma Roberts: Kristina Jung (bambina) [img]http://i.imgur.com/NhlQr0j.png[/img] La storia è raccontata dallo stesso George Jung attraverso un flashback, che comincia negli anni '50, quando il protagonista era solo un bambino. Nato e cresciuto nel Massachusets da una famiglia di ceto medio, George trascorre il tempo in compagnia del suo migliore amico, Tuna, e ammira molto suo padre Fred, caposquadra di un'impresa di termoidrauliche, tanto da supplicarlo di portarlo a lavoro con lui, ogni tanto [img]http://i.imgur.com/76fgzGF.png[/img] The story of George Jung, the man who established the American cocaine market in the 1970s. [img]http://i.imgur.com/DgAQhgU.png[/img] [img]http://extraimage.net/images/2017/01/18/ba3a428c407ddc8be35eb96bed3dbc1b.png[/img] [img]http://extraimage.net/images/2017/01/18/1bc2da3f459071461bf7ee98a1063e83.png[/img] [img]http://extraimage.net/images/2017/01/18/3150690e8491de2d8866e2e9e81261a5.png[/img] [img]http://i.imgur.com/DhNFcEV.png[/img] [spoiler] General Unique ID : 289574582854158367893054040259260876318 (0xD9DA0938F3022F0AA8A9468E3604861E) Complete name : Blow (2001).H264.ita.eng.sub.ita.eng.iCV-MIRCrew.mkv Format : Matroska Format version : Version 2 File size : 1.44 GiB Duration : 2h 3mn Overall bit rate : 1 669 Kbps Encoded date : UTC 2017-01-17T16:23:26Z Writing application : HandBrake 0.10.5 2016021100 Writing library : Lavf55.12.0 Video ID : 1 Format : AVC Format/Info : Advanced Video Codec Format profile : [email protected] Format settings, CABAC : Yes Format settings, ReFrames : 4 frames Codec ID : V_MPEG4/ISO/AVC Duration : 2h 3mn Bit rate : 1 270 Kbps Width : 720 pixels Height : 308 pixels Display aspect ratio : 2.35:1 Original display aspect ratio : 2.35:1 Frame rate mode : Variable Frame rate : 23.976 fps Color space : YUV Chroma subsampling : 4:2:0 Bit depth : 8 bits Scan type : Progressive Bits/(Pixel*Frame) : 0.239 Stream size : 1.08 GiB (75%) Writing library : x264 core 142 r2479 dd79a61 Encoding settings : cabac=1 / ref=1 / deblock=1:0:0 / analyse=0x1:0x111 / me=hex / subme=2 / psy=1 / psy_rd=1.00:0.00 / mixed_ref=0 / me_range=16 / chroma_me=1 / trellis=0 / 8x8dct=0 / cqm=0 / deadzone=21,11 / fast_pskip=1 / chroma_qp_offset=0 / threads=12 / lookahead_threads=2 / sliced_threads=0 / nr=0 / decimate=1 / interlaced=0 / bluray_compat=0 / constrained_intra=0 / bframes=3 / b_pyramid=2 / b_adapt=1 / b_bias=0 / direct=1 / weightb=1 / open_gop=0 / weightp=1 / keyint=240 / keyint_min=24 / scenecut=40 / intra_refresh=0 / rc_lookahead=10 / rc=abr / mbtree=1 / bitrate=1270 / ratetol=1.0 / qcomp=0.60 / qpmin=0 / qpmax=69 / qpstep=4 / vbv_maxrate=20000 / vbv_bufsize=25000 / nal_hrd=none / filler=0 / ip_ratio=1.40 / aq=1:1.00 Default : Yes Forced : No Color primaries : BT.709-5, BT.1361, IEC 61966-2-4, SMPTE RP177 Transfer characteristics : BT.709-5, BT.1361 Matrix coefficients : BT.709-5, BT.1361, IEC 61966-2-4 709, SMPTE RP177 Audio #1 ID : 2 Format : AC-3 Format/Info : Audio Coding 3 Mode extension : CM (complete main) Codec ID : A_AC3 Duration : 2h 3mn Bit rate mode : Constant Bit rate : 192 Kbps Channel(s) : 2 channels Channel positions : Front: L R Sampling rate : 48.0 KHz Bit depth : 16 bits Compression mode : Lossy Delay relative to video : 1mn 5s Stream size : 170 MiB (12%) Title : Stereo Language : Italian Default : Yes Forced : No Audio #2 ID : 3 Format : AC-3 Format/Info : Audio Coding 3 Mode extension : CM (complete main) Codec ID : A_AC3 Duration : 2h 3mn Bit rate mode : Constant Bit rate : 192 Kbps Channel(s) : 2 channels Channel positions : Front: L R Sampling rate : 48.0 KHz Bit depth : 16 bits Compression mode : Lossy Delay relative to video : 1mn 5s Stream size : 170 MiB (12%) Title : Stereo Language : English Default : No Forced : No Text #1 ID : 4 Format : ASS Codec ID : S_TEXT/ASS Codec ID/Info : Advanced Sub Station Alpha Compression mode : Lossless Language : Italian Default : No Forced : No Text #2 ID : 5 Format : VobSub Codec ID : S_VOBSUB Codec ID/Info : The same subtitle format used on DVDs Language : English Default : No Forced : No [/spoiler] [/color][/b][/center]

Kubo e la spada magica (2016).H264.Italian.English.Ac3.5.1.sub.ita.eng.iCV-MIRCrew

Language: | Size: 1.54 GB | Seed: 155 | Leech: 38

Description:

Kubo and the Two Strings - Kubo e la spada magica (2016).H264.Italian.English.Ac3.5.1.sub.ita.eng.iCV-MIRCrew [center] [color=red][b][img]http://extraimago.com/images/2016/07/16/oCo82IVa08d8.png[/img] [u]NO FOUND ONLY ORIGINAL RELEASE[/u] [img]http://i.imgur.com/GDNQx1Z.png[/img] My release is always in double track audio italian and Original audio for select it use VLC or dvd player home not use wmp Kubo e la spada magica - Kubo and the Two Strings (2016) [img]http://extraimage.net/images/2017/01/18/82de106f3a9c47abc53a470048f93459.png[/img] [URL=http://www.imdb.com/title/tt4302938/][IMG]http://www.userlogos.org/files/logos/Sucka/imdb_new.png[/IMG][/URL] [img]http://i.imgur.com/Q5gAZRt.png[/img] DATA USCITA: 03 novembre 2016 GENERE: Animazione ANNO: 2016 REGIA: Travis Knight SCENEGGIATURA: Marc Haimes MONTAGGIO: Christopher Murrie MUSICHE: Dario Marianelli PRODUZIONE: Laika Entertainment DISTRIBUZIONE: Universal Pictures PAESE: USA DURATA: 101 Min [img]http://i.imgur.com/Jtvgw7x.png[/img] Rooney Mara, Charlize Theron, Matthew McConaughey, Ralph Fiennes [img]http://i.imgur.com/hL3n1m8.png[/img] E' la storia dell'intelligente e gentile Kubo, che racconta storie fantastiche alla gente del suo paese in riva al mare. Ma quando accidentalmente evoca un antico spirito in cerca di secolare vendetta, è costretto a fuggire e si unisce a Monkey e Beetle in una quest per salvare la sua famiglia e svelare il mistero della morte del padre........... [img]http://i.imgur.com/MTp7cO6.png[/img] A young boy named Kubo must locate a magical suit of armor worn by his late father in order to defeat a vengeful spirit from the past.................. [img]http://i.imgur.com/6TgqSmf.png[/img] [img]http://extraimage.net/images/2017/01/18/007fda0314a51c30e4f626d3a7e596a8.png[/img] [img]http://extraimage.net/images/2017/01/18/cef3b4af88eefad942d59b88e55c1ffd.png[/img] [img]http://extraimage.net/images/2017/01/18/0906589adeb532f06d6ca5bf0f7e48cd.png[/img] [img]http://extraimage.net/images/2017/01/18/d40597c93d41937aaeb571e77b262079.png[/img] [img]http://i.imgur.com/t8N3Ia1.png[/img] [spoiler] General Unique ID : 109078103529564420194179017235203181355 (0x520FADB7D78BAACB4244357E0D3D4B2B) Complete name : Kubo e la spada magica (2016).H264.ita.eng.sub.ita.iCV-MIRCrew.mkv Format : Matroska Format version : Version 2 File size : 1.54 GiB Duration : 1h 41mn Overall bit rate : 2 169 Kbps Movie name : VISIT www.icv-crew.org Encoded date : UTC 2017-01-17 20:24:41 Writing application : Lavf54.63.100 Writing library : Lavf54.63.100 COPYRIGHT : robbyrs Video ID : 1 Format : AVC Format/Info : Advanced Video Codec Format profile : [email protected] Format settings, CABAC : Yes Format settings, ReFrames : 2 frames Codec ID : V_MPEG4/ISO/AVC Duration : 1h 41mn Bit rate : 1 270 Kbps Width : 720 pixels Height : 300 pixels Display aspect ratio : 2.40:1 Original display aspect ratio : 2.40:1 Frame rate mode : Variable Frame rate : 23.976 fps Color space : YUV Chroma subsampling : 4:2:0 Bit depth : 8 bits Scan type : Progressive Bits/(Pixel*Frame) : 0.245 Stream size : 894 MiB (57%) Writing library : x264 core 130 r2273 Encoding settings : cabac=1 / ref=2 / deblock=1:0:0 / analyse=0x1:0x131 / me=hex / subme=7 / psy=1 / psy_rd=1.00:0.00 / mixed_ref=0 / me_range=16 / chroma_me=1 / trellis=1 / 8x8dct=0 / cqm=0 / deadzone=21,11 / fast_pskip=1 / chroma_qp_offset=-2 / threads=12 / lookahead_threads=2 / sliced_threads=0 / nr=0 / decimate=1 / interlaced=0 / bluray_compat=0 / constrained_intra=0 / bframes=3 / b_pyramid=0 / b_adapt=1 / b_bias=0 / direct=3 / weightb=1 / open_gop=0 / weightp=2 / keyint=230 / keyint_min=23 / scenecut=40 / intra_refresh=0 / rc_lookahead=40 / rc=abr / mbtree=1 / bitrate=1270 / ratetol=1.0 / qcomp=0.60 / qpmin=10 / qpmax=69 / qpstep=4 / vbv_maxrate=24000 / vbv_bufsize=24000 / nal_hrd=none / ip_ratio=1.40 / aq=1:1.00 Language : English Default : Yes Forced : No DURATION : 01:41:36.215000000 NUMBER_OF_FRAMES : 146163 NUMBER_OF_BYTES : 6224357532 _STATISTICS_WRITING_APP : mkvmerge v8.7.0 ('All of the above') 64bit _STATISTICS_WRITING_DATE_UTC : 2017-01-15 16:11:10 _STATISTICS_TAGS : BPS DURATION NUMBER_OF_FRAMES NUMBER_OF_BYTES Audio #1 ID : 2 Format : AC-3 Format/Info : Audio Coding 3 Mode extension : CM (complete main) Codec ID : A_AC3 Duration : 1h 41mn Bit rate mode : Constant Bit rate : 448 Kbps Channel(s) : 6 channels Channel positions : Front: L C R, Side: L R, LFE Sampling rate : 48.0 KHz Bit depth : 16 bits Compression mode : Lossy Delay relative to video : 1mn 5s Stream size : 326 MiB (21%) Title : AC3 ITA Language : Italian Default : No Forced : No DURATION : 01:41:36.352000000 NUMBER_OF_FRAMES : 190511 NUMBER_OF_BYTES : 487708160 _STATISTICS_WRITING_APP : mkvmerge v8.7.0 ('All of the above') 64bit _STATISTICS_WRITING_DATE_UTC : 2017-01-15 16:11:10 _STATISTICS_TAGS : BPS DURATION NUMBER_OF_FRAMES NUMBER_OF_BYTES Audio #2 ID : 3 Format : AC-3 Format/Info : Audio Coding 3 Mode extension : CM (complete main) Codec ID : A_AC3 Duration : 1h 41mn Bit rate mode : Constant Bit rate : 448 Kbps Channel(s) : 6 channels Channel positions : Front: L C R, Side: L R, LFE Sampling rate : 48.0 KHz Bit depth : 16 bits Compression mode : Lossy Delay relative to video : 1mn 5s Stream size : 326 MiB (21%) Title : AC3 ENG Language : English Default : No Forced : No DURATION : 01:41:36.288000000 NUMBER_OF_FRAMES : 190509 NUMBER_OF_BYTES : 487703040 _STATISTICS_WRITING_APP : mkvmerge v8.7.0 ('All of the above') 64bit _STATISTICS_WRITING_DATE_UTC : 2017-01-15 16:11:10 _STATISTICS_TAGS : BPS DURATION NUMBER_OF_FRAMES NUMBER_OF_BYTES Text #1 ID : 4 Format : UTF-8 Codec ID : S_TEXT/UTF8 Codec ID/Info : UTF-8 Plain Text Title : FORCED Language : Italian Default : Yes Forced : No DURATION : 01:38:50.215000000 NUMBER_OF_FRAMES : 2 NUMBER_OF_BYTES : 29 _STATISTICS_WRITING_APP : mkvmerge v8.7.0 ('All of the above') 64bit _STATISTICS_WRITING_DATE_UTC : 2017-01-15 16:11:10 _STATISTICS_TAGS : BPS DURATION NUMBER_OF_FRAMES NUMBER_OF_BYTES Text #2 ID : 5 Format : UTF-8 Codec ID : S_TEXT/UTF8 Codec ID/Info : UTF-8 Plain Text Title : REGOLARI Language : Italian Default : No Forced : No DURATION : 01:41:11.314000000 NUMBER_OF_FRAMES : 954 NUMBER_OF_BYTES : 28563 _STATISTICS_WRITING_APP : mkvmerge v8.7.0 ('All of the above') 64bit _STATISTICS_WRITING_DATE_UTC : 2017-01-15 16:11:10 _STATISTICS_TAGS : BPS DURATION NUMBER_OF_FRAMES NUMBER_OF_BYTES Text #3 ID : 6 Format : UTF-8 Codec ID : S_TEXT/UTF8 Codec ID/Info : UTF-8 Plain Text Title : NON UDENTI Language : English Default : No Forced : No DURATION : 01:32:30.002000000 NUMBER_OF_FRAMES : 1241 NUMBER_OF_BYTES : 32794 _STATISTICS_WRITING_APP : mkvmerge v8.7.0 ('All of the above') 64bit _STATISTICS_WRITING_DATE_UTC : 2017-01-15 16:11:10 _STATISTICS_TAGS : BPS DURATION NUMBER_OF_FRAMES NUMBER_OF_BYTES Menu 00:00:00.000 : :00:00:00.000 00:07:38.208 : :00:07:38.208 00:18:20.833 : :00:18:20.833 00:26:28.417 : :00:26:28.417 00:35:28.000 : :00:35:28.000 00:45:04.625 : :00:45:04.625 00:54:10.625 : :00:54:10.625 01:03:03.417 : :01:03:03.417 01:11:58.833 : :01:11:58.833 01:20:13.208 : :01:20:13.208 01:30:47.833 : :01:30:47.833 01:36:12.417 : :01:36:12.417 [/spoiler] [/color][/b][/center]

The Fault in Our Stars - Colpa delle Stelle (2014) [DVD9 - MultiLang 5.1 - Multisubs]

Language: | Size: 7.28 GB | Seed: 7 | Leech: 12

Description:

Titolo originale: The Fault in Our Stars Nazione: Usa Anno: 2014 Genere: Drammatico, Sentimentale Durata: Versione cinematografica 1201., Versione estesa 1271. Regia: Josh Boone Produzione: 20th Century Fox Sito ufficiale: http://thefaultinourstarsmovie.com/ Cast: Shailene Woodley, Ansel Elgort, Laura Dern, Sam Trammell, Nat Wolff Data di uscita: Giovedì 4 Settembre 2014 (Cinema) Trama: Hazel Grace Lancaster, una sedicenne affetta da cancro, è obbligata dai genitori a frequentare un gruppo di supporto. Qui incontra e si innamora del diciottenne Augustus Waters, un ex giocatore di basket con una gamba amputata. Hazel fa conoscere ad Augustus il suo romanzo preferito, Un'imperiale afflizione. La passione comune per il romanzo li porta ad Amsterdam, dove hanno un burrascoso incontro con l'autore, Peter Van Houten, ormai alcolizzato. Là Augustus rivela a Hazel di essere nel corso di una grave ricaduta diagnosticata da una recente PET. Il film si chiude con la descrizione delle ultime settimane di vita e infine della morte del ragazzo, del dolore di Hazel e delle rispettive famiglie, ma anche con nuovi sviluppi del difficile rapporto dei ragazzi con Van Houten.

Ezio Bosso - Un Amore (2012) (by emi)

Language: | Size: 72.43 MB | Seed: 16 | Leech: 20

Description:

mp3 a 192 kbps audio di qualità a 95 db Tracklist 01 - Poco Prima Di Dirsi Addio I.mp3 (4.2 MB) 02 - Petite Entr'Acte Pour Contrebasse I.mp3 (671.4 KB) 03 - Giochini.mp3 (5.0 MB) 04 - Rencontres.mp3 (1.6 MB) 05 - A Little Waltz For A Little Piano.mp3 (3.3 MB) 06 - Petite Entr'Acte Pour Contrebasse II.mp3 (955.1 KB) 07 - Zoe's Theme.mp3 (5.5 MB) 08 - Petite Entr'Acte Pour Contrebasse III.mp3 (978.9 KB) 09 - Illusions.mp3 (3.2 MB) 10 - Petite Entr'acte Pour Contrebasse IV.mp3 (958.2 KB) 11 - Tango Triste (A Muchy).mp3 (6.2 MB) 12 - Petite Entr'acte Pour Contrebasse V.mp3 (882.4 KB) 13 - La Vie Des Grands.mp3 (8.5 MB) 14 - Les Adieux.mp3 (4.7 MB) 15 - Solitudes.mp3 (6.4 MB) 16 - Petite Entr'acte Pour Contrebasse VI.mp3 (931.3 KB) 17 - Dirty Tango.mp3 (8.6 MB) 18 - Petite Entr'acte Pour Contrebasse VII.mp3 (862.8 KB) 19 - Mm.mp3 (5.7 MB) 20 - Poco Prima Di Dirsi Addio II.mp3 (3.3 MB)

Ezio Bosso Essential - Music With Piano - Vol. 1 (2013) (by emi)

Language: | Size: 67.13 MB | Seed: 16 | Leech: 6

Description:

mp3 a 192 kbps audio di qualità a 95 db Tracklist 01 - Split, Postcards From Far Away.mp3 (12.2 MB) 02 - Speed Limit, A Night Ride.mp3 (6.3 MB) 03 - Rain, In Your Black Eyes.mp3 (15.3 MB) 04 - Emily Dickinson, Who Cares about The Bluebird Sing.mp3 (5.4 MB) 05 - Diversion, Street Kisses.mp3 (8.3 MB) 06 - The Maddest Noise.mp3 (4.4 MB) 07 - Clouds, The Mind On The (Re)Wind.mp3 (9.8 MB) 08 - Exit, Run 44.mp3 (5.3 MB)

Missione Anthropoid (2016) Portable.mp4.Italian.English.Aac.iCV-MIRCrew

Language: | Size: 613.38 MB | Seed: 92 | Leech: 11

Description:

Anthropoid - Missione Anthropoid (2016) Portable.mp4.Italian.English.Aac.iCV-MIRCrew [center] [color=red][b][img]http://s23.postimg.org/b9yhws27f/0sc_Del1.png[/img] [u]NO FOUND ONLY ORIGINAL RELEASE[/u] [img]http://i.imgur.com/GDNQx1Z.png[/img] My release is always in double track audio italian and Original audio for select it use VLC or dvd player home not use wmp Missione Anthropoid - Anthropoid (2016) [img]http://extraimage.net/images/2017/01/11/361c73ed3b185934ac01e1f6b95eb2df.png[/img] [URL=http://www.imdb.com/title/tt4190530/][IMG]http://www.userlogos.org/files/logos/Sucka/imdb_new.png[/IMG][/URL] [img]http://i.imgur.com/fGu1rKv.png[/img] GENERE: Biografico, Storico, Thriller, Guerra ANNO: 2016 REGIA: Sean Ellis SCENEGGIATURA: Sean Ellis, Anthony Frewin FOTOGRAFIA: Sean Ellis PRODUZIONE: LD Entertainment, 22h22, Lucky Man Films PAESE: Gran Bretagna, Repubblica Ceca, Francia [img]http://i.imgur.com/W7kBqiE.png[/img] Cillian Murphy, Jamie Dornan, Harry Lloyd, Charlotte Le Bon, Toby Jones, Bill Milner, Sam Keeley, Brian Caspe, Marcin Dorocinski [img]http://i.imgur.com/bFK3ggF.png[/img] Nel 1941 il generale delle SS Reinhard Heydrich viene nominato da Hitler a capo delle forze di occupazione naziste in Cecoslovacchia. Soprannominato “il macellaio di Praga”, Heydrich è considerato il numero tre del Reich e il suo regno di terrore e brutale repressione della resistenza ceca spingono gli Alleati a escogitare un piano top secret destinato a cambiare la storia [img]http://i.imgur.com/48xHWWH.png[/img] Based on the extraordinary true story of Operation Anthropoid, the WWII mission to assassinate SS General Reinhard Heydrich, the main architect behind the Final Solution and the Reich's third in command after Hitler and Himmler. [img]http://i.imgur.com/K8bfNTy.png[/img] [img]https://extraimage.net/images/2017/01/17/2f82277349c32bf80e8e0435a2006d36.png[/img] [img]https://extraimage.net/images/2017/01/17/048e8daacb5bc2def89f3c2f8cc9b8f9.png[/img] [img]http://i.imgur.com/aVrMohH.png[/img] [spoiler] Generale Nome completo : Missione Anthropoid (2016) Portable.mp4.ita.eng.iCV-MIRCrew.mp4 Formato : MPEG-4 Profilo formato : Base Media / Version 2 ID codec : mp42 (isom/iso2/avc1/mp41) Dimensione : 613MiB Durata : 2o 0min Modo bitrate generale : Variabile Bitrate totale : 710 Kbps Data codifica : UTC 2017-01-11 12:34:54 Data : UTC 2017-01-11 12:34:54 Creato con : HandBrake 0.10.5 2016021100 Video ID : 1 Formato : AVC Formato/Informazioni : Advanced Video Codec Profilo formato : [email protected] Impostazioni formato, CABAC : Si Impostazioni formato, ReFrames : 4 frame ID codec : avc1 ID codec/Informazioni : Advanced Video Coding Durata : 2o 0min Bitrate : 480 Kbps Larghezza : 320 pixel Altezza : 134 pixel Rapporto aspetto visualizzazione : 2,40:1 Modalità frame rate : Variabile Frame rate : 23,976 (24000/1001) fps Frame rate minimo : 23,810 fps Frame rate massimo : 24,390 fps Spazio colore : YUV Croma subsampling : 4:2:0 Profondità bit : 8 bit Tipo scansione : Progressivo Bit/(pixel*frame) : 0.467 Dimensione della traccia : 411MiB (67%) Compressore : x264 core 142 r2479 dd79a61 Impostazioni compressione : cabac=1 / ref=1 / deblock=1:0:0 / analyse=0x1:0x111 / me=hex / subme=2 / psy=1 / psy_rd=1.00:0.00 / mixed_ref=0 / me_range=16 / chroma_me=1 / trellis=0 / 8x8dct=0 / cqm=0 / deadzone=21,11 / fast_pskip=1 / chroma_qp_offset=0 / threads=12 / lookahead_threads=1 / sliced_threads=0 / nr=0 / decimate=1 / interlaced=0 / bluray_compat=0 / constrained_intra=0 / bframes=3 / b_pyramid=2 / b_adapt=1 / b_bias=0 / direct=1 / weightb=1 / open_gop=0 / weightp=1 / keyint=240 / keyint_min=24 / scenecut=40 / intra_refresh=0 / rc_lookahead=10 / rc=abr / mbtree=1 / bitrate=480 / ratetol=1.0 / qcomp=0.60 / qpmin=0 / qpmax=69 / qpstep=4 / vbv_maxrate=20000 / vbv_bufsize=25000 / nal_hrd=none / filler=0 / ip_ratio=1.40 / aq=1:1.00 Data codifica : UTC 2017-01-11 12:34:54 Data : UTC 2017-01-11 12:34:54 colour_range : Limited Colori primari : BT.709 Caratteristiche trasferimento : BT.709 Coefficienti matrici : BT.709 Menus : 4 Audio #1 ID : 2 Formato : AAC Formato/Informazioni : Advanced Audio Codec Profilo formato : LC ID codec : 40 Durata : 2o 0min Modalità bitrate : Variabile Bitrate : 112 Kbps Canali : 2 canali Posizione canali : Front: L R Frequenza campionamento : 48,0 KHz Frame rate : 46,875 fps (1024 spf) Modo compressione : Con perdita Dimensione della traccia : 97,0MiB (16%) Titolo : Stereo / Stereo Lingua : Italiano Default : Si Alternate group : 1 Data codifica : UTC 2017-01-11 12:34:54 Data : UTC 2017-01-11 12:34:54 Menus : 4 Audio #2 ID : 3 Formato : AAC Formato/Informazioni : Advanced Audio Codec Profilo formato : LC ID codec : 40 Durata : 2o 0min Modalità bitrate : Variabile Bitrate : 112 Kbps Canali : 2 canali Posizione canali : Front: L R Frequenza campionamento : 48,0 KHz Frame rate : 46,875 fps (1024 spf) Modo compressione : Con perdita Dimensione della traccia : 96,5MiB (16%) Titolo : Stereo / Stereo Lingua : Inglese Default : No Alternate group : 1 Data codifica : UTC 2017-01-11 12:34:54 Data : UTC 2017-01-11 12:34:54 Menus : 4 Menu ID : 4 ID codec : text Durata : 2o 0min Lingua : Inglese Data codifica : UTC 2017-01-11 12:34:54 Data : UTC 2017-01-11 12:34:54 Modalità bitrate : CBR Menu For : 1,2,3 00:00:00.000 : 00:00:00.000 00:08:32.178 : 00:08:32.053 00:12:57.943 : 00:12:57.860 00:18:48.377 : 00:18:48.294 00:24:35.682 : 00:24:35.599 00:28:54.190 : 00:28:54.107 00:34:03.124 : 00:34:02.916 00:39:41.879 : 00:39:41.754 00:48:59.186 : 00:48:59.103 00:56:05.070 : 00:56:04.987 00:59:55.967 : 00:59:55.842 01:06:37.702 : 01:06:37.535 01:12:15.164 : 01:12:14.997 01:17:09.124 : 01:17:09.041 01:23:09.901 : 01:23:09.693 01:28:13.204 : 01:28:13.121 01:32:06.479 : 01:32:06.396 01:39:01.936 : 01:39:01.769 01:44:39.565 : 01:44:39.482 01:54:38.037 : 01:54:37.829 [/spoiler] [/color][/b][/center]

South Park S20E07 - Oh.Jeez - iTA ENG SUBS 1080p DLMux x264

Language: | Size: 875.89 MB | Seed: 3 | Leech: 0

Description:

Titolo Italiano: South Park Titolo Originale: South Park Produzione: 1997 © Trey Parker, Matt Stone, Comedy Central Nazione: USA Durata: 10 episodi da 22 minuti circa .:INFO:. South Park (South Park) è una serie televisiva satirica statunitense a cartoni animati. Creata e doppiata da Matt Stone e Trey Parker, viene distribuita e trasmessa negli Stati Uniti da Comedy Central. Trasmessa per la prima volta nel 1997, la serie è giunta alla sua quindicesima stagione. South Park narra le avventure di Stan, Kyle, Eric e Kenny, quattro ragazzi che frequentano la scuola elementare (inizialmente la terza classe e, a partire dalla quarta stagione, la quarta) e vivono nella piccola città di South Park, sulle Montagne Rocciose, in Colorado. In principio il cartone era realizzato utilizzando la tecnica della stop motion cutout animation, dove i fotogrammi vengono realizzati incollando pezzi di cartone direttamente sullo sfondo. Successivamente questa tecnica è stata rimpiazzata dall'animazione al computer. [Fonte: Wiki] .:Download:. 01) Grappoli di ricordi - HD - FullHD 02) Caccia al troll - HD - FullHD 03) Anime perse - HD - FullHD 04) Wieners Out - HD - FullHD 05) Douche and a Danish - HD - FullHD 06) Fort Collins - HD - FullHD 07) Oh, Jeez - HD - FullHD 08) Members Only - HD - FullHD 09) Non è divertente - HD - FullHD 10) The End of Serialization as We Know It - HD - FullHD

Cafe Society (2016).H264.Italian.English.Ac3.5.1.sub.ita.eng.iCV-MIRCrew

Language: | Size: 1.35 GB | Seed: 2 | Leech: 6

Description:

Cafe Society (2016).H264.Italian.English.Ac3.5.1.sub.ita.eng.iCV-MIRCrew [center] [color=red][b][img]http://s23.postimg.org/b9yhws27f/0sc_Del1.png[/img] [u]NO FOUND ONLY ORIGINAL RELEASE[/u] [img]http://i.imgur.com/GDNQx1Z.png[/img] My release is always in double track audio italian and Original audio for select it use VLC or dvd player home not use wmp Cafe Society (2016) [img]http://boltimg.com/images/uwP33.png[/img] [URL=http://www.imdb.com/title/tt4513674/][IMG]http://www.userlogos.org/files/logos/Sucka/imdb_new.png[/IMG][/URL] [img]http://i.imgur.com/fGu1rKv.png[/img] DATA USCITA: 29 settembre 2016 GENERE: Commedia, Sentimentale ANNO: 2016 REGIA: Woody Allen SCENEGGIATURA: Woody Allen FOTOGRAFIA: Vittorio Storaro MONTAGGIO: Alisa Lepselter PRODUZIONE: FilmNation Entertainment, Gravier Productions, Perdido Productions DISTRIBUZIONE: Warner Bros. Italia PAESE: USA DURATA: 96 Min [img]http://i.imgur.com/W7kBqiE.png[/img] Jesse Eisenberg, Kristen Stewart, Steve Carell, Blake Lively, Jeannie Berlin, Sheryl Lee, Corey Stoll, Parker Posey, Anna Camp, Stephen Kunken, Paul Schneider, Ken Stott, Paul Schackman, Sari Lennick, Don Stark, Gregg Binkley, Anthony DiMaria [img]http://i.imgur.com/bFK3ggF.png[/img] Ambientato nel 1930, CAFÉ SOCIETY segue il viaggio di Bobby Dorfman dal Bronx, dove è nato, a Hollywood, dove si innamora, per poi tornare nuovamente a New York, in cui viene travolto nel mondo vibrante della vita dei locali notturni dell'alta società. Incentrato sugli eventi della vita della famiglia originaria del Bronx di Bobby, il film è un ritratto scintillante delle star del cinema............. [img]http://i.imgur.com/48xHWWH.png[/img] In 1930's Hollywood, the powerful agent, Phil Stern, is attending a party and receives a phone call from his sister living in New York. She asks for a job to her son and Phil's nephew, Bobby, who decided to move to Hollywood. Three weeks later Phil schedules a meeting with Bobby and decides to help him. He asks his secretary Veronica "Vonnie" to hang around with Bobby, showing him the touristic places. .............. [img]http://i.imgur.com/K8bfNTy.png[/img] [img]http://boltimg.com/images/uwKcu.png[/img] [img]http://boltimg.com/images/uwCKc.png[/img] [img]http://boltimg.com/images/uwwan.png[/img] [img]http://i.imgur.com/aVrMohH.png[/img] [spoiler] General Unique ID : 40748319332771232126548491083609166121 (0x1EA7D741338C167641B0DAC0B0365129) Complete name : Cafe Society (2016).ita.eng.sub.ita.eng.iCV-MIRCrew.mkv Format : Matroska Format version : Version 2 File size : 1.35 GiB Duration : 1h 36mn Overall bit rate : 2 016 Kbps Movie name : VISIT www.icv-crew.org Encoded date : UTC 2017-01-13 14:41:48 Writing application : Lavf54.63.100 Writing library : Lavf54.63.100 COMMENT : VISIT www.icv-crew.org COPYRIGHT : robbyrs Video ID : 1 Format : AVC Format/Info : Advanced Video Codec Format profile : [email protected] Format settings, CABAC : Yes Format settings, ReFrames : 2 frames Codec ID : V_MPEG4/ISO/AVC Duration : 1h 36mn Bit rate : 1 208 Kbps Nominal bit rate : 1 280 Kbps Width : 720 pixels Height : 360 pixels Display aspect ratio : 2.000 Frame rate mode : Variable Frame rate : 23.976 fps Color space : YUV Chroma subsampling : 4:2:0 Bit depth : 8 bits Scan type : Progressive Bits/(Pixel*Frame) : 0.194 Stream size : 830 MiB (60%) Writing library : x264 core 130 r2273 Encoding settings : cabac=1 / ref=2 / deblock=1:0:0 / analyse=0x1:0x131 / me=hex / subme=7 / psy=1 / psy_rd=1.00:0.00 / mixed_ref=0 / me_range=16 / chroma_me=1 / trellis=1 / 8x8dct=0 / cqm=0 / deadzone=21,11 / fast_pskip=1 / chroma_qp_offset=-2 / threads=12 / lookahead_threads=2 / sliced_threads=0 / nr=0 / decimate=1 / interlaced=0 / bluray_compat=0 / constrained_intra=0 / bframes=3 / b_pyramid=0 / b_adapt=1 / b_bias=0 / direct=3 / weightb=1 / open_gop=0 / weightp=2 / keyint=230 / keyint_min=23 / scenecut=40 / intra_refresh=0 / rc_lookahead=40 / rc=abr / mbtree=1 / bitrate=1280 / ratetol=1.0 / qcomp=0.60 / qpmin=10 / qpmax=69 / qpstep=4 / vbv_maxrate=24000 / vbv_bufsize=24000 / nal_hrd=none / ip_ratio=1.40 / aq=1:1.00 Language : Italian Default : Yes Forced : No DURATION : 01:36:05.552000000 NUMBER_OF_FRAMES : 138235 NUMBER_OF_BYTES : 7006263471 _STATISTICS_WRITING_APP : mkvmerge v8.7.0 ('All of the above') 64bit _STATISTICS_WRITING_DATE_UTC : 2017-01-12 15:58:58 _STATISTICS_TAGS : BPS DURATION NUMBER_OF_FRAMES NUMBER_OF_BYTES Audio #1 ID : 2 Format : AC-3 Format/Info : Audio Coding 3 Mode extension : CM (complete main) Codec ID : A_AC3 Duration : 1h 36mn Bit rate mode : Constant Bit rate : 384 Kbps Channel(s) : 6 channels Channel positions : Front: L C R, Side: L R, LFE Sampling rate : 48.0 KHz Bit depth : 16 bits Compression mode : Lossy Delay relative to video : 1mn 5s Stream size : 264 MiB (19%) Language : Italian Default : Yes Forced : No DURATION : 01:36:02.528000000 NUMBER_OF_FRAMES : 180079 NUMBER_OF_BYTES : 276601344 _STATISTICS_WRITING_APP : mkvmerge v8.7.0 ('All of the above') 64bit _STATISTICS_WRITING_DATE_UTC : 2017-01-12 15:58:58 _STATISTICS_TAGS : BPS DURATION NUMBER_OF_FRAMES NUMBER_OF_BYTES Audio #2 ID : 3 Format : AC-3 Format/Info : Audio Coding 3 Mode extension : CM (complete main) Codec ID : A_AC3 Duration : 1h 36mn Bit rate mode : Constant Bit rate : 384 Kbps Channel(s) : 6 channels Channel positions : Front: L C R, Side: L R, LFE Sampling rate : 48.0 KHz Bit depth : 16 bits Compression mode : Lossy Delay relative to video : 1mn 5s Stream size : 264 MiB (19%) Language : English Default : No Forced : No DURATION : 01:36:05.558000000 NUMBER_OF_FRAMES : 540521 NUMBER_OF_BYTES : 1087528252 _STATISTICS_WRITING_APP : mkvmerge v8.7.0 ('All of the above') 64bit _STATISTICS_WRITING_DATE_UTC : 2017-01-12 15:58:58 _STATISTICS_TAGS : BPS DURATION NUMBER_OF_FRAMES NUMBER_OF_BYTES Text #1 ID : 4 Format : UTF-8 Codec ID : S_TEXT/UTF8 Codec ID/Info : UTF-8 Plain Text Title : italiano forced Language : Italian Default : Yes Forced : Yes DURATION : 01:18:55.527000000 NUMBER_OF_FRAMES : 6 NUMBER_OF_BYTES : 186 _STATISTICS_WRITING_APP : mkvmerge v8.7.0 ('All of the above') 64bit _STATISTICS_WRITING_DATE_UTC : 2017-01-12 15:58:58 _STATISTICS_TAGS : BPS DURATION NUMBER_OF_FRAMES NUMBER_OF_BYTES Text #2 ID : 5 Format : UTF-8 Codec ID : S_TEXT/UTF8 Codec ID/Info : UTF-8 Plain Text Title : Regular Language : Italian Default : No Forced : No DURATION : 01:29:44.342000000 NUMBER_OF_FRAMES : 1831 NUMBER_OF_BYTES : 60932 _STATISTICS_WRITING_APP : mkvmerge v8.7.0 ('All of the above') 64bit _STATISTICS_WRITING_DATE_UTC : 2017-01-12 15:58:58 _STATISTICS_TAGS : BPS DURATION NUMBER_OF_FRAMES NUMBER_OF_BYTES Text #3 ID : 6 Format : UTF-8 Codec ID : S_TEXT/UTF8 Codec ID/Info : UTF-8 Plain Text Title : Regular Language : English Default : No Forced : No DURATION : 01:29:38.081000000 NUMBER_OF_FRAMES : 1699 NUMBER_OF_BYTES : 64196 _STATISTICS_WRITING_APP : mkvmerge v8.7.0 ('All of the above') 64bit _STATISTICS_WRITING_DATE_UTC : 2017-01-12 15:58:58 _STATISTICS_TAGS : BPS DURATION NUMBER_OF_FRAMES NUMBER_OF_BYTES Menu 00:00:00.000 : :00:00:00.000 00:08:35.847 : :00:08:35.847 00:16:40.164 : :00:16:40.164 00:26:28.627 : :00:26:28.627 00:32:30.990 : :00:32:30.990 00:43:12.505 : :00:43:12.505 00:54:03.864 : :00:54:03.864 01:02:38.755 : :01:02:38.755 01:10:05.658 : :01:10:05.658 01:14:41.100 : :01:14:41.100 01:20:46.173 : :01:20:46.173 01:31:57.094 : :01:31:57.094 [/spoiler] [/color][/b][/center]

South Park S20E09 - Non E Divertente - iTA ENG SUBS 1080p DLMux x264

Language: | Size: 868.8 MB | Seed: 3 | Leech: 0

Description:

Titolo Italiano: South Park Titolo Originale: South Park Produzione: 1997 © Trey Parker, Matt Stone, Comedy Central Nazione: USA Durata: 10 episodi da 22 minuti circa .:INFO:. South Park (South Park) è una serie televisiva satirica statunitense a cartoni animati. Creata e doppiata da Matt Stone e Trey Parker, viene distribuita e trasmessa negli Stati Uniti da Comedy Central. Trasmessa per la prima volta nel 1997, la serie è giunta alla sua quindicesima stagione. South Park narra le avventure di Stan, Kyle, Eric e Kenny, quattro ragazzi che frequentano la scuola elementare (inizialmente la terza classe e, a partire dalla quarta stagione, la quarta) e vivono nella piccola città di South Park, sulle Montagne Rocciose, in Colorado. In principio il cartone era realizzato utilizzando la tecnica della stop motion cutout animation, dove i fotogrammi vengono realizzati incollando pezzi di cartone direttamente sullo sfondo. Successivamente questa tecnica è stata rimpiazzata dall'animazione al computer. [Fonte: Wiki] .:Download:. 01) Grappoli di ricordi - HD - FullHD 02) Caccia al troll - HD - FullHD 03) Anime perse - HD - FullHD 04) Wieners Out - HD - FullHD 05) Douche and a Danish - HD - FullHD 06) Fort Collins - HD - FullHD 07) Oh, Jeez - HD - FullHD 08) Members Only - HD - FullHD 09) Non è divertente - HD - FullHD 10) The End of Serialization as We Know It - HD - FullHD

A Cat in Paris - Un Gatto a Parigi (2010) [DVD5 - Ita Fra 5.1 - Ita subs]

Language: | Size: 4.22 GB | Seed: 15 | Leech: 13

Description:

Titolo originale: Une Vie de Chat Nazione: Francia, Paesi Bassi, Svizzera, Belgio Anno: 2010 Genere: Animazione Durata: 62' Regia: Jean-Loup Felicioli e Alain Gagnol Cast: Dominique Blanc, Bernadette Lafont, Bruno Salomone, Jean Benguigui, Oriane Zani. Produzione: PFA (Italia) Data di uscita: Giovedì 18 Dicembre 2014 (cinema) Trama: Il film racconta la storia di un gatto Parigino di nome Dino che vive una doppia vita. Di giorno abita con la piccola Zoe come compagno fedele, mentre di notte esce dalla finestra mentre la bimba dorme per andare a trovare Nico, un ladruncolo dal cuore buono che vive di espedienti e che saltella agilmente sui doccioni di Notre-Dame, penetrando negli appartamenti altrui in cerca di preziosi e facile refurtiva. Una notte la bimba seguirà Dino nelle sue scorribande notturne, diventando suo malgrado testimone di un losco affare. Dino e Nico dovranno quindi salvare la bambina dalle grinfie del mafioso Victor Costa che è riuscito a catturarla, per riportarla dalla madre Jeanne, commissario della polizia locale.

Windows 7 All-In-One

Language: | Size: 3.69 GB | Seed: 75 | Leech: 12

Description:

Windows 7 All-In-One - ITA - 32-Bit (x86) & 64-Bit ( x64) SP1 - 2011. DVD Completo di tutte le edizioni di Windows 7 fornito al solo scopo di Backup, ogni utilizzo illegale e violazione del Copyright, sono soggetti a sanzioni penali. LA COPIA è ORIGINALE E FUNZIONANTE da Masterizzare in un normale DVD. Priva di Virus al 100%. https://sites.google.com/site/isowinso001/home BY IsoWinSO

L era glaciale 4 - Continenti alla deriva (2012).H264.Italian.English.Ac3.5.1.Sub.ita.eng.iCV-MIRCrew

Language: | Size: 1.24 GB | Seed: 61 | Leech: 63

Description:

Ice Age: Continental Drift - L era glaciale 4 - Continenti alla deriva (2012).H264.Italian.English.Ac3.5.1.Sub.ita.eng.iCV-MIRCrew [center] [color=red][b][img]http://extraimago.com/images/2016/07/16/oCo82IVa08d8.png[/img] [u]NO FOUND ONLY ORIGINAL RELEASE[/u] [img]http://i.imgur.com/GDNQx1Z.png[/img] My release is always in double track audio italian and Original audio for select it use VLC or dvd player home not use wmp L'era glaciale 4 - Continenti alla deriva - Ice Age: Continental Drift (2012) [img]http://extraimage.net/images/2017/01/16/903bcfcef1130ef3fcd197eb29602456.png[/img] [URL=][IMG]http://www.userlogos.org/files/logos/Sucka/imdb_new.png[/IMG][/URL] [img]http://i.imgur.com/fGu1rKv.png[/img] Titolo originale Ice Age: Continental Drift Lingua originale inglese Paese di produzione Stati Uniti d'America Anno 2012 Durata 84 minuti Rapporto 2.39:1 Genere animazione, avventura, commedia Regia Steve Martino, Mike Thurmeier Sceneggiatura Michael Berg, Jason Fuchs, Mike Reiss Produttore Lori Forte, John C. Donkin Casa di produzione Blue Sky Studios Distribuzione (Italia) 20th Century Fox Art director Peter DeSeve Fotografia Renato Falcão Montaggio James Palumbo, David Ian Salter Musiche John Powell [img]http://i.imgur.com/W7kBqiE.png[/img] Doppiatori originali Ray Romano: Manfred "Manny" John Leguizamo: Sid Denis Leary: Diego Queen Latifah: Ellie Seann William Scott: Crash Josh Peck: Eddie Chris Wedge: Scrat Keke Palmer: Pesca Wanda Sykes: Nonnina Peter Dinklage: Capitan Sbudella Jennifer Lopez: Shira Aziz Ansari: Sguincio Rebel Wilson: Gura Kunal Nayyar: Gandhalì Nick Frost: Pachi Josh Gad: Louis Alain Chabat: Gabièn Drake: Ethan Joy Behar: Eunice Heather Morris: Katie Alan Tudyk: Milton/Fabio Sloth Nicki Minaj: Steffie Eddie "Piolín" Sotelo: zio Fungus Ben Gleib: Marshall Ally Romano: Meghan Simon Pegg: Buck Patrick Stewart: Ariscratle Doppiatori italiani Filippo Timi: Manfred Claudio Bisio: Sid Pino Insegno: Diego Roberta Lanfranchi: Ellie Francesco Pezzulli: Crash Lee Ryan: Eddie Isabelle Adriani: Pesca Cristina Noci: Nonnina Francesco Pannofino: Capitan Sbudella Hong-hu Ada: Shira Riccardo Scarafoni: Sguincio Domitilla D'Amico: Gura Gianfranco Miranda: Gandhalì Fabrizio Vidale: Pachi Luigi Morville: Louis Marco Rasori: Gabièn Andrea Mete: Ethan Marina Tagliaferri: Eunice Carmen Iovine: Katie Alessio Cigliano: Milton Monica Ward: Steffie Sergio Di Giulio: zio Fungus Roberto Ciufoli: Marshall Elisa Carucci: Meghan Massimo Giuliani: Buck Chris Wedge : Scrat [img]http://i.imgur.com/bFK3ggF.png[/img] Scrat sta cercando ancora di seppellire una ghianda quando apre una fenditura e precipita fino al centro della Terra, causando una catastrofe planetaria dalla quale si innesca la deriva dei continenti.................. [img]http://i.imgur.com/48xHWWH.png[/img] Manny, Diego, and Sid embark upon another adventure after their continent is set adrift. Using an iceberg as a ship, they encounter sea creatures and battle pirates as they explore a new world. . ............. [img]http://i.imgur.com/K8bfNTy.png[/img] [img]http://extraimage.net/images/2017/01/16/07a31b98b71ee2d658bd95bbe16f0e20.png[/img] [img]http://extraimage.net/images/2017/01/16/d74bdc1bb035191811565b40a4badd92.png[/img] [img]http://extraimage.net/images/2017/01/16/ea6088474985e6063365608ccfdb0b2b.png[/img] [img]http://i.imgur.com/aVrMohH.png[/img] [spoiler] Generale ID univoco : 179950359951603226621503101511162644353 (0x87612DBD8A50F9FE262CC36C14A3C781) Nome completo : \L'era glaciale 4 - Continenti alla deriva (2012).H264.ita.eng.sub.ita.eng.iCV-MIRCrew.mkv Formato : Matroska Versione formato : Version 2 Dimensione : 1,24 GiB Durata : 1o 27min Bitrate totale : 2.030 Kbps Film : VISIT www.icv-crew.org Data codifica : UTC 2017-01-16 13:07:57 / UTC 2017-01-16 13:07:57 Creato con : Lavf54.63.100 Compressore : Lavf54.63.100 / Lavf54.63.100 Copyright : robbyrs Video ID : 1 Formato : AVC Formato/Informazioni : Advanced Video Codec Profilo formato : [email protected] Impostazioni formato, CABAC : Si Impostazioni formato, ReFrames : 2 frame ID codec : V_MPEG4/ISO/AVC Durata : 1o 27min Bitrate : 1.270 Kbps Larghezza : 720 pixel Altezza : 300 pixel Rapporto aspetto visualizzazione : 2,40:1 Modalità frame rate : Costante Frame rate : 23,976 (24000/1001) fps Spazio colore : YUV Croma subsampling : 4:2:0 Profondità bit : 8 bit Tipo scansione : Progressivo Bit/(pixel*frame) : 0.245 Dimensione della traccia : 767MiB (60%) Compressore : x264 core 130 r2273 Impostazioni compressione : cabac=1 / ref=2 / deblock=1:0:0 / analyse=0x1:0x131 / me=hex / subme=7 / psy=1 / psy_rd=1.00:0.00 / mixed_ref=0 / me_range=16 / chroma_me=1 / trellis=1 / 8x8dct=0 / cqm=0 / deadzone=21,11 / fast_pskip=1 / chroma_qp_offset=-2 / threads=12 / lookahead_threads=2 / sliced_threads=0 / nr=0 / decimate=1 / interlaced=0 / bluray_compat=0 / constrained_intra=0 / bframes=3 / b_pyramid=0 / b_adapt=1 / b_bias=0 / direct=3 / weightb=1 / open_gop=0 / weightp=2 / keyint=230 / keyint_min=23 / scenecut=40 / intra_refresh=0 / rc_lookahead=40 / rc=abr / mbtree=1 / bitrate=1270 / ratetol=1.0 / qcomp=0.60 / qpmin=10 / qpmax=69 / qpstep=4 / vbv_maxrate=24000 / vbv_bufsize=24000 / nal_hrd=none / ip_ratio=1.40 / aq=1:1.00 Default : Si Forced : No Audio #1 ID : 2 Formato : AC-3 Formato/Informazioni : Audio Coding 3 Estensione modo : CM (complete main) Impostazioni formato, Endianness : Big ID codec : A_AC3 Durata : 1o 27min Modalità bitrate : Costante Bitrate : 384 Kbps Canali : 6 canali Posizione canali : Front: L C R, Side: L R, LFE Frequenza campionamento : 48,0 KHz Frame rate : 31,250 fps (1536 spf) Modo compressione : Con perdita Ritardo video : 67ms Dimensione della traccia : 241MiB (19%) Titolo : Surround Lingua : Italiano Default : Si Forced : No Audio #2 ID : 3 Formato : AC-3 Formato/Informazioni : Audio Coding 3 Estensione modo : CM (complete main) Impostazioni formato, Endianness : Big ID codec : A_AC3 Durata : 1o 27min Modalità bitrate : Costante Bitrate : 384 Kbps Canali : 6 canali Posizione canali : Front: L C R, Side: L R, LFE Frequenza campionamento : 48,0 KHz Frame rate : 31,250 fps (1536 spf) Modo compressione : Con perdita Ritardo video : 67ms Dimensione della traccia : 241MiB (19%) Titolo : Surround Lingua : Inglese Default : No Forced : No Testo #1 ID : 4 Formato : UTF-8 ID codec : S_TEXT/UTF8 ID codec/Informazioni : UTF-8 Plain Text Lingua : Italiano Default : No Forced : No Testo #2 ID : 5 Formato : UTF-8 ID codec : S_TEXT/UTF8 ID codec/Informazioni : UTF-8 Plain Text Lingua : Inglese Default : No Forced : No Menu 00:00:00.000 : :00:00:00.000 00:03:24.182 : :00:03:24.037 00:05:07.410 : :00:05:07.224 00:09:33.551 : :00:09:33.406 00:13:08.807 : :00:13:08.705 00:15:55.432 : :00:15:55.329 00:18:22.746 : :00:18:22.643 00:22:23.904 : :00:22:23.717 00:25:56.616 : :00:25:56.555 00:29:18.026 : :00:29:17.965 00:32:57.662 : :00:32:57.601 00:36:14.483 : :00:36:14.381 00:38:41.755 : :00:38:41.653 00:43:48.770 : :00:43:48.709 00:45:29.705 : :00:45:29.644 00:49:39.037 : :00:49:38.976 00:53:49.537 : :00:53:49.476 00:57:23.042 : :00:57:22.856 01:02:31.225 : :01:02:31.039 01:08:08.395 : :01:08:08.334 01:11:10.536 : :01:11:10.475 01:13:14.701 : :01:13:14.640 01:16:53.503 : :01:16:53.400 01:19:23.737 : :01:19:23.634 [/spoiler] [/color][/b][/center]