Search Top Tags














Il mistero delle pagine perdute - National Treasure: Book of Secrets (2007 Ita/Eng) + EXTRA [1080p] [iCV-MIRCrew]

Language: | Size: 15.06 GB | Seed: 0 | Leech: 0

Description:

Titolo originale: National Treasure: Book of Secrets Nazionalità: USA Anno: 2007 Genere: avventura, azione Regia: Jon Turteltaub Durata: 124 min Cast: Nicolas Cage: Ben Gates Diane Kruger: Abigail Chase Ed Harris: Mitch Wilkinson Justin Bartha: Riley Poole Jon Voight: Patrick Gates Helen Mirren: Emily Appleton Harvey Keitel: Peter Sadusky Bruce Greenwood: Presidente degli Stati Uniti Ty Burrell: Connor Michael Maize: Daniel Timothy V. Murphy: Seth Armando Riesco: agente Hendricks Trama: Le nuove avventure di Benjamin Gates, archeologo e avventuriero, lanciato questa volta sulle tracce di un tesoro che riguarda il presidente Abraham Lincoln e il suo omicida John Wilkes Booth. Il mistero da risolvere è rappresentato da alcune pagine mancanti del diario di Lincoln... Report: http://freetexthost.com/qymyfhbtqp Extra: In questa versione sono compresi gli extra: 1 - Scene Eliminate 2 - La Bobina Preziosa - Errori E Fuoriscena 3 - I Segreti Di Un Buon Seguito 4 - Il Mistero Delle Pagine Perdute - I Luoghi Delle Riprese 5 - Acrobazie In Strada - L'Inseguimento Di Londra 6 - All'Interno Della Biblioteca Del Congresso 7 - Azione Sotterranea 8 - La Creazione Del Libro Del Presidente 9 - L'Evoluzione Della Città D'Oro 10 - I Cavalieri Del Circolo Dorato

Franck Pourcel - New Sound Tangos [Flac][TntVillage]

Language: | Size: 195.01 MB | Seed: 65 | Leech: 49

Description:

[img]https://extraimage.net/images/2017/03/01/af4f27ddc8193b6b890f3b0cdb6ec4f0.jpg[/img] Artist...............: Franck Pourcel Album................: New Sound Tangos Genre................: Tango Instrumental Source...............: CD Year.................: 1968 Ripper...............: EAC (Secure mode) / LAME 3.92 & Asus CD-S520 Codec................: Free Lossless Audio Codec (FLAC) Version..............: reference libFLAC 1.3.1 20141125 Quality..............: Lossless, (avg. compression: 61 %) Channels.............: Stereo / 44100 HZ / 16 Bit Tags.................: VorbisComment Information..........: TntVillage Ripped by............: Leonenero on 01/03/2017 Posted by............: Leonenero on 01/03/2017 News Server..........: news.astraweb.com News Group(s)........: TNTVILLAGE Included.............: NFO, M3U, LOG, CUE Covers...............: Front Back CD --------------------------------------------------------------------- Tracklisting --------------------------------------------------------------------- 1. Franck Pourcel - Ce N'est Que Votre Main, Madame [02:23] 2. Franck Pourcel - Il Pleut Sur La Route [02:26] 3. Franck Pourcel - Olé Guapa [03:08] 4. Franck Pourcel - Amour, Castagnettes et Tango (Hernando's Hideway)[02:31] 5. Franck Pourcel - Jalouise [03:31] 6. Franck Pourcel - La Cumparsita [02:44] 7. Franck Pourcel - Les Yeux Noirs [02:26] 8. Franck Pourcel - C'est à Capri [02:19] 9. Franck Pourcel - Pilar [02:12] 10. Franck Pourcel - Tristesse [02:54] 11. Franck Pourcel - Une Nuit à Monte Carlo [02:19] 12. Franck Pourcel - Violetta [02:31] Playing Time.........: 31:30 Total Size...........: 194,83 MB Really nutty arrangements, with Pourcel's elegant strings fronted by piano, guitar, glockenspiel, harpsichord and a very Parisian accordion with attitude. This overlaps, and puts to shame, Mantovani's great tango album of the preceding year. It's new sound tango by pourcel ... This sound is new until now

SAMURAI 3-Miyamoto Musashi-Duello all'isola Garyu[Sub Ita] [TNTVillage]

Language: | Size: 3.88 GB | Seed: 3 | Leech: 0

Description:

SAMURAI 3-Miyamoto Musashi-Duello all'isola Garyu[Sub Ita] [TNTVillage] [BDRip 1080p - H264 - AaC Jap Softsub Ita] [IMG]http://i68.tinypic.com/dcvnds.jpg[/IMG] Scheda del Film Titolo originale: kettô Ganryûjima Nazionalità: Giapponese Anno: 1956 Genere: Azione, storico, arti marziali Durata: 01:44:49 Regia: Hiroshi Inagaki Cast: Toshiro Mifune: Takezo/Musashi, Koji Tsurata: Sasaki Kojiro, Kaoru Yachigusa: Otsu, Mariko Okada: Akemi, Daisuke Kato: Toji, Kejin Lida: Jotaro, Michiko Saga: Omitsu, Kichijiro Ueda:Ogon. Trama Sasaki Kojiro, alla ricerca dell'auto affermazione, si reca a Edo per cercare assunzione presso lo Shogun Hosokawa. Musashi, divenuto ormai un samurai saggio e raffinato, riceve un invito ufiiciale dal Maestro di spada dello stesso Shogun. Sasaki, riesce ad ottenere un duello con Musashi dopo aver provocatoriamente ucciso 4 membri della scuola di spada dello Shogun (che meshinamente non vengono riconosciti dal loro Maestro). Musashi, saputo che Sasaki ha ottenuto l'incarico presso il nobile Signore, con una scusa eviterà il duello: non è più alla ricerca della gloria. Si ritirerà in uno sperduto paese di campagna con i 2 suoi fedeli compagni. La dolce Otsu, da sempre alla ricerca del suo amato, riuscirà a raggiungerli. Tuttavia lo raggiungerà anche Akemi... Sasaki, nel frattempo, è divenuto Maestro di spada dello Shogun, e inviterà formalmente Musashi a duello. Questa volta Musashi non potrà rifiutare. Al crepuscolo, sulla spiaggia dell'isola Garyu, la sfida tra i due arriverà al suo epilogo. Scheda tecnica del filmato Dimensione: 3,87 GB Durata: 01:44:49 Tracce: 3 (video, audio, subtitle) Contenitore: Matroska Video Codec: V_MPEG4/ISO/AVC Risoluzione: 1440 x 1080 FPS (Frames/sec): 23.976024 Frame aspect ratio: 4:3 = 1.333333 Display aspect ratio: 4:3 = 1.333333 Pixel aspect ratio: 1:1 = 1 Bitrate (bs): 5135.184905 kbps Qf[/b]: 0.137719 Audio Codec: A_AAC Freq Audio: 48000 Hz Bitrate (bs): 160.079695 kbps Subtitle: Sub Station Alpha

SAMURAI 2-Miyamoto Musashi-Duello al tempio ichijoji[Sub Ita] [TNTVillage]

Language: | Size: 3.68 GB | Seed: 2 | Leech: 0

Description:

SAMURAI 2-Miyamoto Musashi-Duello al tempio ichijoji[Sub Ita] [TNTVillage] [BDRip 1080p - H264 - A_AAC Jap Softsub Ita] [IMG]http://i68.tinypic.com/dcvnds.jpg[/IMG] Scheda del Film Titolo originale: Ichijoji no ketto Nazionalità: Giapponese Anno: 1955 Genere: Azione, storico, arti marziali Durata: 01:43:38 Regia: Hiroshi Inagaki Cast: Toshiro Mifune: Takezo/Musashi, Sachio Sakai: Matahachi, Kuroemon Onoe: Takuan, Kaoru Yachigusa: Otsu, Michiyo Kogure: Yoshino, Mariko Okada: Akemi, Mitsuko Mito: Oko, Daisuke Kato: Toji, Akihiko Hirata: Seijuro, Ko Mihashi: Koetsu, Kumimori Kodo: Nikkan, Kejin Lida: Jotaro, Eijiro Tono: Baiken. Trama Takezo, con il nome di Miyamoto Musashi, viaggia alla ricerca del suo perfezionamento. Tutto ciò lo porterà a sfidare il Maestro di spada della scuola Yoshioka, promesso sposo di Akemi, una delle due donne, causa delle sue precedenti disavventure. La dolce e fragile Otsu, intanto, aspetta con ansia di poter riabbracciare il suo amato. Anche un giovane e ambizioso samurai di nome Sasaki Kojiro, sogna di incontrare Musashi per sfidarlo a duello... Scheda tecnica del filmato Dimensione: 3,67 GB Durata: 01:43:38 Tracce: 3 (video, audio, subtitle) Contenitore: Matroska Video Codec: V_MPEG4/ISO/AVC Risoluzione: 1440 x 1080 FPS (Frames/sec): 23.976025 Frame aspect ratio: 4:3 = 1.333333 Display aspect ratio: 4:3 = 1.333333 Pixel aspect ratio: 1:1 = 1 Bitrate (bs): 4918.005827 kbps Qf: 0.131894 Audio Codec: A_AAC Freq Audio: 48000 Hz Bitrate (bs): 159.734771 kbps Subtitle: Sub Station Alpha

SAMURAI 1-Miyamoto Musashi[Sub Ita] [TNTVillage]

Language: | Size: 3.81 GB | Seed: 1 | Leech: 1

Description:

SAMURAI 1-Miyamoto Musashi[Sub Ita] [TNTVillage] [H264 - A_AAC Jap Softsub Ita] [IMG]http://i67.tinypic.com/jzkom.jpg[/IMG] Titolo originale: Miyamoto Musashi Nazion 1954 Genere: Azione, storico, arti marziali Durata: 01:33:50 Regia: Toshiro Mifune: Takezo/Musashi, Rentaro Mikuni: Matahachi, Kuroemon Onoe: Takuan, Kaoru Yachigusa: Otsu, Mariko Okada: Akemi, Mitsuko Mito: Oko, Eiko miyoshi: Osugi, Akihiko Hirata: Seijuro. Trama Giappone, 1600. Nel villaggio Miyamoto, i due amici Takezo e Matahachi decidono di partire per la Grande Battaglia (Sekigahara) in cerca di fama e di gloria. Matahachi viene ferito e due amici cercano rifugio presso l'abitazione di due donne. La madre, rifiutata da Takezo, convince Matahachi ad abbandonare l'amico. Takezo, rimasto solo, finisce equivocamente come criminale ricercato. Lo catturerà con uno stratagemma l'astuto e saggio monaco Takuan. Otsu, una dolce ragazza del villaggio, fidanzata in precedenza con Matahachi, impietosita,libera Takezo... Questo intramontabile capolavoro annovera un Oscar come "miglior film straniero". Scheda tecnica del filmato Dimensione: 3,81 GB Durata: 01:33:50 Tracce: 3 (video, audio, subtitle) Contenitore: Matroska Video Codec: V_MPEG4/ISO/AVC Risoluzione: 1422 x 1080 FPS (Frames/sec): 23.976024 Frame aspect ratio: 79:60 = 1.316667 Display aspect ratio: 79:60 = 1.316667 Pixel aspect ratio: 1:1 = 1 Bitrate (bs): 5651.289461 kbps Qf: 0.153478 Audio Codec: A_AAC Freq Audio: 48000 Hz Bitrate (bs): 159.577767 kbps Subtitle: Sub Station Alpha

La verita sta in cielo (2016).H264.Italian..Ac3.5.1.sub.ita.Nuita.eng.iCV-MIRCrew

Language: | Size: 1.18 GB | Seed: 62 | Leech: 19

Description:

La verita sta in cielo (2016).H264.Italian..Ac3.5.1.sub.ita.Nuita.eng.iCV-MIRCrew [center] [color=red][b][img]http://s23.postimg.org/b9yhws27f/0sc_Del1.png[/img] [u]NO FOUND ONLY ORIGINAL RELEASE[/u] [img]http://i.imgur.com/GDNQx1Z.png[/img] My release is always in double track audio italian and Original audio for select it use VLC or dvd player home not use wmp ENGLISH SUBTITLE INSIDE La verita sta in cielo (2016) [img]https://extraimage.net/images/2017/03/04/4d0eac7298d55977f5d3f70df4439709.png[/img] [URL=http://www.imdb.com/title/tt5186860/][IMG]http://www.userlogos.org/files/logos/Sucka/imdb_new.png[/IMG][/URL] [img]http://i.imgur.com/fGu1rKv.png[/img] DATA USCITA: 06 ottobre 2016 GENERE: Drammatico ANNO: 2016 REGIA: Roberto Faenza SCENEGGIATURA: Roberto Faenza FOTOGRAFIA: Maurizio Calvesi MONTAGGIO: Massimo Fiocchi MUSICHE: Teho Teardo PRODUZIONE: Jean Vigo Italia con Rai Cinema, prodotto da Elda Ferri DISTRIBUZIONE: 01 Distribution PAESE: Italia DURATA: 94 Min [img]http://i.imgur.com/W7kBqiE.png[/img] Riccardo Scamarcio, Maya Sansa, Greta Scarano, Valentina Lodovini, Shel Shapiro, Luciano Roffi, Tommaso Lazotti, Alessandro Bertolucci, Giacomo Gonnella, Alberto Cracco [img]http://i.imgur.com/bFK3ggF.png[/img] Il 22 giugno 1983 una ragazza di 15 anni, Emanuela Orlandi, sparisce dal centro di Roma e non farà più ritorno. E' figlia di un commesso pontificio e ben presto si capisce che la sparizione coinvolge diversi poteri forti, dal Vaticano alla Banda della Magliana fino a Mafia Capitale [img]http://i.imgur.com/48xHWWH.png[/img] An english journalist come to Italy to investigate in the mysterious disappearance of a young vatican girl occurred in 1983 [img]http://i.imgur.com/K8bfNTy.png[/img] [url=https://extraimage.net/image/2Y19][img]https://extraimage.net/images/2017/03/04/f0ea38c3c6363b45dce903930d1059f0.th.png[/img][/url] [url=https://extraimage.net/image/2Y13][img]https://extraimage.net/images/2017/03/04/f0f2c2e7568b1732d1d5a3e4d0eab434.th.png[/img][/url] [url=https://extraimage.net/image/2Y1M][img]https://extraimage.net/images/2017/03/04/7659397d9797619defa549160d6b5d33.th.png[/img][/url] [img]http://i.imgur.com/aVrMohH.png[/img] [spoiler] General Unique ID : 18346591041485738979859740950144843897 (0xDCD6CC6AAD410446D7651ACA5E98079) Complete name : La verita sta in cielo (2016).H264.ita.sub.ita.eng.iCV-MIRCrew.mkv Format : Matroska Format version : Version 2 File size : 1.18 GiB Duration : 1h 37mn Overall bit rate : 1 731 Kbps Movie name : VISIT www.icv-crew.org Encoded date : UTC 2017-02-27 19:37:01 Writing application : Lavf54.63.100 Writing library : Lavf54.63.100 COPYRIGHT : robbyrs Video ID : 1 Format : AVC Format/Info : Advanced Video Codec Format profile : [email protected] Format settings, CABAC : Yes Format settings, ReFrames : 2 frames Codec ID : V_MPEG4/ISO/AVC Duration : 1h 37mn Bit rate : 1 280 Kbps Width : 720 pixels Height : 300 pixels Display aspect ratio : 2.40:1 Frame rate mode : Variable Frame rate : 23.976 fps Color space : YUV Chroma subsampling : 4:2:0 Bit depth : 8 bits Scan type : Progressive Bits/(Pixel*Frame) : 0.247 Stream size : 869 MiB (72%) Writing library : x264 core 130 r2273 Encoding settings : cabac=1 / ref=2 / deblock=1:0:0 / analyse=0x1:0x131 / me=hex / subme=7 / psy=1 / psy_rd=1.00:0.00 / mixed_ref=0 / me_range=16 / chroma_me=1 / trellis=1 / 8x8dct=0 / cqm=0 / deadzone=21,11 / fast_pskip=1 / chroma_qp_offset=-2 / threads=12 / lookahead_threads=2 / sliced_threads=0 / nr=0 / decimate=1 / interlaced=0 / bluray_compat=0 / constrained_intra=0 / bframes=3 / b_pyramid=0 / b_adapt=1 / b_bias=0 / direct=3 / weightb=1 / open_gop=0 / weightp=2 / keyint=230 / keyint_min=23 / scenecut=40 / intra_refresh=0 / rc_lookahead=40 / rc=2pass / mbtree=1 / bitrate=1280 / ratetol=1.0 / qcomp=0.60 / qpmin=10 / qpmax=69 / qpstep=4 / cplxblur=20.0 / qblur=0.5 / vbv_maxrate=24000 / vbv_bufsize=24000 / nal_hrd=none / ip_ratio=1.40 / aq=1:1.00 Language : Italian Default : Yes Forced : No DURATION : 01:37:14.996000000 NUMBER_OF_FRAMES : 139900 NUMBER_OF_BYTES : 7002441140 _STATISTICS_WRITING_APP : mkvmerge v8.3.0 ('Over the Horizon') 64bit _STATISTICS_WRITING_DATE_UTC : 2017-02-08 13:02:06 _STATISTICS_TAGS : BPS DURATION NUMBER_OF_FRAMES NUMBER_OF_BYTES Audio ID : 2 Format : AC-3 Format/Info : Audio Coding 3 Mode extension : CM (complete main) Codec ID : A_AC3 Duration : 1h 37mn Bit rate mode : Constant Bit rate : 448 Kbps Channel(s) : 6 channels Channel positions : Front: L C R, Side: L R, LFE Sampling rate : 48.0 KHz Bit depth : 16 bits Compression mode : Lossy Delay relative to video : 1mn 5s Stream size : 312 MiB (26%) Title : AC3 Language : Italian Default : No Forced : No DURATION : 01:37:15.072000000 NUMBER_OF_FRAMES : 182346 NUMBER_OF_BYTES : 466805760 _STATISTICS_WRITING_APP : mkvmerge v8.3.0 ('Over the Horizon') 64bit _STATISTICS_WRITING_DATE_UTC : 2017-02-08 13:02:06 _STATISTICS_TAGS : BPS DURATION NUMBER_OF_FRAMES NUMBER_OF_BYTES Text #1 ID : 3 Format : UTF-8 Codec ID : S_TEXT/UTF8 Codec ID/Info : UTF-8 Plain Text Title : FORCED Language : Italian Default : Yes Forced : No DURATION : 01:21:08.322000000 NUMBER_OF_FRAMES : 136 NUMBER_OF_BYTES : 5914 _STATISTICS_WRITING_APP : mkvmerge v8.3.0 ('Over the Horizon') 64bit _STATISTICS_WRITING_DATE_UTC : 2017-02-08 13:02:06 _STATISTICS_TAGS : BPS DURATION NUMBER_OF_FRAMES NUMBER_OF_BYTES Text #2 ID : 4 Format : UTF-8 Codec ID : S_TEXT/UTF8 Codec ID/Info : UTF-8 Plain Text Title : NON UDENDI Language : Italian Default : No Forced : No DURATION : 01:29:11.763000000 NUMBER_OF_FRAMES : 1176 NUMBER_OF_BYTES : 52668 _STATISTICS_WRITING_APP : mkvmerge v8.3.0 ('Over the Horizon') 64bit _STATISTICS_WRITING_DATE_UTC : 2017-02-08 13:02:06 _STATISTICS_TAGS : BPS DURATION NUMBER_OF_FRAMES NUMBER_OF_BYTES Text #3 ID : 5 Format : UTF-8 Codec ID : S_TEXT/UTF8 Codec ID/Info : UTF-8 Plain Text Title : REGULAR Language : English Default : No Forced : No DURATION : 01:30:11.907000000 NUMBER_OF_FRAMES : 1020 NUMBER_OF_BYTES : 42478 _STATISTICS_WRITING_APP : mkvmerge v8.3.0 ('Over the Horizon') 64bit _STATISTICS_WRITING_DATE_UTC : 2017-02-08 13:02:06 _STATISTICS_TAGS : BPS DURATION NUMBER_OF_FRAMES NUMBER_OF_BYTES Menu 00:00:00.000 : :00:00:00.000 00:09:53.760 : :00:09:53.760 00:15:57.874 : :00:15:57.874 00:24:12.117 : :00:24:12.117 00:33:04.524 : :00:33:04.524 00:43:37.156 : :00:43:37.156 00:53:41.301 : :00:53:41.301 01:01:20.343 : :01:01:20.343 01:11:41.088 : :01:11:41.088 01:15:35.030 : :01:15:35.030 01:19:10.329 : :01:19:10.329 01:26:38.735 : :01:26:38.735 [/spoiler] [/color][/b][/center]

The Last Ronin [sub Ita] [TNTVillage]

Language: | Size: 3.39 GB | Seed: 6 | Leech: 0

Description:

The Last Ronin [sub Ita] [TNTVillage] [BDrip 720p - H264 - Jap AC3 - Sub Ita] [img]http://i.imgur.com/MMXeykg.jpg[/img] Titolo originale: Saigo no Chushingura Paese di produzione: Giappone Anno: 2010 Genere:[ Storico, arti marziali, Drammatico Lingua:[/b] Giapponese Sottotitoli: Italiano (Softsub) Dimensione File: 3,39 GB Durata: 02:13:06 Regia: Shigemichi Sugita TRAMA Durante la fatidica 'vendetta dei 47 ronin', (nel 1702) i samurai del dominio Ako, vendicarono il loro Signore Asano, costretto al seppuku dallo Shogun, dopo una colluttazione con uno deo daymio che lo aveva a sua volta offeso. Consegnatisi alla giustiza dopo la vendetta, i samurai di Ako furono anch'essi condannati al seppuku. Ci fu un unico supestite,Kichhiemon Terasaka. Esso, aveva ricevuto ordine dal comandante Oishi, di diffondere la verità sulla vendetta e di portare sostegno economico alle famiglie dei samurai. 16 anni dopo, sulla strada per il 17° rituale buddista per la morte dei compagni, Kichiemon intravede un ex compagno... un vecchio amico che, la sera prima della vendetta era misteriosamente scomparso, forse, fuggito. Magozaemon, a sua volta, aveva ricevuto un ordine dal comandante cui era molto legato... un ordine di estrema importanza e segretezza... Il film nel 2012 numerose nomine al Japan Academy Award: 'miglior film dell'anno', 'miglior attore protagonista', 'miglior attore non protagonista', 'migliore regia', 'sceneggiatura dell'anno' ed altre.. SCHEDA TECNICA DEL FILMATO Info sul file Nome L'Ultimo Chushingura.mkv Dimensione 3,641,322,353 bytes Info generiche Durata 02:13:06 Contenitore matroska Totale tracce 3 Traccia n. 1 video (V_MPEG4/ISO/AVC) {und} Traccia n. 2 audio (A_AC3) {jpn} Traccia n. 3 subtitle softsub (S_TEXT/ASS) {ita} Dati rilevanti Risoluzione 1280 x 668 Larghezza multipla di 32 Altezza multipla di 16 DRF medio 17.71549 Traccia video Codec ID V_MPEG4/ISO/AVC Risoluzione 1280 x 688 Frame aspect ratio 80:43 Pixel aspect ratio 1:1 Display aspect ratio 80:43 Framerate 23.976025 fps Bitrate (bs) 3005.967731 kbps Qf 0.142367 Traccia audio Codec ID A_AC3 Freq. campionamento 48000 Hz Canali 6 Dimensione stream 638,835,200 bytes Tipo di bitstream (bs) AC3 Frames (bs) 249,545 Bitrate (bs) 640 kbps CBR Freq. campionamento (bs) 48000 Hz File allegati 6 Application/x-truetype-font

TNTVillage - Bushi no ichibun [Sub Ita]

Language: | Size: 3.37 GB | Seed: 15 | Leech: 2

Description:

TNTVillage - Bushi no ichibun [Sub Ita] [BDrip 720p - H264 - Jap Ac3 - Sub Ita] [img]http://i.imgur.com/nfHmnbS.jpg[/img] Titolo originale: Bushi no Ichibun Paese di produzione: Giappone Anno: 2006 Genere: Storico, arti marziali, Drammatico Sottotitoli: Italiano (Softsub) Dimensione File: 3,36 GB Durata: 02:02:03 Regia: Yoji Yamada Soggetto: Shuhei Fujisawa Produttori: Junichi Sakamoto, Takeo Hisamatsu, Hiroshi Fukazawa CAST Shinnojo Mimura/Takuya Kimura, Kayo Mimura/Rei Dan, Toya Shimada/Mitsugoro Bando Tokuhei/Takashi Sasano, Ine Hatano/Kaori Momoi, Sakunosuke Higuchi/Nenji Kobayashi, Istruttore di Shinnojo/Ken Ogata TRAMA Giappone, periodo di Edo. Era uso del tempo, impiegare alcuni dei samurai del castello feudale ad 'assaggiare' il cibo preparato per il Signore, per verificare (a loro spese) che non fosse avvelenato. Bunnojo, giovane samurai tra gli 'assaggiatori', onorando il suo lavoro. La giovane e bella moglie, con l'intento di salvare la posizione dell'amato marito, cederà alle [i]avances[/i] di un personaggio di rilievo al castello. Ma così, farà perdere al marito una cosa che gli è anche più cara della vista... Note: Questo film, conta 4 premi al Japan Accademy Award 2007:Miglior attore protagonista, miglior attore esordiente (Rei Dan), migliore fotografia, migliore illuminazione, e oltre 10 nomination. SCHEDA TECNICA DEL FILMATO Info sul file Nome L'onore del Bushi.mkv Dimensione 3,615,692,748 bytes Info generiche Durata 02:02:03 Contenitore matroska Totale tracce 3 Traccia n. 1 video (V_MPEG4/ISO/AVC) [Love.and.Honor.2006.x264.BDRip.AVC.MediaClub] {jpn} Traccia n. 2 audio (A_AC3) [TRACK_04_ORIGINAL_JPN] {jpn} Traccia n. 3 subtitle (S_TEXT/ASS) [Bushi no ichibun] {ita} Dati rilevanti Risoluzione 1024 x 554 Larghezza multipla di 32 Altezza multipla di 2 DRF medio 18.956042 Traccia video Codec ID V_MPEG4/ISO/AVC Risoluzione 1024 x 554 Frame aspect ratio 512:277 Pixel aspect ratio 1:1 Display aspect ratio 512:277 Framerate 23.976025 fps Bitrate (bs) 3500.07022 kbps Qf 0.25733 Traccia audio Codec ID A_AC3 Freq. campionamento 48000 Hz Canali 6 Dimensione stream 410,088,448 bytes Tipo di bitstream AC3 Frames (bs) 228,844 Bitrate (bs) 448 kbps CBR Freq. campionamento 48000 Hz

TNTVillage - Ai No Kusabi 2011 [Sub Ita]

Language: | Size: 2.1 GB | Seed: 1 | Leech: 0

Description:

TNTVillage - Ai No Kusabi 2011 [Sub Ita] [DBRip 720p - Jap Flac - Softsub Ita] [IMG]http://i64.tinypic.com/21eqeo.jpg[/IMG] Titolo originale: Ai no Kusabi Paese di produzione: Giappone Anno: 2012 Genere: Drammatico, Fantascienza, Shounen-Ai Episodi: 4 Dimensione totale: 2,10 GB Durata episodi: 25 minuti circa Autore: Reiko Yoshihara Regia: Katsuhito Akiyama Studio: Anime International Company TRAMA Ai no Kusabi è in origine un romanzo giapponese, uscito in numerosi episodi, a partire dal 1986. Questa animazione, è il remake di una precedente, risalente al 1994 e completata in 2 OAV. La nuova versione, pensata in 12 episodi, si è però interrotta al 4° lasciando la serie incompleta. La storia si ambienta in un imprecisato futuro, sul pianeta Amoi. L'intelligenza artificiale Jupiter, gestisce la capitale Tanagura per mezzo di androidi dal cervello umano e dal corpo praticamente perfetto: i Blondie. Questi, usano appagare i loro istinti sessuali (in genere solo voyeuristici), attraverso i Pet: umani spesso nati nei loro stessi laboratori e tenuti come animali domestici. La vera città degli uomini è Midas, con i suoi lussi, le sue stravaganze... e il suo fiorente mercato nero. Intorno, i bassifondi... luoghi per reietti senza diritti nè cittadinanza. Qui è la violenza a dettare legge, e l'unico scopo è la sopravvivenza. Riki, leader di una gang dei bassifondi, incapperà durante un borseggio nel Blondie Yason Mink, uno dei pochi ad avere accesso alla mente artificiale Jupiter, oltre che capo del mercato nero di Midas. L'arroganza e la strafottenza di Riki, si scontreranno con la personalità del Blondie. Ognuno di loro, in un modo diverso, resterà "prigioniero" di un perversa relazione vittima-carnefice. La produzione purtroppo è al momento sospesa. Chi desidererà conoscere l'esito drammatico di questa storia non convenzionale, può cercare i 2 OAV precedenti, o leggersi l'intera trama su Wikipedia e sulle altre fonti disponibili. Ai_no_Kusabi-OAV1-Bestia_in_gabbia.mkv Dimensione 641,756,353 bytes (612.026551 MiB) Info generiche Durata 00:26:11 Contenitore matroska Totale tracce 3 Traccia n. 1 video (V_MPEG4/ISO/AVC) Traccia n. 2 audio (A_FLAC) {Jap} Traccia n. 3 subtitle (S_TEXT/ASS) {ita} Dati rilevanti Risoluzione 1280 x 720 Larghezza multipla di 32 Altezza multipla di 16 Traccia video Codec ID V_MPEG4/ISO/AVC Risoluzione 1280 x 720 Frame aspect ratio 16:9 Pixel aspect ratio 1:1 Display aspect ratio 16:9 Framerate 29.970032 fps Content encoding order 0 scope all frames type compression compression algorithm header stripping stripped header 1 bytes Bitrate (bs) 2645.817833 kbps Qf 0.095792 Traccia audio Codec ID A_FLAC Freq. campionamento 48000 Hz Canali 2 Dimensione campioni 16-bit File allegato n. 1 Nome file jesaya free.ttf MIME type application/x-truetype-font Dimensione 123,340 bytes UID 16800457177406853565 File allegato n. 2 Nome file Painted.ttf MIME type application/x-truetype-font Dimensione 84,676 bytes UID 16840453424015022511 File allegato n. 3 Nome file sylfaen.ttf MIME type application/x-truetype-font Dimensione 227,260 bytes UID 16910668186860004239

The Sword of Doom [Sub Ita] [TNTVillage]

Language: | Size: 3.96 GB | Seed: 21 | Leech: 10

Description:

The Sword of Doom [Sub Ita] [TNTVillage] [BDrip 720p - H264 - Jap Ac3 - Sub Ita] [img]http://i.imgur.com/saU5rbG.jpg[/img] Titolo originale: Dai-Bosatsu toge Paese di produzione: Giappone Anno: 1966 Genere: Storico, arti marziali, Drammatico Sottotitoli: Italiano (Softsub) Dimensione File: 3,96 GB Durata: 02:00:30 Regia: Kihaki Okamoto Basato sul romanzo: Dai-Bosatsu Toge Musiche: Masaru Sato CAST Ryunosuke Tsukue/Tatsuia Nakadai, Ohama/Michiyo Aratama, Hyoma Utsuki/Yuzo Kayama, Toranosuke Shimada/Toshirô Mifune Omatsu/Yôko Naito, Isami Kondo/Tadao Nakamaru, Kamo Serizawa/Kei satô, Shichibei/Kô Nishimura, Yohaki/Yasuzô Ogawa... TRAMA Ryunosuke è un samurai sociopatico, crudele e privo di scrupoli. In occasione di un torneo di spada, la moglie di un suo avversario lo implora di lasciar vincere il marito, è in ballo infatti, la posizione di tutto il suo casato. Ryunosuke accetta, in cambio dei favori della donna. Tuttavia durante il torneo, Ryunosuke uccide il marito. Unitosi al gruppo che darà origine alla Shinsengumi, Ryunosuke è inseguito dal fratello dell'uomo ucciso nel torneo... Il brusco finale del film è dovuto al fatto che esso doveva essere la prima parte di una trilogia, basata sul romanzo seriale "Dai-Bosatsu toge" di Nakasato kaizan. SCHEDA TECNICA DEL FILMATO Info sul file Nome Il Passo del Grande Buddha.mkv Dimensione 3,758,289,633 bytes Info generiche Durata 02:00:30 Contenitore matroska Totale tracce 3 Traccia n. 1 video (V_MPEG4/ISO/AVC) {und} Traccia n. 2 audio (A_AAC) [mono] {jpn} Traccia n. 3 subtitle (S_TEXT/ASS) {ita} Dati rilevanti Risoluzione 1280 x 820 Larghezza multipla di 32 Altezza multipla di 4 DRF medio 25.040764 Traccia video Codec ID V_MPEG4/ISO/AVC Risoluzione 1280 x 820 Frame aspect ratio 96:41 Pixel aspect ratio 1:1 Display aspect ratio 96:41 Framerate 23.976025 fps Bitrate (bs) 4524,039062 kbps Qf 0.119849 Traccia audio Codec ID A_AAC Freq. campionamento 48000 Hz Canali 1 Dimensione stream 161,776,719 bytes Tipo di bitstream (bs) AAC LC Frames (bs) 338,892 Bitrate (bs) 179,013578 kbps CBR Freq. campionamento 48000 Hz

Kung Fu Jungle (2014).H264.Italian.Chn.Ac3.5.1.sub.ita.NUita.eng.iCV-MIRCrew

Language: | Size: 1.53 GB | Seed: 73 | Leech: 21

Description:

Kung Fu Jungle (2014).H264.Italian.Chn.Ac3.5.1.sub.ita.NUita.eng.iCV-MIRCrew [center] [color=red][b][img]http://s23.postimg.org/b9yhws27f/0sc_Del1.png[/img] [u]NO FOUND ONLY ORIGINAL RELEASE[/u] [img]http://i.imgur.com/GDNQx1Z.png[/img] My release is always in double track audio italian and Original audio for select it use VLC or dvd player home not use wmp ENGLISH SUBTITLE INSIDE Kung Fu Jungle (2014) [img]https://extraimage.net/images/2017/03/04/eacc6fbdd6f5a799ea09debbf226fe31.png[/img] [URL=http://www.imdb.com/title/tt2952602/][IMG]http://www.userlogos.org/files/logos/Sucka/imdb_new.png[/IMG][/URL] [img]http://i.imgur.com/fGu1rKv.png[/img] Titolo originale Yī Gè Rén De Wǔ Lín Paese di produzione Hong Kong Anno 2014 Durata 100 min Genere azione Regia Teddy Chan Produttore Albert Lee Casa di produzione Emperor Motion Pictures Sun Entertainment Culture Beijing Silver Moon Musiche Peter Kam [img]http://i.imgur.com/W7kBqiE.png[/img] Donnie Yen: Hahou Mo Wang Baoqiang: Fung Yu-Sau Young Charlie: Luk Yuen-Sum Michelle Bai: Sinn Ying Alex Fong: Ispettore Lam Louis Fan: Hung Yip Xing Yu: Tam King-Yiu David Chiang: Maestro Chan Pak-Kwong [img]http://i.imgur.com/bFK3ggF.png[/img] Hahou Mo, esperto di arti marziali e istruttore di autodifesa della polizia, è stato arrestato per omicidio colposo durante un combattimento. Tre anni dopo un killer (Fung Yu-Sau) inizia ad uccidere maestri di arti marziali in pensione, Hahou rivela all'ispettore (Luk Yuen-Sum) che conosce il killer. [img]http://i.imgur.com/48xHWWH.png[/img] A martial arts instructor from the police force gets imprisoned after killing a man by accident. But when a vicious killer starts targeting martial arts masters, the instructor offers to help the police in return for his freedom. [img]http://i.imgur.com/K8bfNTy.png[/img] [url=https://extraimage.net/image/2Ycw][img]https://extraimage.net/images/2017/03/04/4304e11cea8480ea396311e6389ce144.th.png[/img][/url] [url=https://extraimage.net/image/2Yc2][img]https://extraimage.net/images/2017/03/04/c72d1ddc922a6dc6e957ee9872ab30fd.th.png[/img][/url] [url=https://extraimage.net/image/2YcN][img]https://extraimage.net/images/2017/03/04/ce510528fecb4647c6ac38bc428c5c68.th.png[/img][/url] [img]http://i.imgur.com/aVrMohH.png[/img] [spoiler] General Unique ID : 108558065048731872792276366869302644032 (0x51AB85D76A057464C5AA28FCB9D88D40) Complete name : Kung Fu Jungle (2014).H264.ita.chn.sub.ita.eng.iCV-MIRCrew.mkv Format : Matroska Format version : Version 2 File size : 1.53 GiB Duration : 1h 40mn Overall bit rate : 2 175 Kbps Movie name : VISIT www.icv-crew.org Encoded date : UTC 2017-02-27 14:37:02 Writing application : Lavf54.63.100 Writing library : Lavf54.63.100 COPYRIGHT : robbyrs Video ID : 1 Format : AVC Format/Info : Advanced Video Codec Format profile : [email protected] Format settings, CABAC : Yes Format settings, ReFrames : 2 frames Codec ID : V_MPEG4/ISO/AVC Duration : 1h 40mn Bit rate : 1 280 Kbps Width : 720 pixels Height : 304 pixels Display aspect ratio : 2.35:1 Original display aspect ratio : 2.35:1 Frame rate mode : Variable Frame rate : 24.000 fps Color space : YUV Chroma subsampling : 4:2:0 Bit depth : 8 bits Scan type : Progressive Bits/(Pixel*Frame) : 0.244 Stream size : 887 MiB (57%) Writing library : x264 core 130 r2273 Encoding settings : cabac=1 / ref=2 / deblock=1:0:0 / analyse=0x1:0x131 / me=hex / subme=7 / psy=1 / psy_rd=1.00:0.00 / mixed_ref=0 / me_range=16 / chroma_me=1 / trellis=1 / 8x8dct=0 / cqm=0 / deadzone=21,11 / fast_pskip=1 / chroma_qp_offset=-2 / threads=12 / lookahead_threads=2 / sliced_threads=0 / nr=0 / decimate=1 / interlaced=0 / bluray_compat=0 / constrained_intra=0 / bframes=3 / b_pyramid=0 / b_adapt=1 / b_bias=0 / direct=3 / weightb=1 / open_gop=0 / weightp=2 / keyint=240 / keyint_min=24 / scenecut=40 / intra_refresh=0 / rc_lookahead=40 / rc=2pass / mbtree=1 / bitrate=1280 / ratetol=1.0 / qcomp=0.60 / qpmin=10 / qpmax=69 / qpstep=4 / cplxblur=20.0 / qblur=0.5 / vbv_maxrate=24000 / vbv_bufsize=24000 / nal_hrd=none / ip_ratio=1.40 / aq=1:1.00 Language : Italian Default : Yes Forced : No DURATION : 01:40:01.959000000 NUMBER_OF_FRAMES : 144047 NUMBER_OF_BYTES : 7357559279 _STATISTICS_WRITING_APP : mkvmerge v8.7.0 ('All of the above') 64bit _STATISTICS_WRITING_DATE_UTC : 2017-01-25 10:41:24 _STATISTICS_TAGS : BPS DURATION NUMBER_OF_FRAMES NUMBER_OF_BYTES Audio #1 ID : 2 Format : AC-3 Format/Info : Audio Coding 3 Mode extension : CM (complete main) Codec ID : A_AC3 Duration : 1h 40mn Bit rate mode : Constant Bit rate : 448 Kbps Channel(s) : 6 channels Channel positions : Front: L C R, Side: L R, LFE Sampling rate : 48.0 KHz Bit depth : 16 bits Compression mode : Lossy Delay relative to video : 1mn 5s Stream size : 322 MiB (21%) Title : AC3 ITA Language : Italian Default : No Forced : No DURATION : 01:40:26.560000000 NUMBER_OF_FRAMES : 188330 NUMBER_OF_BYTES : 482124800 _STATISTICS_WRITING_APP : mkvmerge v8.7.0 ('All of the above') 64bit _STATISTICS_WRITING_DATE_UTC : 2017-01-25 10:41:24 _STATISTICS_TAGS : BPS DURATION NUMBER_OF_FRAMES NUMBER_OF_BYTES Audio #2 ID : 3 Format : AC-3 Format/Info : Audio Coding 3 Mode extension : CM (complete main) Codec ID : A_AC3 Duration : 1h 40mn Bit rate mode : Constant Bit rate : 448 Kbps Channel(s) : 6 channels Channel positions : Front: L C R, Side: L R, LFE Sampling rate : 48.0 KHz Bit depth : 16 bits Compression mode : Lossy Delay relative to video : 1mn 5s Stream size : 322 MiB (21%) Title : AC3 CHI Language : Chinese Default : No Forced : No DURATION : 01:40:02.016000000 NUMBER_OF_FRAMES : 187563 NUMBER_OF_BYTES : 480161280 _STATISTICS_WRITING_APP : mkvmerge v8.7.0 ('All of the above') 64bit _STATISTICS_WRITING_DATE_UTC : 2017-01-25 10:41:24 _STATISTICS_TAGS : BPS DURATION NUMBER_OF_FRAMES NUMBER_OF_BYTES Text #1 ID : 4 Format : ASS Codec ID : S_TEXT/ASS Codec ID/Info : Advanced Sub Station Alpha Compression mode : Lossless Title : REGULAR Language : Italian Default : No Forced : No DURATION : 01:32:20.700000000 NUMBER_OF_FRAMES : 574 NUMBER_OF_BYTES : 28801 _STATISTICS_WRITING_APP : mkvmerge v8.7.0 ('All of the above') 64bit _STATISTICS_WRITING_DATE_UTC : 2017-01-25 10:41:24 _STATISTICS_TAGS : BPS DURATION NUMBER_OF_FRAMES NUMBER_OF_BYTES Text #2 ID : 5 Format : ASS Codec ID : S_TEXT/ASS Codec ID/Info : Advanced Sub Station Alpha Compression mode : Lossless Title : NON UDENTI Language : Italian Default : No Forced : No DURATION : 01:32:35.700000000 NUMBER_OF_FRAMES : 908 NUMBER_OF_BYTES : 38277 _STATISTICS_WRITING_APP : mkvmerge v8.7.0 ('All of the above') 64bit _STATISTICS_WRITING_DATE_UTC : 2017-01-25 10:41:24 _STATISTICS_TAGS : BPS DURATION NUMBER_OF_FRAMES NUMBER_OF_BYTES Text #3 ID : 6 Format : ASS Codec ID : S_TEXT/ASS Codec ID/Info : Advanced Sub Station Alpha Compression mode : Lossless Title : REGULAR Language : English Default : No Forced : No DURATION : 01:32:19.041000000 NUMBER_OF_FRAMES : 967 NUMBER_OF_BYTES : 25524 _STATISTICS_WRITING_APP : mkvmerge v8.7.0 ('All of the above') 64bit _STATISTICS_WRITING_DATE_UTC : 2017-01-25 10:41:24 _STATISTICS_TAGS : BPS DURATION NUMBER_OF_FRAMES NUMBER_OF_BYTES Menu 00:00:00.000 : :00:00:00.000 00:09:49.589 : :00:09:49.589 00:22:55.374 : :00:22:55.374 00:36:32.190 : :00:36:32.190 00:45:16.714 : :00:45:16.714 01:00:54.651 : :01:00:54.651 01:11:45.301 : :01:11:45.301 01:31:36.491 : :01:31:36.491 01:37:46.861 : :01:37:46.861 [/spoiler] [/color][/b][/center]

I cacciatori di tesori: Cronache della tribù fantasma (2015).H264.Italian.Chn.Ac3.5.1.sub.ita.iCV-MIRCrew

Language: | Size: 1.8 GB | Seed: 2 | Leech: 7

Description:

I cacciatori di tesori: Cronache della tribù fantasma (2015).H264.Italian.Chn.Ac3.5.1.sub.ita.iCV-MIRCrew [center] [color=red][b][img]http://s23.postimg.org/b9yhws27f/0sc_Del1.png[/img] [u]NO FOUND ONLY ORIGINAL RELEASE[/u] [img]http://i.imgur.com/GDNQx1Z.png[/img] My release is always in double track audio italian and Original audio for select it use VLC or dvd player home not use wmp I cacciatori di tesori: Cronache della tribù fantasma (2015) [img]https://extraimage.net/images/2017/03/04/868685f4f974ddfee53f7c2c969d9626.png[/img] [URL=http://www.imdb.com/title/tt4819498/][IMG]http://www.userlogos.org/files/logos/Sucka/imdb_new.png[/IMG][/URL] [img]http://i.imgur.com/fGu1rKv.png[/img] (Jiu ceng yao ta) Regia: Chan Lu Paese: Cina Anno: 2015 Produzione: Eagle Pictures, 2017 Distribuzione: Eagle Pictures Durata: 118 min [img]http://i.imgur.com/W7kBqiE.png[/img] Mark Chao, Yang Tang [img]http://i.imgur.com/bFK3ggF.png[/img] Nel 1979, sulle montagne di Kunlun al confine con la Mongolia, viene scoperta una caverna contenente gli scheletri di mostruose creature. Un gruppo di soldati viene mandato in esplorazione e rinviene alcune di queste antiche creature ancora conservate nel ghiaccio. Ma dietro la scoperta si nasconde qualcosa di ancor più incredibile: quello che sembrava un tempio pare in realtà opera di... [img]http://i.imgur.com/48xHWWH.png[/img] The Mongolian Border, 1979: Massive fossils of unknown creatures are discovered in the mountains, and the research team assigned to excavate the remains includes acclaimed Professor Yang. [img]http://i.imgur.com/K8bfNTy.png[/img] [url=https://extraimage.net/image/2Y7R][img]https://extraimage.net/images/2017/03/04/35c8ac59355f9a6e9828248303c96390.th.png[/img][/url] [url=https://extraimage.net/image/2Y7Q][img]https://extraimage.net/images/2017/03/04/c067ab71b2b162e10ba24e0a30e368b7.th.png[/img][/url] [url=https://extraimage.net/image/2Y7m][img]https://extraimage.net/images/2017/03/04/e0cb5d466f1d8b7368019bb1d1396a8c.th.png[/img][/url] [url=https://extraimage.net/image/2Y7i][img]https://extraimage.net/images/2017/03/04/b75644d7329a099a86acf083f704c623.th.png[/img][/url] [img]http://i.imgur.com/aVrMohH.png[/img] [spoiler] General Unique ID : 180120367454605352847160876989738415721 (0x8781EBC1E758E2D0B2F44998AEC07669) Complete name : I cacciatori di tesori (2015).H264.ita.chn.sub.ita.iCV-MIRCrew.mkv Format : Matroska Format version : Version 2 File size : 1.80 GiB Duration : 1h 58mn Overall bit rate : 2 180 Kbps Movie name : VISIT www.icv-crew.org Encoded date : UTC 2017-02-14 10:21:40 Writing application : Lavf54.63.100 Writing library : Lavf54.63.100 COPYRIGHT : robbyrs Video ID : 1 Format : AVC Format/Info : Advanced Video Codec Format profile : [email protected] Format settings, CABAC : Yes Format settings, ReFrames : 2 frames Codec ID : V_MPEG4/ISO/AVC Duration : 1h 58mn Bit rate : 1 280 Kbps Width : 720 pixels Height : 304 pixels Display aspect ratio : 2.40:1 Frame rate mode : Variable Frame rate : 23.976 fps Color space : YUV Chroma subsampling : 4:2:0 Bit depth : 8 bits Scan type : Progressive Bits/(Pixel*Frame) : 0.244 Stream size : 1.03 GiB (57%) Writing library : x264 core 130 r2273 Encoding settings : cabac=1 / ref=2 / deblock=1:0:0 / analyse=0x1:0x131 / me=hex / subme=7 / psy=1 / psy_rd=1.00:0.00 / mixed_ref=0 / me_range=16 / chroma_me=1 / trellis=1 / 8x8dct=0 / cqm=0 / deadzone=21,11 / fast_pskip=1 / chroma_qp_offset=-2 / threads=12 / lookahead_threads=2 / sliced_threads=0 / nr=0 / decimate=1 / interlaced=0 / bluray_compat=0 / constrained_intra=0 / bframes=3 / b_pyramid=0 / b_adapt=1 / b_bias=0 / direct=3 / weightb=1 / open_gop=0 / weightp=2 / keyint=230 / keyint_min=23 / scenecut=40 / intra_refresh=0 / rc_lookahead=40 / rc=2pass / mbtree=1 / bitrate=1280 / ratetol=1.0 / qcomp=0.60 / qpmin=10 / qpmax=69 / qpstep=4 / cplxblur=20.0 / qblur=0.5 / vbv_maxrate=24000 / vbv_bufsize=24000 / nal_hrd=none / ip_ratio=1.40 / aq=1:1.00 Language : Italian Default : Yes Forced : No DURATION : 01:58:27.517000000 NUMBER_OF_FRAMES : 170410 NUMBER_OF_BYTES : 9235635851 _STATISTICS_WRITING_APP : mkvmerge v8.7.0 ('All of the above') 64bit _STATISTICS_WRITING_DATE_UTC : 2017-02-14 10:21:40 _STATISTICS_TAGS : BPS DURATION NUMBER_OF_FRAMES NUMBER_OF_BYTES Audio #1 ID : 2 Format : AC-3 Format/Info : Audio Coding 3 Mode extension : CM (complete main) Codec ID : A_AC3 Duration : 1h 58mn Bit rate mode : Constant Bit rate : 448 Kbps Channel(s) : 6 channels Channel positions : Front: L C R, Side: L R, LFE Sampling rate : 48.0 KHz Bit depth : 16 bits Compression mode : Lossy Delay relative to video : 1mn 5s Stream size : 380 MiB (21%) Title : AC3 ITA Language : Italian Default : Yes Forced : No DURATION : 01:58:01.952000000 NUMBER_OF_FRAMES : 221311 NUMBER_OF_BYTES : 566556160 _STATISTICS_WRITING_APP : mkvmerge v8.7.0 ('All of the above') 64bit _STATISTICS_WRITING_DATE_UTC : 2017-02-14 10:21:40 _STATISTICS_TAGS : BPS DURATION NUMBER_OF_FRAMES NUMBER_OF_BYTES Audio #2 ID : 3 Format : AC-3 Format/Info : Audio Coding 3 Mode extension : CM (complete main) Codec ID : A_AC3 Duration : 1h 58mn Bit rate mode : Constant Bit rate : 448 Kbps Channel(s) : 6 channels Channel positions : Front: L C R, Side: L R, LFE Sampling rate : 48.0 KHz Bit depth : 16 bits Compression mode : Lossy Delay relative to video : 1mn 5s Stream size : 380 MiB (21%) Title : AC3 CHI Language : Chinese Default : No Forced : No DURATION : 01:58:27.584000000 NUMBER_OF_FRAMES : 222112 NUMBER_OF_BYTES : 568606720 _STATISTICS_WRITING_APP : mkvmerge v8.7.0 ('All of the above') 64bit _STATISTICS_WRITING_DATE_UTC : 2017-02-14 10:21:40 _STATISTICS_TAGS : BPS DURATION NUMBER_OF_FRAMES NUMBER_OF_BYTES Text #1 ID : 4 Format : UTF-8 Codec ID : S_TEXT/UTF8 Codec ID/Info : UTF-8 Plain Text Title : FORCED Language : Italian Default : Yes Forced : No DURATION : 00:40:29.232000000 NUMBER_OF_FRAMES : 16 NUMBER_OF_BYTES : 662 _STATISTICS_WRITING_APP : mkvmerge v8.7.0 ('All of the above') 64bit _STATISTICS_WRITING_DATE_UTC : 2017-02-14 10:21:40 _STATISTICS_TAGS : BPS DURATION NUMBER_OF_FRAMES NUMBER_OF_BYTES Text #2 ID : 5 Format : UTF-8 Codec ID : S_TEXT/UTF8 Codec ID/Info : UTF-8 Plain Text Title : REGULAR Language : Italian Default : No Forced : No DURATION : 01:48:33.225000000 NUMBER_OF_FRAMES : 1030 NUMBER_OF_BYTES : 26575 _STATISTICS_WRITING_APP : mkvmerge v8.7.0 ('All of the above') 64bit _STATISTICS_WRITING_DATE_UTC : 2017-02-14 10:21:40 _STATISTICS_TAGS : BPS DURATION NUMBER_OF_FRAMES NUMBER_OF_BYTES Menu 00:00:00.000 : :00:00:00.000 00:08:28.967 : :00:08:28.967 00:17:16.869 : :00:17:16.869 00:26:41.350 : :00:26:41.350 00:37:16.985 : :00:37:16.985 00:47:42.777 : :00:47:42.777 00:57:22.439 : :00:57:22.439 01:07:31.214 : :01:07:31.214 01:17:20.219 : :01:17:20.219 01:27:38.920 : :01:27:38.920 01:37:38.019 : :01:37:38.019 01:50:59.695 : :01:50:59.695 [/spoiler] [/color][/b][/center]

Ed Sheeran - Divide (Deluxe Edition) (2017) (by emi)

Language: | Size: 84.3 MB | Seed: 345 | Leech: 45

Description:

mp3 a 192 kbps audio di qualità a 95 db Tracklist 01 - Eraser.mp3 (5.4 MB) 02 - Castle On The Hill.mp3 (6.2 MB) 03 - Dive.mp3 (5.6 MB) 04 - Shape Of You.mp3 (5.5 MB) 05 - Perfect.mp3 (6.2 MB) 06 - Galway Girl.mp3 (4.1 MB) 07 - Happier.mp3 (4.9 MB) 08 - New Man.mp3 (4.5 MB) 09 - Hearts Don't Break Around Here.mp3 (5.9 MB) 10 - What Do I Know.mp3 (5.6 MB) 11 - How Would You Feel (Paean).mp3 (6.6 MB) 12 - Supermarket Flowers.mp3 (5.2 MB) 13 - Barcelona.mp3 (4.5 MB) 14 - Bibia Be Ye Ye.mp3 (4.2 MB) 15 - Nancy Mulligan.mp3 (4.2 MB) 16 - Save Myself.mp3 (5.7 MB)

Che.Vuoi.Che.Sia.2016.iTALiAN.AC3.DVDRip.XviD-T4P3

Language: | Size: 1.37 GB | Seed: 1 | Leech: 0

Description:

Che vuoi che sia Titolo originale: Che vuoi che sia Conosciuto anche come: Nazione: Italia Anno: 2016 Genere: Commedia Durata: 105' Regia: Edoardo Leo Cast: Edoardo Leo, Anna Foglietta, Rocco Papaleo, Bebo Storti, Marina Massironi, Massimo Wertmüller Produzione: Italian International Film Distribuzione: Warner Bros Italia Data di uscita: 09 Novembre 2016 (cinema) Trama: Claudio e Anna continuano a rimandare il progetto di un figlio nell’attesa che la loro situazione economica migliori. Le loro speranze sono riposte in una piattaforma web ideata da Claudio, ma il crowdfunding lanciato per svilupparla non dà i risultati auspicati. Nessuno su Internet sembra capire il valore della sua idea. Una sera, ad una festa, complici alcol e delusione, Claudio registra un video che posta per scherzo e lancia una sfida al “popolo di Internet”: visto che sembrano essere tutti interessati solo al sesso, Claudio li provoca a fare un’offerta per vedere un video hard, che girerà con Anna, una volta raggiunta la cifra richiesta. Tanto è questo che si cerca su Internet, no? Inaspettatamente la provocazione di Claudio, ha un grande successo in rete e, mentre la loro celebrità aumenta, le offerte raggiungono una cifra incredibile. A questo punto tutti sono pronti a dire la loro a cominciare dallo zio Franco che si offre assurdamente di aiutarli a fare questo video. Ovviamente contrastato da sua moglie. E poi i genitori pronti a prendere posizione. Chi a favore chi contro. E poi gli amici di lui e le amiche di lei. E poi i commenti anonimi del web. Il dilemma di questa scelta si insinua nella testa dei nostri protagonisti. Cosa faranno di fronte a questa proposta ‘decente’? Ma un pensiero inizia a farsi strada: è davvero così sbagliato svendere la propria intimità per poter finalmente realizzare i propri sogni?

Nickelback - The Best Of Nickelback - Volume 1 (2013) (by emi)

Language: | Size: 105.99 MB | Seed: 177 | Leech: 16

Description:

mp3 a 192 kbps audio di qualità a 95 db Tracklist 01 - Photograph.mp3 (6.2 MB) 02 - How You Remind Me.mp3 (5.4 MB) 03 - Burn It To The Ground.mp3 (5.1 MB) 04 - Rockstar.mp3 (6.1 MB) 05 - Savin' Me.mp3 (5.3 MB) 06 - Figured You Out.mp3 (5.5 MB) 07 - Too Bad.mp3 (5.6 MB) 08 - If Today Was Your Last Day.mp3 (6.0 MB) 09 - Far Away.mp3 (5.7 MB) 10 - Feelin' Way Too Damn Good.mp3 (6.1 MB) 11 - Someday.mp3 (5.0 MB) 12 - Never Again.mp3 (6.2 MB) 13 - Lullaby.mp3 (5.5 MB) 14 - If Everyone Cared.mp3 (5.2 MB) 15 - Gotta Be Somebody.mp3 (6.0 MB) 16 - When We Stand Together.mp3 (4.6 MB) 17 - Animals.mp3 (4.5 MB) 18 - This Afternoon.mp3 (6.5 MB) 19 - Something In Your Mouth.mp3 (5.3 MB)

Quel.Bravo.Ragazzo.2016.iTALiAN.AC3.DVDRip.XviD-T4P3

Language: | Size: 1.37 GB | Seed: 4 | Leech: 0

Description:

Quel bravo ragazzo Titolo originale: Quel bravo ragazzo Nazione: Italia Anno: 2016 Genere: Commedia Durata: 83' Regia: Enrico Lando Cast: Herbert Ballerina, Tony Sperandeo, Ninni Bruschetta, Daniela Virgilio, Enrico Lo Verso, Maccio Capatonda, Enrico Venti Produzione: Medusa Film Distribuzione: Medusa Film Data di uscita: 17 Novembre 2016 (cinema) Trama: Cosa succede se un potentissimo boss mafioso sta per morire e vuole lasciare il comando della sua spietatissima cosca a un figlio che non ha mai riconosciuto? Ma, soprattutto, cosa succede se quel figlio è un innocuo, ingenuo e goffo ragazzotto di 35 anni che fa il chierichetto e che è vissuto in un orfanatrofio di un paesino del Sud Italia?

Vita Da Camper (2006) - Xvid 1080p

Language: | Size: 701.29 MB | Seed: 9 | Leech: 9

Description:

DATA USCITA: 01 giugno 2006 GENERE: Commedia ANNO: 2006 REGIA: Barry Sonnenfeld ATTORI: Robin Williams, Cheryl Hines, Jojo Levesque Joanna, Josh Hutcherson, Jeff Daniels, Kristin Chenoweth, Hunter Parrish, Chloe Sonnenfeld, Alex Ferris, Will Arnett, Tony Hale, Brian Howe, Richard Ian Cox, Erika-Shaye Gair, Brendan Fletcher, Matthew Gray Gubler, Rob LaBelle, Brian Markinson, Malcolm Scott, Barry Sonnenfeld, Rebecca Erwin Spencer, Veronika Sztopa, Kirsten Williamson, Paul Anthony, Chad Krowchuk, Ty Olsson, Bruce McFee, Giacomo Baessato, Andrew Botz, Justin Chartier, Deborah DeMille, Stephen E. Miller SCENEGGIATURA: Geoff Rodkey FOTOGRAFIA: Fred Murphy MONTAGGIO: Kevin Tent MUSICHE: James Newton Howard PRODUZIONE: RV Camping Productions Ltd., Red Wagon Productions, Nina Saxon Film Design, Intermedia Films, Relativity Media, DISTRIBUZIONE: Sony Pictures Releasing Italia, PAESE: USA DURATA: 100 Min Un capo famiglia sempre al lavoro, una moglie e due figli trascurati. Per cambiare le cose Bob Munro (Robin Williams) organizza una rilassante vacanza per tutta la famiglia sulle calde spiagge delle Hawaii. Purtroppo i buoni proposti di Bob si scontrano con un impegno lavorativo a dir poco impellente. Per riuscire a salvare sia i rapporti familiari che il lavoro, il capofamiglia propone a sorpresa un piccolo cambio di programma: invece delle rilassanti spiagge Hawaiane, un improbabile viaggio on the road in camper. La famiglia è indignata e nemmeno il destino sarà clemente con la buona volontà di Bob. Ma un camper superaccessoriato impossibile da guidare e gli imprevisti della vita di strada, non sono nulla in confronto all'incontro con l'irritante famiglia Gornicke. Comunque andrà a finire, per la famiglia Munro sarà sicuramente un'avventura indimenticabile.

Unto e Bisunto La vera storia di Chef Rubio - Webrip

Language: | Size: 2.12 GB | Seed: 13 | Leech: 2

Description:

Chi non conosce Chef Rubio il re del format Unti e Bisunti, serie TV dedicata allo street-food nata nel 2013 su DMAX e distribuita ormai in 80 paesi del mondo. Al secolo Gabriele Rubini, lo chef rude e tatuato, ha infatti da subito conquistato il pubblico del piccolo schermo televisivo con il suoi fare genuino e l'enorme competenza. Un successo "planetario" dunque, tanto da ispirare un film Tv dedicato alla sua storia o meglio a quella del suo personaggio, un vero supereroe dei fornelli. Andrà in onda sabato 19 dicembre 2016, Unto e Bisunto, la vera storia di Chef Rubio Il racconto inizia nel 2035: Rubio ha ormai 70 anni e vive in una capanna sulla spiaggia. Come è finito lì e cosa gli è successo? Ripercorreremo la sua vita da quando è venuto al mondo, naturalmente nella cucina di un ristorante, dove la sua prima parola è stata ‘magna’. Inoltre, scopriremo il suo superpotere: il palato assoluto. Si tratta di un dono che lo renderà famoso e idolatrato, finché un giorno non lo perderà, in modo del tutto fortuito. Improvvisamente Rubio non sentirà più i sapori, non distinguerà dolce e salato, aspro e piccante. Sarà la fine di una leggenda? Rubio si arrenderà al suo destino o cercherà di sovvertirlo? Lo scopriremo solo Vedendolo...

Lady Vendetta (2005) - BDMux HEVC 1080p - Ita Kor

Language: | Size: 6.63 GB | Seed: 3 | Leech: 25

Description:

DATA USCITA: 05 gennaio 2006 GENERE: Thriller ANNO: 2005 REGIA: Park Chan-wook ATTORI: Lee Young-Ae, Choi Min-sik, Lim Su-Gyeong, Anne Cordiner, Go Su-hee, Kang Hye-jeong, Kim Bu-Seon, Kim Byeong-ok, Kim Shi-Hoo, Nam Il-Woo, Ra Mi-Ran, Seo Yeong-Ju, Yu Ji-Tae, Yun Jin-Seo, Oh Dal-Su, Lee Seung-Shin, Ryoo Seung-wan, Kang-ho Song, Ryu Seung-Beom, Oh Kwang-Rok, Lee Dae-Yeon, Shin Ha-kyun SCENEGGIATURA: Park Chan-wook, Jeong Seo-kyung FOTOGRAFIA: Chung Chung-hoon MONTAGGIO: Kim Sang-Beom, Kim Jae-Beom MUSICHE: Cho Young-wook PRODUZIONE: CJ Entertainment, DISTRIBUZIONE: Lucky Red, PAESE: Corea del Sud DURATA: 112 Min Geum-ja, una bellissima ragazza che attira gli sguardi di tutti gli uomini che la circondano, diventa all'improvviso famosa per aver rapito e ucciso un bambino di cinque anni. Il suo arresto crea scalpore e il caso diventa una sorta di ossessione per i media.Dopo tredici anni di galera, durante i quali Geum-ja è una prigioniera modello e una grande lavoratrice (tanto da ottenere il soprannome di " Geum-ja la dolce"), la ragazza viene liberata."Geum-ja la dolce", ad ogni modo, non è rimasta inattiva nei suoi anni di prigionia. Per tredici anni ha tramato vendetta contro il suo insegnante, Mr. Baek (Choi Min-sik), il principale responsabile del suo arresto.

L'abbiamo fatta grossa - 2016 1080 Italian iTa

Language: | Size: 2.83 GB | Seed: 60 | Leech: 10

Description:

DATA USCITA: 28 gennaio 2016 GENERE: Commedia ANNO: 2016 REGIA: Carlo Verdone ATTORI: Carlo Verdone, Antonio Albanese, Anna Kasyan, Francesca Fiume, Clotilde Sabatino, Federico Ceci SCENEGGIATURA: Carlo Verdone, Pasquale Plastino, Massimo Gaudioso FOTOGRAFIA: Arnaldo Catinari MONTAGGIO: Claudio Di Mauro PRODUZIONE: Aurelio De Laurentiis e Luigi De Laurentiis DISTRIBUZIONE: Filmauro PAESE: Italia DURATA: 112 Min Antonio Albanese è Yuri Pelagatti, un attore di teatro che, traumatizzato dalla separazione, non riesce più a ricordare le battute in scena. Carlo Verdone è Arturo Merlino, un investigatore squattrinato che vive a casa della vecchia zia vedova. Yuri vuole le prove dell'infedeltà della ex moglie ed assume Arturo credendolo un super investigatore. Ma Arturo non ne fa una giusta! Per errore entrano in possesso di una misteriosa valigetta che contiene... 1 milione di euro! Una serie di guai divertentissimi e di rocambolesche avventure, fino a un finale imprevedibile...

In guerra per amore (2016) mkv Bluray 1080p AC3 DTS ITA x264

Language: | Size: 8.59 GB | Seed: 34 | Leech: 17

Description:

DATA USCITA: 27 ottobre 2016 GENERE: Commedia, Guerra, Sentimentale ANNO: 2016 REGIA: Pif ATTORI: Pif, Miriam Leone, Andrea Di Stefano, Stella Egitto, Aurora Quattrocchi, Robert Madison, Vincent Riotta, Maurizio Marchetti, Sergio Vespertino, Maurizio Bologna, Antonello Puglisi, Mario Pupella SCENEGGIATURA: Pif, Michele Astori, Marco Martani FOTOGRAFIA: Roberto Forza MONTAGGIO: Clelio Benevento PRODUZIONE: Wildside con Rai Cinema DISTRIBUZIONE: 01 Distribution PAESE: Italia DURATA: 99 Min New York 1943. Mentre il mondo è nel pieno della seconda guerra mondiale, Arturo vive la sua travagliata storia d'amore con Flora. I due si amano, ma lei è promessa sposa al figlio di un importante boss. Per convolare a nozze, il nostro protagonista deve ottenere il sì del padre della sua amata che vive in un paesino siciliano. Arturo, giovane e squattrinato, ha un solo modo per raggiungere l'isola: arruolarsi nell'esercito americano che si prepara per lo sbarco in Sicilia: l'evento che cambierà per sempre la storia della Sicilia, dell'Italia e della Mafia.

Cellular - 2004 Ita

Language: | Size: 700.22 MB | Seed: 11 | Leech: 0

Description:

Un film di David R. Ellis. Con Kim Basinger, Chris Evans, Jason Statham, William H. Macy, Jessica Biel. continua» Azione, durata 94 min. - USA 2004. uscita venerdì 29 aprile 2005.Cellular * * 1/2 - - valutazione media: 2,76 su 25 recensioni di critica, pubblico e dizionari. Larry Cohen, nessuna parentela con i celebri registi omonimi deve avere dei conti in sospeso con le società telfoniche americane. Altrimenti non si spiegherebbe il suo accanimento nel presentare il mezzo telefonico come assoluto protagonista delle pellicole che scrive. Suo è stato infatti, quel "Phone Booth" ( parentela con i celebri registi omonimi deve avere dei conti in sospeso con le società telfoniche americane. Altrimenti non si spiegherebbe il suo accanimento nel presentare il mezzo telefonico come assoluto protagonista delle pellicole che scrive. Suo è stato infatti, quel "Phone Booth" (In linea con l'assassino, con Colin Farrel chiuso nella cabina a gettoni) che un paio di estati fa riscaldò il boxoffice italiano, dopo aver ottenuto ottimi risultati negli Usa. Cellular, titolo epifanico, rilancia la stella, mai appannatasi del tutto a dire la verità, di Kim Basinger, donna disperata che chiede aiuto al deus ex machina di turno, in quanto non solo rapita ma anche terrorizzata dalla potenziale terribile fine che potrebbe fare la sua famiglia. Patria, figli e batterie scariche sono i fili rossi conduttori della storia che si dipana con piacevole velocità, e la totale mancanza di senso logico (fosse successo in Italia, l'eroe per caso avrebbe interrotto la comunicazione bestemmiando in quaranta dialetti diversi o, alla peggio avrebbe spedito un sms). David R. Ellis, una vita spesa come stunt e aiuto regista, gira in maniera convenzionale sebbene dimostri un certo gusto per l'umorismo grottesco (il suo precedente film era Final Destination 2) ed i colpi di scena del film sono, passateci la boutade, telefonati . C'è di meglio, ma visto il triste panorama odierno... potrebbe valere un biglietto.

Fast and Furious 7 - 2016 1080p Ita Eng

Language: | Size: 6.3 GB | Seed: 26 | Leech: 2

Description:

DATA USCITA: 02 aprile 2015 GENERE: Azione, Thriller ANNO: 2015 REGIA: James Wan ATTORI: Vin Diesel, Paul Walker, Dwayne Johnson, Michelle Rodriguez, Tyrese Gibson, Jason Statham, Jordana Brewster, Elsa Pataky, Ludacris, Kurt Russell, Djimon Hounsou, Tony Jaa, Lucas Black, Ronda Rousey SCENEGGIATURA: Chris Morgan FOTOGRAFIA: Stephen F. Windon MONTAGGIO: Leigh Folsom Boyd, Dylan Highsmith, Kirk M. Morri, Christian Wagner MUSICHE: Brian Tyler PRODUZIONE: Universal Pictures, Relativity Media, Dentsu DISTRIBUZIONE: Universal Pictures PAESE: USA DURATA: 140 Min In Fast and Furious 7, il gruppo di Dominic Toretto dovrà affrontare Ian Shaw, il fratello di Owen in cerca di vendetta. Dopo gli eventi di Londra, Han viene assassinato a Tokyo da Deckard Shaw (come abbiamo appreso dall'ultima scena del sesto capitolo). Shaw vuole vendicare la morte del fratello e inizia a dare la caccia alla "famiglia" di Dom Toretto. Le vite di quest'ultimo e tutti gli altri, Roman, Tej, Letty, Brian e Mia, sono in pericolo. Anche l'agente Hobbs è sotto tiro, ma un ufficiale governativo che opera nell'ombra è pronto a fornire a Dom e al suo team strumenti e risorse necessari per eliminare Shaw. Per arrivare a questo devono prima liberare un misterioso hacker, rapito da un gruppo di terroristi, che ha creato un congegno capace di localizzare qualunque individuo in tempo reale sull'intero pianeta.

Death Race 2 - 2011 iTALiAN BDRip XviD

Language: | Size: 1.6 GB | Seed: 20 | Leech: 3

Description:

Il film è un prequel di Death Race. Alcuni prigionieri di un carcere vengono coinvolti in una folle corsa automobilistica dove in palio c’è la liberta, oltre che la vita. Colui che vincerà cinque corse sarà libero. Il film, inoltre, farà chiarezza anche sulla vita del ‘vecchio’ Frenkestein.. Genere:Azione, Fantascienza, Film, Thriller Anno: 2010 Qualitá: HD Scrittore: Paul W.S. Anderson (characters and story), Tony Giglio (screenplay) Attori: Lauren Cohan, Luke Goss, Sean Bean, Ving Rhames

Before The Flood -.2016 ITA ENG WEBMux 1080p x264

Language: | Size: 2.46 GB | Seed: 6 | Leech: 5

Description:

Un film di Fisher Stevens. Con Bill Clinton, Leonardo DiCaprio, John Kerry, Barack Obama Titolo originale Before the Flood. Documentario, durata 93 min. - USA 2016. L'attore premio Oscar Leonardo DiCaprio, attivista ecologista e messaggero di pace delle Nazioni Unite, intervista persone che provengono da nazioni sviluppate o in via di sviluppo per fare il punto su ciò che può rendere le istituzioni ecocompatibili. Il documentario, prodotto anche da Martin Scorsese, vuole dimostrare come la società può impedire la scomparsa delle specie in via di estinzione, la distruzione degli ecosistemi e l'eliminazione delle comunità indigene.

MasterChef Italia S06e19-20 Versione 720p [SATRip - 720p - H264 - Ita Aac] HDTVRip

Language: | Size: 3.36 GB | Seed: 160 | Leech: 16

Description:

Descrizione: .: Scheda della serie :. Anno: 2011-in corso Genere: Talent Show Regia: Umberto Spinazzola Cast: Bruno Barbieri; Carlo Cracco; Joe Bastianich; Antonino Cannavacciuolo .: Descrizione :. Dopo un anno di famelica attesa prende il via la sesta stagione di MasterChef Italia. I fornelli della cucina più famosa della TV stanno per riaccendersi. Inizia la nuova stagione MasterChef con i giudici riconfermati Bruno Barbieri, Joe Bastianich, Antonino Cannavacciuolo e Carlo Cracco.

MasterChef Italia S06e17-18 Versione 720p [SATRip - 720p - H264 - Ita Aac] HDTVRip

Language: | Size: 3.21 GB | Seed: 158 | Leech: 6

Description:

Descrizione: .: Scheda della serie :. Anno: 2011-in corso Genere: Talent Show Regia: Umberto Spinazzola Cast: Bruno Barbieri; Carlo Cracco; Joe Bastianich; Antonino Cannavacciuolo .: Descrizione :. Dopo un anno di famelica attesa prende il via la sesta stagione di MasterChef Italia. I fornelli della cucina più famosa della TV stanno per riaccendersi. Inizia la nuova stagione MasterChef con i giudici riconfermati Bruno Barbieri, Joe Bastianich, Antonino Cannavacciuolo e Carlo Cracco.

MasterChef Italia S06e15-16 Versione 720p [SATRip - 720p - H264 - Ita Aac] HDTVRip

Language: | Size: 3.3 GB | Seed: 152 | Leech: 5

Description:

Descrizione: .: Scheda della serie :. Anno: 2011-in corso Genere: Talent Show Regia: Umberto Spinazzola Cast: Bruno Barbieri; Carlo Cracco; Joe Bastianich; Antonino Cannavacciuolo .: Descrizione :. Dopo un anno di famelica attesa prende il via la sesta stagione di MasterChef Italia. I fornelli della cucina più famosa della TV stanno per riaccendersi. Inizia la nuova stagione MasterChef con i giudici riconfermati Bruno Barbieri, Joe Bastianich, Antonino Cannavacciuolo e Carlo Cracco.

MasterChef Italia S06e13-14 Versione 720p [SATRip - 720p - H264 - Ita Aac] HDTVRip

Language: | Size: 3.1 GB | Seed: 130 | Leech: 10

Description:

Descrizione: .: Scheda della serie :. Anno: 2011-in corso Genere: Talent Show Regia: Umberto Spinazzola Cast: Bruno Barbieri; Carlo Cracco; Joe Bastianich; Antonino Cannavacciuolo .: Descrizione :. Dopo un anno di famelica attesa prende il via la sesta stagione di MasterChef Italia. I fornelli della cucina più famosa della TV stanno per riaccendersi. Inizia la nuova stagione MasterChef con i giudici riconfermati Bruno Barbieri, Joe Bastianich, Antonino Cannavacciuolo e Carlo Cracco.

MasterChef Italia S06e11-12 Versione 720p [SATRip - 720p - H264 - Ita Aac] HDTVRip

Language: | Size: 3.34 GB | Seed: 83 | Leech: 10

Description:

Descrizione: .: Scheda della serie :. Anno: 2011-in corso Genere: Talent Show Regia: Umberto Spinazzola Cast: Bruno Barbieri; Carlo Cracco; Joe Bastianich; Antonino Cannavacciuolo .: Descrizione :. Dopo un anno di famelica attesa prende il via la sesta stagione di MasterChef Italia. I fornelli della cucina più famosa della TV stanno per riaccendersi. Inizia la nuova stagione MasterChef con i giudici riconfermati Bruno Barbieri, Joe Bastianich, Antonino Cannavacciuolo e Carlo Cracco.