Support us
Login | Signup

Popular TAGs: 2016 2015 2014 2013 720p 1080p m1080p XviD x264 x265 3D DVDrip BDrip MKV 320kbps

Show only:                                            

Sort by: Date | Name | Seeders | Leechers | Comments

Grotto (2015).H264.Italian.Ac3.5.1.sub.ita.NUita.iCV-MIRCrew

Language: | Size: 1.12 GB | Seed: 223 | Leech: 141

Description:

Grotto (2015).H264.Italian.Ac3.5.1.sub.ita.NUita.iCV-MIRCrew [center] [color=red][b][img]http://extraimago.com/images/2016/07/16/oCo82IVa08d8.png[/img] [u]NO FOUND ONLY ORIGINAL RELEASE[/u] [img]http://i.imgur.com/GDNQx1Z.png[/img] My release is always in double track audio italian and Original audio for select it use VLC or dvd player home not use wmp Grotto (2015) [img]https://extraimage.net/images/2016/12/16/2f09b86e23dc8289ceebd513cb316d8d.png[/img] [URL=http://www.imdb.com/title/tt4844722/][IMG]http://www.userlogos.org/files/logos/Sucka/imdb_new.png[/IMG][/URL] [img]http://i.imgur.com/qKKNGHG.png[/img] DATA USCITA: 21 aprile 2016 GENERE: Avventura , Family ANNO: 2015 REGIA: Micol Pallucca SCENEGGIATURA: Micol Pallucca FOTOGRAFIA: Maxime Alexandre MONTAGGIO: Consuelo Catucci MUSICHE: Alberto Buffolano, Francesco Cerasi PRODUZIONE: Thalia Film, Bmovie Production, Bmovie Production DISTRIBUZIONE: Thalia Film, Europictures PAESE: Italia DURATA: 93 Min FORMATO: 2D e 3D [img]http://i.imgur.com/VmqNvIa.png[/img] Christian Roberto, Gabriele Fiore, Iris Caporuscio, Samuele Biscossi, Leonardo Similaro [img]http://i.imgur.com/NhlQr0j.png[/img] Tre bambini costringono un loro compagno di classe a una prova di coraggio per entrare a far parte del loro gruppo: dovrà portare via un teschio da una chiesa abbandonata. Inaspettatamente il bambino viene inghiottito da una voragine che si apre sul pavimento. [img]http://i.imgur.com/76fgzGF.png[/img] Three children force a classmate to a test of courage to get into their group. During the test, which consists in finding a skull in an abandoned church, the child is swallowed by a chasm ... [img]http://i.imgur.com/DgAQhgU.png[/img] [url=https://extraimage.net/image/2Trb][img]http://extraimage.net/images/2016/12/16/a67e5f1c070b92ae283e0f392468d564.th.png[/img][/url] [url=https://extraimage.net/image/2Trh][img]http://extraimage.net/images/2016/12/16/9fb7b87b48d836049c837a951f320d47.th.png[/img][/url] [url=https://extraimage.net/image/2Tr3][img]http://extraimage.net/images/2016/12/16/83e91e9f8d95167b24cacc1e119bd988.th.png[/img][/url] [url=https://extraimage.net/image/2Tr9][img]http://extraimage.net/images/2016/12/16/d075336bbb2d9c6aa218eb6e1ea95037.th.png[/img][/url] [img]http://i.imgur.com/DhNFcEV.png[/img] [spoiler] General Unique ID : 209025789484557051307376039350407700666 (0x9D40E7181E001CD31A0704D8426AA0BA) Complete name : Grotto.Ita.sub.ita.NUita.iCV-MIRCrew (2015).mkv Format : Matroska Format version : Version 2 File size : 1.12 GiB Duration : 1h 33mn Overall bit rate : 1 721 Kbps Movie name : VISIT www.icv-crew.org Encoded date : UTC 2016-12-12 20:30:45 Writing application : Lavf54.63.100 Writing library : Lavf54.63.100 COPYRIGHT : robbyrs Video ID : 1 Format : AVC Format/Info : Advanced Video Codec Format profile : [email protected] Format settings, CABAC : Yes Format settings, ReFrames : 2 frames Codec ID : V_MPEG4/ISO/AVC Duration : 1h 33mn Bit rate : 1 270 Kbps Width : 720 pixels Height : 300 pixels Display aspect ratio : 2.40:1 Frame rate mode : Variable Frame rate : 23.976 fps Color space : YUV Chroma subsampling : 4:2:0 Bit depth : 8 bits Scan type : Progressive Bits/(Pixel*Frame) : 0.245 Stream size : 827 MiB (72%) Writing library : x264 core 130 r2273 Encoding settings : cabac=1 / ref=2 / deblock=1:0:0 / analyse=0x1:0x131 / me=hex / subme=7 / psy=1 / psy_rd=1.00:0.00 / mixed_ref=0 / me_range=16 / chroma_me=1 / trellis=1 / 8x8dct=0 / cqm=0 / deadzone=21,11 / fast_pskip=1 / chroma_qp_offset=-2 / threads=12 / lookahead_threads=2 / sliced_threads=0 / nr=0 / decimate=1 / interlaced=0 / bluray_compat=0 / constrained_intra=0 / bframes=3 / b_pyramid=0 / b_adapt=1 / b_bias=0 / direct=3 / weightb=1 / open_gop=0 / weightp=2 / keyint=230 / keyint_min=23 / scenecut=40 / intra_refresh=0 / rc_lookahead=40 / rc=2pass / mbtree=1 / bitrate=1270 / ratetol=1.0 / qcomp=0.60 / qpmin=10 / qpmax=69 / qpstep=4 / cplxblur=20.0 / qblur=0.5 / vbv_maxrate=24000 / vbv_bufsize=24000 / nal_hrd=none / ip_ratio=1.40 / aq=1:1.00 Language : English Default : Yes Forced : No DURATION : 01:33:21.388000000 NUMBER_OF_FRAMES : 134299 NUMBER_OF_BYTES : 6827794172 _STATISTICS_WRITING_APP : mkvmerge v8.7.0 ('All of the above') 64bit _STATISTICS_WRITING_DATE_UTC : 2016-12-07 17:43:46 _STATISTICS_TAGS : BPS DURATION NUMBER_OF_FRAMES NUMBER_OF_BYTES Audio ID : 2 Format : AC-3 Format/Info : Audio Coding 3 Mode extension : CM (complete main) Codec ID : A_AC3 Duration : 1h 33mn Bit rate mode : Constant Bit rate : 448 Kbps Channel(s) : 6 channels Channel positions : Front: L C R, Side: L R, LFE Sampling rate : 48.0 KHz Bit depth : 16 bits Compression mode : Lossy Delay relative to video : 1mn 5s Stream size : 299 MiB (26%) Title : AC3 ITA Language : Italian Default : No Forced : No DURATION : 01:33:21.632000000 NUMBER_OF_FRAMES : 175051 NUMBER_OF_BYTES : 448130560 _STATISTICS_WRITING_APP : mkvmerge v8.7.0 ('All of the above') 64bit _STATISTICS_WRITING_DATE_UTC : 2016-12-07 17:43:46 _STATISTICS_TAGS : BPS DURATION NUMBER_OF_FRAMES NUMBER_OF_BYTES Text ID : 3 Format : UTF-8 Codec ID : S_TEXT/UTF8 Codec ID/Info : UTF-8 Plain Text Title : Non Udenti Language : Italian Default : No Forced : No DURATION : 01:29:27.070000000 NUMBER_OF_FRAMES : 1072 NUMBER_OF_BYTES : 52872 _STATISTICS_WRITING_APP : mkvmerge v8.7.0 ('All of the above') 64bit _STATISTICS_WRITING_DATE_UTC : 2016-12-07 17:43:46 _STATISTICS_TAGS : BPS DURATION NUMBER_OF_FRAMES NUMBER_OF_BYTES Menu 00:00:00.000 : :00:00:00.000 00:07:05.342 : :00:07:05.342 00:14:28.201 : :00:14:28.201 00:20:13.838 : :00:20:13.838 00:29:27.099 : :00:29:27.099 00:39:02.590 : :00:39:02.590 00:50:56.804 : :00:50:56.804 00:59:52.756 : :00:59:52.756 01:08:53.129 : :01:08:53.129 01:16:19.950 : :01:16:19.950 01:23:27.706 : :01:23:27.706 [/spoiler] [/color][/b][/center]

Messi - Storia di un campione (2014).H264.Italian.Spanish.Ac3.5.1.sub.Ita.iCV-MIRCrew

Language: | Size: 1.43 GB | Seed: 146 | Leech: 69

Description:

Messi - Storia di un campione (2014).H264.Italian.Spanish.Ac3.5.1.sub.Ita.iCV-MIRCrew [center] [color=red][b][img]http://extraimago.com/images/2016/07/16/oCo82IVa08d8.png[/img] [u]NO FOUND ONLY ORIGINAL RELEASE[/u] [img]http://i.imgur.com/GDNQx1Z.png[/img] My release is always in double track audio italian and Original audio for select it use VLC or dvd player home not use wmp Messi - Storia di un campione (2014) [img]http://extraimage.net/images/2016/12/16/c4106c4aefc8de46bdfb25a881793244.png[/img] [URL=http://www.imdb.com/showtimes/title/tt2914892][IMG]http://www.userlogos.org/files/logos/Sucka/imdb_new.png[/IMG][/URL] [img]http://i.imgur.com/Q5gAZRt.png[/img] Genere: Documentario Durata: 93 minuti Regista: Álex de la Iglesia [img]http://i.imgur.com/Jtvgw7x.png[/img] ********************************* [img]http://i.imgur.com/hL3n1m8.png[/img] A metà strada da documentario e fiction, il film che narra la storia romanzata dell'infanzia difficile di Lionel Messi, il campione del Barcellona che ha sconfitto la malattia ed è entrato nell'Olimpo del calcio mondiale. Riuniti nello stesso ristorante, calciatori, professori, allenatori, amici, giornalisti, scrittori e personaggi della storia del calcio [img]http://i.imgur.com/MTp7cO6.png[/img] Lionel Messi from early life to international stardom. [img]http://i.imgur.com/6TgqSmf.png[/img] [url=https://extraimage.net/image/2Tpz][img]http://extraimage.net/images/2016/12/16/f85ea361a7075924722616ca0d5cab9b.th.png[/img][/url] [url=https://extraimage.net/image/2TpU][img]http://extraimage.net/images/2016/12/16/4872f3b6ed6c9e111fbcd11be1897bb4.th.png[/img][/url] [url=https://extraimage.net/image/2Tp0][img]http://extraimage.net/images/2016/12/16/fe7a41c34411e7cdc3f880858f556e48.th.png[/img][/url] [img]http://i.imgur.com/t8N3Ia1.png[/img] [spoiler] General Unique ID : 193494290940221640920024968935975093759 (0x9191A51819664A48ACCF9DEBEB9705FF) Complete name : Messi (2014).Ita.Spa.sub.ita.iCV-MIRCrew.mkv Format : Matroska Format version : Version 2 File size : 1.43 GiB Duration : 1h 33mn Overall bit rate : 2 179 Kbps Movie name : MESSI.Title1 Encoded date : UTC 2016-12-16 10:17:54 Writing application : DVDFab 9.1.5.7 Writing library : libebml v0.7.8 + libmatroska v0.8.1 Video ID : 1 Format : AVC Format/Info : Advanced Video Codec Format profile : [email protected] Format settings, CABAC : Yes Format settings, ReFrames : 2 frames Codec ID : V_MPEG4/ISO/AVC Duration : 1h 33mn Bit rate : 1 240 Kbps Width : 720 pixels Height : 320 pixels Display aspect ratio : 2.25:1 Frame rate : 25.000 fps Color space : YUV Chroma subsampling : 4:2:0 Bit depth : 8 bits Scan type : Progressive Bits/(Pixel*Frame) : 0.215 Stream size : 832 MiB (57%) Writing library : x264 core Default : Yes Forced : No Color primaries : BT.601-6 525, BT.1358 525, BT.1700 NTSC, SMPTE 170M Transfer characteristics : BT.709-5, BT.1361 Matrix coefficients : BT.601-6 525, BT.1358 525, BT.1700 NTSC, SMPTE 170M Audio #1 ID : 2 Format : AC-3 Format/Info : Audio Coding 3 Mode extension : CM (complete main) Codec ID : A_AC3 Duration : 1h 33mn Bit rate mode : Constant Bit rate : 448 Kbps Channel(s) : 6 channels Channel positions : Front: L C R, Side: L R, LFE Sampling rate : 48.0 KHz Bit depth : 16 bits Compression mode : Lossy Stream size : 301 MiB (21%) Language : Italian Default : Yes Forced : No Audio #2 ID : 3 Format : AC-3 Format/Info : Audio Coding 3 Mode extension : CM (complete main) Codec ID : A_AC3 Duration : 1h 33mn Bit rate mode : Constant Bit rate : 448 Kbps Channel(s) : 6 channels Channel positions : Front: L C R, Side: L R, LFE Sampling rate : 48.0 KHz Bit depth : 16 bits Compression mode : Lossy Stream size : 301 MiB (21%) Language : Spanish Default : No Forced : No Text ID : 4 Format : VobSub Codec ID : S_VOBSUB Codec ID/Info : The same subtitle format used on DVDs Language : Italian Default : Yes Forced : No Menu 00:00:00.000 : en:(01)00:00:00:000 00:09:08.360 : en:(02)00:09:08:360 00:15:44.400 : en:(03)00:15:44:400 00:25:32.360 : en:(04)00:25:32:360 00:31:37.480 : en:(05)00:31:37:480 00:39:37.920 : en:(06)00:39:37:920 00:46:09.160 : en:(07)00:46:09:160 00:55:14.600 : en:(08)00:55:14:600 01:03:23.640 : en:(09)01:03:23:640 01:13:40.560 : en:(10)01:13:40:560 01:20:23.800 : en:(11)01:20:23:800 01:31:17.160 : en:(12)01:31:17:160 [/spoiler] [/color][/b][/center]

Lucio Dalla - The Best Of [Flac][TntVillage]

Language: | Size: 377.21 MB | Seed: 55 | Leech: 3

Description:

Artist...............: Lucio Dalla Album................: The best of Lucio Dalla Genre................: Rock Source...............: CD Year.................: 1992 Ripper...............: EAC (Secure mode) / LAME 3.92 & Asus CD-S520 Codec................: Free Lossless Audio Codec (FLAC) Version..............: reference libFLAC 1.2.1 20070917 Quality..............: Lossless, (avg. compression: 56 %) Channels.............: Stereo / 44100 HZ / 16 Bit Tags.................: VorbisComment Information..........: TntVillage Ripped by............: Leonenero on 02/04/2016 Posted by............: Leonenero on 02/04/2016 News Server..........: news.astraweb.com News Group(s)........: TntVillage Included.............: NFO, M3U, LOG, CUE Covers...............: Front Back CD --------------------------------------------------------------------- Tracklisting --------------------------------------------------------------------- 1. Lucio Dalla - Siamo dei [04:30] 2. Lucio Dalla with Gianni Morandi - Felicità [05:47] 3. Lucio Dalla - Tutta la vita [05:01] 4. Lucio Dalla - Attenti al lupo [04:20] 5. Lucio Dalla - Chissà se lo sai [04:01] 6. Lucio Dalla - Caruso [05:13] 7. Lucio Dalla - Viaggi organizatti [04:51] 8. Lucio Dalla with Francesco De Gregori - Cosa sarà [04:15] 9. Lucio Dalla - Anna e Marco [03:41] 10. Lucio Dalla with Gianni Morandi - C'era un ragazzo che come me amava i Beatles e i Rolling Stones [04:33] 11. Lucio Dalla - L'anno che verrà [04:24] 12. Lucio Dalla - Ma come fanno i marinai [04:32] 13. Lucio Dalla - Come è profondo il mare [05:23] 14. Lucio Dalla - Balla balla ballerino [05:43] Playing Time.........: 01:06:19 Total Size...........: 376,78 MB This is probably the most representative of Lucio Dalla,s work, one of Italys truly great musicians and poets, even for those who dont speak the language the music carries you off in every direction. Brilliant compilation and excellent music

Blinky Bill the Movie - Billy il Koala (2015).H264.Italian.English.Ac3.5.1.sub.Ita.iCV-MIRCrew

Language: | Size: 1.38 GB | Seed: 8 | Leech: 49

Description:

Blinky Bill the Movie - Billy il Koala (2015).H264.Italian.English.Ac3.5.1.sub.Ita.iCV-MIRCrew [center] [color=red][b][img]http://extraimago.com/images/2016/07/16/oCo82IVa08d8.png[/img] [u]NO FOUND ONLY ORIGINAL RELEASE[/u] [img]http://i.imgur.com/GDNQx1Z.png[/img] My release is always in double track audio italian and Original audio for select it use VLC or dvd player home not use wmp Billy il Koala - Blinky Bill the Movie (2015) [img]https://extraimage.net/images/2016/12/16/414ef0b50c4c051b9c3c57b0ce077cd2.png[/img] [img]http://i.imgur.com/Q5gAZRt.png[/img] DATA USCITA: 31 marzo 2016 GENERE: Animazione , Avventura , Family ANNO: 2015 REGIA: Deane Taylor SCENEGGIATURA: Fin Edquist MONTAGGIO: Simon Klaebe MUSICHE: Dale Cornelius PRODUZIONE: Assemblage Entertainment, Flying Bark Productions, Telegael DISTRIBUZIONE: Microcinema PAESE: Australia, USA DURATA: 93 Min [img]http://i.imgur.com/Jtvgw7x.png[/img] ****************************************** [img]http://i.imgur.com/hL3n1m8.png[/img] Billy è un cucciolo di koala dotato di una fervida immaginazione e di un enorme coraggio. Vuole diventare un grande avventuriero proprio come suo padre, il più grande esploratore di tutti i tempi! Quando, dopo 1 anno, il papà di Billy non torna a casa dopo una delle sue leggendarie avventure, Billy decide di lasciare la sua piccola città e partire e............ [img]http://i.imgur.com/MTp7cO6.png[/img] An adventurous young koala embarks on a journey across the wild and dangerous Australian outback in the hope of finding his missing father, but he soon discovers that there is more to being a hero than meets the eye. [img]http://i.imgur.com/6TgqSmf.png[/img] [url=https://extraimage.net/image/2Teh][img]http://extraimage.net/images/2016/12/16/d52b49e90f2924abe3329613515b01c1.th.png[/img][/url] [url=https://extraimage.net/image/2Ted][img]http://extraimage.net/images/2016/12/16/cc60a00830dc113c28326703fbb3db48.th.png[/img][/url] [url=https://extraimage.net/image/2Teb][img]http://extraimage.net/images/2016/12/16/ab52f8bb0a1f06f7312ef8c104bb3a13.th.png[/img][/url] [img]http://i.imgur.com/t8N3Ia1.png[/img] [spoiler] General Unique ID : 52750265390460029077252977630504345764 (0x27AF54E1B47F809F580D4B131788E0A4) Complete name : Billy il Koala (2015).H264.ita.eng.sub.ita.iCV-MIRCrew.mkv Format : Matroska Format version : Version 2 File size : 1.38 GiB Duration : 1h 31mn Overall bit rate : 2 157 Kbps Movie name : VISIT www.icv-crew.org Encoded date : UTC 2016-12-10 19:43:54 Writing application : Lavf54.63.100 Writing library : Lavf54.63.100 COPYRIGHT : robbyrs Video ID : 1 Format : AVC Format/Info : Advanced Video Codec Format profile : [email protected] Format settings, CABAC : Yes Format settings, ReFrames : 2 frames Codec ID : V_MPEG4/ISO/AVC Duration : 1h 31mn Bit rate : 1 270 Kbps Width : 720 pixels Height : 404 pixels Display aspect ratio : 16:9 Frame rate mode : Variable Frame rate : 24.000 fps Color space : YUV Chroma subsampling : 4:2:0 Bit depth : 8 bits Scan type : Progressive Bits/(Pixel*Frame) : 0.182 Stream size : 798 MiB (56%) Writing library : x264 core 130 r2273 Encoding settings : cabac=1 / ref=2 / deblock=1:0:0 / analyse=0x1:0x131 / me=hex / subme=7 / psy=1 / psy_rd=1.00:0.00 / mixed_ref=0 / me_range=16 / chroma_me=1 / trellis=1 / 8x8dct=0 / cqm=0 / deadzone=21,11 / fast_pskip=1 / chroma_qp_offset=-2 / threads=12 / lookahead_threads=2 / sliced_threads=0 / nr=0 / decimate=1 / interlaced=0 / bluray_compat=0 / constrained_intra=0 / bframes=3 / b_pyramid=0 / b_adapt=1 / b_bias=0 / direct=3 / weightb=1 / open_gop=0 / weightp=2 / keyint=240 / keyint_min=24 / scenecut=40 / intra_refresh=0 / rc_lookahead=40 / rc=2pass / mbtree=1 / bitrate=1270 / ratetol=1.0 / qcomp=0.60 / qpmin=10 / qpmax=69 / qpstep=4 / cplxblur=20.0 / qblur=0.5 / vbv_maxrate=24000 / vbv_bufsize=24000 / nal_hrd=none / ip_ratio=1.40 / aq=1:1.00 Language : English Default : Yes Forced : No DURATION : 01:30:57.880000000 NUMBER_OF_FRAMES : 130989 NUMBER_OF_BYTES : 3644335529 _STATISTICS_WRITING_APP : mkvmerge v8.7.0 ('All of the above') 64bit _STATISTICS_WRITING_DATE_UTC : 2016-12-08 21:03:33 _STATISTICS_TAGS : BPS DURATION NUMBER_OF_FRAMES NUMBER_OF_BYTES Audio #1 ID : 2 Format : AC-3 Format/Info : Audio Coding 3 Mode extension : CM (complete main) Codec ID : A_AC3 Duration : 1h 31mn Bit rate mode : Constant Bit rate : 448 Kbps Channel(s) : 6 channels Channel positions : Front: L C R, Side: L R, LFE Sampling rate : 48.0 KHz Bit depth : 16 bits Compression mode : Lossy Delay relative to video : 1mn 5s Stream size : 293 MiB (21%) Title : AC3 ITA Language : Italian Default : Yes Forced : No DURATION : 01:30:57.920000000 NUMBER_OF_FRAMES : 170560 NUMBER_OF_BYTES : 305643520 _STATISTICS_WRITING_APP : mkvmerge v8.7.0 ('All of the above') 64bit _STATISTICS_WRITING_DATE_UTC : 2016-12-08 21:03:33 _STATISTICS_TAGS : BPS DURATION NUMBER_OF_FRAMES NUMBER_OF_BYTES Audio #2 ID : 3 Format : AC-3 Format/Info : Audio Coding 3 Mode extension : CM (complete main) Codec ID : A_AC3 Duration : 1h 31mn Bit rate mode : Constant Bit rate : 448 Kbps Channel(s) : 6 channels Channel positions : Front: L C R, Side: L R, LFE Sampling rate : 48.0 KHz Bit depth : 16 bits Compression mode : Lossy Delay relative to video : 1mn 5s Stream size : 293 MiB (21%) Title : AC3 ENG Language : English Default : No Forced : No DURATION : 01:30:57.920000000 NUMBER_OF_FRAMES : 170560 NUMBER_OF_BYTES : 436633600 _STATISTICS_WRITING_APP : mkvmerge v8.7.0 ('All of the above') 64bit _STATISTICS_WRITING_DATE_UTC : 2016-12-08 21:03:33 _STATISTICS_TAGS : BPS DURATION NUMBER_OF_FRAMES NUMBER_OF_BYTES Text #1 ID : 4 Format : UTF-8 Codec ID : S_TEXT/UTF8 Codec ID/Info : UTF-8 Plain Text Title : Forced Language : Italian Default : Yes Forced : No DURATION : 00:00:25.052000000 NUMBER_OF_FRAMES : 2 NUMBER_OF_BYTES : 45 _STATISTICS_WRITING_APP : mkvmerge v8.7.0 ('All of the above') 64bit _STATISTICS_WRITING_DATE_UTC : 2016-12-08 21:03:33 _STATISTICS_TAGS : BPS DURATION NUMBER_OF_FRAMES NUMBER_OF_BYTES Text #2 ID : 5 Format : UTF-8 Codec ID : S_TEXT/UTF8 Codec ID/Info : UTF-8 Plain Text Title : Regular Language : Italian Default : No Forced : No DURATION : 01:30:24.880000000 NUMBER_OF_FRAMES : 1195 NUMBER_OF_BYTES : 45405 _STATISTICS_WRITING_APP : mkvmerge v8.7.0 ('All of the above') 64bit _STATISTICS_WRITING_DATE_UTC : 2016-12-08 21:03:33 _STATISTICS_TAGS : BPS DURATION NUMBER_OF_FRAMES NUMBER_OF_BYTES Menu 00:00:00.000 : :00:00:00.000 00:07:05.342 : :00:07:05.342 00:14:28.201 : :00:14:28.201 00:20:13.838 : :00:20:13.838 00:29:27.099 : :00:29:27.099 00:39:02.590 : :00:39:02.590 00:50:56.804 : :00:50:56.804 00:59:52.756 : :00:59:52.756 01:08:53.129 : :01:08:53.129 01:16:19.950 : :01:16:19.950 01:23:27.706 : :01:23:27.706 [/spoiler] [/color][/b][/center]

Draft Day (2014).H264.Italian.English.Ac3.5.1.sub.ita.eng.iCV-MIRCrew

Language: | Size: 1.67 GB | Seed: 141 | Leech: 86

Description:

Draft Day (2014).H264.Italian.English.Ac3.5.1.sub.ita.eng.iCV-MIRCrew My release is always in double track audio italian and Original audio for select it use VLC or dvd player home not use wmp Draft Day (2014) [img]http://extraimage.net/images/2016/12/16/49ca27b622a704220bbf509b13111ff5.png[/img] [URL=http://www.imdb.com/title/tt2223990/][IMG]http://www.userlogos.org/files/logos/Sucka/imdb_new.png[/IMG][/URL] [img]http://s19.postimage.org/bgh0za7kj/banner_scheda.gif[/img] GENERE: Drammatico ANNO: 2014 REGIA: Ivan Reitman SCENEGGIATURA: Scott Rothman, Rajiv Joseph PRODUZIONE: Lionsgate, The Montecito Picture Company, OddLot Entertainment PAESE: USA [img]http://s19.postimage.org/i9hdvjydv/banner_trama.gif[/img] Kevin Costner, Jennifer Garner, Tom Welling, Terry Crews [img]http://s19.postimage.org/i9hdvjydv/banner_trama.gif[/img] Il film è incentrato sul manager dei Cleveland Browns squadra di football in difficoltà, che cerca di assicurarsi il miglior giocatore sul mercato nel giorno del reclutamento. [img]http://s19.postimage.org/nwdqt10wj/banner_storyline.gif[/img] At the NFL Draft, general manager Sonny Weaver has the opportunity to rebuild his team when he trades for the number one pick. He must decide what he's willing to sacrifice on a life-changing day for a few hundred young men with NFL dreams. [img]http://i.imgur.com/GgEl7ea.png[/img] [url=https://extraimage.net/image/2TKv][img]http://extraimage.net/images/2016/12/16/96182fc78c3009be615a332f0c5c442f.th.png[/img][/url] [url=https://extraimage.net/image/2TKu][img]http://extraimage.net/images/2016/12/16/1145b8e427fc43223fd5eb48adf2106f.th.png[/img][/url] [url=https://extraimage.net/image/2TKA][img]http://extraimage.net/images/2016/12/16/6141e35e116ad6efa8382a6cad123f5f.th.png[/img][/url] [url=https://extraimage.net/image/2TKW][img]http://extraimage.net/images/2016/12/16/72637d2edeafa9eb082b53ce04432c4b.th.png[/img][/url] [img]http://i.imgur.com/cWb6Z.gif[/img] [img]http://s19.postimage.org/f07k2tzo3/banner_dati_file.gif[/img] [spoiler] General Unique ID : 110685057851118270696958785054449624652 (0x53452AAEE4DB50F42E48F4D6ED0C664C) Complete name : Draft Day (2014).H264.ita.eng.sub.ita.eng.iCV-MIRCrew.mkv Format : Matroska Format version : Version 2 File size : 1.67 GiB Duration : 1h 50mn Overall bit rate : 2 171 Kbps Movie name : VISIT www.icv-crew.org Encoded date : UTC 2016-12-11 12:01:26 Writing application : Lavf54.63.100 Writing library : Lavf54.63.100 COPYRIGHT : robbyrs Video ID : 1 Format : AVC Format/Info : Advanced Video Codec Format profile : [email protected] Format settings, CABAC : Yes Format settings, ReFrames : 2 frames Codec ID : V_MPEG4/ISO/AVC Duration : 1h 50mn Bit rate : 1 270 Kbps Width : 720 pixels Height : 300 pixels Display aspect ratio : 2.40:1 Frame rate mode : Variable Frame rate : 23.976 fps Color space : YUV Chroma subsampling : 4:2:0 Bit depth : 8 bits Scan type : Progressive Bits/(Pixel*Frame) : 0.245 Stream size : 969 MiB (57%) Writing library : x264 core 130 r2273 Encoding settings : cabac=1 / ref=2 / deblock=1:0:0 / analyse=0x1:0x131 / me=hex / subme=7 / psy=1 / psy_rd=1.00:0.00 / mixed_ref=0 / me_range=16 / chroma_me=1 / trellis=1 / 8x8dct=0 / cqm=0 / deadzone=21,11 / fast_pskip=1 / chroma_qp_offset=-2 / threads=12 / lookahead_threads=2 / sliced_threads=0 / nr=0 / decimate=1 / interlaced=0 / bluray_compat=0 / constrained_intra=0 / bframes=3 / b_pyramid=0 / b_adapt=1 / b_bias=0 / direct=3 / weightb=1 / open_gop=0 / weightp=2 / keyint=230 / keyint_min=23 / scenecut=40 / intra_refresh=0 / rc_lookahead=40 / rc=2pass / mbtree=1 / bitrate=1270 / ratetol=1.0 / qcomp=0.60 / qpmin=10 / qpmax=69 / qpstep=4 / cplxblur=20.0 / qblur=0.5 / vbv_maxrate=24000 / vbv_bufsize=24000 / nal_hrd=none / ip_ratio=1.40 / aq=1:1.00 Language : English Default : Yes Forced : No DURATION : 01:50:00.010000000 NUMBER_OF_FRAMES : 158242 NUMBER_OF_BYTES : 8864273050 _STATISTICS_WRITING_APP : mkvmerge v8.7.0 ('All of the above') 64bit _STATISTICS_WRITING_DATE_UTC : 2016-12-08 09:42:04 _STATISTICS_TAGS : BPS DURATION NUMBER_OF_FRAMES NUMBER_OF_BYTES Audio #1 ID : 2 Format : AC-3 Format/Info : Audio Coding 3 Mode extension : CM (complete main) Codec ID : A_AC3 Duration : 1h 50mn Bit rate mode : Constant Bit rate : 448 Kbps Channel(s) : 6 channels Channel positions : Front: L C R, Side: L R, LFE Sampling rate : 48.0 KHz Bit depth : 16 bits Compression mode : Lossy Delay relative to video : 1mn 5s Stream size : 352 MiB (21%) Title : AC3 iTA Language : Italian Default : Yes Forced : No DURATION : 01:49:59.904000000 NUMBER_OF_FRAMES : 206247 NUMBER_OF_BYTES : 369594624 _STATISTICS_WRITING_APP : mkvmerge v8.7.0 ('All of the above') 64bit _STATISTICS_WRITING_DATE_UTC : 2016-12-08 09:42:04 _STATISTICS_TAGS : BPS DURATION NUMBER_OF_FRAMES NUMBER_OF_BYTES Audio #2 ID : 3 Format : AC-3 Format/Info : Audio Coding 3 Mode extension : CM (complete main) Codec ID : A_AC3 Duration : 1h 50mn Bit rate mode : Constant Bit rate : 448 Kbps Channel(s) : 6 channels Channel positions : Front: L C R, Side: L R, LFE Sampling rate : 48.0 KHz Bit depth : 16 bits Compression mode : Lossy Delay relative to video : 1mn 5s Stream size : 352 MiB (21%) Title : AC3 ENG Language : English Default : No Forced : No DURATION : 01:50:00.064000000 NUMBER_OF_FRAMES : 206252 NUMBER_OF_BYTES : 528005120 _STATISTICS_WRITING_APP : mkvmerge v8.7.0 ('All of the above') 64bit _STATISTICS_WRITING_DATE_UTC : 2016-12-08 09:42:04 _STATISTICS_TAGS : BPS DURATION NUMBER_OF_FRAMES NUMBER_OF_BYTES Text #1 ID : 4 Format : UTF-8 Codec ID : S_TEXT/UTF8 Codec ID/Info : UTF-8 Plain Text Title : REGULAR iTA Language : Italian Default : No Forced : No DURATION : 01:40:24.525000000 NUMBER_OF_FRAMES : 1928 NUMBER_OF_BYTES : 65077 _STATISTICS_WRITING_APP : mkvmerge v8.7.0 ('All of the above') 64bit _STATISTICS_WRITING_DATE_UTC : 2016-12-08 09:42:04 _STATISTICS_TAGS : BPS DURATION NUMBER_OF_FRAMES NUMBER_OF_BYTES Text #2 ID : 5 Format : UTF-8 Codec ID : S_TEXT/UTF8 Codec ID/Info : UTF-8 Plain Text Title : NON UDENTI ENG Language : English Default : No Forced : No DURATION : 01:41:04.350000000 NUMBER_OF_FRAMES : 2020 NUMBER_OF_BYTES : 67257 _STATISTICS_WRITING_APP : mkvmerge v8.7.0 ('All of the above') 64bit _STATISTICS_WRITING_DATE_UTC : 2016-12-08 09:42:04 _STATISTICS_TAGS : BPS DURATION NUMBER_OF_FRAMES NUMBER_OF_BYTES Menu 00:00:00.000 : :Chapter 01 00:03:43.431 : :Chapter 02 00:13:12.958 : :Chapter 03 00:22:27.596 : :Chapter 04 00:29:29.809 : :Chapter 05 00:36:38.571 : :Chapter 06 00:46:23.739 : :Chapter 07 00:52:07.332 : :Chapter 08 00:59:12.840 : :Chapter 09 01:04:34.579 : :Chapter 10 01:10:19.340 : :Chapter 11 01:17:51.208 : :Chapter 12 01:20:28.365 : :Chapter 13 01:29:07.759 : :Chapter 14 01:36:15.227 : :Chapter 15 01:41:19.031 : :Chapter 16 [/spoiler] [/color][/b][/center]

Me Before You - Io prima di te (2016).H264.Italian.English.Ac3.5.1.sub.Ita.NUita.eng.

Language: | Size: 1.67 GB | Seed: 445 | Leech: 129

Description:

Titolo originale: Me Before You Nazione: U.S.A. Anno: 2015 Genere: Drammatico Durata: 110' Regia: Thea Sharrock Sito ufficiale: www.mebeforeyoumovie.com Social network: facebook Cast: Emilia Clarke, Sam Claflin, Jenna Coleman, Matthew Lewis, Charles Dance, Vanessa Kirby, Brendan Coyle, Janet McTeer, Ben Lloyd-Hughes, Stephen Peacocke Produzione: Metro-Goldwyn-Mayer, New Line Cinema Distribuzione: Warner Bros. Pictures Italia Data di uscita: 17 Agosto 2016 (anteprima) 01 Settembre 2016 (cinema) Trama: L'amore arriva sempre quando meno te lo aspetti. E qualche volta ti porta dove non penseresti mai di andare... Louisa 'Lou' Clark vive in una tipica cittadina della campagna inglese. Non sa bene cosa fare della sua vita, ha 26 anni e passa da un lavoro all'altro per aiutare la sua famiglia. Il suo inattaccabile buonumore viene pero' messo a dura prova quando si ritrova ad affrontare una nuova sfida lavorativa. Trova infatti lavoro come assistente di Will Traynor, un giovane e ricco banchiere finito sulla sedia a rotelle per un incidente e la cui vita è cambiata radicalmente in un attimo. Lou gli dimostrerà che la vita vale ancora la pena di essere vissuta.

Io.Prima.Di.Te.2016.ITA.ENG.AC3.1080p.BluRay.x264-CRiME.mkv

Language: | Size: 9.83 GB | Seed: 150 | Leech: 82

Description:

Titolo originale: Me Before You Nazione: U.S.A. Anno: 2015 Genere: Drammatico Durata: 110' Regia: Thea Sharrock Sito ufficiale: www.mebeforeyoumovie.com Social network: facebook Cast: Emilia Clarke, Sam Claflin, Jenna Coleman, Matthew Lewis, Charles Dance, Vanessa Kirby, Brendan Coyle, Janet McTeer, Ben Lloyd-Hughes, Stephen Peacocke Produzione: Metro-Goldwyn-Mayer, New Line Cinema Distribuzione: Warner Bros. Pictures Italia Data di uscita: 17 Agosto 2016 (anteprima) 01 Settembre 2016 (cinema) Trama: L'amore arriva sempre quando meno te lo aspetti. E qualche volta ti porta dove non penseresti mai di andare... Louisa 'Lou' Clark vive in una tipica cittadina della campagna inglese. Non sa bene cosa fare della sua vita, ha 26 anni e passa da un lavoro all'altro per aiutare la sua famiglia. Il suo inattaccabile buonumore viene pero' messo a dura prova quando si ritrova ad affrontare una nuova sfida lavorativa. Trova infatti lavoro come assistente di Will Traynor, un giovane e ricco banchiere finito sulla sedia a rotelle per un incidente e la cui vita è cambiata radicalmente in un attimo. Lou gli dimostrerà che la vita vale ancora la pena di essere vissuta.

Frank Sinatra - Sings His Greatests Hits - Columbia Records [Flac][TNT]

Language: | Size: 147.81 MB | Seed: 25 | Leech: 9

Description:

[b]Artist[/b]...............: Frank Sinatra [b]Album[/b]................: Sinatra Sings His Greatest Hits [b]Genre[/b]................: Vocal [b]Source[/b]...............: CD [b]Year[/b].................: (1945 - 1952) Remastered 1997 [b]Ripper[/b]...............: EAC (Secure mode) / LAME 3.92 & Acer CD-R/RW 8X4X32 [b]Codec[/b]................: Free Lossless Audio Codec (FLAC) [b]Version[/b]..............: reference libFLAC 1.2.1 20070917 [b]Quality[/b]..............: Lossless, (avg. compression: 26 %) [b]Channels[/b].............: Stereo / 44100 HZ / 16 Bit Tags.................: VorbisComment Information..........: TntVillage Ripped by............: leonenero on 14/12/2013 Posted by............: leonenero on 14/12/2013 News Server..........: news.astraweb.com News Group(s)........: alt.binaries.sounds.flac.full_TntVillage [b]Included[/b].............: NFO, M3U8, LOG, CUE [b]Covers[/b]...............: Front Back CD --------------------------------------------------------------------- [b]Tracklisting[/b] --------------------------------------------------------------------- [b]1.[/b] All Of Me (1946) [02.42] [b]2.[/b] I Could Write A Book (1952) [02.44] [b]3.[/b] I've Got A Crush On You (1947) [03.17] [b]4.[/b] Night And Day (1947) [03.41] [b]5.[/b] Saturday Night (Is The Loneliest Night Of The Week) (1944) [02.45] [b]6.[/b] The Brooklyn Bridge (1946) [02.38] [b]7.[/b] Nancy (With The Laughing Face) (1945) [03.21] [b]8.[/b] The House I Live In (1945) [03.20] [b]9.[/b] The Birth Of The Blues (1952) [03.30] [b]10.[/b] Body And Soul (1947) [03.26] [b]11.[/b] April In Paris (1950) [02.46] [b]12.[/b] I'm Glad There Is You (1947) [03.08] [b]13.[/b] Sweet Lorraine (1946) [03.11] [b]14.[/b] Time After Time (1946) [03.12] [b]15.[/b] Laura (1947) [03.21] [b]16.[/b] The Song Is You (1947) [03.17] [b]17.[/b] I'm A Fool To Want You (1951) [02.58] [b]18.[/b] Put Your Dreams Away (For Another Day) (1945) [03.08] [b]Playing Time[/b].........: 56.33 [b]Total Size[/b]...........: 147,52 MB [i]This Columbia "Legacy" CD has terrific artwork: a few pretty pics of Frankie at his skinniest-a real bobbysox idol, a new appreciation of Sinatra by Will Friedwald, an explanation by Charles Granata of how and why these specific songs were chosen (when it is obvious that a true Greatest Hits of Sinatra might be at least TEN CD's long). The original graphics & liner notes look great and the CD, itself, is painted to look like a long playing vinyl disc of the post WW2 years. Then there are the songs, the interpretations, the arrangements. All impeccable. Sure, I could do without hearing "Nancy With the Laughing Face" or "The House I Live In" ever again but Sinatra is at his torchiest in "I'm a Fool To Want You," his most tender in "I've Got A Crush On You," his coolest in "Body and Soul" and his swingingest in "Sweet Lorraine." And if I've read the enclosed booklet correctly, that song has Nat King Cole on piano and Buddy Rich on drums!!!!!!! Recorded from 1944 to 1952,the sound is remastered monaural and it is fine.[/i]

Rick.and.Morty.S02.ITA.ENG.1080p.BDMux.x264

Language: | Size: 8.31 GB | Seed: 15 | Leech: 16

Description:

Titolo originale: Rick And Morty Numero Episodi: 10 Anno: 2015 Trasmessa da: Adult Swim Genere: CAvventura, fantascienza Personaggi - Doppiatori Italiani:Rick Sanchez - Christian Iansante Morty Smith - David Chevalier Summer Smith - Ughetta d'Onorascenzo Beth Sanchez in Smith - Antonella Baldini Jerry Smith - Fabrizio Russotto Trama Dopo essere scomparso per quasi 20 anni, Rick Sanchez piomba improvvisamente a casa di sua figlia Beth per rimanere a vivere con lei e la sua famiglia. Beth lo accoglie a braccia aperte, ma suo marito Jerry non è entusiasta dell’arrivo di Rick, che porta nient'altro che sconvolgimenti nella loro casa. Rick trasforma il garage nel suo laboratorio personale e lavora su ogni tipo di pericoloso gadget e contrazione fantascientifica: di per sé non sarebbe male, se non fosse per il fatto che Rick coinvolge nelle sue folli avventure i nipoti Morty e Summer.

Dog.Eat.Dog.2016.1080p.BluRay.x264-FOXM

Language: | Size: 1.43 GB | Seed: 4 | Leech: 1

Description:

http://FOXM.TO ------------------------------------------------------------------------------------------------------------------------------------------- Get all FOXM newest releases first at FOXM website http://foxm.to/film?id=237 Also there you will find a list of upcoming uploads, account registration and an effective movie search. ------------------------------------------------------------------------------------------------------------------------------------------- http://www.imdb.com/title/tt4054654/ IMDB RATING: 4.8 #1 Video FORMAT.......................: MP4 CODEC........................: X264 GENRE........................: Crime, Drama, Thriller FILE SIZE....................: 1.42 GB RESOLUTION...................: 1920*808 FRAME RATE...................: 23.976 fps LANGUAGE.....................: English SUBTITLES....................: NONE RUNTIME......................: 1h 33min #2 Audio Format :.....................: AAC Mode : ......................: 16 Channel(s)...................: 5.1 channels Bit rate.....................: 320 kbps Audio sample rate............: 48 kHz Summary: A crew of ex-cons are hired by a Cleveland mafioso to kidnap the baby of a rival mobster. Screenshots [img]http://foxm.to/images/1481790873image1.jpg[/img] [img]http://foxm.to/images/1481790873image2.jpg[/img] [img]http://foxm.to/images/1481790873image3.jpg[/img] ------------------------------------------------------------------------------------------------------------------------------------------- http://FOXM.TO -------------------------------------------------------------------------------------------------------------------------------------------

Dog.Eat.Dog.2016.720p.BluRay.x264-FOXM

Language: | Size: 658.98 MB | Seed: 3 | Leech: 2

Description:

Storyline Carved from a lifetime of experience that runs the gamut from incarceration to liberation, Dog Eat Dog is the story of three men who are all out of prison and now have the task of adapting themselves to civilian life. The California three strikes law looms over them, but what the hell, they're going to do it, and they're going to do it their way. Troy, an aloof mastermind, seeks an uncomplicated, clean life but cannot get away from his hatred for the system. Diesel is on the mob's payroll and his interest in his suburban home and his nagging wife is waning. The loose cannon of the trio, Mad Dog, is possessed by true demons within, which lead him from one situation to the next. One more hit, one more jackpot, and they'll all be satisfied. Troy constructs the perfect crime and they pull it off, but in the aftermath, they keep finding the law surrounding them wherever they go. General Size : 658 MB Running Time: 1h 33min Genre: Crime | Drama | Thriller Director: Paul Schrader Language: English Release Date: 11 November 2016 (USA) http://www.imdb.com/title/tt4054654/ Video======= Video Format......: AAC Video Codec.......: x264 Frame Rate........: 23.000 fps Width.............: 1 256 pixels Height............:  530 Audio======= Format..........: AAC Bitrate.........: 224 Kbps Channels........: 6 channels screenshot [img]http://foxm.to/images/1481790873image2.jpg[/img] [img]http://foxm.to/images/1481790873image1.jpg[/img] [/center]

American.Honey.2016.LIMITED.720p.BluRay.x264-FOXM

Language: | Size: 1.78 GB | Seed: 9 | Leech: 0

Description:

http://FOXM.TO ------------------------------------------------------------------------------------------------------------------------------------------- Get all FOXM newest releases first at  FOXM website http://foxm.to/film?id=235 Also there you will find a list of upcoming uploads, account registration and an effective movie search. ------------------------------------------------------------------------------------------------------------------------------------------- http://www.imdb.com/title/tt3721936/ IMDB RATING: 7.6 #1 Video FORMAT.......................: MP4 CODEC........................: X264 GENRE........................: Drama FILE SIZE....................: 1.76 GB RESOLUTION...................: 1280*960 FRAME RATE...................: 23.976 fps LANGUAGE.....................: English SUBTITLES....................: NONE RUNTIME......................: 2h 43min #2 Audio Format :.....................: AAC Mode : ......................: 16 Channel(s)...................: 5.1 channels Bit rate.....................: 320 kbps Audio sample rate............: 48 kHz Summary: A teenage girl with nothing to lose joins a traveling magazine sales crew, and gets caught up in a whirlwind of hard partying, law bending and young love as she criss-crosses the Midwest with a band of misfits. Screenshots [img]http://foxm.to/images/1481737892image1.jpg[/img] [img]http://foxm.to/images/1481737892image2.jpg[/img] [img]http://foxm.to/images/1481737892image3.jpg[/img] ------------------------------------------------------------------------------------------------------------------------------------------- http://FOXM.TO -------------------------------------------------------------------------------------------------------------------------------------------

Exodus.Gods.and.Kings.2014.1080p.BluRay.x264-FOXM

Language: | Size: 2.35 GB | Seed: 3 | Leech: 2

Description:

Storyline Epic adventure Exodus: Gods and Kings is the story of one man's daring courage to take on the might of an empire. Using state of the art visual effects and 3D immersion, Scott brings new life to the story of the defiant leader Moses as he rises up against the Egyptian Pharaoh Ramses, setting 600,000 slaves on a monumental journey of escape from Egypt and its terrifying cycle of deadly plagues. General Size :  2.35 GB Running Time: 2h 30min Genre: Action | Adventure | Drama Director: Ridley Scott Language: English Release Date: 5 December 2014 (Spain) http://www.imdb.com/title/tt1528100/ Video======= Video Format......: AAC Video Codec.......: x264 Frame Rate........: 23.000 fps Width.............: 1 920 pixels Height............:  800 Audio======= Format..........: AAC Bitrate.........: 320 Kbps Channels........: 6 channels screenshot [img]http://foxm.to/images/1481738480image3.jpg[/img] [img]http://foxm.to/images/1481738480image2.jpg[/img] [/center]

Helene Fischer - Farbenspiel Live (Die Tournee 2014) (BDRip)(2014).mkv

Language: | Size: 2.06 GB | Seed: 616 | Leech: 55

Description:

1. Ouvertüre Herbst 2. Unser Tag 3. Und morgen früh küss ich dich wach 4. Fehlerfrei 5. Mitten im Paradies 6. In diesen Nächten 7. Wunder dich nicht 8. Nur wer den Wahnsinn liebt 9. Interlude Winter 10. Lass jetzt los (Let it Go) 11. Vergeben, vergessen und wieder vertrau’n 12. Bring Me To Life 13. Feuerwerk 14. Rock Medley 15. Mit keinem Ander´n 16. 16.Interlude Frühling 17. Der Augenblick 18. Caruso 19. Ein kleines Glück 20. Interlude Sommer 21. Marathon 22. Ich will immer wieder… dieses Fieber spür’n 23. Te Quiero 24. Fly 25. My Heart Will Go On 26. Von hier bis unendlich 27. Die Hölle morgen früh 28. Phänomen 29. Atemlos durch die Nacht (Akustik Version) 30. Atemlos durch die Nacht 31. So kann das Leben sein

Exodus.Gods.and.Kings.2014.720p.BluRay.x264-FOXM

Language: | Size: 1.13 GB | Seed: 9 | Leech: 1

Description:

Storyline Epic adventure Exodus: Gods and Kings is the story of one man's daring courage to take on the might of an empire. Using state of the art visual effects and 3D immersion, Scott brings new life to the story of the defiant leader Moses as he rises up against the Egyptian Pharaoh Ramses, setting 600,000 slaves on a monumental journey of escape from Egypt and its terrifying cycle of deadly plagues. General Size :  1.13 GB Running Time: 2h 30min Genre: Action | Adventure | Drama Director: Ridley Scott Language: English Release Date: 5 December 2014 (Spain) http://www.imdb.com/title/tt1528100/ Video======= Video Format......: AAC Video Codec.......: x264 Frame Rate........: 23.000 fps Width.............: 1 280 pixels Height............:  534 Audio======= Format..........: AAC Bitrate.........: 192 Kbps Channels........: 6 channels screenshot [img]http://foxm.to/images/1481738480image3.jpg[/img] [img]http://foxm.to/images/1481738480image2.jpg[/img] [/center]

American.Honey.2016.LIMITED.1080p.BluRay.x264-FOXM

Language: | Size: 2.75 GB | Seed: 4 | Leech: 0

Description:

http://FOXM.TO ------------------------------------------------------------------------------------------------------------------------------------------- Get all FOXM newest releases first at FOXM website http://foxm.to/film?id=235 Also there you will find a list of upcoming uploads, account registration and an effective movie search. ------------------------------------------------------------------------------------------------------------------------------------------- http://www.imdb.com/title/tt3721936/ IMDB RATING: 7.6 #1 Video FORMAT.......................: MP4 CODEC........................: X264 GENRE........................: Drama FILE SIZE....................: 2.75 GB RESOLUTION...................: 1920*1080 FRAME RATE...................: 23.976 fps LANGUAGE.....................: English SUBTITLES....................: NONE RUNTIME......................: 1h 31min #2 Audio Format :.....................: AAC Mode : ......................: 16 Channel(s)...................: 5.1 channels Bit rate.....................: 320 kbps Audio sample rate............: 48 kHz Summary: A teenage girl with nothing to lose joins a traveling magazine sales crew, and gets caught up in a whirlwind of hard partying, law bending and young love as she criss-crosses the Midwest with a band of misfits. Screenshots [img]http://foxm.to/images/1481737892image1.jpg[/img] [img]http://foxm.to/images/1481737892image2.jpg[/img] [img]http://foxm.to/images/1481737892image3.jpg[/img] ------------------------------------------------------------------------------------------------------------------------------------------- http://FOXM.TO -------------------------------------------------------------------------------------------------------------------------------------------

Revenant - Redivivo (2015 Ita/Eng) EXTRA [1080p] [iCV-MIRCrew]

Language: | Size: 9.51 GB | Seed: 683 | Leech: 34

Description:

DATA USCITA: 14 gennaio 2016 GENERE: Western , Drammatico , Avventura ANNO: 2015 REGIA: Alejandro González Iñárritu ATTORI: Leonardo DiCaprio, Tom Hardy, Will Poulter, Domhnall Gleeson, Paul Anderson, Lukas Haas, Brendan Fletcher, Kristoffer Joner SCENEGGIATURA: Alejandro González Iñárritu, Mark L. Smith FOTOGRAFIA: Emmanuel Lubezki MONTAGGIO: Stephen Mirrione PRODUZIONE: New Regency Pictures, Anonymous Content, Appian Way, RatPac Entertainment DISTRIBUZIONE: 20th Century Fox PAESE: USA DURATA: 156 Min .:: TRAMA ::. Tratto da una storia vera, Revenant racconta l'epica avventura di un uomo che cerca di sopravvivere grazie alla straordinaria forza del proprio spirito. In una spedizione nelle vergini terre americane, l'esploratore Hugh Glass (Leonardo Di Caprio) viene brutalmente attaccato da un orso e dato per morto dai membri del suo stesso gruppo di cacciatori. Nella sua lotta per la sopravvivenza, Glass sopporta inimmaginabili sofferenze, tra cui anche il tradimento del suo compagno John Fitzgerald (Tom Hardy). Mosso da una profonda determinazione e dall'amore per la sua famiglia, Glass dovrà superare un duro inverno nell'implacabile tentativo di sopravvivere e di trovare la sua redenzione.

Spectral (2016).H264.Italian.English.Ac3.5.1.sub.ita.eng.iCV-MIRCrew

Language: | Size: 1.63 GB | Seed: 30 | Leech: 335

Description:

Spectral (2016).H264.Italian.English.Ac3.5.1.sub.ita.eng.iCV-MIRCrew My release is always in double track audio italian and Original audio for select it use VLC or dvd player home not use wmp Spectral (2016) [img]http://s19.postimage.org/bgh0za7kj/banner_scheda.gif[/img] Titolo: Spectral Paese: USA 2016 Genere: Fantascienza Regia: Nic Mathieu Uscita ITA : 09.12.2016 Distribuzione: NetFlix [img]http://s19.postimage.org/i9hdvjydv/banner_trama.gif[/img] Emily Mortimer, Max Martini, James Badge Dale, Bruce Greenwood, Ryan Robbins, Clayne Crawford, Cory Hardrict, Jimmy Akingbola [img]http://s19.postimage.org/i9hdvjydv/banner_trama.gif[/img] Una squadra speciale di agenti operativi viene mandata a combattere contro gli esseri soprannaturali che hanno preso possesso di una città. [img]http://s19.postimage.org/nwdqt10wj/banner_storyline.gif[/img] A sci-fi/thriller story centered on a special-ops team that is dispatched to fight supernatural beings. [img]http://i.imgur.com/GgEl7ea.png[/img] [url=https://extraimage.net/image/2NuI][img]http://extraimage.net/images/2016/12/14/0ec23672057b3f8b9ca93b8537fa499b.th.png[/img][/url] [url=https://extraimage.net/image/2Nul][img]http://extraimage.net/images/2016/12/14/9a80c66f13f3d7c3da0ebaf62c10dc19.th.png[/img][/url] [url=https://extraimage.net/image/2Nud][img]http://extraimage.net/images/2016/12/14/1d27b40b9ee669a3f30145bec9784267.th.png[/img][/url] [url=https://extraimage.net/image/2Nuh][img]http://extraimage.net/images/2016/12/14/1e53e9cab9c6d8651b58520c1e454147.th.png[/img][/url] [img]http://i.imgur.com/cWb6Z.gif[/img] [img]http://s19.postimage.org/f07k2tzo3/banner_dati_file.gif[/img] [spoiler] General Unique ID : 187501628493223926526150893716069622672 (0x8D0F8006232331EDF479821746632390) Complete name : Spectral (2016).H264.ita.eng.sub.ita.eng.iCV-MIRCrew.mkv Format : Matroska Format version : Version 2 File size : 1.63 GiB Duration : 1h 48mn Overall bit rate : 2 165 Kbps Movie name : VISIT www.icv-crew.org Encoded date : UTC 2016-12-11 17:51:42 Writing application : Lavf54.63.100 Writing library : Lavf54.63.100 COPYRIGHT : robbyrs Video ID : 1 Format : AVC Format/Info : Advanced Video Codec Format profile : [email protected] Format settings, CABAC : Yes Format settings, ReFrames : 2 frames Codec ID : V_MPEG4/ISO/AVC Duration : 1h 48mn Bit rate : 1 270 Kbps Width : 720 pixels Height : 300 pixels Display aspect ratio : 2.40:1 Frame rate mode : Variable Frame rate : 23.976 fps Color space : YUV Chroma subsampling : 4:2:0 Bit depth : 8 bits Scan type : Progressive Bits/(Pixel*Frame) : 0.245 Stream size : 948 MiB (57%) Writing library : x264 core 130 r2273 Encoding settings : cabac=1 / ref=2 / deblock=1:0:0 / analyse=0x1:0x131 / me=hex / subme=7 / psy=1 / psy_rd=1.00:0.00 / mixed_ref=0 / me_range=16 / chroma_me=1 / trellis=1 / 8x8dct=0 / cqm=0 / deadzone=21,11 / fast_pskip=1 / chroma_qp_offset=-2 / threads=12 / lookahead_threads=2 / sliced_threads=0 / nr=0 / decimate=1 / interlaced=0 / bluray_compat=0 / constrained_intra=0 / bframes=3 / b_pyramid=0 / b_adapt=1 / b_bias=0 / direct=3 / weightb=1 / open_gop=0 / weightp=2 / keyint=230 / keyint_min=23 / scenecut=40 / intra_refresh=0 / rc_lookahead=40 / rc=2pass / mbtree=1 / bitrate=1270 / ratetol=1.0 / qcomp=0.60 / qpmin=10 / qpmax=69 / qpstep=4 / cplxblur=20.0 / qblur=0.5 / vbv_maxrate=24000 / vbv_bufsize=24000 / nal_hrd=none / ip_ratio=1.40 / aq=1:1.00 Default : No Forced : No DURATION : 01:47:33.614000000 NUMBER_OF_FRAMES : 154732 NUMBER_OF_BYTES : 11249932549 _STATISTICS_WRITING_APP : mkvmerge v8.3.0 ('Over the Horizon') 64bit _STATISTICS_WRITING_DATE_UTC : 2016-12-10 16:42:30 _STATISTICS_TAGS : BPS DURATION NUMBER_OF_FRAMES NUMBER_OF_BYTES Audio #1 ID : 2 Format : AC-3 Format/Info : Audio Coding 3 Mode extension : CM (complete main) Codec ID : A_AC3 Duration : 1h 48mn Bit rate mode : Constant Bit rate : 448 Kbps Channel(s) : 6 channels Channel positions : Front: L C R, Side: L R, LFE Sampling rate : 48.0 KHz Bit depth : 16 bits Compression mode : Lossy Delay relative to video : 1mn 5s Stream size : 346 MiB (21%) Title : AC3 iTA Language : Italian Default : Yes Forced : Yes DURATION : 01:48:04.192000000 NUMBER_OF_FRAMES : 202631 NUMBER_OF_BYTES : 363114752 _STATISTICS_WRITING_APP : mkvmerge v8.3.0 ('Over the Horizon') 64bit _STATISTICS_WRITING_DATE_UTC : 2016-12-10 16:42:30 _STATISTICS_TAGS : BPS DURATION NUMBER_OF_FRAMES NUMBER_OF_BYTES Audio #2 ID : 3 Format : AC-3 Format/Info : Audio Coding 3 Mode extension : CM (complete main) Codec ID : A_AC3 Duration : 1h 48mn Bit rate mode : Constant Bit rate : 448 Kbps Channel(s) : 6 channels Channel positions : Front: L C R, Side: L R, LFE Sampling rate : 48.0 KHz Bit depth : 16 bits Compression mode : Lossy Delay relative to video : 1mn 5s Stream size : 346 MiB (21%) Title : AC3 ENG Language : English Default : No Forced : No DURATION : 01:48:04.160000000 NUMBER_OF_FRAMES : 202630 NUMBER_OF_BYTES : 311239680 _STATISTICS_WRITING_APP : mkvmerge v8.3.0 ('Over the Horizon') 64bit _STATISTICS_WRITING_DATE_UTC : 2016-12-10 16:42:30 _STATISTICS_TAGS : BPS DURATION NUMBER_OF_FRAMES NUMBER_OF_BYTES Text #1 ID : 4 Format : UTF-8 Codec ID : S_TEXT/UTF8 Codec ID/Info : UTF-8 Plain Text Title : FORCED iTA Language : Italian Default : Yes Forced : Yes DURATION : 01:44:02.134000000 NUMBER_OF_FRAMES : 5 NUMBER_OF_BYTES : 195 _STATISTICS_WRITING_APP : mkvmerge v8.3.0 ('Over the Horizon') 64bit _STATISTICS_WRITING_DATE_UTC : 2016-12-10 16:42:30 _STATISTICS_TAGS : BPS DURATION NUMBER_OF_FRAMES NUMBER_OF_BYTES Text #2 ID : 5 Format : UTF-8 Codec ID : S_TEXT/UTF8 Codec ID/Info : UTF-8 Plain Text Title : REGULAR iTA Language : Italian Default : No Forced : No DURATION : 01:46:42.634000000 NUMBER_OF_FRAMES : 1092 NUMBER_OF_BYTES : 39075 _STATISTICS_WRITING_APP : mkvmerge v8.3.0 ('Over the Horizon') 64bit _STATISTICS_WRITING_DATE_UTC : 2016-12-10 16:42:30 _STATISTICS_TAGS : BPS DURATION NUMBER_OF_FRAMES NUMBER_OF_BYTES Text #3 ID : 6 Format : UTF-8 Codec ID : S_TEXT/UTF8 Codec ID/Info : UTF-8 Plain Text Title : NON UDENTI ENG Language : English Default : No Forced : No DURATION : 01:47:08.800000000 NUMBER_OF_FRAMES : 1245 NUMBER_OF_BYTES : 45059 _STATISTICS_WRITING_APP : mkvmerge v8.3.0 ('Over the Horizon') 64bit _STATISTICS_WRITING_DATE_UTC : 2016-12-10 16:42:30 _STATISTICS_TAGS : BPS DURATION NUMBER_OF_FRAMES NUMBER_OF_BYTES [/spoiler] [/color][/b][/center]

Barbie and Her Sisters in a Puppy Chase - Barbie e la ricerca dei cuccili (2016) Italian English Ac3.5.1

Language: | Size: 1.07 GB | Seed: 16 | Leech: 90

Description:

Barbie & Her Sisters in a Puppy Chase - Barbie e la ricerca dei cuccioli (2016).H264.Italian.English.Ac3.5.1.sub.ita.eng.iCV-MIRCrew [center] [color=lime][b][img]http://extraimago.com/images/2016/07/16/oCo82IVa08d8.png[/img] [u]NO FOUND ONLY ORIGINAL RELEASE[/u] [img]http://i.imgur.com/GDNQx1Z.png[/img] My release is always in double track audio italian and Original audio for select it use VLC or dvd player home not use wmp Barbie e la ricerca dei cuccioli - Barbie & Her Sisters in a Puppy Chase (2016) [img]https://extraimage.net/images/2016/12/14/de6c6804dca1ffe141cc1f8a17934145.png[/img] [URL=http://www.imdb.com/title/tt5888384/][IMG]http://www.userlogos.org/files/logos/Sucka/imdb_new.png[/IMG][/URL] [img]http://s19.postimage.org/bgh0za7kj/banner_scheda.gif[/img] Titolo originale: Barbie & Her Sisters in a Puppy Chase Paese: USA Anno: 2016 Genere: Animazione Durata. 75 min Regia: Conrad Helten, Michael Goguen [img]http://s19.postimage.org/i9hdvjydv/banner_trama.gif[/img] Barbie, le sue sorelle e i loro amati cagnolini arrivano su un'isola paradisiaca per la competizione di ballo di Chelsea. Ben presto, però, perderanno i loro cuccioli e dovranno ritrovarli prima dell'inizio dello spettacolo, vivendo una grande avventura. [img]http://s19.postimage.org/nwdqt10wj/banner_storyline.gif[/img] Barbie and her sisters discover everythingâ€ôs better when you do it together in this splashy, sun-kissed adventure! After the girls and their pets arrive at an island paradise for ... [img]http://i.imgur.com/GgEl7ea.png[/img] [url=https://extraimage.net/image/2N6T][img]http://extraimage.net/images/2016/12/14/7a5398b1bcf0e72883f679b6f94965c2.th.png[/img][/url] [url=https://extraimage.net/image/2N6N][img]http://extraimage.net/images/2016/12/14/bedc677e5c8252954279ee2b56e849b3.th.png[/img][/url] [url=https://extraimage.net/image/2N6j][img]http://extraimage.net/images/2016/12/14/6e64e1d84bcdfe1dae7a12e5db94b08f.th.png[/img][/url] [img]http://i.imgur.com/cWb6Z.gif[/img] [img]http://s19.postimage.org/f07k2tzo3/banner_dati_file.gif[/img] [spoiler] General Unique ID : 107546432569788031216085838345465251280 (0x50E8B082679A2660EB841D33A75045D0) Complete name : Barbie e la ricerca dei cuccioli (2016).H264.ita.eng.iCV-MIRCrew.mkv Format : Matroska Format version : Version 2 File size : 1.07 GiB Duration : 1h 15mn Overall bit rate : 2 043 Kbps Movie name : VISIT www.icv-crew.org Encoded date : UTC 2016-11-29 18:49:53 Writing application : Lavf54.63.100 Writing library : Lavf54.63.100 COPYRIGHT : robbyrs Video ID : 1 Format : AVC Format/Info : Advanced Video Codec Format profile : [email protected] Format settings, CABAC : Yes Format settings, ReFrames : 2 frames Codec ID : V_MPEG4/ISO/AVC Duration : 1h 15mn Bit rate : 1 270 Kbps Width : 720 pixels Height : 404 pixels Display aspect ratio : 16:9 Frame rate mode : Variable Frame rate : 23.976 fps Color space : YUV Chroma subsampling : 4:2:0 Bit depth : 8 bits Scan type : Progressive Bits/(Pixel*Frame) : 0.182 Stream size : 665 MiB (60%) Writing library : x264 core 130 r2273 Encoding settings : cabac=1 / ref=2 / deblock=1:0:0 / analyse=0x1:0x131 / me=hex / subme=7 / psy=1 / psy_rd=1.00:0.00 / mixed_ref=0 / me_range=16 / chroma_me=1 / trellis=1 / 8x8dct=0 / cqm=0 / deadzone=21,11 / fast_pskip=1 / chroma_qp_offset=-2 / threads=12 / lookahead_threads=2 / sliced_threads=0 / nr=0 / decimate=1 / interlaced=0 / bluray_compat=0 / constrained_intra=0 / bframes=3 / b_pyramid=0 / b_adapt=1 / b_bias=0 / direct=3 / weightb=1 / open_gop=0 / weightp=2 / keyint=230 / keyint_min=23 / scenecut=40 / intra_refresh=0 / rc_lookahead=40 / rc=2pass / mbtree=1 / bitrate=1270 / ratetol=1.0 / qcomp=0.60 / qpmin=10 / qpmax=69 / qpstep=4 / cplxblur=20.0 / qblur=0.5 / vbv_maxrate=24000 / vbv_bufsize=24000 / nal_hrd=none / ip_ratio=1.40 / aq=1:1.00 Language : English Default : Yes Forced : No DURATION : 01:15:18.222000000 NUMBER_OF_FRAMES : 108329 NUMBER_OF_BYTES : 5013483553 _STATISTICS_WRITING_APP : mkvmerge v8.7.0 ('All of the above') 64bit _STATISTICS_WRITING_DATE_UTC : 2016-11-21 11:41:54 _STATISTICS_TAGS : BPS DURATION NUMBER_OF_FRAMES NUMBER_OF_BYTES Audio #1 ID : 2 Format : AC-3 Format/Info : Audio Coding 3 Mode extension : CM (complete main) Codec ID : A_AC3 Duration : 1h 15mn Bit rate mode : Constant Bit rate : 384 Kbps Channel(s) : 6 channels Channel positions : Front: L C R, Side: L R, LFE Sampling rate : 48.0 KHz Bit depth : 16 bits Compression mode : Lossy Delay relative to video : 1mn 5s Stream size : 207 MiB (19%) Language : Italian Default : Yes Forced : No DURATION : 01:15:18.240000000 NUMBER_OF_FRAMES : 141195 NUMBER_OF_BYTES : 216875520 _STATISTICS_WRITING_APP : mkvmerge v8.7.0 ('All of the above') 64bit _STATISTICS_WRITING_DATE_UTC : 2016-11-21 11:41:54 _STATISTICS_TAGS : BPS DURATION NUMBER_OF_FRAMES NUMBER_OF_BYTES Audio #2 ID : 3 Format : AC-3 Format/Info : Audio Coding 3 Mode extension : CM (complete main) Codec ID : A_AC3 Duration : 1h 15mn Bit rate mode : Constant Bit rate : 384 Kbps Channel(s) : 6 channels Channel positions : Front: L C R, Side: L R, LFE Sampling rate : 48.0 KHz Bit depth : 16 bits Compression mode : Lossy Delay relative to video : 1mn 5s Stream size : 207 MiB (19%) Language : English Default : No Forced : No DURATION : 01:15:18.208000000 NUMBER_OF_FRAMES : 141194 NUMBER_OF_BYTES : 361456640 _STATISTICS_WRITING_APP : mkvmerge v8.7.0 ('All of the above') 64bit _STATISTICS_WRITING_DATE_UTC : 2016-11-21 11:41:54 _STATISTICS_TAGS : BPS DURATION NUMBER_OF_FRAMES NUMBER_OF_BYTES [/spoiler] [/color][/b][/center]

The Shallows - Paradise Beach dentro l incubo (2016).H264.Italian.English.Ac3.5.1 iCV-MIRCrew

Language: | Size: 1.31 GB | Seed: 40 | Leech: 283

Description:

The Shallows - Paradise Beach dentro l incubo (2016).H264.Italian.English.Ac3.5.1.sub.ita.eng.iCV-MIRCrew [img]http://i.imgur.com/GDNQx1Z.png[/img] My release is always in double track audio italian and Original audio for select it use VLC or dvd player home not use wmp Paradise Beach Dentro L'incubo - The Shallows (2016) [img]http://extraimage.net/images/2016/12/14/8501945c39d03d0b976cfa3fc5e516b8.png[/img] [URL=http://www.imdb.com/title/tt4052882/][IMG]http://www.userlogos.org/files/logos/Sucka/imdb_new.png[/IMG][/URL] [img]http://s19.postimage.org/bgh0za7kj/banner_scheda.gif[/img] GENERE: Drammatico , Thriller ANNO: 2016 REGIA: Jaume Collet-Serra FOTOGRAFIA: Flavio Martínez Labiano MONTAGGIO: Joel Negron MUSICHE: Marco Beltrami PRODUZIONE: Ombra Films, Sony Pictures Entertainment (SPE), Weimaraner Republic Pictures DISTRIBUZIONE: Warner Bros. PAESE: USA DURATA: 86 Min [img]http://s19.postimage.org/i9hdvjydv/banner_trama.gif[/img] Blake Lively, Óscar JaenadaSCENEGGIATURA: Anthony Jaswinski [img]http://s19.postimage.org/i9hdvjydv/banner_trama.gif[/img] Nancy sta facendo surf da sola di fronte a una spiaggia isolata quando viene attaccata da un grande squalo bianco che le impedisce di tornare a riva. Anche se solo 200 metri la separano dalla salvezza, dovrà mettere in gioco tutta la sua forza di volontà per sopravvivere. [img]http://s19.postimage.org/nwdqt10wj/banner_storyline.gif[/img] A mere 200 yards from shore, surfer Nancy is attacked by a great white shark, with her short journey to safety becoming the ultimate contest of wills. [img]http://i.imgur.com/GgEl7ea.png[/img] [url=https://extraimage.net/image/2NoX][img]http://extraimage.net/images/2016/12/14/dd7f08c1fe8ed3f5019a4a4eca0dc0a0.th.png[/img][/url] [url=https://extraimage.net/image/2NoP][img]http://extraimage.net/images/2016/12/14/bfe90552fcaf1eb6b54187293eee6b96.th.png[/img][/url] [url=https://extraimage.net/image/2Nog][img]http://extraimage.net/images/2016/12/14/22cfbeb4624753f58ad9d201fb631c4b.th.png[/img][/url] [url=https://extraimage.net/image/2No5][img]http://extraimage.net/images/2016/12/14/dc9de89b0c5099140b03f27dd661f309.th.png[/img][/url] [url=https://extraimage.net/image/2NoD][img]http://extraimage.net/images/2016/12/14/b09f05fdd8842bdc6019ce999b32631d.th.png[/img][/url] [img]http://i.imgur.com/cWb6Z.gif[/img] [img]http://s19.postimage.org/f07k2tzo3/banner_dati_file.gif[/img] [spoiler] General Unique ID : 198160835229227235838689456133452172084 (0x9514637DBB83C56C69E6624CABD98B34) Complete name : Paradise Beach Dentro L incubo (2016).H264.ita.eng.sub.ita.eng.iCV-MIRCrew.mkv Format : Matroska Format version : Version 2 File size : 1.31 GiB Duration : 1h 26mn Overall bit rate : 2 170 Kbps Movie name : VISIT www.icv-crew.org Encoded date : UTC 2016-12-10 13:26:57 Writing application : Lavf54.63.100 Writing library : Lavf54.63.100 COPYRIGHT : robbyrs Video ID : 1 Format : AVC Format/Info : Advanced Video Codec Format profile : [email protected] Format settings, CABAC : Yes Format settings, ReFrames : 2 frames Codec ID : V_MPEG4/ISO/AVC Duration : 1h 26mn Bit rate : 1 270 Kbps Width : 720 pixels Height : 304 pixels Display aspect ratio : 2.40:1 Frame rate mode : Variable Frame rate : 23.976 fps Color space : YUV Chroma subsampling : 4:2:0 Bit depth : 8 bits Scan type : Progressive Bits/(Pixel*Frame) : 0.242 Stream size : 759 MiB (57%) Writing library : x264 core 130 r2273 Encoding settings : cabac=1 / ref=2 / deblock=1:0:0 / analyse=0x1:0x131 / me=hex / subme=7 / psy=1 / psy_rd=1.00:0.00 / mixed_ref=0 / me_range=16 / chroma_me=1 / trellis=1 / 8x8dct=0 / cqm=0 / deadzone=21,11 / fast_pskip=1 / chroma_qp_offset=-2 / threads=12 / lookahead_threads=2 / sliced_threads=0 / nr=0 / decimate=1 / interlaced=0 / bluray_compat=0 / constrained_intra=0 / bframes=3 / b_pyramid=0 / b_adapt=1 / b_bias=0 / direct=3 / weightb=1 / open_gop=0 / weightp=2 / keyint=230 / keyint_min=23 / scenecut=40 / intra_refresh=0 / rc_lookahead=40 / rc=2pass / mbtree=1 / bitrate=1270 / ratetol=1.0 / qcomp=0.60 / qpmin=10 / qpmax=69 / qpstep=4 / cplxblur=20.0 / qblur=0.5 / vbv_maxrate=24000 / vbv_bufsize=24000 / nal_hrd=none / ip_ratio=1.40 / aq=1:1.00 Language : English Default : Yes Forced : No DURATION : 01:26:16.088000000 NUMBER_OF_FRAMES : 124102 NUMBER_OF_BYTES : 6246110378 _STATISTICS_WRITING_APP : mkvmerge v8.3.0 ('Over the Horizon') 64bit _STATISTICS_WRITING_DATE_UTC : 2016-12-07 20:03:01 _STATISTICS_TAGS : BPS DURATION NUMBER_OF_FRAMES NUMBER_OF_BYTES Audio #1 ID : 2 Format : AC-3 Format/Info : Audio Coding 3 Mode extension : CM (complete main) Codec ID : A_AC3 Duration : 1h 26mn Bit rate mode : Constant Bit rate : 448 Kbps Channel(s) : 6 channels Channel positions : Front: L C R, Side: L R, LFE Sampling rate : 48.0 KHz Bit depth : 16 bits Compression mode : Lossy Delay relative to video : 1mn 5s Stream size : 276 MiB (21%) Title : AC3 iTA Language : Italian Default : No Forced : No DURATION : 01:26:16.192000000 NUMBER_OF_FRAMES : 161756 NUMBER_OF_BYTES : 414095360 _STATISTICS_WRITING_APP : mkvmerge v8.3.0 ('Over the Horizon') 64bit _STATISTICS_WRITING_DATE_UTC : 2016-12-07 20:03:01 _STATISTICS_TAGS : BPS DURATION NUMBER_OF_FRAMES NUMBER_OF_BYTES Audio #2 ID : 3 Format : AC-3 Format/Info : Audio Coding 3 Mode extension : CM (complete main) Codec ID : A_AC3 Duration : 1h 26mn Bit rate mode : Constant Bit rate : 448 Kbps Channel(s) : 6 channels Channel positions : Front: L C R, Side: L R, LFE Sampling rate : 48.0 KHz Bit depth : 16 bits Compression mode : Lossy Delay relative to video : 1mn 5s Stream size : 276 MiB (21%) Title : AC3 ENG Language : English Default : No Forced : No DURATION : 01:26:16.192000000 NUMBER_OF_FRAMES : 161756 NUMBER_OF_BYTES : 414095360 _STATISTICS_WRITING_APP : mkvmerge v8.3.0 ('Over the Horizon') 64bit _STATISTICS_WRITING_DATE_UTC : 2016-12-07 20:03:01 _STATISTICS_TAGS : BPS DURATION NUMBER_OF_FRAMES NUMBER_OF_BYTES Text #1 ID : 4 Format : UTF-8 Codec ID : S_TEXT/UTF8 Codec ID/Info : UTF-8 Plain Text Title : FORCED iTA Language : Italian Default : Yes Forced : No DURATION : 01:16:38.928000000 NUMBER_OF_FRAMES : 31 NUMBER_OF_BYTES : 686 _STATISTICS_WRITING_APP : mkvmerge v8.3.0 ('Over the Horizon') 64bit _STATISTICS_WRITING_DATE_UTC : 2016-12-07 20:03:01 _STATISTICS_TAGS : BPS DURATION NUMBER_OF_FRAMES NUMBER_OF_BYTES Text #2 ID : 5 Format : UTF-8 Codec ID : S_TEXT/UTF8 Codec ID/Info : UTF-8 Plain Text Title : REGULAR iTA Language : Italian Default : No Forced : No DURATION : 01:18:20.196000000 NUMBER_OF_FRAMES : 455 NUMBER_OF_BYTES : 11346 _STATISTICS_WRITING_APP : mkvmerge v8.3.0 ('Over the Horizon') 64bit _STATISTICS_WRITING_DATE_UTC : 2016-12-07 20:03:01 _STATISTICS_TAGS : BPS DURATION NUMBER_OF_FRAMES NUMBER_OF_BYTES Text #3 ID : 6 Format : UTF-8 Codec ID : S_TEXT/UTF8 Codec ID/Info : UTF-8 Plain Text Title : REGULAR ENG Language : English Default : No Forced : No DURATION : 01:19:46.152000000 NUMBER_OF_FRAMES : 568 NUMBER_OF_BYTES : 12407 _STATISTICS_WRITING_APP : mkvmerge v8.3.0 ('Over the Horizon') 64bit _STATISTICS_WRITING_DATE_UTC : 2016-12-07 20:03:01 _STATISTICS_TAGS : BPS DURATION NUMBER_OF_FRAMES NUMBER_OF_BYTES Text #4 ID : 7 Format : UTF-8 Codec ID : S_TEXT/UTF8 Codec ID/Info : UTF-8 Plain Text Title : NON UDENTI ENG Language : English Default : No Forced : No DURATION : 01:25:34.557000000 NUMBER_OF_FRAMES : 915 NUMBER_OF_BYTES : 17805 _STATISTICS_WRITING_APP : mkvmerge v8.3.0 ('Over the Horizon') 64bit _STATISTICS_WRITING_DATE_UTC : 2016-12-07 20:03:01 _STATISTICS_TAGS : BPS DURATION NUMBER_OF_FRAMES NUMBER_OF_BYTES Menu 00:00:00.000 : :00:00:00.000 00:00:54.333 : :00:00:54.333 00:11:41.500 : :00:11:41.500 00:18:37.458 : :00:18:37.458 00:29:01.417 : :00:29:01.417 00:36:01.500 : :00:36:01.500 00:49:25.667 : :00:49:25.667 00:57:59.750 : :00:57:59.750 01:07:22.958 : :01:07:22.958 01:14:02.542 : :01:14:02.542 01:25:34.333 : :01:25:34.333 [/spoiler] [/color][/b][/center]

Helene Fischer - Farbenspiel Live - Die Stadion - Tournee (2015)

Language: | Size: 271.36 MB | Seed: 928 | Leech: 79

Description:

1. Ouvertüre Herbst 2. Unser Tag 3. Und morgen früh küss ich dich wach 4. Fehlerfrei 5. Mitten im Paradies 6. In diesen Nächten 7. Wunder dich nicht 8. Nur wer den Wahnsinn liebt 9. Interlude Winter 10. Lass jetzt los (Let it Go) 11. Vergeben, vergessen und wieder vertrau’n 12. Bring Me To Life 13. Feuerwerk 14. Rock Medley 15. Mit keinem Ander´n 16. 16.Interlude Frühling 17. Der Augenblick 18. Caruso 19. Ein kleines Glück 20. Interlude Sommer 21. Marathon 22. Ich will immer wieder… dieses Fieber spür’n 23. Te Quiero 24. Fly 25. My Heart Will Go On 26. Von hier bis unendlich 27. Die Hölle morgen früh 28. Phänomen 29. Atemlos durch die Nacht (Akustik Version) 30. Atemlos durch die Nacht 31. So kann das Leben sein

Helene Fischer - Farbenspiel (2013)

Language: | Size: 115.07 MB | Seed: 965 | Leech: 32

Description:

Tracce 1. Fehlerfrei 3:38 2. Mit keinem andern 3:42 3. So kann das Leben sein 4:01 4. Marathon 3:47 5. Atemlos durch die Nacht 3:39 6. Der Augenblick 4:14 7. Te Quiero 3:38 8. Captain meiner Seele 3:37 9. In diesen Nächten 4:20 10. Feuerwerk 3:40 11. Ehrlich und klar 4:02 12. Wunder dich nicht 3:51 13. Auf der Suche nach mir 4:09 14. Alice im Wunderland 3:59 15. Unser Tag 3:35 16. Ein kleines Glück 3:40

Helene Fischer Und The Royal Philharmonic Orchestra - Weihnachten (2015)

Language: | Size: 199.39 MB | Seed: 128 | Leech: 52

Description:

Tracklisting Disk 1 1. Stille Nacht, heilige Nacht 4:23 2. O du fröhliche 3:33 3. Ihr Kinderlein, kommet 3:14 4. Fröhliche Weihnacht überall 2:29 5. Alle Jahre wieder 3:06 6. Süßer die Glocken nie klingen 3:23 7. Vom Himmel hoch, da komm ich her (feat. Xavier Naidoo) 3:22 8. Lasst uns froh und munter sein 3:04 9. Leise rieselt der Schnee 3:19 10. Maria durch ein Dornwald ging 3:07 11. Adeste Fideles 3:55 12. Tochter Zion, freue dich 3:05 13. Am Weihnachtsbaum die Lichter brennen 3:32 14. In der Weihnachtsbäckerei 3:01 15. O Tannenbaum 2:38 16. Es ist ein Ros entsprungen 2:41 17. Heilige Nacht 4:03 18. Ave Maria 5:16 Disk 2 1. White Christmas (feat. Bing Crosby) 3:11 2. Winter Wonderland 2:51 3. Rudolph, the Red-Nosed Reindeer 2:57 4. Let It Snow 2:27 5. Have Yourself a Merry Little Christmas (feat. Frank Sinatra) 4:00 6. Little Drummer Boy 3:05 7. We Wish You a Merry Christmas 2:13 8. What Child Is This (feat. Plácido Domingo) 3:52 9. The Power of Love 4:03 10. Driving Home for Christmas 4:13 11. Last Christmas (feat. Ricky Martin) 4:25 12. Santa Claus Is Coming to Town 2:28 13. Jingle Bells 2:26 14. Feliz Navidad 3:33 15. The Christmas Song 3:52 16. Hallelujah 4:33 17. I’ll Be Home for Christmas 3:42

Maluma - Pretty Boy, Dirty Boy (2015)

Language: | Size: 129.26 MB | Seed: 686 | Leech: 37

Description:

Tracklist: 01. Borro Cassette 02. Donde Estas? (feat. Farruko) 03. El Perdedor 04. Me Gustas 05. Una Aventura (feat. Alexis & Fido) 06. Sin Contrato 07. Pretextos (feat. Cosculluela) 08. Ya No Es Niña 09. Solos (feat. El Micha) 10. Tu Cariño (feat. Arcangel) 11. Recuerdame 12. La Misma Moneda 13. Tengo Un Amor (feat. Leslie Grace) 14. Vuelo Hacia El Olvido

Helene Fischer - Von hier bis unendlich (2006)

Language: | Size: 57.42 MB | Seed: 310 | Leech: 9

Description:

Tracklisting: 1. Von hier bis unendlich 2. Engel geh'n durchs Feuer 3. Du triffst mitten ins Herz 4. Und morgen früh küss' ich dich wach 5. Einfach reden oder so 6. Feuer am Horizont 7. Am Ende sind wir stark genug 8. Solang dein Herz noch für mich schlägt 9. Manchmal kommt die Liebe einfach so 10. Es gibt keinen Morgen danach 11. Im Reigen der Gefühle 12. Auf der Reise ins Licht

Helene Fischer - Zaubermond (2008)

Language: | Size: 82.5 MB | Seed: 754 | Leech: 81

Description:

Tracklisting: 1. Ewig ist manchmal zu lang 2. Zaubermond 3. Lass mich in dein Leben 4. Jeden Morgen wird die Sonne neu gebor'n 5. Vergeben vergessen und wieder vertrau'n 6. Jeder braucht eine Insel 7. Tanz noch einmal mit mir 8. Hab den Himmel berührt 9. Mal ganz ehrlich 10. Wer will denn schon vernünftig sein 11. Ich geb nie auf (Am Anfang war das Feuer) 12. Frag nicht wo und wann 13. Gefühle wie Feuer und Eis 14. Meine Welt 15. König der Herzen 16. Willkommen in meinen Träumen

Molly Moon and the Incredible Book of Hypnotism (2015).H264.Italian.English.Ac3.5.1.iCV-MIRCrew

Language: | Size: 1.48 GB | Seed: 57 | Leech: 122

Description:

Molly Moon and the Incredible Book of Hypnotism - Molly Moon (2015).H264.Italian.English.Ac3.5.1.iCV-MIRCrew My release is always in double track audio italian and Original audio for select it use VLC or dvd player home not use wmp Molly Moon e l'incredibile libro dell'ipnotismo (2015) [img]http://extraimage.net/images/2016/12/14/5ca8d7471f1385eabd35fc70b944e665.png[/img] [URL=http://www.imdb.com/title/tt2445178/][IMG]http://www.userlogos.org/files/logos/Sucka/imdb_new.png[/IMG][/URL] [img]http://i.imgur.com/fGu1rKv.png[/img] Regia: Dominic Monaghan, Christopher N. Rowley Sceneggiatura: Tom Butterworth, Chris Hurford Musica: Peter Raeburn Scritto da: Georgia Byng Paese: Regno Unito Anno: 2015 Genere: Fantasy Durata: 98 min [img]http://i.imgur.com/W7kBqiE.png[/img] Raffey Cassidy, Lesley Manville, Emily Watson, Celia Imrie, Anne-Marie Duff, Omid Djalili, Dominic Monaghan, Joan Collins [img]http://i.imgur.com/bFK3ggF.png[/img] L'orfana Molly Moon vive una difficile esistenza nel freddo e disastrato istituto gestito da Miss Anderstone, una donna di immane crudeltà. Un giorno, trovando un libro, Molly si convince di poter imparare l'antica arte dell'ipnosi e di poter migliorare la sua esistenza grazie a questa, ritrovando anche l'amico Rocky andato in adozione............ [img]http://i.imgur.com/48xHWWH.png[/img] An orphan who practices hypnosis faces off against a bank robber who wants her book on the art form. .......... [img]http://i.imgur.com/K8bfNTy.png[/img] [url=https://extraimage.net/image/2Nke][img]http://extraimage.net/images/2016/12/14/9c196dc2abdc1027b1b1724189c83434.th.png[/img][/url] [url=https://extraimage.net/image/2NkZ][img]http://extraimage.net/images/2016/12/14/87e3f880b45891c16bd83ea3c38a5f60.th.png[/img][/url] [url=https://extraimage.net/image/2Nk4][img]http://extraimage.net/images/2016/12/14/9fbb640cd7123921632e3523823528be.th.png[/img][/url] [img]http://i.imgur.com/aVrMohH.png[/img] [spoiler] General Unique ID : 266432071771037100043256626925064552553 (0xC870F355134AB3924E37038AF5920069) Complete name : Molly Moon (2015).H264.ita.eng.iCV-MIRCrew.mkv Format : Matroska Format version : Version 2 File size : 1.48 GiB Duration : 1h 37mn Overall bit rate : 2 170 Kbps Movie name : VISIT www.icv-crew.org Encoded date : UTC 2016-12-08 18:13:49 Writing application : Lavf54.63.100 Writing library : Lavf54.63.100 COPYRIGHT : robbyrs Video ID : 1 Format : AVC Format/Info : Advanced Video Codec Format profile : [email protected] Format settings, CABAC : Yes Format settings, ReFrames : 2 frames Codec ID : V_MPEG4/ISO/AVC Duration : 1h 37mn Bit rate : 1 270 Kbps Width : 720 pixels Height : 390 pixels Display aspect ratio : 16:9 Frame rate mode : Variable Frame rate : 24.000 fps Color space : YUV Chroma subsampling : 4:2:0 Bit depth : 8 bits Scan type : Progressive Bits/(Pixel*Frame) : 0.188 Stream size : 860 MiB (57%) Writing library : x264 core 130 r2273 Encoding settings : cabac=1 / ref=2 / deblock=1:0:0 / analyse=0x1:0x131 / me=hex / subme=7 / psy=1 / psy_rd=1.00:0.00 / mixed_ref=0 / me_range=16 / chroma_me=1 / trellis=1 / 8x8dct=0 / cqm=0 / deadzone=21,11 / fast_pskip=1 / chroma_qp_offset=-2 / threads=12 / lookahead_threads=2 / sliced_threads=0 / nr=0 / decimate=1 / interlaced=0 / bluray_compat=0 / constrained_intra=0 / bframes=3 / b_pyramid=0 / b_adapt=1 / b_bias=0 / direct=3 / weightb=1 / open_gop=0 / weightp=2 / keyint=240 / keyint_min=24 / scenecut=40 / intra_refresh=0 / rc_lookahead=40 / rc=2pass / mbtree=1 / bitrate=1270 / ratetol=1.0 / qcomp=0.60 / qpmin=10 / qpmax=69 / qpstep=4 / cplxblur=20.0 / qblur=0.5 / vbv_maxrate=24000 / vbv_bufsize=24000 / nal_hrd=none / ip_ratio=1.40 / aq=1:1.00 Language : Italian Default : Yes Forced : No DURATION : 01:37:43.334000000 NUMBER_OF_FRAMES : 140720 NUMBER_OF_BYTES : 9300291978 _STATISTICS_WRITING_APP : mkvmerge v8.7.0 ('All of the above') 64bit _STATISTICS_WRITING_DATE_UTC : 2016-12-06 14:15:41 _STATISTICS_TAGS : BPS DURATION NUMBER_OF_FRAMES NUMBER_OF_BYTES Audio #1 ID : 2 Format : AC-3 Format/Info : Audio Coding 3 Mode extension : CM (complete main) Codec ID : A_AC3 Duration : 1h 37mn Bit rate mode : Constant Bit rate : 448 Kbps Channel(s) : 6 channels Channel positions : Front: L C R, Side: L R, LFE Sampling rate : 48.0 KHz Bit depth : 16 bits Compression mode : Lossy Delay relative to video : 1mn 5s Stream size : 313 MiB (21%) Title : AC3 ITA Language : Italian Default : No Forced : No DURATION : 01:37:30.240000000 NUMBER_OF_FRAMES : 182820 NUMBER_OF_BYTES : 468019200 _STATISTICS_WRITING_APP : mkvmerge v8.7.0 ('All of the above') 64bit _STATISTICS_WRITING_DATE_UTC : 2016-12-06 14:15:41 _STATISTICS_TAGS : BPS DURATION NUMBER_OF_FRAMES NUMBER_OF_BYTES Audio #2 ID : 3 Format : AC-3 Format/Info : Audio Coding 3 Mode extension : CM (complete main) Codec ID : A_AC3 Duration : 1h 37mn Bit rate mode : Constant Bit rate : 448 Kbps Channel(s) : 6 channels Channel positions : Front: L C R, Side: L R, LFE Sampling rate : 48.0 KHz Bit depth : 16 bits Compression mode : Lossy Delay relative to video : 1mn 5s Stream size : 313 MiB (21%) Title : AC3 ENG Language : English Default : No Forced : No DURATION : 01:37:42.368000000 NUMBER_OF_FRAMES : 183199 NUMBER_OF_BYTES : 468989440 _STATISTICS_WRITING_APP : mkvmerge v8.7.0 ('All of the above') 64bit _STATISTICS_WRITING_DATE_UTC : 2016-12-06 14:15:41 _STATISTICS_TAGS : BPS DURATION NUMBER_OF_FRAMES NUMBER_OF_BYTES Menu 00:00:00.000 : :00:00:00.000 00:07:05.342 : :00:07:05.342 00:14:28.201 : :00:14:28.201 00:20:13.838 : :00:20:13.838 00:29:27.099 : :00:29:27.099 00:39:02.590 : :00:39:02.590 00:50:56.804 : :00:50:56.804 00:59:52.756 : :00:59:52.756 01:08:53.129 : :01:08:53.129 01:16:19.950 : :01:16:19.950 01:25:27.706 : :01:25:27.706 01:35:23.259 : :01:35:23.259 [/spoiler] [/color][/b][/center]

When.The.Bough.Breaks.2016.1080p.BluRay.x264-FOXM

Language: | Size: 1.62 GB | Seed: 97 | Leech: 60

Description:

http://FOXM.TO ------------------------------------------------------------------------------------------------------------------------------------------- Get all FOXM newest releases first at  FOXM website http://foxm.to/film?id=234 Also there you will find a list of upcoming uploads, account registration and an effective movie search. ------------------------------------------------------------------------------------------------------------------------------------------- http://www.imdb.com/title/tt1389139/ IMDB RATING: 4.4 #1 Video FORMAT.......................: MP4 CODEC........................: X264 GENRE........................:  Drama, Horror, Mystery FILE SIZE....................: 1.62 GB RESOLUTION...................: 1920*808 FRAME RATE...................: 23.976 fps LANGUAGE.....................: English SUBTITLES....................: NONE RUNTIME......................: 1h 47min #2 Audio Format :.....................: AAC Mode : ......................: 16 Channel(s)...................: 5.1 channels Bit rate.....................: 320 kbps Audio sample rate............: 48 kHz Summary: A surrogate mom for a couple becomes dangerously obsessed with the soon-to-be father. Screenshots [img]http://foxm.to/images/1481700708image1.jpg[/img] [img]http://foxm.to/images/1481700708image2.jpg[/img] [img]http://foxm.to/images/1481700708image3.jpg[/img] ------------------------------------------------------------------------------------------------------------------------------------------- http://FOXM.TO -------------------------------------------------------------------------------------------------------------------------------------------

When.The.Bough.Breaks.2016.720p.BluRay.x264-FOXM

Language: | Size: 794.07 MB | Seed: 4 | Leech: 0

Description:

http://FOXM.TO ------------------------------------------------------------------------------------------------------------------------------------------- Get all FOXM newest releases first at FOXM website http://foxm.to/film?id=234 Also there you will find a list of upcoming uploads, account registration and an effective movie search. ------------------------------------------------------------------------------------------------------------------------------------------- http://www.imdb.com/title/tt1389139/ IMDB RATING: 4.4 #1 Video FORMAT.......................: MP4 CODEC........................: X264 GENRE........................: Drama, Horror, Mystery FILE SIZE....................: 794 MB RESOLUTION...................: 1280*720 FRAME RATE...................: 23.976 fps LANGUAGE.....................: English SUBTITLES....................: NONE RUNTIME......................: 1h 47min #2 Audio Format :.....................: AAC Mode : ......................: 16 Channel(s)...................: 5.1 channels Bit rate.....................: 320 kbps Audio sample rate............: 48 kHz Summary: A surrogate mom for a couple becomes dangerously obsessed with the soon-to-be father. Screenshots [img]http://foxm.to/images/1481700708image1.jpg[/img] [img]http://foxm.to/images/1481700708image2.jpg[/img] [img]http://foxm.to/images/1481700708image3.jpg[/img] ------------------------------------------------------------------------------------------------------------------------------------------- http://FOXM.TO -------------------------------------------------------------------------------------------------------------------------------------------

Miracoli dal cielo (2016 Ita)[BRRip-XviD-Ac3 5.1]

Language: | Size: 1.91 GB | Seed: 52 | Leech: 5

Description:

.: SCHEDA :. Titolo originale: Miracles From Heaven Nazione: U.S.A. Anno: 2016 Genere: Drammatico Durata: 109' Regia: Patricia Riggen Cast: Jennifer Garner, Kylie Rogers, Martin Henderson, Queen Latifah, Brighton Sharbino, Eugenio Derbez, John Carroll Lynch, Courtney Fansler .: TRAMA :. Quando scopre che Anna, la figlia di dieci anni, è affetta da una rara malattia incurabile, Christy Beam fa di tutto per combattere la causa della bambina e cercare una soluzione. Dopo che Anna ha uno strano incidente e cade da un'altezza di tre piani, accade un vero miracolo che lascia disorientati i medici specialisti, riunisce la sua famiglia e diffonde speranza nella comunità.

Babbo Natale non viene dal nord (2015 Ita)[BRRip-XviD-Ac3 5.1]

Language: | Size: 1.37 GB | Seed: 61 | Leech: 5

Description:

.: SCHEDA :. DATA USCITA: 26 novembre 2015 GENERE: Commedia ANNO: 2015 REGIA: Maurizio Casagrande ATTORI: Maurizio Casagrande, Annalisa Scarrone, Giampaolo Morelli, Angelo Orlando, Maria Grazia Cucinotta SCENEGGIATURA: Maurizio Casagrande, Francesco Velonà FOTOGRAFIA: Antonello Emidi MONTAGGIO: Marco Spoletini PRODUZIONE: Maria Grazia Cucinotta, Giovanna Emidi, Silvia Natili, Giulio Violati per Italian Dreams Factory DISTRIBUZIONE: Draka Distribution srl PAESE: Italia DURATA: 100 Min .: TRAMA :. In un giardino incantato, fatto di tante luci colorate, un Babbo Natale attira l'attenzione di una bambina che passeggia con la mamma; per ridare il sorriso alla bimba, che piange per la vista di Babbo Natale, il "vecchio" la prende in braccio e le racconta una storia... Marcello, un prestidigitatore un po' demodé, bravissimo con le carte da gioco, immaturo, superficiale, una specie di Peter Pan che non si è mai preso una responsabilità, eternamente innamorato delle donne, ha una figlia, India, della quale non si è mai occupato. Proprio nei giorni della storia, India, ormai ventisettenne, è venuta a stare qualche giorno da lui per avere un'occasione in più per la sua carriera. La ragazza è una cantante di talento ma di scarso successo; sosia di Annalisa Scarrone, famosissima cantautrice, non riesce a farsi spazio facendo valere la sua personalità artistica; spera di ricostruire un rapporto con il padre e che lui l'aiuti anche a trovare qualche buona occasione per esibirsi; ma Marcello, come sempre preso da se stesso, parte per Salerno: il suo agente, Gerardo, gli ha trovato l'ingaggio per consegnare i doni ai bambini in un fast food, vestito da Babbo Natale.

L'ottava nota - Baychoir (2014 Ita)[BRRip-XviD-Ac3 5.1]

Language: | Size: 1.68 GB | Seed: 49 | Leech: 0

Description:

.: SCHEDA :. GENERE: Drammatico ANNO: 2014 REGIA: François Girard ATTORI: Dustin Hoffman, Josh Lucas, Kevin McHale, Kathy Bates, Debra Winger, Eddie Izzard SCENEGGIATURA: Ben Ripley FOTOGRAFIA: David Franco MONTAGGIO: Gaetan Huot MUSICHE: Brian Byrne PRODUZIONE: Informant Films, Informant Media DISTRIBUZIONE: Koch Media PAESE: USA DURATA: 103 Min .: TRAMA :. Stet, un problematico dodicenne di una piccola cittadina del Texas, finisce in una prestigiosa scuola di musica dopo la morte della madre single. Del tutto fuori dal suo contesto, si ritrova a ingaggiare una battaglia impegnativa con il capo del coro, che riconosce in lui grandi capacità e talento spingendolo a scoprire il suo lato creativo.

Bon Bini Holland (2015 Ita)[BRRip-XviD-Ac3 5.1]

Language: | Size: 1.42 GB | Seed: 21 | Leech: 4

Description:

.: SCHEDA :. Genere: Commedia Durata: 88 minuti Regista: Jelle de Jonge Sceneggiatura: Jandino Asporaat, Ernst Gonlag Attori: Jandino Asporaat, Liliana de Vries, Teun Kuilboer, Lone van Roosendaal, Dennis Rudge, Hans Dagelet, Cynthia Abma Paese: Olanda Anno: 2015 .: TRAMA :. Robertico ha un forte debito con un gangster e per salvarsi la pelle deve trovare a tutti i costi un modo per estinguerlo. Si finge un ricco uomo d'affari per truffare un riccone di nome Ken Maduro, ma le cose si complicano quando Robertico s'innamora della figlia di Maduro...

Un po tanto ciecamente (2015 Ita)[BRRip-XviD-Ac3]

Language: | Size: 1.47 GB | Seed: 69 | Leech: 4

Description:

.: SCHEDA :. Regia: Clovis Cornillac Attori: Mélanie Bernier, Clovis Cornillac, Lilou Fogli, Philippe Duquesne, Grégoire Oestermann, Oscar Copp, Boris Terral, Manu Payet Genere: Commedia, romatico, bizzarro Paese: Francia Anno: 2015 .: TRAMA :. Una famosa pianista diventa vicina di casa di un inventore appassionato di rompicapi che adora il silenzio. Ma il bello arriva quando i due incominciano a uscire insieme.

Ghostbusters Extended (2016 Ita)[BRRip-XviD-Ac3 5.1]

Language: | Size: 2.1 GB | Seed: 71 | Leech: 16

Description:

.: SCHEDA :. DATA USCITA: 28 luglio 2016 GENERE: Azione , Commedia , Fantascienza ANNO: 2016 REGIA: Paul Feig ATTORI: Melissa McCarthy, Kristen Wiig, Leslie Jones, Kate McKinnon, Chris Hemsworth, Cecily Strong, Charles Dance, Michael Kenneth Williams, Andy Garcia, Matt Walsh SCENEGGIATURA: Katie Dippold, Paul Feig FOTOGRAFIA: Robert D. Yeoman MONTAGGIO: Melissa Bretherton, Brent White MUSICHE: Theodore Shapiro PRODUZIONE: Sony Pictures Entertainment. DISTRIBUZIONE: Warner Bros. PAESE: USA DURATA: 108 Min .: TRAMA :. Abby ed Erin sono una coppia di scrittrici semi sconosciute che decidono di pubblicare un libro sui fantasmi. La loro tesi consiste nell'affermare che questi sono assolutamente reali. Tempo dopo Erin ottiene un prestigioso incarico come docente della Columbia University. Quando il libro sugli spettri, ormai dimenticato, ricompare, diventera` lo zimbello della facoltà e sarà costretta a lasciare il lavoro. La sua credibilità è persa ed Erin decide a quel punto di riunirsi ad Abby aprendo una ditta di acchiappafantasmi. Scelta che si rivela vincente: Manhattan e` invasa da una nuova ondata di spettri e non ci sarà altro da fare per il team che dargli la caccia.
 «  1 2 3 4 5 6 7 8 9 10 11 12 13 14 ... 447 448 449 450 451  »
  Movie/Films     Animation/Cartoons     TV Shows/Series     Music     Games     Applications     Books     Other  

   How works MfT    Rules    Suggest idea    Request torrent    Privacy Policy    DMCA    Contacts    MfT Status    Friends sites    Is this site safe?   

mkv, HD-Rip , BD-Rip , Blu-Ray , HD Film , hd film , hd films , scarica film gratis , hd torrents , hd torrent , hdtorrents, hdrip , bdrip , Bluray ,

Blu-Ray player, scarica film , scarica torrent , torrent film , film ita, bluray, mux, 1080p, 720p, hdtorrents, torrent ita, torrents ita, HD film ita, HD ita, Blu-Ray ita