Search Top Tags














Sing.Street.2016.iTALiAN.AC3.DVDRip.XviD-T4P3

Language: | Size: 1.37 GB | Seed: 3 | Leech: 0

Description:

Sing Street Titolo originale: Sing Street Conosciuto anche come: Nazione: Regno Unito, Irlanda, U.S.A. Anno: 2016 Genere: Commedia, Drammatico, Musicale Durata: 106' Regia: John Carney Cast: Ferdia Walsh-Peelo, Aidan Gillen, Maria Doyle Kennedy, Jack Reynor, Lucy Boynton, Kelly Thornton, Ben Carolan, Mark McKenna, Percy Chamburuka, Lydia McGuinness Produzione: Cosmo Films, Distressed Films, FilmNation Entertainment, FilmWave, Likely Story, PalmStar Media Distribuzione: Bim Distribuzione Data di uscita: 09 Novembre 2016 (cinema) Trama: Dublino, anni '80. Cosmo é costretto, per motivi economici, ad abbandonare la scuola privata che frequentava per iscriversi in un istituto pubblico. Per sfuggire ai problemi famigliari e alle difficoltà nel nuovo ambiente scolastico, il ragazzo forma una band, con la speranza, inoltre, di impressionare la ragazza che gli piace...

Pay The Ghost - Il Male Cammina Tra Noi (2015).H264.Italian.English.Ac3.5.1.sub.ita.eng.iCV-MIRCrew

Language: | Size: 1.35 GB | Seed: 1 | Leech: 15

Description:

Pay The Ghost - Il Male Cammina Tra Noi (2015).H264.Italian.English.Ac3.5.1.sub.ita.eng.iCV-MIRCrew [center] [color=red][b][img]http://s23.postimg.org/b9yhws27f/0sc_Del1.png[/img] [u]NO FOUND ONLY ORIGINAL RELEASE[/u] [img]http://i.imgur.com/GDNQx1Z.png[/img] My release is always in double track audio italian and Original audio for select it use VLC or dvd player home not use wmp Pay The Ghost - Il Male Cammina Tra Noi (2015) [img]https://extraimage.net/images/2017/02/23/5fa3b79dca32b5d98b92bf96ea230222.png[/img] [URL=http://www.imdb.com/title/tt3733778/][IMG]http://www.userlogos.org/files/logos/Sucka/imdb_new.png[/IMG][/URL] [img]http://i.imgur.com/fGu1rKv.png[/img] Titolo Originale: PAY THE GHOST Regia: Uli Edel Durata: h 1.34 Nazionalità: Canada 2015 Genere: horror Al cinema nell'Ottobre 2016 [img]http://i.imgur.com/W7kBqiE.png[/img] Nicolas Cage, Sarah Wayne Callies, Alex Mallari Jr., Jack Fulton, Erin Boyes, Lyriq Bent, Veronica Ferres, Sofia Wells, Mark Irvingsen, Elizabeth Jeanne le Roux, Ho Chow, Maxwell McCabe-Lokos, Juan Carlos Velis [img]http://i.imgur.com/bFK3ggF.png[/img] A un anno dalla tragica scomparsa del figlio, avvenuta misteriosamente durante una parata di Halloween a New York, Mike Lawford (Nicolas Cage) comincia a essere ossessionato da terrificanti visioni del figlio e a sentire intorno a lui l’inspiegabile e spaventosa presenza di una misteriosa figura. Deciso ad entrare in azione, Mike si riavvicina alla moglie Kristen (Sarah Wayne Callies) per indagare sulla scomparsa del figlio............ [img]http://i.imgur.com/48xHWWH.png[/img] One year after Mike Lawford's young son disappeared during a Halloween carnival, he is haunted by ghostly images and terrifying messages he can't explain. Together with his estranged wife, he will stop at nothing to unravel the mystery and find their son-and, in doing so, he unearths the legend of the crying woman who refuses to remain buried in the past. [img]http://i.imgur.com/K8bfNTy.png[/img] [url=https://extraimage.net/image/2e29][img]https://extraimage.net/images/2017/02/23/b1c3914d82ee350f791df69dbbb09ffb.th.png[/img][/url] [url=https://extraimage.net/image/2e2M][img]https://extraimage.net/images/2017/02/23/924922eec55e0ab4db880184d01de2b7.th.png[/img][/url] [url=https://extraimage.net/image/2e2U][img]https://extraimage.net/images/2017/02/23/fd758d11bf7615eb0d7c3347f5652715.th.png[/img][/url] [url=https://extraimage.net/image/2e2z][img]https://extraimage.net/images/2017/02/23/ceb26594e1d9cd1fa1e8d8739b167b9d.th.png[/img][/url] [img]http://i.imgur.com/aVrMohH.png[/img] [spoiler] General Unique ID : 258922695193755242836511370864435199983 (0xC2CAB27B67AB562112B4CEA713F4FFEF) Complete name : Pay The Ghost Il Male Cammina Tra Noi (2015).H264.ita.eng.sub.eng.iCV-MIRCrew.mkv Format : Matroska Format version : Version 2 File size : 1.35 GiB Duration : 1h 34mn Overall bit rate : 2 050 Kbps Movie name : VISIT www.icv-crew.org Encoded date : UTC 2017-02-22 19:38:16 Writing application : Lavf54.63.100 Writing library : Lavf54.63.100 COPYRIGHT : robbyrs Video ID : 1 Format : AVC Format/Info : Advanced Video Codec Format profile : [email protected] Format settings, CABAC : Yes Format settings, ReFrames : 2 frames Codec ID : V_MPEG4/ISO/AVC Duration : 1h 34mn Bit rate : 1 280 Kbps Width : 720 pixels Height : 300 pixels Display aspect ratio : 2.40:1 Frame rate mode : Variable Frame rate : 23.976 fps Color space : YUV Chroma subsampling : 4:2:0 Bit depth : 8 bits Scan type : Progressive Bits/(Pixel*Frame) : 0.247 Stream size : 839 MiB (61%) Writing library : x264 core 130 r2273 Encoding settings : cabac=1 / ref=2 / deblock=1:0:0 / analyse=0x1:0x131 / me=hex / subme=7 / psy=1 / psy_rd=1.00:0.00 / mixed_ref=0 / me_range=16 / chroma_me=1 / trellis=1 / 8x8dct=0 / cqm=0 / deadzone=21,11 / fast_pskip=1 / chroma_qp_offset=-2 / threads=12 / lookahead_threads=2 / sliced_threads=0 / nr=0 / decimate=1 / interlaced=0 / bluray_compat=0 / constrained_intra=0 / bframes=3 / b_pyramid=0 / b_adapt=1 / b_bias=0 / direct=3 / weightb=1 / open_gop=0 / weightp=2 / keyint=230 / keyint_min=23 / scenecut=40 / intra_refresh=0 / rc_lookahead=40 / rc=2pass / mbtree=1 / bitrate=1280 / ratetol=1.0 / qcomp=0.60 / qpmin=10 / qpmax=69 / qpstep=4 / cplxblur=20.0 / qblur=0.5 / vbv_maxrate=24000 / vbv_bufsize=24000 / nal_hrd=none / ip_ratio=1.40 / aq=1:1.00 Language : Italian Default : Yes Forced : No DURATION : 01:34:30.916000000 NUMBER_OF_FRAMES : 135966 NUMBER_OF_BYTES : 6909535488 _STATISTICS_WRITING_APP : mkvmerge v8.7.0 ('All of the above') 64bit _STATISTICS_WRITING_DATE_UTC : 2017-02-18 09:49:21 _STATISTICS_TAGS : BPS DURATION NUMBER_OF_FRAMES NUMBER_OF_BYTES Audio #1 ID : 2 Format : AC-3 Format/Info : Audio Coding 3 Mode extension : CM (complete main) Codec ID : A_AC3 Duration : 1h 34mn Bit rate mode : Constant Bit rate : 384 Kbps Channel(s) : 6 channels Channel positions : Front: L C R, Side: L R, LFE Sampling rate : 48.0 KHz Bit depth : 16 bits Compression mode : Lossy Delay relative to video : 1mn 5s Stream size : 260 MiB (19%) Title : AC3 ITA Language : Italian Default : Yes Forced : No DURATION : 01:34:20.224000000 NUMBER_OF_FRAMES : 176882 NUMBER_OF_BYTES : 271690752 _STATISTICS_WRITING_APP : mkvmerge v8.7.0 ('All of the above') 64bit _STATISTICS_WRITING_DATE_UTC : 2017-02-18 09:49:21 _STATISTICS_TAGS : BPS DURATION NUMBER_OF_FRAMES NUMBER_OF_BYTES Audio #2 ID : 3 Format : AC-3 Format/Info : Audio Coding 3 Mode extension : CM (complete main) Codec ID : A_AC3 Duration : 1h 34mn Bit rate mode : Constant Bit rate : 384 Kbps Channel(s) : 6 channels Channel positions : Front: L C R, Side: L R, LFE Sampling rate : 48.0 KHz Bit depth : 16 bits Compression mode : Lossy Delay relative to video : 1mn 5s Stream size : 260 MiB (19%) Title : AC3 ENG Language : English Default : No Forced : No DURATION : 01:34:06.624000000 NUMBER_OF_FRAMES : 176457 NUMBER_OF_BYTES : 451729920 _STATISTICS_WRITING_APP : mkvmerge v8.7.0 ('All of the above') 64bit _STATISTICS_WRITING_DATE_UTC : 2017-02-18 09:49:21 _STATISTICS_TAGS : BPS DURATION NUMBER_OF_FRAMES NUMBER_OF_BYTES Text #1 ID : 4 Format : ASS Codec ID : S_TEXT/ASS Codec ID/Info : Advanced Sub Station Alpha Compression mode : Lossless Title : Regular Language : English Default : No Forced : No DURATION : 01:28:14.472000000 NUMBER_OF_FRAMES : 885 NUMBER_OF_BYTES : 25546 _STATISTICS_WRITING_APP : mkvmerge v8.7.0 ('All of the above') 64bit _STATISTICS_WRITING_DATE_UTC : 2017-02-18 09:49:21 _STATISTICS_TAGS : BPS DURATION NUMBER_OF_FRAMES NUMBER_OF_BYTES Text #2 ID : 5 Format : ASS Codec ID : S_TEXT/ASS Codec ID/Info : Advanced Sub Station Alpha Compression mode : Lossless Title : Non Udenti Language : English Default : No Forced : No DURATION : 01:28:37.020000000 NUMBER_OF_FRAMES : 1093 NUMBER_OF_BYTES : 28051 _STATISTICS_WRITING_APP : mkvmerge v8.7.0 ('All of the above') 64bit _STATISTICS_WRITING_DATE_UTC : 2017-02-18 09:49:21 _STATISTICS_TAGS : BPS DURATION NUMBER_OF_FRAMES NUMBER_OF_BYTES Menu 00:00:00.000 : :Old New York 00:07:42.629 : :Spare a Thought for Lovecraft 00:15:03.694 : :Halloween Carnival 00:25:59.308 : :One Year Later 00:31:40.482 : :Visions of Charlie 00:38:20.089 : :Kristen and Mike 00:48:40.751 : :Something Mysterious Out There 00:58:50.527 : :The Celtic Goddess 01:06:41.539 : :Final Day of Sowin 01:12:39.063 : :Hannah 01:16:41.847 : :Crossing to the Other Side 01:28:33.558 : :Credits [/spoiler] [/color][/b][/center]

Jean-Luc Ponty - Live [Flac][TntVillage]

Language: | Size: 288.16 MB | Seed: 67 | Leech: 23

Description:

[img]http://i.imgur.com/RL5NNZU.jpg[/img] Artist...............: Jean-Luc Ponty Album................: Live Genre................: jazz Source...............: CD Year.................: 1978 Ripper...............: EAC (Secure mode) / LAME 3.92 & Asus CD-S520 Codec................: Free Lossless Audio Codec (FLAC) Version..............: reference libFLAC 1.3.1 20141125 Quality..............: Lossless, (avg. compression: 71 %) Channels.............: Stereo / 44100 HZ / 16 Bit Tags.................: VorbisComment Information..........: TntVillage Ripped by............: Leonenero on 21/02/2017 Posted by............: Leonenero on 22/02/2017 News Server..........: news.astraweb.com News Group(s)........: TNTVILLAGE Included.............: NFO, M3U, LOG Covers...............: Front Back CD --------------------------------------------------------------------- Tracklisting --------------------------------------------------------------------- 1. Jean-Luc Ponty - Aurora (part1) [02:53] 2. Jean-Luc Ponty - Aurora (part2) [06:18] 3. Jean-Luc Ponty - Imaginary Voyage (part3) [04:25] 4. Jean-Luc Ponty - Imaginary Voyage (part4) [07:09] 5. Jean-Luc Ponty - Mirage [05:46] 6. Jean-Luc Ponty - No Strings Atached [05:59] 7. Jean-Luc Ponty - Egocentric Molecules [07:26] Playing Time.........: 39:59 Total Size...........: 287,99 MB There has been legendary bands like Return to Forever (Corea, DiMeola and Clarke) and Mahavishnu Orchestra (Goodman, McLaughlin and Cobham) that made the presence of a vocalist simply unnecessary. This is the case in this stage in the musical history of Jean-Luc Ponty. This CD includes live vertions of concerts performed at USA in late 1978. Just imagine to listen this live performances with a band counting players like Armstrong, Glaser, Scheverell, Zavod and Ponty delivering at stage two (2) of the best works of Ponty: Aurora and Imaginary Voyage. For me, this is the best album, now CD remastered, of the long career of Jean-Luc Ponty.......simply magic!!!!!

Fai.Bei.Sogni.2016.iTALiAN.AC3.DVDRip.XviD-T4P3

Language: | Size: 1.37 GB | Seed: 4 | Leech: 0

Description:

Fai bei sogni Titolo originale: Fai bei sogni Conosciuto anche come: Nazione: Italia, Francia Anno: 2016 Genere: Drammatico Durata: 133' Regia: Marco Bellocchio Cast: Bérénice Bejo, Emmanuelle Devos, Valerio Mastandrea, Fabrizio Gifuni, Guido Caprino, Linda Messerklinger, Nicolò Cabras, Dario Dal Pero, Barbara Ronchi Produzione: IBC Movie, Kavac Film, Rai Cinema Distribuzione: 01 Distribution Data di uscita: 10 Novembre 2016 (cinema) Trama: La mattina del 31 dicembre 1969, Massimo, nove anni appena, trova suo padre nel corridoio sorretto da due uomini: sua madre è morta. Massimo cresce e diventa un giornalista. Dopo il rientro dalla Guerra in Bosnia dove era stato inviato dal suo giornale, incontra Elisa. La vicinanza di Elisa aiuterà Massimo ad affrontare la verità sulla sua infanzia e il suo passato...

La.Ragazza.Del.Mondo.2016.iTALiAN.AC3.DVDRip.XviD-T4P3

Language: | Size: 1.37 GB | Seed: 2 | Leech: 0

Description:

La ragazza del mondo Titolo originale: La ragazza del mondo Conosciuto anche come: Nazione: Italia, Francia Anno: 2016 Genere: Drammatico Durata: 104' Regia: Marco Danieli Cast: Sara Serraiocco, Michele Riondino, Marco Leonardi, Stefania Montorsi, Lucia Mascino, Pippo Delbono, Martina Cerroni, Giorgio Careccia, Maria Chiara Giannetta, Alessandra Vanzi, Andrea Mautone Produzione: CSC Production, Rai Cinema, Barbary Films Distribuzione: Bolero Film Data di uscita: Venezia 2016 - Giornate degli Autori 09 Novembre 2016 (cinema) Trama: Quello di Giulia è un mondo antico e sospeso, fatto di rigore e testi sacri, che esclude con ferocia chi non vi appartiene. Quello di Libero è il mondo di tutti gli altri, di chi sbaglia, di chi si arrangia cercando un'altra possibilità e di chi ama senza condizioni. Quando Giulia incontra Libero scopre di poter avere un altro destino, tutto da scegliere. La loro è una storia d'amore purissima e inevitabile e per i due ragazzi inizia un intenso periodo di vita insieme, scelta che comporterà a Giulia una totale esclusione dal mondo dei Testimoni di Geova al quale appartiene. Libero farà a Giulia il dono d'amore più grande di tutti: la libertà di appartenere al mondo, a uno nuovo, luminoso e pieno di futuro.

Mamma.o.Papa.2017.iTALiAN.MD.HDCAM.XviD-TrInKs

Language: | Size: 1.6 GB | Seed: 133 | Leech: 54

Description:

Oppresso dal lavoro, da una moglie gelosa e da figlia molesta, il sor Peppe, commerciante di stoffe in Roma, durante uno spettacolo di varietà si fa ipnotizzare da un fachiro che, per un incidente, deve essere trasportato all\'ospedale. Il sor Peppe resta in trance e, tornato a casa, si comporta come una madre di famiglia. Scritto con Ruggero Maccari e Mario Amendola su soggetto di Piero Tellino, è il 3 e ultimo film della Famiglia Passaguai, e il più originale e vispo. L\'antico espediente del travestitismo fa da cinghia di trasmissione a una buffoneria che non scivola mai nel banale o nel volgare. FYears da cornice a un A. Fabrizio in grande forma 2 spalle comiche di puntuto rilievo come V. Riento e P. Stoppa. Original title: Papà diventa mamma Lingua originale: Italiano Paese: Italia Years: 1952 Length: 84\' Colore: B/N Audio: sonoro Rapporto: Genere: Comico Directed by: Aldo Fabrizio Soggetto: Piero Tellini Sceneggiatura: Mario Amendola, Aldo Fabrizi, Ruggero Maccari Producer: Aldo Fabrizi Produttore esecutivo: Casa di Production: Alfa Film Distribuzione (Italia): Rank Film Interpreti e personaggi * Aldo Fabrizi: Sor Peppe * Ave Ninchi: Margherita, moglie di Peppe * Giovanna Ralli: Marcella * Carlo Delle Piane: Pecorino * Giancarlo Zarfati: Gnappetta * Armando Annuale: * Paolo Stoppa: * Marco Tulli: * Gondrano Trucchi: * Gianna Segale: * Virgilio Riento: * Alfredo Rizzo: * Luigi Pavese: * Enrico Luzi: * Mara Landi: * Franco Giacobini: * Anna Maria Dori: Fotografia: Mario Bava Montaggio: Nella Nannuzzi Effetti speciali: Musiche: Carlo Innocenzi, Enrico Simeone Tema musicale: Scenografia: Carlo Vignati

La pazza gioia (2016).H264.Italian.Ac3.5.1.sub.ita.eng.iCV-MIRCrew

Language: | Size: 1.35 GB | Seed: 1 | Leech: 5

Description:

La pazza gioia (2016).H264.Italian.Ac3.5.1.sub.ita.eng.iCV-MIRCrew [center] [color=red][b][img]http://s23.postimg.org/b9yhws27f/0sc_Del1.png[/img] [u]NO FOUND ONLY ORIGINAL RELEASE[/u] [img]http://i.imgur.com/GDNQx1Z.png[/img] My release is always in double track audio italian and Original audio for select it use VLC or dvd player home not use wmp ENGLISH SUBTITLE INSIDE La pazza gioia (2016) [img]https://extraimage.net/images/2017/02/22/45d2df8b8485b258a478da8a6003ba5f.png[/img] [URL=http://www.imdb.com/title/tt4621872/][IMG]http://www.userlogos.org/files/logos/Sucka/imdb_new.png[/IMG][/URL] [img]http://i.imgur.com/fGu1rKv.png[/img] GENERE: Commedia, Drammatico ANNO: 2016 REGIA: Paolo Virzì SCENEGGIATURA: Francesca Archibugi, Paolo Virzì FOTOGRAFIA: Vladan Radovic MONTAGGIO: Cecilia Zanuso MUSICHE: Carlo Virzì PRODUZIONE: Lotus Production con Rai Cinema in coproduzione con Manny Film DISTRIBUZIONE: 01 Distribution PAESE: Italia, Francia DURATA: 118 Min [img]http://i.imgur.com/W7kBqiE.png[/img] Valeria Bruni Tedeschi, Micaela Ramazzotti, Valentina Carnelutti, Tommaso Ragno, Bob Messini, Sergio Albelli, Anna Galiena, Marisa Borini, Marco Messeri, Bobo Rondelli [img]http://i.imgur.com/bFK3ggF.png[/img] Beatrice Morandini Valdirana è una chiacchierona istrionica, sedicente contessa e a suo dire in intimità coi potenti della Terra. Donatella Morelli è una giovane donna tatuata, fragile e silenziosa, che custodisce un doloroso segreto.............. [img]http://i.imgur.com/48xHWWH.png[/img] Donatella and Beatrice reside in a psychiatric facility in Tuscany. They have very different life stories, but a chance to escape brings them together in an adventure that will change their... [img]http://i.imgur.com/K8bfNTy.png[/img] [url=https://extraimage.net/image/2Zeb][img]https://extraimage.net/images/2017/02/22/f99df1db6c7c8cc05361dbbbeac74b6a.th.png[/img][/url] [url=https://extraimage.net/image/2Zeh][img]https://extraimage.net/images/2017/02/22/95300cfa64e1da97871ad2f1e199d3fd.th.png[/img][/url] [url=https://extraimage.net/image/2Ze3][img]https://extraimage.net/images/2017/02/22/0f6813800c07d1a5d3642a82119c53d7.th.png[/img][/url] [img]http://i.imgur.com/aVrMohH.png[/img] [spoiler] General Unique ID : 245108383859120745238274510476997886989 (0xB8662859180623B2AE13C16D3B2D040D) Complete name : La pazza gioia (2016).H264.ita.sub.ita.eng.iCV-MIRCrew.mkv Format : Matroska Format version : Version 2 File size : 1.35 GiB Duration : 1h 51mn Overall bit rate : 1 731 Kbps Movie name : LA_PAZZA_GIOIA.Title1 Encoded date : UTC 2017-01-22 13:56:17 Writing application : DVDFab 9.1.5.7 Writing library : libebml v0.7.8 + libmatroska v0.8.1 Video ID : 1 Format : AVC Format/Info : Advanced Video Codec Format profile : [email protected] Format settings, CABAC : Yes Format settings, ReFrames : 2 frames Codec ID : V_MPEG4/ISO/AVC Duration : 1h 51mn Bit rate : 1 248 Kbps Width : 720 pixels Height : 300 pixels Display aspect ratio : 2.40:1 Frame rate : 25.000 fps Color space : YUV Chroma subsampling : 4:2:0 Bit depth : 8 bits Scan type : Progressive Bits/(Pixel*Frame) : 0.231 Stream size : 994 MiB (72%) Writing library : x264 core Default : Yes Forced : No Color primaries : BT.601-6 525, BT.1358 525, BT.1700 NTSC, SMPTE 170M Transfer characteristics : BT.709-5, BT.1361 Matrix coefficients : BT.601-6 525, BT.1358 525, BT.1700 NTSC, SMPTE 170M Audio ID : 2 Format : AC-3 Format/Info : Audio Coding 3 Mode extension : CM (complete main) Codec ID : A_AC3 Duration : 1h 51mn Bit rate mode : Constant Bit rate : 448 Kbps Channel(s) : 6 channels Channel positions : Front: L C R, Side: L R, LFE Sampling rate : 48.0 KHz Bit depth : 16 bits Compression mode : Lossy Stream size : 357 MiB (26%) Language : Italian Default : Yes Forced : No Text #1 ID : 3 Format : VobSub Codec ID : S_VOBSUB Codec ID/Info : The same subtitle format used on DVDs Language : Italian Default : Yes Forced : No Text #2 ID : 4 Format : VobSub Codec ID : S_VOBSUB Codec ID/Info : The same subtitle format used on DVDs Language : English Default : No Forced : No Menu 00:00:00.000 : en:(01)00:00:00:000 00:12:08.560 : en:(02)00:12:08:560 00:21:34.000 : en:(03)00:21:34:000 00:31:15.280 : en:(04)00:31:15:280 00:40:13.840 : en:(05)00:40:13:840 00:51:15.760 : en:(06)00:51:15:760 00:59:39.760 : en:(07)00:59:39:760 01:05:43.120 : en:(08)01:05:43:120 01:13:03.280 : en:(09)01:13:03:280 01:22:12.400 : en:(10)01:22:12:400 01:31:26.320 : en:(11)01:31:26:320 01:40:54.160 : en:(12)01:40:54:160 [/spoiler] [/color][/b][/center]

Prince - 4ever (2016) (by emi)

Language: | Size: 219.83 MB | Seed: 92 | Leech: 11

Description:

mp3 a 192 kbps audio di qualità a 95 db Tracklist CD 1 01 - 1999.mp3 (5.2 MB) 02 - Little Red Corvette.mp3 (4.5 MB) 03 - When Doves Cry.mp3 (5.4 MB) 04 - Let's Go Crazy.mp3 (5.4 MB) 05 - Raspberry Beret.mp3 (5.1 MB) 06 - I Wanna Be Your Lover.mp3 (4.3 MB) 07 - Soft And Wet.mp3 (4.4 MB) 08 - Why You Wanna Treat Me So Bad.mp3 (5.4 MB) 09 - Uptown.mp3 (5.9 MB) 10 - When You Were Mine.mp3 (5.3 MB) 11 - Head.mp3 (6.7 MB) 12 - Gotta Stop (Messin' About).mp3 (4.2 MB) 13 - Controversy.mp3 (5.1 MB) 14 - Let's Work.mp3 (4.3 MB) 15 - Delirious.mp3 (3.8 MB) 16 - I Would Die 4 U.mp3 (4.2 MB) 17 - Take Me With U.mp3 (5.3 MB) 18 - Paisley Park.mp3 (6.6 MB) 19 - Pop Life.mp3 (5.3 MB) 20 - Purple Rain.mp3 (12.1 MB) CD 2 01 - Kiss.mp3 (5.4 MB) 02 - Sign 'O' The Times.mp3 (5.3 MB) 03 - Alphabet St.mp3 (3.5 MB) 04 - Batdance.mp3 (5.9 MB) 05 - Thieves In The Temple.mp3 (4.8 MB) 06 - Cream.mp3 (6.0 MB) 07 - Mountains.mp3 (5.6 MB) 08 - Girls & Boys.mp3 (4.9 MB) 09 - If I Was Your Girlfriend.mp3 (5.4 MB) 10 - U Got The Look.mp3 (5.4 MB) 11 - I Could Never Take The Place Of Your Man.mp3 (5.2 MB) 12 - Glam Slam.mp3 (5.0 MB) 13 - Moonbeam Levels.mp3 (5.8 MB) 14 - Diamonds And Pearls.mp3 (6.1 MB) 15 - Gett Off.mp3 (5.7 MB) 16 - Sexy M.F.mp3 (7.6 MB) 17 - My Name Is Prince.mp3 (5.8 MB) 18 - 7.mp3 (6.2 MB) 19 - Peach.mp3 (5.4 MB) 20 - Nothing Compares 2 U.mp3 (6.1 MB)

Indivisibili (2016 Ita)[DVDRip-XviD-Ac3 5.1]

Language: | Size: 1021.26 MB | Seed: 179 | Leech: 27

Description:

.: SCHEDA :. DATA USCITA: 29 settembre 2016 GENERE: Drammatico ANNO: 2016 REGIA: Edoardo De Angelis ATTORI: Angela Fontana, Marianna Fontana, Antonia Truppo, Massimiliano Rossi, Toni Laudadio, Marco Mario De Notaris, Gaetano Bruno, Gianfranco Gallo, Peppe Servillo SCENEGGIATURA: Nicola Guaglianone, Barbara Petronio, Edoardo De Angelis FOTOGRAFIA: Ferran Paredes Rubio MONTAGGIO: Chiara Griziotti MUSICHE: Enzo Avitabile PRODUZIONE: Tramp Limited e O'Groove. DISTRIBUZIONE: Medusa Film PAESE: Italia DURATA: 100 Min .: TRAMA :. Viola e Dasy sono due gemelle siamesi che cantano ai matrimoni e alle feste e, grazie alle loro esibizioni, danno da vivere a tutta la famiglia. Le cose vanno bene fino a quando non scoprono di potersi dividere. Il loro sogno è la normalità: un gelato, viaggiare, ballare, bere vino senza temere che l'altra si ubriachi fare l'amore. "Perché sono femmina".

Lene Marlin - Here We Are - Historier så langt (2013) (by emi)

Language: | Size: 82.55 MB | Seed: 8 | Leech: 1

Description:

mp3 a 192 kbps audio di qualità a 95 db Tracklist 01 - Sitting Down Here.mp3 (5.5 MB) 02 - Unforgivable Sinner.mp3 (5.7 MB) 03 - Where I'm Headed.mp3 (5.9 MB) 04 - Sorry.mp3 (5.4 MB) 05 - Another Day.mp3 (5.8 MB) 06 - You Weren't There.mp3 (5.0 MB) 07 - My Love.mp3 (6.3 MB) 08 - Disguise.mp3 (5.4 MB) 09 - How Would It Be.mp3 (5.6 MB) 10 - All I Can Say.mp3 (6.5 MB) 11 - Hope You're Happy.mp3 (6.1 MB) 12 - What If.mp3 (5.5 MB) 13 - Here We Are.mp3 (4.8 MB) 14 - Do You Remember.mp3 (4.9 MB) 15 - You Will Cry No More.mp3 (4.0 MB)

Third Day - Miracle (2012) (by emi)

Language: | Size: 58.91 MB | Seed: 6 | Leech: 2

Description:

mp3 a 192 kbps audio di qualità a 95 db Tracklist 01 - Hit Me Like A Bomb.mp3 (4.8 MB) 02 - Kicking And Screaming.mp3 (4.0 MB) 03 - Your Love Is Like A River.mp3 (6.0 MB) 04 - I Need A Miracle.mp3 (5.3 MB) 05 - You Are My Everything.mp3 (5.4 MB) 06 - For The Rest Of My Life.mp3 (4.0 MB) 07 - I Want To Believe In You.mp3 (4.7 MB) 08 - The Victory.mp3 (4.6 MB) 09 - Take Me Back.mp3 (4.7 MB) 10 - Forever Yours.mp3 (5.8 MB) 11 - Time's Running Out On Me.mp3 (4.8 MB) 12 - Morning Has Broken.mp3 (4.8 MB)

Ben 10 Omniverse 2010 Complete Series SE4 to SE8 Pt2 Burntodisc

Language: | Size: 28.26 GB | Seed: 3 | Leech: 15

Description:

The series follows the adventures of sixteen-year-old Ben Tennyson, wielder of the Omnitrix, an extremely powerful watch-like device that allows Ben to change into a multitude of various aliens; each with their own special abilities and skills. Total: 8 seasons, all 80 episodes SIZE: DVD9 VIDEO CODEC: MPEG2 RESOLUTION: 720x480 ASPECT RATIO: NTSC 16:9 FRAME RATE: 29.97fps AUDIO: English 384kb/s 5.1 DD surround SUBTITLES: None MENU: Yes CHAPTERS: Yes DISC COVER: Yes [url]http://www.imdb.com/title/tt2293002/[/url] [url]https://en.wikipedia.org/wiki/Ben_10:_Omniverse[/url]

Ben 10 Omniverse 2010 Complete Series SE1 SE2 SE3 Pt1 Burntodisc

Language: | Size: 22.21 GB | Seed: 776 | Leech: 43

Description:

The series follows the adventures of sixteen-year-old Ben Tennyson, wielder of the Omnitrix, an extremely powerful watch-like device that allows Ben to change into a multitude of various aliens; each with their own special abilities and skills. Total: 8 seasons, all 80 episodes SIZE: DVD9 VIDEO CODEC: MPEG2 RESOLUTION: 720x480 ASPECT RATIO: NTSC 16:9 FRAME RATE: 29.97fps AUDIO: English 384kb/s 5.1 DD surround SUBTITLES: None MENU: Yes CHAPTERS: Yes DISC COVER: Yes [url]http://www.imdb.com/title/tt2293002/[/url] [url]https://en.wikipedia.org/wiki/Ben_10:_Omniverse[/url]

Samurai Jack 2001 Animated Complete Series D3 D4 Burntodisc

Language: | Size: 15.57 GB | Seed: 713 | Leech: 82

Description:

Samurai Jack tells the story of a young prince named Jack from Feudal Japan, whose father's empire is destroyed by the shape shifting demon Aku (Mako Iwamatsu). As a child, the prince escapes destruction and travels the Earth training his mind and his body for years until he reaches adulthood, becoming a legendary samurai. After taking his father's magic katana, Jack challenges Aku to a duel and defeats him. However, before Jack can deal the killing blow, Aku creates a time portal and sends his opponent into the distant future, anticipating that he would be able to amass sufficient power to deal with the samurai later. DISCS IN SERIES: 4 EPISODES.......: 52 TOTAL SIZE...........: DVD9 VIDEO CODEC....: MPEG2 RESOLUTION.....: 720x480 ASPECT RATIO...: NTSC 4:3 FRAMERATE......: 29.97fps AUDIO .........: English 192kb/s SUBTITLES......: None MENU...........: Yes CHAPTERS.......: Yes DISC COVER.....: Yes [url]http://www.imdb.com/title/tt0278238/[/url] [url]http://en.wikipedia.org/wiki/Samurai_Jack[/url]

Samurai Jack 2001 Animated Complete Series D1 D2 Burntodisc

Language: | Size: 15.57 GB | Seed: 25 | Leech: 7

Description:

Samurai Jack tells the story of a young prince named Jack from Feudal Japan, whose father's empire is destroyed by the shape shifting demon Aku (Mako Iwamatsu). As a child, the prince escapes destruction and travels the Earth training his mind and his body for years until he reaches adulthood, becoming a legendary samurai. After taking his father's magic katana, Jack challenges Aku to a duel and defeats him. However, before Jack can deal the killing blow, Aku creates a time portal and sends his opponent into the distant future, anticipating that he would be able to amass sufficient power to deal with the samurai later. DISCS IN SERIES: 4 EPISODES.......: 52 TOTAL SIZE...........: DVD9 VIDEO CODEC....: MPEG2 RESOLUTION.....: 720x480 ASPECT RATIO...: NTSC 4:3 FRAMERATE......: 29.97fps AUDIO .........: English 192kb/s SUBTITLES......: None MENU...........: Yes CHAPTERS.......: Yes DISC COVER.....: Yes [url]http://www.imdb.com/title/tt0278238/[/url] [url]http://en.wikipedia.org/wiki/Samurai_Jack[/url]

Diana Krall - From This Moment On [Flac][TntVillage]

Language: | Size: 307.45 MB | Seed: 93 | Leech: 64

Description:

[img]http://i.imgur.com/U7njGPv.jpg[/img] Artist...............: Diana Krall Album................: From this Moment On Genre................: Jazz Source...............: CD Year.................: 2006 Ripper...............: EAC (Secure mode) / LAME 3.92 & Asus CD-S520 Codec................: Free Lossless Audio Codec (FLAC) Version..............: reference libFLAC 1.3.1 20141125 Quality..............: Lossless, (avg. compression: 59 %) Channels.............: Stereo / 44100 HZ / 16 Bit Tags.................: VorbisComment Information..........: TntVillage Ripped by............: Leonenero on 18/02/2017 Posted by............: Leonenero on 19/02/2017 News Server..........: news.astraweb.com News Group(s)........: TNTVILLAGE Included.............: NFO, PLS, M3U, LOG, CUE Covers...............: Front Back CD --------------------------------------------------------------------- Tracklisting --------------------------------------------------------------------- 1. Diana Krall - Come Dance with Me [04:24] 2. Diana Krall - It Was a Beautiful Day in August - You Can Depend on Me[05:18] 3. Diana Krall - It Could Happen to You [03:28] 4. Diana Krall - Isn't This a Lovely Day [06:07] 5. Diana Krall - How Insensitive [05:20] 6. Diana Krall - Exactly Like You [03:02] 7. Diana Krall - From This Moment On [03:23] 8. Diana Krall - I Was Doing Alright [05:12] 9. Diana Krall - Little Girl Blue [05:39] 10. Diana Krall - Day in Day Out [04:01] 11. Diana Krall - Willow Weep for Me [05:39] Playing Time.........: 51:38 Total Size...........: 306,95 MB In songs, mood and delivery, From This Moment On reveals Krall's personal ardor for that golden era of song-making, when Frank Sinatra, Ella Fitzgerald and (especially) Nat King Cole were in their prime. There's an economy and confidence that speak to the maturity of Krall as a performer, and a recording artist

Don Verdean (2015).H264.Italian.English.Ac3.5.1.sub.ita.iCV-MIRCrew

Language: | Size: 1.46 GB | Seed: 1 | Leech: 7

Description:

Don Verdean (2015).H264.Italian.English.Ac3.5.1.sub.ita.iCV-MIRCrew [center] [color=red][b][img]http://s23.postimg.org/b9yhws27f/0sc_Del1.png[/img] [u]NO FOUND ONLY ORIGINAL RELEASE[/u] [img]http://i.imgur.com/GDNQx1Z.png[/img] My release is always in double track audio italian and Original audio for select it use VLC or dvd player home not use wmp Don Verdean (2015) [img]https://extraimage.net/images/2017/02/20/56cab585ae3b76d182a6161157857466.png[/img] [URL=http://www.imdb.com/title/tt3534282/][IMG]http://www.userlogos.org/files/logos/Sucka/imdb_new.png[/IMG][/URL] [img]http://i.imgur.com/fGu1rKv.png[/img] Lingua originale inglese Paese di produzione Stati Uniti d'America Anno 2015 Un film di Jared Hess. Commedia durata 90 min. [img]http://i.imgur.com/W7kBqiE.png[/img] Sam Rockwell, Danny McBride, Leslie Bibb, Amy Ryan, Will Forte, Jemaine Clement [img]http://i.imgur.com/bFK3ggF.png[/img] Don Verdean, archeologo esperto di reperti biblici, viene assunto dal parroco di una piccola chiesa per trovare delle reliquie in Terra Santa da usare per accrescere la fede dei fedeli. Dopo una spedizione infruttuosa, l'uomo è costretto a ricorrere alla sua creatività inscenando................... [img]http://i.imgur.com/48xHWWH.png[/img] A self-professed biblical archaeologist who has fallen on hard times starts to bend the truth in order to continue inspiring the faithful. [img]http://i.imgur.com/K8bfNTy.png[/img] [url=https://extraimage.net/image/2KXt][img]https://extraimage.net/images/2017/02/20/736d00f45f5d4e465ab8834b7e0dfa77.th.png[/img][/url] [url=https://extraimage.net/image/2KXo][img]https://extraimage.net/images/2017/02/20/651b50d0e8780959c6d2682a3315a4a2.th.png[/img][/url] [url=https://extraimage.net/image/2KXx][img]https://extraimage.net/images/2017/02/20/c477b431e646b5b68a39eef065dfa539.th.png[/img][/url] [url=https://extraimage.net/image/2KX6][img]https://extraimage.net/images/2017/02/20/ee5c087f3888cdd95ba2be51af2b8ca6.th.png[/img][/url] [img]http://i.imgur.com/aVrMohH.png[/img] [spoiler] General Unique ID : 174379910589671517827095688891760929699 (0x83305961EC0AAEF9639DE5DAE2886BA3) Complete name : Don Verdean (2015).H264.ita.eng.sub.ita.iCV-MIRCrew.mkv Format : Matroska Format version : Version 2 File size : 1.46 GiB Duration : 1h 36mn Overall bit rate : 2 181 Kbps Movie name : VISIT www.icv-crew.org Encoded date : UTC 2017-02-11 13:58:28 Writing application : Lavf54.63.100 Writing library : Lavf54.63.100 COPYRIGHT : robbyrs Video ID : 1 Format : AVC Format/Info : Advanced Video Codec Format profile : [email protected] Format settings, CABAC : Yes Format settings, ReFrames : 2 frames Codec ID : V_MPEG4/ISO/AVC Duration : 1h 36mn Bit rate : 1 280 Kbps Width : 720 pixels Height : 404 pixels Display aspect ratio : 16:9 Frame rate mode : Variable Frame rate : 23.976 fps Color space : YUV Chroma subsampling : 4:2:0 Bit depth : 8 bits Scan type : Progressive Bits/(Pixel*Frame) : 0.184 Stream size : 853 MiB (57%) Writing library : x264 core 130 r2273 Encoding settings : cabac=1 / ref=2 / deblock=1:0:0 / analyse=0x1:0x131 / me=hex / subme=7 / psy=1 / psy_rd=1.00:0.00 / mixed_ref=0 / me_range=16 / chroma_me=1 / trellis=1 / 8x8dct=0 / cqm=0 / deadzone=21,11 / fast_pskip=1 / chroma_qp_offset=-2 / threads=12 / lookahead_threads=2 / sliced_threads=0 / nr=0 / decimate=1 / interlaced=0 / bluray_compat=0 / constrained_intra=0 / bframes=3 / b_pyramid=0 / b_adapt=1 / b_bias=0 / direct=3 / weightb=1 / open_gop=0 / weightp=2 / keyint=230 / keyint_min=23 / scenecut=40 / intra_refresh=0 / rc_lookahead=40 / rc=2pass / mbtree=1 / bitrate=1280 / ratetol=1.0 / qcomp=0.60 / qpmin=10 / qpmax=69 / qpstep=4 / cplxblur=20.0 / qblur=0.5 / vbv_maxrate=24000 / vbv_bufsize=24000 / nal_hrd=none / ip_ratio=1.40 / aq=1:1.00 Language : Italian Default : Yes Forced : No DURATION : 01:36:04.685000000 NUMBER_OF_FRAMES : 138214 NUMBER_OF_BYTES : 7125505604 _STATISTICS_WRITING_APP : mkvmerge v8.7.0 ('All of the above') 64bit _STATISTICS_WRITING_DATE_UTC : 2017-02-03 18:38:16 _STATISTICS_TAGS : BPS DURATION NUMBER_OF_FRAMES NUMBER_OF_BYTES Audio #1 ID : 2 Format : AC-3 Format/Info : Audio Coding 3 Mode extension : CM (complete main) Codec ID : A_AC3 Duration : 1h 36mn Bit rate mode : Constant Bit rate : 448 Kbps Channel(s) : 6 channels Channel positions : Front: L C R, Side: L R, LFE Sampling rate : 48.0 KHz Bit depth : 16 bits Compression mode : Lossy Delay relative to video : 1mn 5s Stream size : 308 MiB (21%) Title : AC3 ITA Language : Italian Default : No Forced : No DURATION : 01:36:04.736000000 NUMBER_OF_FRAMES : 180148 NUMBER_OF_BYTES : 461178880 _STATISTICS_WRITING_APP : mkvmerge v8.7.0 ('All of the above') 64bit _STATISTICS_WRITING_DATE_UTC : 2017-02-03 18:38:16 _STATISTICS_TAGS : BPS DURATION NUMBER_OF_FRAMES NUMBER_OF_BYTES Audio #2 ID : 3 Format : AC-3 Format/Info : Audio Coding 3 Mode extension : CM (complete main) Codec ID : A_AC3 Duration : 1h 36mn Bit rate mode : Constant Bit rate : 448 Kbps Channel(s) : 6 channels Channel positions : Front: L C R, Side: L R, LFE Sampling rate : 48.0 KHz Bit depth : 16 bits Compression mode : Lossy Delay relative to video : 1mn 5s Stream size : 308 MiB (21%) Title : AC3 ENG Language : English Default : No Forced : No DURATION : 01:36:04.704000000 NUMBER_OF_FRAMES : 180147 NUMBER_OF_BYTES : 461176320 _STATISTICS_WRITING_APP : mkvmerge v8.7.0 ('All of the above') 64bit _STATISTICS_WRITING_DATE_UTC : 2017-02-03 18:38:16 _STATISTICS_TAGS : BPS DURATION NUMBER_OF_FRAMES NUMBER_OF_BYTES Text #1 ID : 4 Format : UTF-8 Codec ID : S_TEXT/UTF8 Codec ID/Info : UTF-8 Plain Text Title : FORCED Language : Italian Default : Yes Forced : No DURATION : 01:35:20.131000000 NUMBER_OF_FRAMES : 33 NUMBER_OF_BYTES : 1052 _STATISTICS_WRITING_APP : mkvmerge v8.7.0 ('All of the above') 64bit _STATISTICS_WRITING_DATE_UTC : 2017-02-03 18:38:16 _STATISTICS_TAGS : BPS DURATION NUMBER_OF_FRAMES NUMBER_OF_BYTES Text #2 ID : 5 Format : UTF-8 Codec ID : S_TEXT/UTF8 Codec ID/Info : UTF-8 Plain Text Title : REGULAR Language : Italian Default : No Forced : No DURATION : 01:35:20.131000000 NUMBER_OF_FRAMES : 1101 NUMBER_OF_BYTES : 50231 _STATISTICS_WRITING_APP : mkvmerge v8.7.0 ('All of the above') 64bit _STATISTICS_WRITING_DATE_UTC : 2017-02-03 18:38:16 _STATISTICS_TAGS : BPS DURATION NUMBER_OF_FRAMES NUMBER_OF_BYTES Menu 00:00:00.000 : :00:00:00.000 00:07:05.342 : :00:07:05.342 00:14:28.201 : :00:14:28.201 00:20:13.838 : :00:20:13.838 00:29:27.099 : :00:29:27.099 00:39:02.590 : :00:39:02.590 00:50:56.804 : :00:50:56.804 00:59:52.756 : :00:59:52.756 01:08:53.129 : :01:08:53.129 01:16:19.950 : :01:16:19.950 01:25:27.706 : :01:25:27.706 01:35:23.259 : :01:35:23.259 [/spoiler] [/color][/b][/center]

Il libro della giungla - The Jungle Book (1967 Ita/Eng) + EXTRA [1080p] [iCV-MIRCrew]

Language: | Size: 9.56 GB | Seed: 1 | Leech: 2

Description:

Titolo originale: The Jungle Book Nazionalità: USA Anno: 1967 Genere: animazione, avventura, musicale Regia: Wolfgang Reitherman Durata: 78 min Trama: Vagando per la foresta, la pantera Bagheera scorge in un canestro dondolante sull'acqua di un laghetto un cucciolo d'uomo abbandonato a se stesso. Intenerita essa lo affida alle cure di una famiglia di lupi, con i quali Mowgli - questo è il nome che gli è stato dato - cresce fino a diventare uno sveglio ragazzino, amico di tutti gli animali. Un giorno, sparsasi nella foresta la voce che Shere-Khan, la tigre, è tornata per ucciderlo, i lupi lo affidano a Bagheera perchè lo conduca al villaggio degli uomini. Durante il viaggio, che affronta malvolentieri, Mowgli, sfuggito alle spire di Kaa, il serpente, stringe amicizia con Baloo, un orso balzano e mattacchione con il quale vaga per la foresta, finché viene rapito dalle scimmie. Liberato dai suoi amici Bagheera e Baloo, Mowgli, piu' che mai deciso a non raggiungere il villaggio degli uomini... Report: http://freetexthost.com/rsv35l64d6 Extra: In questa versione sono compresi gli extra: 1 - I wan'na be like you: passare il tempo al Sisney's Animal Kingdom 2 - Finale alternativo 3 - Crescere con i Nine Old Men 4 - Contenuti Speciali del DVD Classico 1 - Dietro le quinte Disney 1 - Lo stretto indispensabile: il Making of de "Il libro della giungla" 1 - Le ultime impressioni di Walt 2 - I re della giungla 3 - Disegnare le voci 4 - Il battito della giungla 5 - L'ultimo atto 2 - Disney e Kipling: il tocco magico di Walt su un classico letterario 3 - Il richiamo de "Il libro della giungla" 4 - Il ritorno del selvaggio Mowgli 5 - Frank e Ollie: Frank Thomas e Ollie Johnston descrivono l'animazione dei personaggi 2 - Scena eliminata: il personaggio perduto - Rocky The Rhino 3 - Disneypedia: Junglemania! 4 - Musica e altro 1 - Canzoni eliminate composte da Terry Gilkyson 1 - "Brothers all" 2 - "The song of the seeonee" 3 - "The bare necessities" (Demo Version) 4 - "Monkey see, monkey do" 5 - "I knew i belonged to her" 6 - "In a day's work" 7 - "The mighty hunters" 2 - "I wan'na be like you" video musicale dei Jonas Brothers

The Fearless Hyena (1979) [1080p - H264 - Can Aac 5.1 - Hardsub Ita]

Language: | Size: 7.29 GB | Seed: 1 | Leech: 2

Description:

Italian Translation by JackieALF Titolo originale: "Xiao quan guai zhao" Nazione: Hong Kong Anno: 1979 Genere: Arti Marziali, Commedia Durata: 101' Regia: Jackie Chan Sito ufficiale: Cast: Jackie Chan,James Tien,Dean Shek,Chen Hui Lou,Yen,Shi-Kwan,Lee Kwan,Cheng Tien-Chi,Chih-ping Chiang,Shao Hua Chu,Eagle Han,Hsing Nan Ho,Hong Hsu,Huang Kan-man,Sae Ok Kim,Kuo Nai-hua,Chang Ma,Kang Peng,Wang Yao,Wan Li-peng,Chi Sang Wong Distribuzione:Lung Cheung Company Limited Data di uscita: 1979 Trama: Jackie Chan interpreta Shin Lung, un ragazzo che vive in un piccolo villaggio apprendendo il Kung-fu dai rigidi insegnamenti del nonno. Malgrado la richiesta del parente di non esibire in pubblico le sue abilità atletiche, Lung si fa convincere da un gruppetto di teppisti a diventare il maestro di una piccola scuola di arti marziali. Grazie a Lung la scuola riesce ad ottenere un certo rispetto, ma questo attira le attenzioni dello spietato Yen. Costui è un vecchio nemico del nonno di Lung, e vedendo le esibizioni del ragazzo riesce a rintracciarlo e ad ucciderlo. Disperato Lung vuole vendicarsi, ma l'ufficiale si rivela troppo forte per lui. In aiuto di Lung interviene però un anziano zoppo, il quale sottoporrà il ragazzo a un duro allenamento insegnandogli una particolare arte marziale.

Bon Jovi - Keep The Faith (1992) (by emi)

Language: | Size: 99.38 MB | Seed: 12 | Leech: 0

Description:

mp3 a 192 kbps audio di qualità a 95 db Tracklist 01 - I Believe.mp3 (8.1 MB) 02 - Keep The Faith.mp3 (8.0 MB) 03 - I'll Sleep When I'm Dead.mp3 (6.6 MB) 04 - In These Arms.mp3 (7.4 MB) 05 - Bed Of Roses.mp3 (9.2 MB) 06 - If I Was Your Mother.mp3 (6.2 MB) 07 - Dry Country.mp3 (13.6 MB) 08 - Woman In Love.mp3 (5.4 MB) 09 - Fear.mp3 (4.4 MB) 10 - I Want You.mp3 (7.8 MB) 11 - Blame It On The Love Of Rock And Roll.mp3 (6.2 MB) 12 - Little Bit Of Soul.mp3 (8.0 MB) 13 - Save A Prayer.mp3 (8.3 MB)

Frank Sinatra - 80Th [Flac][TntVillage]

Language: | Size: 322.05 MB | Seed: 1 | Leech: 0

Description:

[img]https://i.imgur.com/OJXOftQ.jpg[/img] [b]Artist[/b]...............: Frank Sinatra [b]Album[/b]................: Sinatra 80th Live In Concert [b]Genre[/b]................: Swing Vocal Jazz [b]Source[/b]...............: CD [b]Year[/b].................: 1995 [b]Ripper[/b]...............: Exact Audio Copy (Secure mode) & Asus CD-S520 [b]Codec[/b]................: Free Lossless Audio Codec (FLAC) [b]Version[/b]..............: reference libFLAC 1.2.1 20070917 [b]Quality[/b]..............: Lossless, (avg. compression: 56 %) [b]Channels[/b].............: Stereo / 44100 HZ / 16 Bit [b]Tags[/b].................: VorbisComment [b]Information[/b]..........: TntVillage Ripped by............: leonenero on 06/12/2012 Posted by............: leonenero on 06/12/2012 News Server..........: news.astraweb.com News Group(s)........: alt.binaries.sounds.flac.full_albums [b]Included[/b].............: NFO, M3U, LOG, CUE [b]Covers[/b]...............: Front Back CD --------------------------------------------------------------------- [b]Tracklisting[/b] --------------------------------------------------------------------- [b]1.[/b] You Are The Sunshine Of My Life [02.35] [b]2.[/b] What Now My Love [02.41] [b]3.[/b] My Heart Stood Still [03.28] [b]4.[/b] What's New [02.38] [b]5.[/b] For Once In My Life [02.56] [b]6.[/b] If [03.22] [b]7.[/b] In The Still Of The Night [03.38] [b]8.[/b] Soliloquy [11.14] [b]9.[/b] Maybe This Time [02.52] [b]10.[/b] Where Or When [04.08] [b]11.[/b] You Will Be My Music [04.25] [b]12.[/b] Strangers In The Night [02.09] [b]13.[/b] Angel Eyes [04.26] [b]14.[/b] New York, New York [04.29] [b]15.[/b] My Way (Duet With Luciano Pavarotti) [03.31] [b]Playing Time[/b].........: 58.38 [b]Total Size.[/b]..........: 321,84 MB [i]80th Live is a excellent collection of later day Sinatra in concert. Would have been nice for a few more songs to be included to make it longer but I will take the 14 they give along with the my way duet with Pavarotti, which is great. By the late 80's Frank was getting up there but really gives it all he has here. The overall sound quality is top notch with Sinatra in pretty good voice. A must for any sinatra fan.[/i] [img]https://torrent-stats.info/957d/1300f9961.png[/img]

Jonny Quest 1964 Complete Series En Es Burntodisc

Language: | Size: 15.66 GB | Seed: 10 | Leech: 23

Description:

The Quest family and their bodyguard investigate strange phenomena and battle villains around the world. DISCS..........: 2 EPISODES.......: 26 SIZE...........: DVD9 VIDEO CODEC....: MPEG2 RESOLUTION.....: 720x480 ASPECT RATIO...: NTSC 4:3 FRAMERATE......: 29.97fps AUDIO .........: English and Spanish 192kb/s----BONUS English only SUBTITLES......: None MENU...........: Yes CHAPTERS.......: Yes [url]http://www.imdb.com/title/tt0057730/[/url] [url]https://en.wikipedia.org/wiki/Jonny_Quest_%28TV_series%29#Episodes[/url]

Il mistero dei Templari - National Treasure (2004 Ita/Eng) + EXTRA [1080p] [iCV-MIRCrew]

Language: | Size: 11.02 GB | Seed: 1 | Leech: 1

Description:

Titolo originale: National Treasure Nazionalità: USA Anno: 2004 Genere: avventura, azione, commedia Regia: Jon Turteltaub Durata: 131 min Trama: Per sei generazioni la famiglia Gates ha inseguito ogni indizio lasciato dai Padri Fondatori americani e setacciato l'intero paese alla ricerca del leggendario tesoro dei Cavalieri Templari. Ora l'avventuriero Ben Gates ha compiuto un passo avanti...è riuscito a conoscere l'ubicazione dell'indizio definitivo del tesoro: un mappa nascosta sotto sul retro della Dichiarazione di Indipendenza... Report: http://freetexthost.com/copk0zmczg Extra: In questa versione sono compresi gli extra: 1 - Scene Eliminate 2 - La scena di apertura in versione Animatic 3 - Finale alternativo 4 - Cifre codici e decifratori 5 - L esplosione della Charlotte 6 - Rubare un tesoro nazionale 7 - Sul set di una storia americana 8 - Il Mistero dei Templari - le riprese 9 - I cacciatori del tesoro sono scoperti 10 - I cavalieri templari

Johnny Bravo 1995 Complete Series Pt.2 Burntodisc

Language: | Size: 15.63 GB | Seed: 3 | Leech: 5

Description:

The misadventures of a dumb blond egomanaic who is deluded about his own manliness. DISCS IN SET: 4 EPISODES: 65 plus bonus SIZE: DVD9 VIDEO CODEC: MPEG2 RESOLUTION: 720x576 ASPECT RATIO: PAL 4:3 FRAMERATE: 25fps AUDIO: English 192kb/s SUBTITLES: None MENU: Yes CHAPTERS: Yes DISC COVER: Yes [url]http://www.imdb.com/title/tt0118360/episodes?season=1[/url] [url]https://en.wikipedia.org/wiki/List_of_Johnny_Bravo_episodes[/url]

Johnny Bravo 1995 Complete Series Pt.1 Burntodisc

Language: | Size: 15.63 GB | Seed: 3 | Leech: 8

Description:

The misadventures of a dumb blond egomanaic who is deluded about his own manliness. DISCS IN SET: 4 EPISODES: 65 plus bonus SIZE: DVD9 VIDEO CODEC: MPEG2 RESOLUTION: 720x576 ASPECT RATIO: PAL 4:3 FRAMERATE: 25fps AUDIO: English 192kb/s SUBTITLES: None MENU: Yes CHAPTERS: Yes DISC COVER: Yes [url]http://www.imdb.com/title/tt0118360/episodes?season=1[/url] [url]https://en.wikipedia.org/wiki/List_of_Johnny_Bravo_episodes[/url]

Iron Man 1994 Animated Complete Series Burntodisc

Language: | Size: 15.46 GB | Seed: 971 | Leech: 28

Description:

Industrialist Tony Stark leads his private team of superheros as Iron Man against the forces of evil. DISCS..........: 2 EPISODES.......: 26 SIZE...........: DVD9 VIDEO CODEC....: MPEG2 RESOLUTION.....: 720x480 ASPECT RATIO...: NTSC 4:3 FRAMERATE......: 29.97fps AUDIO .........: English and Spanish 192kb/s SUBTITLES......: French and Spanish MENU...........: Yes CHAPTERS.......: Yes DISC COVER.....: Yes [url]http://www.imdb.com/title/tt0115218/?ref_=tt_ov_inf[/url] [url]https://en.wikipedia.org/wiki/Iron_Man_(TV_series)[/url]

Part-Time Friends - Fingers Crossed (2016) (by emi)

Language: | Size: 62.55 MB | Seed: 9 | Leech: 0

Description:

mp3 a 192 kbps audio di qualità a 95 db Tracklist 01 - All The Roads.mp3 (6.3 MB) 02 - Don't Give Up.mp3 (5.1 MB) 03 - Here We Are.mp3 (5.2 MB) 04 - Home.mp3 (5.1 MB) 05 - Johnny Johnny.mp3 (6.3 MB) 06 - Summertime Burns (feat. Dan Black).mp3 (5.3 MB) 07 - The Stain.mp3 (5.0 MB) 08 - Movies.mp3 (5.1 MB) 09 - La Mer Et L'Alaska.mp3 (4.9 MB) 10 - Keep On Walking.mp3 (4.0 MB) 11 - This City.mp3 (5.3 MB) 12 - Art Counter.mp3 (4.7 MB)

Cross Wars (2017).H264.Italian.English.Ac3.5.1.sub.ita.eng.iCV-MIRCrew

Language: | Size: 1.5 GB | Seed: 1 | Leech: 28

Description:

Cross Wars (2017).H264.Italian.English.Ac3.5.1.sub.ita.eng.iCV-MIRCrew [center] [color=red][b][img]http://s23.postimg.org/b9yhws27f/0sc_Del1.png[/img] [u]NO FOUND ONLY ORIGINAL RELEASE[/u] [img]http://i.imgur.com/GDNQx1Z.png[/img] My release is always in double track audio italian and Original audio for select it use VLC or dvd player home not use wmp Cross Wars (2017) [img]https://extraimage.net/images/2017/02/19/471daab27bcea70fd379ba33748d2669.png[/img] [URL=http://www.imdb.com/title/tt3592904/][IMG]http://www.userlogos.org/files/logos/Sucka/imdb_new.png[/IMG][/URL] [img]http://i.imgur.com/fGu1rKv.png[/img] Titolo originale Cross Wars Lingua originale inglese Paese di produzione Stati Uniti d'America Anno 2017 Durata 98 min Genere azione, fantascienza Regia Patrick Durham Sceneggiatura Patrick Durham Produttore Patrick Durham [img]http://i.imgur.com/W7kBqiE.png[/img] Brian Austin Green: Callan Danny Trejo: Lexavier Tom Sizemore: Detective Frank Nitti Vinnie Jones: Gunnar [img]http://i.imgur.com/bFK3ggF.png[/img] Callan ritorna sulla scena con la sua squadra allo scopo di contrastare il ritorno del malefico Gunnar; ci andrà di mezzo per forza di cose anche il poliziotto Frank Nitti detective in forza alla citta di Los Angeles. [img]http://i.imgur.com/48xHWWH.png[/img] Callan (Brian Austin Green) returns to the scene with his team in order to oppose the return of the evil Gunnar (Vinnie Jones); his path crosses again with Frank Nitti (Tom Sizemore) detective under the city of Los Angeles [img]http://i.imgur.com/K8bfNTy.png[/img] [url=https://extraimage.net/image/2Kde][img]https://extraimage.net/images/2017/02/19/546764a40d670b6019dc4977b720b1ce.th.png[/img][/url] [url=https://extraimage.net/image/2KdZ][img]https://extraimage.net/images/2017/02/19/f5cd20dc687b47085044e1a7363246d5.th.png[/img][/url] [url=https://extraimage.net/image/2Kd4][img]https://extraimage.net/images/2017/02/19/f65eface35ac5ac280b84bffc7f7d4ef.th.png[/img][/url] [img]http://i.imgur.com/aVrMohH.png[/img] [spoiler] General Unique ID : 282900291716605516694993761197996119830 (0xD4D49D435FA3F8EFEA58CA64FEB81716) Complete name : Cross Wars (2017).ita.eng.sub.ita.eng.iCV-MIRCrew.mkv Format : Matroska Format version : Version 2 File size : 1.50 GiB Duration : 1h 38mn Overall bit rate : 2 182 Kbps Movie name : VISIT www.icv-crew.org Encoded date : UTC 2017-02-14 18:23:05 Writing application : Lavf54.63.100 Writing library : Lavf54.63.100 COPYRIGHT : robbyrs Video ID : 1 Format : AVC Format/Info : Advanced Video Codec Format profile : [email protected] Format settings, CABAC : Yes Format settings, ReFrames : 2 frames Codec ID : V_MPEG4/ISO/AVC Duration : 1h 38mn Bit rate : 1 280 Kbps Width : 720 pixels Height : 384 pixels Display aspect ratio : 1.854 Original display aspect ratio : 1.853 Frame rate mode : Variable Frame rate : 23.976 fps Color space : YUV Chroma subsampling : 4:2:0 Bit depth : 8 bits Scan type : Progressive Bits/(Pixel*Frame) : 0.193 Stream size : 873 MiB (57%) Writing library : x264 core 130 r2273 Encoding settings : cabac=1 / ref=2 / deblock=1:0:0 / analyse=0x1:0x131 / me=hex / subme=7 / psy=1 / psy_rd=1.00:0.00 / mixed_ref=0 / me_range=16 / chroma_me=1 / trellis=1 / 8x8dct=0 / cqm=0 / deadzone=21,11 / fast_pskip=1 / chroma_qp_offset=-2 / threads=12 / lookahead_threads=2 / sliced_threads=0 / nr=0 / decimate=1 / interlaced=0 / bluray_compat=0 / constrained_intra=0 / bframes=3 / b_pyramid=0 / b_adapt=1 / b_bias=0 / direct=3 / weightb=1 / open_gop=0 / weightp=2 / keyint=230 / keyint_min=23 / scenecut=40 / intra_refresh=0 / rc_lookahead=40 / rc=2pass / mbtree=1 / bitrate=1280 / ratetol=1.0 / qcomp=0.60 / qpmin=10 / qpmax=69 / qpstep=4 / cplxblur=20.0 / qblur=0.5 / vbv_maxrate=24000 / vbv_bufsize=24000 / nal_hrd=none / ip_ratio=1.40 / aq=1:1.00 Language : Italian Default : Yes Forced : No DURATION : 01:38:14.847000000 NUMBER_OF_FRAMES : 141335 NUMBER_OF_BYTES : 10595577565 _STATISTICS_WRITING_APP : mkvmerge v8.7.0 ('All of the above') 64bit _STATISTICS_WRITING_DATE_UTC : 2017-02-10 14:27:37 _STATISTICS_TAGS : BPS DURATION NUMBER_OF_FRAMES NUMBER_OF_BYTES Audio #1 ID : 2 Format : AC-3 Format/Info : Audio Coding 3 Mode extension : CM (complete main) Codec ID : A_AC3 Duration : 1h 38mn Bit rate mode : Constant Bit rate : 448 Kbps Channel(s) : 6 channels Channel positions : Front: L C R, Side: L R, LFE Sampling rate : 48.0 KHz Bit depth : 16 bits Compression mode : Lossy Delay relative to video : 1mn 5s Stream size : 315 MiB (21%) Title : AC3 ITA Language : Italian Default : Yes Forced : No DURATION : 01:38:14.912000000 NUMBER_OF_FRAMES : 184216 NUMBER_OF_BYTES : 471592960 _STATISTICS_WRITING_APP : mkvmerge v8.7.0 ('All of the above') 64bit _STATISTICS_WRITING_DATE_UTC : 2017-02-10 14:27:37 _STATISTICS_TAGS : BPS DURATION NUMBER_OF_FRAMES NUMBER_OF_BYTES Audio #2 ID : 3 Format : AC-3 Format/Info : Audio Coding 3 Mode extension : CM (complete main) Codec ID : A_AC3 Duration : 1h 38mn Bit rate mode : Constant Bit rate : 448 Kbps Channel(s) : 6 channels Channel positions : Front: L C R, Side: L R, LFE Sampling rate : 48.0 KHz Bit depth : 16 bits Compression mode : Lossy Delay relative to video : 1mn 5s Stream size : 315 MiB (21%) Title : AC3 ENG Language : English Default : No Forced : No DURATION : 01:38:14.912000000 NUMBER_OF_FRAMES : 184216 NUMBER_OF_BYTES : 471592960 _STATISTICS_WRITING_APP : mkvmerge v8.7.0 ('All of the above') 64bit _STATISTICS_WRITING_DATE_UTC : 2017-02-10 14:27:37 _STATISTICS_TAGS : BPS DURATION NUMBER_OF_FRAMES NUMBER_OF_BYTES Text #1 ID : 4 Format : UTF-8 Codec ID : S_TEXT/UTF8 Codec ID/Info : UTF-8 Plain Text Title : FORCED Language : Italian Default : Yes Forced : No DURATION : 01:12:57.498000000 NUMBER_OF_FRAMES : 17 NUMBER_OF_BYTES : 483 _STATISTICS_WRITING_APP : mkvmerge v8.7.0 ('All of the above') 64bit _STATISTICS_WRITING_DATE_UTC : 2017-02-10 14:27:37 _STATISTICS_TAGS : BPS DURATION NUMBER_OF_FRAMES NUMBER_OF_BYTES Text #2 ID : 5 Format : UTF-8 Codec ID : S_TEXT/UTF8 Codec ID/Info : UTF-8 Plain Text Title : REGULAR Language : Italian Default : No Forced : No DURATION : 01:37:31.637000000 NUMBER_OF_FRAMES : 1330 NUMBER_OF_BYTES : 44674 _STATISTICS_WRITING_APP : mkvmerge v8.7.0 ('All of the above') 64bit _STATISTICS_WRITING_DATE_UTC : 2017-02-10 14:27:37 _STATISTICS_TAGS : BPS DURATION NUMBER_OF_FRAMES NUMBER_OF_BYTES Text #3 ID : 6 Format : UTF-8 Codec ID : S_TEXT/UTF8 Codec ID/Info : UTF-8 Plain Text Title : REGULAR Language : English Default : No Forced : No DURATION : 01:37:23.171000000 NUMBER_OF_FRAMES : 1310 NUMBER_OF_BYTES : 41330 _STATISTICS_WRITING_APP : mkvmerge v8.7.0 ('All of the above') 64bit _STATISTICS_WRITING_DATE_UTC : 2017-02-10 14:27:37 _STATISTICS_TAGS : BPS DURATION NUMBER_OF_FRAMES NUMBER_OF_BYTES Menu 00:00:00.000 : :00:00:00.000 00:05:20.529 : :00:05:20.529 00:13:17.714 : :00:13:17.714 00:19:28.376 : :00:19:28.376 00:27:18.554 : :00:27:18.554 00:36:47.497 : :00:36:47.497 00:42:52.570 : :00:42:52.570 00:48:13.682 : :00:48:13.682 00:55:09.515 : :00:55:09.515 01:00:26.414 : :01:00:26.414 01:06:06.296 : :01:06:06.296 01:11:04.677 : :01:11:04.677 01:14:51.320 : :01:14:51.320 01:19:50.828 : :01:19:50.828 01:25:02.055 : :01:25:02.055 01:32:19.033 : :01:32:19.033 [/spoiler] [/color][/b][/center]

Doctor Strange (2016).720p.H264.Italian.English.Ac3.5.1.sub.ita.eng.iCV-MIRCrew

Language: | Size: 3.43 GB | Seed: 6 | Leech: 172

Description:

Doctor Strange (2016).720p.H264.Italian.English.Ac3.5.1.sub.ita.eng.iCV-MIRCrew [center] [color=red][b][img]http://s23.postimg.org/b9yhws27f/0sc_Del1.png[/img] [u]NO FOUND ONLY ORIGINAL RELEASE[/u] [img]http://i.imgur.com/GDNQx1Z.png[/img] My release is always in double track audio italian and Original audio for select it use VLC or dvd player home not use wmp Doctor Strange (2016) [img]https://extraimage.net/images/2017/02/18/6ab50999a51f8453d651b80f3154d704.png[/img] [URL=http://www.imdb.com/title/tt1211837/][IMG]http://www.userlogos.org/files/logos/Sucka/imdb_new.png[/IMG][/URL] [img]http://i.imgur.com/fGu1rKv.png[/img] DATA USCITA: 26 ottobre 2016 GENERE: Avventura, Fantasy, Azione ANNO: 2016 REGIA: Scott Derrickson SCENEGGIATURA: Thomas Dean Donnelly, Joshua Oppenheimer, Jon Spaihts FOTOGRAFIA: Ben Davis MONTAGGIO: Wyatt Smith MUSICHE: Christopher Young PRODUZIONE: Marvel Studios DISTRIBUZIONE: Walt Disney Studios Motion Pictures PAESE: USA DURATA: 115 Min [img]http://i.imgur.com/W7kBqiE.png[/img] Benedict Cumberbatch, Rachel McAdams, Tilda Swinton, Mads Mikkelsen, Chiwetel Ejiofor, Michael Stuhlbarg, Benedict Wong, Benjamin Bratt, Scott Adkins [img]http://i.imgur.com/bFK3ggF.png[/img] Doctor Strange racconta la storia del neurochirurgo di fama mondiale Stephen Strange, la cui vita cambia per sempre dopo che un terribile incidente automobilistico lo priva dell’uso delle mani. Quando la medicina tradizionale si dimostra incapace di guarirlo, Strange è costretto cercare una cura in un luogo inaspettato: una misteriosa enclave nota come Kamar-Taj. Scoprirà presto che non si tratta soltanto di un luogo di guarigione ma della prima linea di una battaglia contro invisibili forze oscure decise a..................... [img]http://i.imgur.com/48xHWWH.png[/img] Marvel's "Doctor Strange" follows the story of the talented neurosurgeon Doctor Stephen Strange who, after a tragic car accident, must put ego aside and learn the secrets of a hidden world of mysticism and alternate dimensions. Based in New York City's Greenwich Village, Doctor Strange must act as an intermediary between the real world and what lies beyond, utilising a vast array of metaphysical abilities and artifacts to protect the Marvel Cinematic Universe. [img]http://i.imgur.com/K8bfNTy.png[/img] [url=https://extraimage.net/image/2Kdu][img]https://extraimage.net/images/2017/02/19/c7f882415f6bf688a431eb6c23ebfe52.th.png[/img][/url] [url=https://extraimage.net/image/2KdV][img]https://extraimage.net/images/2017/02/19/e5651dc93703fd38f72c72180190d721.th.png[/img][/url] [url=https://extraimage.net/image/2Kdv][img]https://extraimage.net/images/2017/02/19/dd102944dc3036bcabfe58361a7cad97.th.png[/img][/url] [url=https://extraimage.net/image/2KdA][img]https://extraimage.net/images/2017/02/19/f0a45b06dd9039cb6b57cbb97e0895b1.th.png[/img][/url] [img]http://i.imgur.com/aVrMohH.png[/img] [spoiler] Generale ID univoco : 211373727805697524236788858647509402455 (0x9F0519641B9DD0FFBEB74BE3477B0357) Nome completo : Doctor Strange (2016).720p.H264.ita.eng.sub.ita.eng.iCV-MIRCrew.mkv Formato : Matroska Versione formato : Version 2 Dimensione : 3,43 GiB Durata : 1o 54min Bitrate totale : 4.273 Kbps Film : VISIT www.icv-crew.org Data codifica : UTC 2017-02-19 01:59:26 / UTC 2017-02-19 01:59:26 Creato con : Lavf54.63.100 Compressore : Lavf54.63.100 / Lavf54.63.100 Video ID : 1 Formato : AVC Formato/Informazioni : Advanced Video Codec Profilo formato : [email protected] Impostazioni formato, CABAC : Si Impostazioni formato, ReFrames : 2 frame ID codec : V_MPEG4/ISO/AVC Durata : 1o 54min Bitrate : 3.500 Kbps Larghezza : 1.712 pixel Altezza : 720 pixel Rapporto aspetto visualizzazione : 2,40:1 Modalità frame rate : Costante Frame rate : 23,976 (24000/1001) fps Spazio colore : YUV Croma subsampling : 4:2:0 Profondità bit : 8 bit Tipo scansione : Progressivo Bit/(pixel*frame) : 0.118 Dimensione della traccia : 2,75 GiB (80%) Compressore : x264 core 130 r2273 Impostazioni compressione : cabac=1 / ref=2 / deblock=1:0:0 / analyse=0x1:0x131 / me=hex / subme=7 / psy=1 / psy_rd=1.00:0.00 / mixed_ref=0 / me_range=16 / chroma_me=1 / trellis=1 / 8x8dct=0 / cqm=0 / deadzone=21,11 / fast_pskip=1 / chroma_qp_offset=-2 / threads=12 / lookahead_threads=2 / sliced_threads=0 / nr=0 / decimate=1 / interlaced=0 / bluray_compat=0 / constrained_intra=0 / bframes=3 / b_pyramid=0 / b_adapt=1 / b_bias=0 / direct=3 / weightb=1 / open_gop=0 / weightp=2 / keyint=230 / keyint_min=23 / scenecut=40 / intra_refresh=0 / rc_lookahead=40 / rc=2pass / mbtree=1 / bitrate=3500 / ratetol=1.0 / qcomp=0.60 / qpmin=10 / qpmax=69 / qpstep=4 / cplxblur=20.0 / qblur=0.5 / vbv_maxrate=24000 / vbv_bufsize=24000 / nal_hrd=none / ip_ratio=1.40 / aq=1:1.00 Lingua : Italiano Default : Si Forced : No Statistics Tags Issue : mkvmerge v7.2.0 ('On Every Street') 32bit built on Sep 13 2014 15:42:11 2017-02-15 11:29:50 / Lavf54.63.100 2017-02-19 01:59:26 / UTC 2017-02-19 01:59:26 FromStats_BitRate : 8010636 FromStats_Duration : 01:54:58.559000000 FromStats_FrameCount : 165400 FromStats_StreamSize : 6907730801 Audio #1 ID : 2 Formato : AC-3 Formato/Informazioni : Audio Coding 3 Estensione modo : CM (complete main) Impostazioni formato, Endianness : Big ID codec : A_AC3 Durata : 1o 54min Modalità bitrate : Costante Bitrate : 384 Kbps Canali : 6 canali Posizione canali : Front: L C R, Side: L R, LFE Frequenza campionamento : 48,0 KHz Frame rate : 31,250 fps (1536 spf) Profondità bit : 16 bit Modo compressione : Con perdita Ritardo video : -5ms Dimensione della traccia : 316MiB (9%) Lingua : Italiano Default : Si Forced : Si Statistics Tags Issue : mkvmerge v7.2.0 ('On Every Street') 32bit built on Sep 13 2014 15:42:11 2017-02-15 11:29:50 / Lavf54.63.100 2017-02-19 01:59:26 / UTC 2017-02-19 01:59:26 FromStats_BitRate : 384000 FromStats_Duration : 01:54:58.464000000 FromStats_FrameCount : 215577 FromStats_StreamSize : 331126272 Audio #2 ID : 3 Formato : AC-3 Formato/Informazioni : Audio Coding 3 Estensione modo : CM (complete main) Impostazioni formato, Endianness : Big ID codec : A_AC3 Durata : 1o 54min Modalità bitrate : Costante Bitrate : 384 Kbps Canali : 6 canali Posizione canali : Front: L C R, Side: L R, LFE Frequenza campionamento : 48,0 KHz Frame rate : 31,250 fps (1536 spf) Profondità bit : 16 bit Modo compressione : Con perdita Ritardo video : -5ms Dimensione della traccia : 316MiB (9%) Lingua : Inglese Default : No Forced : No Statistics Tags Issue : mkvmerge v7.2.0 ('On Every Street') 32bit built on Sep 13 2014 15:42:11 2017-02-15 11:29:50 / Lavf54.63.100 2017-02-19 01:59:26 / UTC 2017-02-19 01:59:26 FromStats_BitRate : 640000 FromStats_Duration : 01:54:58.592000000 FromStats_FrameCount : 215581 FromStats_StreamSize : 551887360 Testo #1 ID : 4 Formato : UTF-8 ID codec : S_TEXT/UTF8 ID codec/Informazioni : UTF-8 Plain Text Titolo : FORCED iTA Lingua : Italiano Default : Si Forced : Si Statistics Tags Issue : mkvmerge v7.2.0 ('On Every Street') 32bit built on Sep 13 2014 15:42:11 2017-02-15 11:29:50 / Lavf54.63.100 2017-02-19 01:59:26 / UTC 2017-02-19 01:59:26 FromStats_BitRate : 55 FromStats_Duration : 00:00:03.336000000 FromStats_FrameCount : 1 FromStats_StreamSize : 23 Testo #2 ID : 5 Formato : UTF-8 ID codec : S_TEXT/UTF8 ID codec/Informazioni : UTF-8 Plain Text Titolo : REGULAR iTA Lingua : Italiano Default : No Forced : No Statistics Tags Issue : mkvmerge v7.2.0 ('On Every Street') 32bit built on Sep 13 2014 15:42:11 2017-02-15 11:29:50 / Lavf54.63.100 2017-02-19 01:59:26 / UTC 2017-02-19 01:59:26 FromStats_BitRate : 45 FromStats_Duration : 01:52:19.739000000 FromStats_FrameCount : 1278 FromStats_StreamSize : 38071 Testo #3 ID : 6 Formato : UTF-8 ID codec : S_TEXT/UTF8 ID codec/Informazioni : UTF-8 Plain Text Titolo : REGULAR ENG Lingua : Inglese Default : No Forced : No Statistics Tags Issue : mkvmerge v7.2.0 ('On Every Street') 32bit built on Sep 13 2014 15:42:11 2017-02-15 11:29:50 / Lavf54.63.100 2017-02-19 01:59:26 / UTC 2017-02-19 01:59:26 FromStats_BitRate : 43 FromStats_Duration : 01:52:14.186000000 FromStats_FrameCount : 1319 FromStats_StreamSize : 36953 Testo #4 ID : 7 Formato : UTF-8 ID codec : S_TEXT/UTF8 ID codec/Informazioni : UTF-8 Plain Text Titolo : NON UDENTI ENG Lingua : Inglese Default : No Forced : No Statistics Tags Issue : mkvmerge v7.2.0 ('On Every Street') 32bit built on Sep 13 2014 15:42:11 2017-02-15 11:29:50 / Lavf54.63.100 2017-02-19 01:59:26 / UTC 2017-02-19 01:59:26 FromStats_BitRate : 49 FromStats_Duration : 01:54:01.626000000 FromStats_FrameCount : 1584 FromStats_StreamSize : 42310 Menu 00:00:00.000 : :00:00:00.000 00:04:34.566 : :00:04:34.566 00:10:16.825 : :00:10:16.825 00:18:32.153 : :00:18:32.153 00:24:37.017 : :00:24:37.017 00:31:40.482 : :00:31:40.482 00:38:33.811 : :00:38:33.811 00:43:16.135 : :00:43:16.135 00:48:24.527 : :00:48:24.527 00:55:34.498 : :00:55:34.498 01:05:04.359 : :01:05:04.359 01:12:38.437 : :01:12:38.437 01:22:14.346 : :01:22:14.346 01:28:28.637 : :01:28:28.637 01:35:00.904 : :01:35:00.904 01:45:06.509 : :01:45:06.509 [/spoiler] [/color][/b][/center]

La principessa e il ranocchio - The Princess and the Frog (2009 Ita/Eng) [1080p] [iCV-MIRCrew]

Language: | Size: 7.97 GB | Seed: 5 | Leech: 25

Description:

Titolo originale: The Princess and the Frog Nazionalità: USA Anno: 2009 Genere: animazione, fantastico, commedia, musicale Regia: Ron Clements, John Musker Durata: 97 min Trama: Una storia d'amore ambientata sulle sponde del Mississipi, a New Orleans. Un principe, Naveen, arriva a New Orleans in cerca di jazz, ma capita nelle mani del cattivo Dr. Facilier, uno stregone voodoo che lo tramuta in una ranocchia. L'unico modo per tornare umano è quello di essere baciato da una principessa. La principessa di New Orleans è Tiana, la quale però è abbastanza riluttante a baciare anfibi. Quando alla fine si decide, anche lei viene tramutata in rana. In queste sembianze sono costretti a vivere nella palude, dove però incontreranno qualche simpatico personaggio, come l'alligatore Louis che suona la tromba (ha imparato seguendo le imbarcazioni che attraversano il fiume), e la lucciola Ray. La situazione sembra senza speranza, ma i nodi verranno al pettine durante le celebrazioni del carnevale... Report: http://freetexthost.com/gkhpnx33qg Extra: In questa versione sono compresi gli extra: Guarda il film con i Lavori in corso: una suggestiva versione del film son i soli tratti a matita dei disegnatori Disney! 1 - Scene eliminate 2 - Video musicale "A un passo dai miei sogni" interpretato da Martina 3 - Portare alla vita l'animazione 4 - Magia nella palude - Il Making of 5 - Il ritorno all'animazione disegnata a mano 6 - Il retaggio Disney 7 - La nuova principessa Disney 8 - La principessa e gli animatori 9 - Trucchi da cattivo 10 - Il ritorno al musical animato