Search Top Tags














Malwarebytes Anti-Malware 3.0.6.1458 Release Preview Premium-{Luci}

Language: | Size: 53 MB | Seed: 552 | Leech: 71

Description:

Malwarebytes Anti-Malware 3.0.6.1458 Release Preview Premium-{Luci}

Macrorit Partition Extender 1.1.0 Unlimited Edition (Install + Portable)-{Suzi}

Language: | Size: 15.71 MB | Seed: 992 | Leech: 85

Description:

Macrorit Partition Extender 1.1.0 Unlimited Edition (Install + Portable)-{Suzi}

Macrorit Disk Partition Expert 4.1.1 Unlimited Edition (Install + Portable)

Language: | Size: 19.25 MB | Seed: 436 | Leech: 71

Description:

Macrorit Disk Partition Expert 4.1.1 Unlimited Edition (Install + Portable)

Lectora Inspire v17.0 Build 10885 - Full Update

Language: | Size: 1.15 GB | Seed: 847 | Leech: 59

Description:

Lectora Inspire v17.0 Build 10885 - Full Update

L0phtCrack Password Auditor 7.0.14 (x86x64)-{Suzi}

Language: | Size: 147.33 MB | Seed: 925 | Leech: 24

Description:

L0phtCrack Password Auditor 7.0.14 (x86x64)-{Suzi}

JAM Software TreeSize Professional 6.3.6.1211 (Install + Portable)-{Suzi}

Language: | Size: 79.73 MB | Seed: 686 | Leech: 45

Description:

JAM Software TreeSize Professional 6.3.6.1211 (Install + Portable)-{Suzi}

IObit Uninstaller Pro 6.2.0.934 Multilingual + License Keys{Luci}

Language: | Size: 13.6 MB | Seed: 296 | Leech: 88

Description:

IObit Uninstaller Pro 6.2.0.934 Multilingual + License Keys{Luci}

Internet Download Manager 6.27 Build 2-{Luci}

Language: | Size: 10.6 MB | Seed: 134 | Leech: 68

Description:

Internet Download Manager 6.27 Build 2-{Luci}

IEInspector HTTP Analyzer Full Edition v7.6.1.481 - Full Update

Language: | Size: 9.65 MB | Seed: 212 | Leech: 13

Description:

IEInspector HTTP Analyzer Full Edition v7.6.1.481 - Full Update

Glary Utilities Pro 5.68.0.89 [Multilanguage] [Serial]-{Luci}

Language: | Size: 15.68 MB | Seed: 576 | Leech: 11

Description:

Glary Utilities Pro 5.68.0.89 [Multilanguage] [Serial]-{Luci}

Foxit PhantomPDF Business 8.2.0.2192 Multilingual + Patch{Luci}

Language: | Size: 482.12 MB | Seed: 165 | Leech: 13

Description:

Foxit PhantomPDF Business 8.2.0.2192 Multilingual + Patch{Luci}

FlipBuilder Flip Shopping Catalog 2.4.7.4 (Install + Portable) - Patch-{Suzi}

Language: | Size: 146.37 MB | Seed: 763 | Leech: 24

Description:

FlipBuilder Flip Shopping Catalog 2.4.7.4 (Install + Portable) - Patch-{Suzi}

FileMaker Pro 15 Advanced v15.0.3.305 - Full-Latest

Language: | Size: 683.02 MB | Seed: 998 | Leech: 66

Description:

FileMaker Pro 15 Advanced v15.0.3.305 - Full-Latest

FileMaker Pro 15 Advanced 15.0.3.305 Multilingual (x86x64) + Crack{Luci}

Language: | Size: 709.67 MB | Seed: 275 | Leech: 87

Description:

FileMaker Pro 15 Advanced 15.0.3.305 Multilingual (x86x64) + Crack{Luci}

DiskDigger 1.12.0.1873 x86-x64 (Natively portable)-{Suzi}

Language: | Size: 559.47 KB | Seed: 488 | Leech: 17

Description:

DiskDigger 1.12.0.1873 x86-x64 (Natively portable)-{Suzi}

Malwarebytes Anti-Malware 3.0.6.1469 Premium Repack KpoJIuK-{Rose}

Language: | Size: 53.73 MB | Seed: 131 | Leech: 47

Description:

Malwarebytes Anti-Malware 3.0.6.1469 Premium Repack KpoJIuK-{Rose}

Tina Turner - Tina! (2008) (by emi)

Language: | Size: 108.33 MB | Seed: 82 | Leech: 6

Description:

mp3 a 192 kbps audio di qualità a 95 db Tracklis 01 - Steamy Windows.mp3 (5.8 MB) 02 - River Deep-Mountain High.mp3 (5.2 MB) 03 - Better Be Good To Me.mp3 (7.3 MB) 04 - The Acid Queen.mp3 (5.4 MB) 05 - What You Get Is What You See.mp3 (6.3 MB) 06 - What's Love Got To Do With It.mp3 (5.4 MB) 07 - Private Dancer.mp3 (5.7 MB) 08 - We Don't Need Another Hero (Thunderdome).mp3 (6.0 MB) 09 - I Don't Wanna Fight.mp3 (6.2 MB) 10 - Goldeneye.mp3 (6.7 MB) 11 - Let's Stay Together (Live).mp3 (5.9 MB) 12 - I Can't Stand The Rain (Live).mp3 (4.8 MB) 13 - Addicted To Love (Live).mp3 (7.5 MB) 14 - The Best.mp3 (7.7 MB) 15 - Proud Mary.mp3 (7.6 MB) 16 - Nutbush City Limits.mp3 (4.2 MB) 17 - It Would Be A Crime.mp3 (4.9 MB) 18 - I'm Ready.mp3 (5.3 MB)

The Fourth Kind - Il quarto tipo (2009).H264.Italian.English.Ac3.5.1.sub.ita.eng.iCV-MIRCrew

Language: | Size: 1.4 GB | Seed: 686 | Leech: 7

Description:

The Fourth Kind - Il quarto tipo (2009).H264.Italian.English.Ac3.5.1.sub.ita.eng.iCV-MIRCrew [center] [color=red][b][img]http://s23.postimg.org/b9yhws27f/0sc_Del1.png[/img] [u]NO FOUND ONLY ORIGINAL RELEASE[/u] [img]http://i.imgur.com/GDNQx1Z.png[/img] My release is always in double track audio italian and Original audio for select it use VLC or dvd player home not use wmp Il quarto tipo - The Fourth Kind (2009) [img]https://extraimage.net/images/2017/04/23/a3df69db28c3ca85765dc9d89b4ff0fd.png[/img] [URL=http://www.imdb.com/title/tt1220198/][IMG]http://www.userlogos.org/files/logos/Sucka/imdb_new.png[/IMG][/URL] [img]http://i.imgur.com/fGu1rKv.png[/img] Titolo originale The Fourth Kind Lingua originale inglese Paese di produzione Stati Uniti Anno 2009 Durata 98 min Rapporto 2,35:1 Genere fantascienza, orrore, giallo Regia Olatunde Osunsanmi Soggetto Olatunde Osunsanmi Terry Robbins Sceneggiatura Olatunde Osunsanmi Produttore Paul Brooks, Joe Carnahan, Terry Robbins Casa di produzione Gold Circle Films, Dead Crow Productions, Chambara Pictures, Focus Films, Fourth Kind Productions, Universal Pictures Distribuzione (Italia) Warner Bros. Fotografia Lorenzo Senatore Montaggio Paul Covington Musiche Atli Örvarsson Scenografia Carlos Silva Da Silva [img]http://i.imgur.com/W7kBqiE.png[/img] Milla Jovovich: Dott.ssa Abigail Tyler (ricostruzione) Elias Koteas: Dott. Abel Campos Hakeem Kae-Kazim: Dott. Awolowa Odusami Will Patton: Sceriffo August Mia McKenna-Bruce: Ashley Tyler Raphaël Coleman: Ronnie Tyler Enzo Cilenti: Scott Stracinsky Alisha Seaton: Cindy Stracinski Corey Johnson: Tommy Fisher Tyne Rafaeli: Sarah Fisher Daphne Alexander: Theresa Charlotte Milchard: Dr. Abigail Tyler (intervista) Olatunde Osunsanmi: sé stesso [img]http://i.imgur.com/bFK3ggF.png[/img] Il regista (Osunsanmi) intervista la dottoressa Abigail Tyler. La dottoressa spiega come abbia provato su di sé gli effetti della regressione ipnotica grazie al suo amico dott. Abel Campos. Quest'ultimo si era offerto di ipnotizzarla per farle ricordare informazioni sull'identità dell'assassino del marito, ucciso proprio di fianco a lei nel letto durante la notte e senza che la dottoressa potesse muoversi (come ricorda, non riusciva nemmeno a girare la testa).................. [img]http://i.imgur.com/48xHWWH.png[/img] A thriller involving an ongoing unsolved mystery in Alaska, where one town has seen an extraordinary number of unexplained disappearances during the past 40 years and there are accusations of a federal cover up. [img]http://i.imgur.com/K8bfNTy.png[/img] [url=https://extraimage.net/image/NT8B][img]https://extraimage.net/images/2017/04/23/d54c1a2cdd5261fb96c12063675b0e9b.th.png[/img][/url] [url=https://extraimage.net/image/NT84][img]https://extraimage.net/images/2017/04/23/01c7ad8c882d4c6c3b13fdcad2f63b29.th.png[/img][/url] [url=https://extraimage.net/image/NT8C][img]https://extraimage.net/images/2017/04/23/7843916ce37d12434708420071afac73.th.png[/img][/url] [url=https://extraimage.net/image/NT8Y][img]https://extraimage.net/images/2017/04/23/9df60a6da1f46d8b7687d557c0fd8919.th.png[/img][/url] [url=https://extraimage.net/image/NT8p][img]https://extraimage.net/images/2017/04/23/796d56f5e32513f2aad976cb09aa67b7.th.png[/img][/url] [img]http://i.imgur.com/aVrMohH.png[/img] [spoiler] General Unique ID : 213563565472801865642142849167817198195 (0xA0AAD8B94C30E0EDB7AD21CC749C4A73) Complete name : Il quarto tipo - The Fourth Kind (2009).H264.ita.eng.iCV-MIRCrew.mkv Format : Matroska Format version : Version 2 File size : 1.40 GiB Duration : 1h 38mn Overall bit rate : 2 047 Kbps Movie name : Il quarto tipo Encoded date : UTC 2017-04-16T21:14:16Z Writing application : mkvmerge v5.4.0 ('Piper') built on Mar 10 2012 13:34:39 Writing library : Lavf55.12.0 Video ID : 1 Format : AVC Format/Info : Advanced Video Codec Format profile : [email protected] Format settings, CABAC : Yes Format settings, ReFrames : 4 frames Muxing mode : Header stripping Codec ID : V_MPEG4/ISO/AVC Duration : 1h 38mn Bit rate : 1 290 Kbps Width : 720 pixels Height : 306 pixels Display aspect ratio : 2.35:1 Frame rate mode : Variable / Variable Frame rate : 23.976 fps Color space : YUV Chroma subsampling : 4:2:0 Bit depth : 8 bits Scan type : Progressive Bits/(Pixel*Frame) : 0.244 Stream size : 868 MiB (60%) Title : Il quarto tipo - The Fourth Kind (2009).H264.ita.eng.iCV-MIRCrew Writing library : x264 core 142 r2479 dd79a61 Encoding settings : cabac=1 / ref=1 / deblock=1:0:0 / analyse=0x1:0x111 / me=hex / subme=2 / psy=1 / psy_rd=1.00:0.00 / mixed_ref=0 / me_range=16 / chroma_me=1 / trellis=0 / 8x8dct=0 / cqm=0 / deadzone=21,11 / fast_pskip=1 / chroma_qp_offset=0 / threads=12 / lookahead_threads=2 / sliced_threads=0 / nr=0 / decimate=1 / interlaced=0 / bluray_compat=0 / constrained_intra=0 / bframes=3 / b_pyramid=2 / b_adapt=1 / b_bias=0 / direct=1 / weightb=1 / open_gop=0 / weightp=1 / keyint=240 / keyint_min=24 / scenecut=40 / intra_refresh=0 / rc_lookahead=10 / rc=abr / mbtree=1 / bitrate=1290 / ratetol=1.0 / qcomp=0.60 / qpmin=0 / qpmax=69 / qpstep=4 / vbv_maxrate=20000 / vbv_bufsize=25000 / nal_hrd=none / filler=0 / ip_ratio=1.40 / aq=1:1.00 Default : Yes Forced : No Color primaries : BT.709-5, BT.1361, IEC 61966-2-4, SMPTE RP177 Transfer characteristics : BT.709-5, BT.1361 Matrix coefficients : BT.709-5, BT.1361, IEC 61966-2-4 709, SMPTE RP177 Audio #1 ID : 2 Format : AC-3 Format/Info : Audio Coding 3 Mode extension : CM (complete main) Muxing mode : Header stripping Codec ID : A_AC3 Duration : 1h 38mn Bit rate mode : Constant Bit rate : 384 Kbps Channel(s) : 6 channels Channel positions : Front: L C R, Side: L R, LFE Sampling rate : 48.0 KHz Bit depth : 16 bits Compression mode : Lossy Delay relative to video : -5ms Stream size : 269 MiB (19%) Title : Surround Language : Italian Default : Yes Forced : No Audio #2 ID : 3 Format : AC-3 Format/Info : Audio Coding 3 Mode extension : CM (complete main) Muxing mode : Header stripping Codec ID : A_AC3 Duration : 1h 38mn Bit rate mode : Constant Bit rate : 384 Kbps Channel(s) : 6 channels Channel positions : Front: L C R, Side: L R, LFE Sampling rate : 48.0 KHz Bit depth : 16 bits Compression mode : Lossy Delay relative to video : -5ms Stream size : 269 MiB (19%) Title : Surround Language : English Default : No Forced : No Text ID : 4 Format : ASS Codec ID : S_TEXT/ASS Codec ID/Info : Advanced Sub Station Alpha Compression mode : Lossless Language : Italian Default : No Forced : No Menu 00:00:00.000 : :00:00:00.000 00:01:42.771 : :00:01:42.227 00:08:16.874 : :00:08:16.705 00:13:53.335 : :00:13:53.207 00:19:54.904 : :00:19:54.777 00:24:25.508 : :00:24:25.297 00:28:33.047 : :00:28:32.961 00:33:37.601 : :00:33:37.474 00:36:56.883 : :00:36:56.756 00:43:03.833 : :00:43:03.498 00:47:29.849 : :00:47:29.680 00:52:42.703 : :00:52:42.576 00:56:45.571 : :00:56:45.444 01:01:00.909 : :01:01:00.782 01:05:16.581 : :01:05:16.454 01:09:48.520 : :01:09:48.351 01:14:15.370 : :01:14:15.242 01:20:38.586 : :01:20:38.375 01:27:30.664 : :01:27:30.537 01:32:21.622 : :01:32:21.369 [/spoiler] [/color][/b][/center]

The Loft (2014) H264 ita eng sub ita iCV-MIRCrew

Language: | Size: 1.56 GB | Seed: 260 | Leech: 41

Description:

The Loft (2014).H264.Italian.English.Ac3.5.1.sub.ita.iCV-MIRCrew [center] [color=red][b][img]http://s23.postimg.org/b9yhws27f/0sc_Del1.png[/img] [u]NO FOUND ONLY ORIGINAL RELEASE[/u] [img]http://i.imgur.com/GDNQx1Z.png[/img] My release is always in double track audio italian and Original audio for select it use VLC or dvd player home not use wmp The Loft (2014) PRESENTI ANCHE i SOTTOTITOLI ESTERNI IN SRT (ita/eng) [img]https://extraimage.net/images/2017/04/23/30b5061e6853d0d0d4c332813298e6a6.png[/img] [URL=http://www.imdb.com/title/tt1850397/][IMG]http://www.userlogos.org/files/logos/Sucka/imdb_new.png[/IMG][/URL] [img]http://i.imgur.com/fGu1rKv.png[/img] Titolo originale The Loft Lingua originale inglese Paese di produzione Stati Uniti d'America, Belgio Anno 2014 Durata 103 min Rapporto 2,35:1 Genere thriller, drammatico, erotico Regia Erik Van Looy Soggetto Erik Van Looy, Bart De Pauw Sceneggiatura Bart De Pauw, Wesley Strick Produttore Hilde De Laere, Matt DeRoss, Steve Golin, Paul Green, Adam Shulman Casa di produzione Anonymous Content, Woestijnvis Distribuzione (Italia) Open Road Films, Kinepolis Film Distribution Musiche John Frizzell [img]http://i.imgur.com/W7kBqiE.png[/img] Karl Urban: Vincet Stevens Wentworth Miller: Luke Seacord James Marsden: Chris Vanowen Eric Stonestreet: Marty Landry Matthias Schoenaerts: Phillips Williams Rachael Taylor: Ann Morris Isabel Lucas: Sarah Deakins Rhona Mitra: Allison Vanowen Valerie Cruz: Barbara Stevens Elaine Cassidy: Ellie Seacord Kali Rocha: Mimi Landry Margarita Levieva: Vicky Fry Dora Madison: Zoe Trauner Kristin Lehman: Detective Huggins Robert Wisdom: Detective Cohagan Ric Reitz: Joel Kotkin Graham Beckel: Hirman Fry Kathy Deitch: Dana [img]http://i.imgur.com/bFK3ggF.png[/img] Cinque uomini sposati condividono la proprietà di un loft esclusivo, che usano in segreto per soddisfare i propri desideri sessuali con diverse amanti occasionali. Ma quando il corpo di una donna assassinata viene trovato proprio in quel loft, i cinque iniziano a sospettare uno dell'altro in quanto sono gli unici a possedere le chiavi per entrare nel locale.............. [img]http://i.imgur.com/48xHWWH.png[/img] Five married guys conspire to secretly share a penthouse loft in the city--a place where they can carry out hidden affairs and indulge in their deepest fantasies. But the fantasy becomes a nightmare when they discover the dead body of an unknown woman in the loft, and they realize one of the group must be involved. [img]http://i.imgur.com/K8bfNTy.png[/img] [url=https://extraimage.net/image/NNfD][img]https://extraimage.net/images/2017/04/23/b1161f933f6d65ebb13ee2e1903f6d24.th.png[/img][/url] [url=https://extraimage.net/image/NNf5][img]https://extraimage.net/images/2017/04/23/9667ee59090f47ec7195583985154d28.th.png[/img][/url] [url=https://extraimage.net/image/NNfF][img]https://extraimage.net/images/2017/04/23/a66b5a06d10ba23a475b439848777502.th.png[/img][/url] [url=https://extraimage.net/image/NNfH][img]https://extraimage.net/images/2017/04/23/f9e78793fd5a75d994a7084b1ce84794.th.png[/img][/url] [img]http://i.imgur.com/aVrMohH.png[/img] [spoiler] General Unique ID : 270794575492387827460597170203496929880 (0xCBB9235F3AD6757B4B04FD7BD371DA58) Complete name : The Loft (2014).H264.ita.eng.sub.ita.iCV-MIRCrew.mkv Format : Matroska Format version : Version 2 File size : 1.56 GiB Duration : 1h 42mn Overall bit rate : 2 181 Kbps Movie name : www.icv-crew.org Encoded date : UTC 2017-04-20 16:32:59 Writing application : Lavf54.63.100 Writing library : Lavf54.63.100 COPYRIGHT : robbyrs Video ID : 1 Format : AVC Format/Info : Advanced Video Codec Format profile : [email protected] Format settings, CABAC : Yes Format settings, ReFrames : 2 frames Codec ID : V_MPEG4/ISO/AVC Duration : 1h 42mn Bit rate : 1 290 Kbps Width : 720 pixels Height : 300 pixels Display aspect ratio : 2.40:1 Frame rate mode : Variable Frame rate : 24.000 fps Color space : YUV Chroma subsampling : 4:2:0 Bit depth : 8 bits Scan type : Progressive Bits/(Pixel*Frame) : 0.249 Stream size : 911 MiB (57%) Writing library : x264 core 130 r2273 Encoding settings : cabac=1 / ref=2 / deblock=1:0:0 / analyse=0x1:0x131 / me=hex / subme=7 / psy=1 / psy_rd=1.00:0.00 / mixed_ref=0 / me_range=16 / chroma_me=1 / trellis=1 / 8x8dct=0 / cqm=0 / deadzone=21,11 / fast_pskip=1 / chroma_qp_offset=-2 / threads=12 / lookahead_threads=2 / sliced_threads=0 / nr=0 / decimate=1 / interlaced=0 / bluray_compat=0 / constrained_intra=0 / bframes=3 / b_pyramid=0 / b_adapt=1 / b_bias=0 / direct=3 / weightb=1 / open_gop=0 / weightp=2 / keyint=240 / keyint_min=24 / scenecut=40 / intra_refresh=0 / rc_lookahead=40 / rc=abr / mbtree=1 / bitrate=1290 / ratetol=1.0 / qcomp=0.60 / qpmin=10 / qpmax=69 / qpstep=4 / vbv_maxrate=24000 / vbv_bufsize=24000 / nal_hrd=none / ip_ratio=1.40 / aq=1:1.00 Language : Italian Default : Yes Forced : No DURATION : 01:42:33.167000000 NUMBER_OF_FRAMES : 147676 NUMBER_OF_BYTES : 7537132180 _STATISTICS_WRITING_APP : mkvmerge v10.0.0 ('To Drown In You') 32bit _STATISTICS_WRITING_DATE_UTC : 2017-04-19 13:11:27 _STATISTICS_TAGS : BPS DURATION NUMBER_OF_FRAMES NUMBER_OF_BYTES Audio #1 ID : 2 Format : AC-3 Format/Info : Audio Coding 3 Mode extension : CM (complete main) Codec ID : A_AC3 Duration : 1h 42mn Bit rate mode : Constant Bit rate : 448 Kbps Channel(s) : 6 channels Channel positions : Front: L C R, Side: L R, LFE Sampling rate : 48.0 KHz Bit depth : 16 bits Compression mode : Lossy Delay relative to video : 1mn 5s Stream size : 329 MiB (21%) Language : Italian Default : No Forced : No DURATION : 01:42:33.184000000 NUMBER_OF_FRAMES : 192287 NUMBER_OF_BYTES : 492254720 _STATISTICS_WRITING_APP : mkvmerge v10.0.0 ('To Drown In You') 32bit _STATISTICS_WRITING_DATE_UTC : 2017-04-19 13:11:27 _STATISTICS_TAGS : BPS DURATION NUMBER_OF_FRAMES NUMBER_OF_BYTES Audio #2 ID : 3 Format : AC-3 Format/Info : Audio Coding 3 Mode extension : CM (complete main) Codec ID : A_AC3 Duration : 1h 42mn Bit rate mode : Constant Bit rate : 448 Kbps Channel(s) : 6 channels Channel positions : Front: L C R, Side: L R, LFE Sampling rate : 48.0 KHz Bit depth : 16 bits Compression mode : Lossy Delay relative to video : 1mn 5s Stream size : 329 MiB (21%) Language : English Default : No Forced : No DURATION : 01:42:33.152000000 NUMBER_OF_FRAMES : 576858 NUMBER_OF_BYTES : 1160638364 _STATISTICS_WRITING_APP : mkvmerge v10.0.0 ('To Drown In You') 32bit _STATISTICS_WRITING_DATE_UTC : 2017-04-19 13:11:27 _STATISTICS_TAGS : BPS DURATION NUMBER_OF_FRAMES NUMBER_OF_BYTES Text #1 ID : 4 Format : ASS Codec ID : S_TEXT/ASS Codec ID/Info : Advanced Sub Station Alpha Compression mode : Lossless Title : Sub. Ita. Forced Language : Italian Default : Yes Forced : Yes DURATION : 01:25:15.667000000 NUMBER_OF_FRAMES : 4 NUMBER_OF_BYTES : 64 _STATISTICS_WRITING_APP : mkvmerge v10.0.0 ('To Drown In You') 32bit _STATISTICS_WRITING_DATE_UTC : 2017-04-19 13:11:27 _STATISTICS_TAGS : BPS DURATION NUMBER_OF_FRAMES NUMBER_OF_BYTES Text #2 ID : 5 Format : ASS Codec ID : S_TEXT/ASS Codec ID/Info : Advanced Sub Station Alpha Compression mode : Lossless Title : Sub. Ita. Language : Italian Default : No Forced : No DURATION : 01:35:38.166000000 NUMBER_OF_FRAMES : 1344 NUMBER_OF_BYTES : 54192 _STATISTICS_WRITING_APP : mkvmerge v10.0.0 ('To Drown In You') 32bit _STATISTICS_WRITING_DATE_UTC : 2017-04-19 13:11:27 _STATISTICS_TAGS : BPS DURATION NUMBER_OF_FRAMES NUMBER_OF_BYTES Menu 00:00:00.000 : :00:00:00.000 00:04:05.333 : :00:04:05.333 00:08:07.167 : :00:08:07.167 00:13:03.000 : :00:13:03.000 00:18:20.292 : :00:18:20.292 00:22:44.167 : :00:22:44.167 00:26:55.042 : :00:26:55.042 00:31:37.750 : :00:31:37.750 00:37:45.083 : :00:37:45.083 00:41:52.458 : :00:41:52.458 00:46:26.292 : :00:46:26.292 00:51:42.542 : :00:51:42.542 00:57:06.500 : :00:57:06.500 01:01:13.917 : :01:01:13.917 01:06:14.333 : :01:06:14.333 01:11:09.500 : :01:11:09.500 01:15:40.167 : :01:15:40.167 01:21:02.958 : :01:21:02.958 01:29:41.125 : :01:29:41.125 01:37:15.625 : :01:37:15.625 [/spoiler] [/color][/b][/center]

Partisan (2015).H264.Italian.French.Ac3.5.1.sub.ita.eng.fre.iCV-MIRCrew

Language: | Size: 1.5 GB | Seed: 238 | Leech: 80

Description:

Partisan (2015).H264.Italian.French.Ac3.5.1.sub.ita.eng.fre.iCV-MIRCrew [center] [color=red][b][img]http://s23.postimg.org/b9yhws27f/0sc_Del1.png[/img] [u]NO FOUND ONLY ORIGINAL RELEASE[/u] [img]http://i.imgur.com/GDNQx1Z.png[/img] My release is always in double track audio italian and Original audio for select it use VLC or dvd player home not use wmp Partisan (2015) ENGLISH SUBTITLE INSIDE [img]https://extraimage.net/images/2017/04/23/1a7ff5f1fa8c70deb24a6c19714b01ae.png[/img] [URL=http://www.imdb.com/title/tt3155242/][IMG]http://www.userlogos.org/files/logos/Sucka/imdb_new.png[/IMG][/URL] [img]http://i.imgur.com/fGu1rKv.png[/img] DATA USCITA: 27 agosto 2015 GENERE: Drammatico, Thriller ANNO: 2015 REGIA: Ariel Kleiman SCENEGGIATURA: Ariel Kleiman, Sarah Cyngler FOTOGRAFIA: Germain McMicking MONTAGGIO: Chris Wyatt, Jack Hutchings MUSICHE: Daniel Lopatin PRODUZIONE: Animal Kingdom, Warp Films Australia DISTRIBUZIONE: I Wonder Pictures PAESE: Australia DURATA: 98 Min [img]http://i.imgur.com/W7kBqiE.png[/img] Vincent Cassel, Jeremy Chabriel, Nigel Barber, Florence Mezzara [img]http://i.imgur.com/bFK3ggF.png[/img] Gregori (Vincent Cassel) è il leader carismatico di un gruppo di donne e bambini maltrattati, il loro protettore e il loro mentore. Tra le attività ordinarie e quotidiane che insegna ai bambini, c'è anche l'omicidio................... [img]http://i.imgur.com/48xHWWH.png[/img] Alexander, a boy who has been raised in a sequestered commune, finds that his increasing unwillingness to fall in line puts him on a collision course with Gregori, the society's charismatic and domineering leader. [img]http://i.imgur.com/K8bfNTy.png[/img] [url=https://extraimage.net/image/NNAV][img]https://extraimage.net/images/2017/04/23/fca567fce82058844a0e4ac48fb8d3ba.th.png[/img][/url] [url=https://extraimage.net/image/NNA6][img]https://extraimage.net/images/2017/04/23/0eca00d2bd5f6b35eeb2d60ce8ec5b0e.th.png[/img][/url] [url=https://extraimage.net/image/NNAu][img]https://extraimage.net/images/2017/04/23/adf6bcd3433ac730a70de5f2c5fb34b3.th.png[/img][/url] [img]http://i.imgur.com/aVrMohH.png[/img] [spoiler] General Unique ID : 144790918430558681973398853870895739844 (0x6CEDB76FB1D0FEB98D9E53CC08BBB3C4) Complete name : Partisan (2015).H264.ita.fre.sub.ita.eng.fre.iCV-MIRCrew.mkv Format : Matroska Format version : Version 2 File size : 1.50 GiB Duration : 1h 37mn Overall bit rate : 2 186 Kbps Movie name : www.icv-crew.org Encoded date : UTC 2017-04-22 21:10:14 Writing application : Lavf54.63.100 Writing library : Lavf54.63.100 COPYRIGHT : robbyrs Video ID : 1 Format : AVC Format/Info : Advanced Video Codec Format profile : [email protected] Format settings, CABAC : Yes Format settings, ReFrames : 2 frames Codec ID : V_MPEG4/ISO/AVC Duration : 1h 37mn Bit rate : 1 290 Kbps Width : 720 pixels Height : 300 pixels Display aspect ratio : 2.40:1 Frame rate mode : Variable Frame rate : 24.000 fps Color space : YUV Chroma subsampling : 4:2:0 Bit depth : 8 bits Scan type : Progressive Bits/(Pixel*Frame) : 0.249 Stream size : 873 MiB (57%) Writing library : x264 core 130 r2273 Encoding settings : cabac=1 / ref=2 / deblock=1:0:0 / analyse=0x1:0x131 / me=hex / subme=7 / psy=1 / psy_rd=1.00:0.00 / mixed_ref=0 / me_range=16 / chroma_me=1 / trellis=1 / 8x8dct=0 / cqm=0 / deadzone=21,11 / fast_pskip=1 / chroma_qp_offset=-2 / threads=12 / lookahead_threads=2 / sliced_threads=0 / nr=0 / decimate=1 / interlaced=0 / bluray_compat=0 / constrained_intra=0 / bframes=3 / b_pyramid=0 / b_adapt=1 / b_bias=0 / direct=3 / weightb=1 / open_gop=0 / weightp=2 / keyint=240 / keyint_min=24 / scenecut=40 / intra_refresh=0 / rc_lookahead=40 / rc=abr / mbtree=1 / bitrate=1290 / ratetol=1.0 / qcomp=0.60 / qpmin=10 / qpmax=69 / qpstep=4 / vbv_maxrate=24000 / vbv_bufsize=24000 / nal_hrd=none / ip_ratio=1.40 / aq=1:1.00 Language : Italian Default : Yes Forced : No DURATION : 01:37:56.411000000 NUMBER_OF_FRAMES : 141034 NUMBER_OF_BYTES : 7173159658 _STATISTICS_WRITING_APP : mkvmerge v8.7.0 ('All of the above') 64bit _STATISTICS_WRITING_DATE_UTC : 2017-04-16 07:04:04 _STATISTICS_TAGS : BPS DURATION NUMBER_OF_FRAMES NUMBER_OF_BYTES Audio #1 ID : 2 Format : AC-3 Format/Info : Audio Coding 3 Mode extension : CM (complete main) Codec ID : A_AC3 Duration : 1h 37mn Bit rate mode : Constant Bit rate : 448 Kbps Channel(s) : 6 channels Channel positions : Front: L C R, Side: L R, LFE Sampling rate : 48.0 KHz Bit depth : 16 bits Compression mode : Lossy Delay relative to video : 1mn 5s Stream size : 314 MiB (20%) Title : AC3 ITA Language : Italian Default : No Forced : No DURATION : 01:37:56.224000000 NUMBER_OF_FRAMES : 183632 NUMBER_OF_BYTES : 470097920 _STATISTICS_WRITING_APP : mkvmerge v8.7.0 ('All of the above') 64bit _STATISTICS_WRITING_DATE_UTC : 2017-04-16 07:04:04 _STATISTICS_TAGS : BPS DURATION NUMBER_OF_FRAMES NUMBER_OF_BYTES Audio #2 ID : 3 Format : AC-3 Format/Info : Audio Coding 3 Mode extension : CM (complete main) Codec ID : A_AC3 Duration : 1h 37mn Bit rate mode : Constant Bit rate : 448 Kbps Channel(s) : 6 channels Channel positions : Front: L C R, Side: L R, LFE Sampling rate : 48.0 KHz Bit depth : 16 bits Compression mode : Lossy Delay relative to video : 1mn 5s Stream size : 314 MiB (20%) Title : AC3 ENG Language : English Default : No Forced : No DURATION : 01:37:56.224000000 NUMBER_OF_FRAMES : 183632 NUMBER_OF_BYTES : 470097920 _STATISTICS_WRITING_APP : mkvmerge v8.7.0 ('All of the above') 64bit _STATISTICS_WRITING_DATE_UTC : 2017-04-16 07:04:04 _STATISTICS_TAGS : BPS DURATION NUMBER_OF_FRAMES NUMBER_OF_BYTES Text #1 ID : 4 Format : ASS Codec ID : S_TEXT/ASS Codec ID/Info : Advanced Sub Station Alpha Compression mode : Lossless Title : REGULAR Language : Italian Default : No Forced : No DURATION : 01:27:41.541000000 NUMBER_OF_FRAMES : 582 NUMBER_OF_BYTES : 17994 _STATISTICS_WRITING_APP : mkvmerge v8.7.0 ('All of the above') 64bit _STATISTICS_WRITING_DATE_UTC : 2017-04-16 07:04:04 _STATISTICS_TAGS : BPS DURATION NUMBER_OF_FRAMES NUMBER_OF_BYTES Text #2 ID : 5 Format : ASS Codec ID : S_TEXT/ASS Codec ID/Info : Advanced Sub Station Alpha Compression mode : Lossless Title : REGULAR Language : French Default : No Forced : No DURATION : 01:33:09.369000000 NUMBER_OF_FRAMES : 661 NUMBER_OF_BYTES : 16490 _STATISTICS_WRITING_APP : mkvmerge v8.7.0 ('All of the above') 64bit _STATISTICS_WRITING_DATE_UTC : 2017-04-16 07:04:04 _STATISTICS_TAGS : BPS DURATION NUMBER_OF_FRAMES NUMBER_OF_BYTES Menu 00:00:00.000 : :00:00:00.000 00:07:05.342 : :00:07:05.342 00:14:28.201 : :00:14:28.201 00:20:13.838 : :00:20:13.838 00:29:27.099 : :00:29:27.099 00:39:02.590 : :00:39:02.590 00:50:56.804 : :00:50:56.804 00:59:52.756 : :00:59:52.756 01:08:53.129 : :01:08:53.129 01:16:19.950 : :01:16:19.950 01:25:27.706 : :01:25:27.706 01:35:23.259 : :01:35:23.259 [/spoiler] [/color][/b][/center]

Visions (2015).H264.Italian.English.Ac3.5.1.sub.ita.eng.iCV-MIRCrew

Language: | Size: 1.25 GB | Seed: 322 | Leech: 15

Description:

Visions (2015).H264.Italian.English.Ac3.5.1.sub.ita.eng.iCV-MIRCrew [center] [color=red][b][img]http://s23.postimg.org/b9yhws27f/0sc_Del1.png[/img] [u]NO FOUND ONLY ORIGINAL RELEASE[/u] [img]http://i.imgur.com/GDNQx1Z.png[/img] My release is always in double track audio italian and Original audio for select it use VLC or dvd player home not use wmp Visions (2015) PRESENTI ANCHE iSOTTOTITOLI ESTERNI IN SRT (ita/eng) [img]https://extraimage.net/images/2017/04/22/8f2c36d7478a66da2ab45f4bac5d0ad7.png[/img] [URL=http://www.imdb.com/title/tt2954474/][IMG]http://www.userlogos.org/files/logos/Sucka/imdb_new.png[/IMG][/URL] [img]http://i.imgur.com/fGu1rKv.png[/img] Titolo Originale: VISIONS Regia: Kevin Greutert Interpreti: Isla Fisher, Jim Parsons, Anson Mount, Eva Longoria, Gillian Jacobs, Joanna Cassidy Durata: h 1.22 Nazionalità: Usa 2015 Genere: horror [img]http://i.imgur.com/W7kBqiE.png[/img] Naomi Watts, Jacob Tremblay, Oliver Platt, Charlie Heaton, David Cubitt, Tim Post, Crystal Balint, Clémentine Poidatz [img]http://i.imgur.com/bFK3ggF.png[/img] Dopo essersi trasferita in un vigneto per iniziare una nuova vita con il marito, una donna incinta inizia ad avere visioni terrificanti. [img]http://i.imgur.com/48xHWWH.png[/img] After moving to a vineyard to start a new life with her husband, a pregnant woman begins to experience terrifying visions. [img]http://i.imgur.com/K8bfNTy.png[/img] [url=https://extraimage.net/image/NNeH][img]https://extraimage.net/images/2017/04/22/099c1473ac8501b67c95ca7af0951c0e.th.png[/img][/url] [url=https://extraimage.net/image/NNeF][img]https://extraimage.net/images/2017/04/22/67a4d32f287120421c40bd60d355aab4.th.png[/img][/url] [url=https://extraimage.net/image/NNek][img]https://extraimage.net/images/2017/04/22/ae26996fd7ac8a194c08a0dbbebbbd0c.th.png[/img][/url] [url=https://extraimage.net/image/NNeo][img]https://extraimage.net/images/2017/04/22/0c814956c16f7cd92d1a258fee86323c.th.png[/img][/url] [img]http://i.imgur.com/aVrMohH.png[/img] [spoiler] General Unique ID : 16923386003055522385337650427681854433 (0xCBB5359A0DECD3B7BEA1DF3E6E053E1) Complete name : Visions (2015).H264.ita.eng.sub.ita.iCV-MIRCrew.mkv Format : Matroska Format version : Version 2 File size : 1.25 GiB Duration : 1h 22mn Overall bit rate : 2 179 Kbps Movie name : www.icv-crew.org Encoded date : UTC 2017-04-21 17:53:21 Writing application : Lavf54.63.100 Writing library : Lavf54.63.100 COPYRIGHT : robbyrs Video ID : 1 Format : AVC Format/Info : Advanced Video Codec Format profile : [email protected] Format settings, CABAC : Yes Format settings, ReFrames : 2 frames Codec ID : V_MPEG4/ISO/AVC Duration : 1h 22mn Bit rate : 1 290 Kbps Width : 720 pixels Height : 300 pixels Display aspect ratio : 2.40:1 Frame rate mode : Variable Frame rate : 23.976 fps Color space : YUV Chroma subsampling : 4:2:0 Bit depth : 8 bits Scan type : Progressive Bits/(Pixel*Frame) : 0.249 Stream size : 731 MiB (57%) Writing library : x264 core 130 r2273 Encoding settings : cabac=1 / ref=2 / deblock=1:0:0 / analyse=0x1:0x131 / me=hex / subme=7 / psy=1 / psy_rd=1.00:0.00 / mixed_ref=0 / me_range=16 / chroma_me=1 / trellis=1 / 8x8dct=0 / cqm=0 / deadzone=21,11 / fast_pskip=1 / chroma_qp_offset=-2 / threads=12 / lookahead_threads=2 / sliced_threads=0 / nr=0 / decimate=1 / interlaced=0 / bluray_compat=0 / constrained_intra=0 / bframes=3 / b_pyramid=0 / b_adapt=1 / b_bias=0 / direct=3 / weightb=1 / open_gop=0 / weightp=2 / keyint=230 / keyint_min=23 / scenecut=40 / intra_refresh=0 / rc_lookahead=40 / rc=abr / mbtree=1 / bitrate=1290 / ratetol=1.0 / qcomp=0.60 / qpmin=10 / qpmax=69 / qpstep=4 / vbv_maxrate=24000 / vbv_bufsize=24000 / nal_hrd=none / ip_ratio=1.40 / aq=1:1.00 Language : Italian Default : Yes Forced : No DURATION : 01:22:25.691000000 NUMBER_OF_FRAMES : 118578 NUMBER_OF_BYTES : 5467719702 _STATISTICS_WRITING_APP : mkvmerge v8.7.0 ('All of the above') 64bit _STATISTICS_WRITING_DATE_UTC : 2017-04-18 06:44:03 _STATISTICS_TAGS : BPS DURATION NUMBER_OF_FRAMES NUMBER_OF_BYTES Audio #1 ID : 2 Format : AC-3 Format/Info : Audio Coding 3 Mode extension : CM (complete main) Codec ID : A_AC3 Duration : 1h 22mn Bit rate mode : Constant Bit rate : 448 Kbps Channel(s) : 6 channels Channel positions : Front: L C R, Side: L R, LFE Sampling rate : 48.0 KHz Bit depth : 16 bits Compression mode : Lossy Delay relative to video : 1mn 5s Stream size : 264 MiB (21%) Title : AC3 ITA Language : Italian Default : Yes Forced : No DURATION : 01:22:25.760000000 NUMBER_OF_FRAMES : 154555 NUMBER_OF_BYTES : 276962560 _STATISTICS_WRITING_APP : mkvmerge v8.7.0 ('All of the above') 64bit _STATISTICS_WRITING_DATE_UTC : 2017-04-18 06:44:03 _STATISTICS_TAGS : BPS DURATION NUMBER_OF_FRAMES NUMBER_OF_BYTES Audio #2 ID : 3 Format : AC-3 Format/Info : Audio Coding 3 Mode extension : CM (complete main) Codec ID : A_AC3 Duration : 1h 22mn Bit rate mode : Constant Bit rate : 448 Kbps Channel(s) : 6 channels Channel positions : Front: L C R, Side: L R, LFE Sampling rate : 48.0 KHz Bit depth : 16 bits Compression mode : Lossy Delay relative to video : 1mn 5s Stream size : 264 MiB (21%) Title : AC3 ENG Language : English Default : No Forced : No DURATION : 01:22:25.504000000 NUMBER_OF_FRAMES : 154547 NUMBER_OF_BYTES : 395640320 _STATISTICS_WRITING_APP : mkvmerge v8.7.0 ('All of the above') 64bit _STATISTICS_WRITING_DATE_UTC : 2017-04-18 06:44:03 _STATISTICS_TAGS : BPS DURATION NUMBER_OF_FRAMES NUMBER_OF_BYTES Text #1 ID : 4 Format : ASS Codec ID : S_TEXT/ASS Codec ID/Info : Advanced Sub Station Alpha Compression mode : Lossless Title : FORCED Language : Italian Default : Yes Forced : No DURATION : 00:42:24.014000000 NUMBER_OF_FRAMES : 7 NUMBER_OF_BYTES : 433 _STATISTICS_WRITING_APP : mkvmerge v8.7.0 ('All of the above') 64bit _STATISTICS_WRITING_DATE_UTC : 2017-04-18 06:44:03 _STATISTICS_TAGS : BPS DURATION NUMBER_OF_FRAMES NUMBER_OF_BYTES Text #2 ID : 5 Format : ASS Codec ID : S_TEXT/ASS Codec ID/Info : Advanced Sub Station Alpha Compression mode : Lossless Title : REGULAR Language : Italian Default : No Forced : No DURATION : 01:14:02.225000000 NUMBER_OF_FRAMES : 822 NUMBER_OF_BYTES : 27806 _STATISTICS_WRITING_APP : mkvmerge v8.7.0 ('All of the above') 64bit _STATISTICS_WRITING_DATE_UTC : 2017-04-18 06:44:03 _STATISTICS_TAGS : BPS DURATION NUMBER_OF_FRAMES NUMBER_OF_BYTES Menu 00:00:00.000 : :00:00:00.000 00:07:05.342 : :00:07:05.342 00:14:28.201 : :00:14:28.201 00:20:13.838 : :00:20:13.838 00:29:27.099 : :00:29:27.099 00:39:02.590 : :00:39:02.590 00:50:56.804 : :00:50:56.804 00:59:52.756 : :00:59:52.756 01:08:53.129 : :01:08:53.129 01:16:19.950 : :01:16:19.950 [/spoiler] [/color][/b][/center]

Capitan Fantastic (2016).H264.Italian.English.Ac3.5.1.sub.ita.eng.iCV-MIRCrew

Language: | Size: 1.82 GB | Seed: 35 | Leech: 5

Description:

Capitan Fantastic (2016).H264.Italian.English.Ac3.5.1.sub.ita.eng.iCV-MIRCrew [center] [color=red][b][img]http://s23.postimg.org/b9yhws27f/0sc_Del1.png[/img] [u]NO FOUND ONLY ORIGINAL RELEASE[/u] [img]http://i.imgur.com/GDNQx1Z.png[/img] My release is always in double track audio italian and Original audio for select it use VLC or dvd player home not use wmp Capitan Fantastic (2016) PRESENTI ANCHE i SOTTOTITOLI ESTERNI IN SRT (ita/eng) [img]https://extraimage.net/images/2017/04/22/a521c14aba35f77ac03573ff1466657e.png[/img] [URL=http://www.imdb.com/title/tt3553976/][IMG]http://www.userlogos.org/files/logos/Sucka/imdb_new.png[/IMG][/URL] [img]http://i.imgur.com/fGu1rKv.png[/img] Titolo originale Captain Fantastic Lingua originale inglese Paese di produzione Stati Uniti d'America Anno 2016 Durata 118 min Rapporto 2.35 : 1 Genere drammatico, commedia Regia Matt Ross Sceneggiatura Matt Ross Produttore Lynette Howell Taylor, Jamie Patricof, Shivani Rawat, Monica Levinson Produttore esecutivo Nimitt Mankad, Declan Baldwin Casa di produzione Electric City Entertainment ShivHans Pictures Distribuzione (Italia) Good Films Fotografia Stéphane Fontaine Montaggio Joseph Krings Musiche Alex Somers Scenografia Russell Barnes Costumi Courtney Hoffman [img]http://i.imgur.com/W7kBqiE.png[/img] Viggo Mortensen: Ben Cash George MacKay: Bodevan "Bo" Cash Samantha Isler: Kielyr Cash Annalise Basso: Vespyr Cash Nicholas Hamilton: Rellian Cash Shree Crooks: Zaja Cash Charlie Shotwell: Nai Cash Trin Miller: Leslie Abigail Cash Steve Zahn: Dave Kathryn Hahn: Harper Frank Langella: Jack Ann Dowd: Abigail Missi Pyle: Ellen Erin Moriarty: Claire [img]http://i.imgur.com/bFK3ggF.png[/img] Nei boschi della costa nord occidentale degli Stati Uniti (nello Stato di Washington), Ben Cash vive con la propria famiglia, lontano da ogni forma di civiltà, cacciando, coltivando e vivendo di piccolo artigianato che scambia con un negoziante della cittadina più vicina. Ben cerca di crescere i suoi figli nel migliore dei modi, preparandoli fisicamente e intellettualmente alle difficoltà che potrebbero forse un giorno incontrare nella vita.............. [img]http://i.imgur.com/48xHWWH.png[/img] In the forests of the Pacific Northwest, a father devoted to raising his six kids with a rigorous physical and intellectual education is forced to leave his paradise and enter the world, challenging his idea of what it means to be a parent. . [img]http://i.imgur.com/K8bfNTy.png[/img] [url=https://extraimage.net/image/NNKi][img]https://extraimage.net/images/2017/04/22/6b7e11341f3d5b090b4b093214734b8d.th.png[/img][/url] [url=https://extraimage.net/image/NNKm][img]https://extraimage.net/images/2017/04/22/901544fa9656a66916cafe184e2bd72c.th.png[/img][/url] [url=https://extraimage.net/image/NNKl][img]https://extraimage.net/images/2017/04/22/bdb660b3014ca6146579af63ea659a62.th.png[/img][/url] [url=https://extraimage.net/image/NNKI][img]https://extraimage.net/images/2017/04/22/ec34aa40cc00ab1b80b932c465c63816.th.png[/img][/url] [url=https://extraimage.net/image/NNKd][img]https://extraimage.net/images/2017/04/22/3d0a374a14b12f1e4026c452684e6242.th.png[/img][/url] [url=https://extraimage.net/image/NNKh][img]https://extraimage.net/images/2017/04/22/6085264cec3bf45460962235fc850542.th.png[/img][/url] [img]http://i.imgur.com/aVrMohH.png[/img] [spoiler] Generale ID univoco : 226180224086283116649332034858600915489 (0xAA28BA050D80BB8FD75BC654FFF86221) Nome completo : Capitan Fantastic (2016)h264.ita.eng.sub.ita.eng.iCV-MIRCrew.mkv Formato : Matroska Versione formato : Version 2 Dimensione : 1,82 GiB Durata : 1o 59min Bitrate totale : 2.175 Kbps Film : www.icv-crew.org Data codifica : UTC 2017-04-21 20:32:51 / UTC 2017-04-21 20:32:51 Creato con : Lavf54.63.100 Compressore : Lavf54.63.100 / Lavf54.63.100 Copyright : robbyrs Video ID : 1 Formato : AVC Formato/Informazioni : Advanced Video Codec Profilo formato : [email protected] Impostazioni formato, CABAC : Si Impostazioni formato, ReFrames : 2 frame ID codec : V_MPEG4/ISO/AVC Durata : 1o 59min Bitrate : 1.290 Kbps Larghezza : 720 pixel Altezza : 304 pixel Rapporto aspetto visualizzazione : 2,40:1 Rapporto aspetto originale : 2,40:1 Modalità frame rate : Costante Frame rate : 23,976 (24000/1001) fps Spazio colore : YUV Croma subsampling : 4:2:0 Profondità bit : 8 bit Tipo scansione : Progressivo Bit/(pixel*frame) : 0.246 Dimensione della traccia : 1,03 GiB (57%) Compressore : x264 core 130 r2273 Impostazioni compressione : cabac=1 / ref=2 / deblock=1:0:0 / analyse=0x1:0x131 / me=hex / subme=7 / psy=1 / psy_rd=1.00:0.00 / mixed_ref=0 / me_range=16 / chroma_me=1 / trellis=1 / 8x8dct=0 / cqm=0 / deadzone=21,11 / fast_pskip=1 / chroma_qp_offset=-2 / threads=12 / lookahead_threads=2 / sliced_threads=0 / nr=0 / decimate=1 / interlaced=0 / bluray_compat=0 / constrained_intra=0 / bframes=3 / b_pyramid=0 / b_adapt=1 / b_bias=0 / direct=3 / weightb=1 / open_gop=0 / weightp=2 / keyint=230 / keyint_min=23 / scenecut=40 / intra_refresh=0 / rc_lookahead=40 / rc=abr / mbtree=1 / bitrate=1290 / ratetol=1.0 / qcomp=0.60 / qpmin=10 / qpmax=69 / qpstep=4 / vbv_maxrate=24000 / vbv_bufsize=24000 / nal_hrd=none / ip_ratio=1.40 / aq=1:1.00 Lingua : Italiano Default : Si Forced : No Statistics Tags Issue : mkvmerge v8.7.0 ('All of the above') 64bit 2017-04-21 03:41:47 / Lavf54.63.100 2017-04-21 20:32:51 / UTC 2017-04-21 20:32:51 FromStats_BitRate : 9541121 FromStats_Duration : 01:59:29.329000000 FromStats_FrameCount : 171892 FromStats_StreamSize : 8550430206 Audio #1 ID : 2 Formato : AC-3 Formato/Informazioni : Audio Coding 3 Estensione modo : CM (complete main) Impostazioni formato, Endianness : Big ID codec : A_AC3 Durata : 1o 59min Modalità bitrate : Costante Bitrate : 448 Kbps Canali : 6 canali Posizione canali : Front: L C R, Side: L R, LFE Frequenza campionamento : 48,0 KHz Frame rate : 31,250 fps (1536 spf) Profondità bit : 16 bit Modo compressione : Con perdita Ritardo video : -5ms Dimensione della traccia : 384MiB (21%) Titolo : AC3 ITA Lingua : Italiano Default : Si Forced : No Statistics Tags Issue : mkvmerge v8.7.0 ('All of the above') 64bit 2017-04-21 03:41:47 / Lavf54.63.100 2017-04-21 20:32:51 / UTC 2017-04-21 20:32:51 FromStats_BitRate : 448000 FromStats_Duration : 01:59:45.632000000 FromStats_FrameCount : 224551 FromStats_StreamSize : 402395392 Audio #2 ID : 3 Formato : AC-3 Formato/Informazioni : Audio Coding 3 Estensione modo : CM (complete main) Impostazioni formato, Endianness : Big ID codec : A_AC3 Durata : 1o 59min Modalità bitrate : Costante Bitrate : 448 Kbps Canali : 6 canali Posizione canali : Front: L C R, Side: L R, LFE Frequenza campionamento : 48,0 KHz Frame rate : 31,250 fps (1536 spf) Profondità bit : 16 bit Modo compressione : Con perdita Ritardo video : -5ms Dimensione della traccia : 384MiB (21%) Titolo : AC3 ENG Lingua : Inglese Default : No Forced : No Statistics Tags Issue : mkvmerge v8.7.0 ('All of the above') 64bit 2017-04-21 03:41:47 / Lavf54.63.100 2017-04-21 20:32:51 / UTC 2017-04-21 20:32:51 FromStats_BitRate : 640000 FromStats_Duration : 01:59:29.376000000 FromStats_FrameCount : 224043 FromStats_StreamSize : 573550080 Testo #1 ID : 4 Formato : ASS ID codec : S_TEXT/ASS ID codec/Informazioni : Advanced Sub Station Alpha Modo compressione : Senza perdita Titolo : FORCED Lingua : Italiano Default : Si Forced : No Statistics Tags Issue : mkvmerge v8.7.0 ('All of the above') 64bit 2017-04-21 03:41:47 / Lavf54.63.100 2017-04-21 20:32:51 / UTC 2017-04-21 20:32:51 FromStats_BitRate : 1 FromStats_Duration : 01:42:09.665000000 FromStats_FrameCount : 37 FromStats_StreamSize : 879 Testo #2 ID : 5 Formato : ASS ID codec : S_TEXT/ASS ID codec/Informazioni : Advanced Sub Station Alpha Modo compressione : Senza perdita Titolo : REGULAR Lingua : Italiano Default : No Forced : No Statistics Tags Issue : mkvmerge v8.7.0 ('All of the above') 64bit 2017-04-21 03:41:47 / Lavf54.63.100 2017-04-21 20:32:51 / UTC 2017-04-21 20:32:51 FromStats_BitRate : 43 FromStats_Duration : 01:50:17.875000000 FromStats_FrameCount : 932 FromStats_StreamSize : 36246 Testo #3 ID : 6 Formato : ASS ID codec : S_TEXT/ASS ID codec/Informazioni : Advanced Sub Station Alpha Modo compressione : Senza perdita Titolo : N.U. Lingua : Inglese Default : No Forced : No Statistics Tags Issue : mkvmerge v8.7.0 ('All of the above') 64bit 2017-04-21 03:41:47 / Lavf54.63.100 2017-04-21 20:32:51 / UTC 2017-04-21 20:32:51 FromStats_BitRate : 48 FromStats_Duration : 01:51:38.525000000 FromStats_FrameCount : 1326 FromStats_StreamSize : 40236 Menu 00:00:00.000 : :00:00:00.000 00:05:14.272 : :00:05:14.272 00:11:12.046 : :00:11:12.046 00:17:34.220 : :00:17:34.220 00:25:20.728 : :00:25:20.728 00:31:37.187 : :00:31:37.187 00:37:41.509 : :00:37:41.509 00:40:25.548 : :00:40:25.548 00:46:10.601 : :00:46:10.601 00:54:03.449 : :00:54:03.449 00:59:34.696 : :00:59:34.696 01:08:21.431 : :01:08:21.431 01:14:08.486 : :01:14:08.486 01:20:18.647 : :01:20:18.647 01:24:30.774 : :01:24:30.774 01:30:19.331 : :01:30:19.331 01:36:52.807 : :01:36:52.807 01:43:03.719 : :01:43:03.719 01:48:23.163 : :01:48:23.163 01:52:47.344 : :01:52:47.344 [/spoiler] [/color][/b][/center]

Appassionata (1974).H264.Italian.English.Ac3.sub.eng.iCV-MIRCrew

Language: | Size: 1.18 GB | Seed: 2 | Leech: 0

Description:

Appassionata (1974).H264.Italian.English.Ac3.sub.eng.iCV-MIRCrew [center] [color=red][b][img]http://s23.postimg.org/b9yhws27f/0sc_Del1.png[/img] [u]NO FOUND ONLY ORIGINAL RELEASE[/u] [img]http://i.imgur.com/GDNQx1Z.png[/img] My release is always in double track audio italian and Original audio for select it use VLC or dvd player home not use wmp Appassionata (1974) [img]https://extraimage.net/images/2017/04/17/ec29d7a659ef88be51f16e54fefb14c5.png[/img] [URL=http://www.imdb.com/title/tt0071154/][IMG]http://www.userlogos.org/files/logos/Sucka/imdb_new.png[/IMG][/URL] [img]http://i.imgur.com/fGu1rKv.png[/img] Titolo originale Appassionata Lingua originale italiano Paese di produzione Italia Anno 1974 Durata 90 min Genere drammatico Regia Gianluigi Calderone Soggetto Gianluigi Calderone, Alessandro Parenzo Sceneggiatura Alessandro Parenzo, Domenico Rafele, Gianluigi Calderone Produttore Tonino Cervi Casa di produzione P.A.C. Produzioni Atlas Consorziate Distribuzione (Italia) Titanus Fotografia Armando Nannuzzi Montaggio Nino Baragli Musiche Piero Piccioni Scenografia Luciano Spadoni Costumi Wayne Finkelman Trucco Mario Di Salvio [img]http://i.imgur.com/W7kBqiE.png[/img] Gabriele Ferzetti: Emilio Rutelli Ornella Muti: Eugenia Rutelli Eleonora Giorgi: Nicola Ninetto Davoli: Ciccio, garzone del macellaio Valentina Cortese: Elisa Rutelli Jeanine Martinovic: Renata Zamengo: assistente Carla Mancini: paziente Luigi Antonio Guerra: [img]http://i.imgur.com/bFK3ggF.png[/img] Roma, 1974. Il dentista Emilio ha una moglie squilibrata, Elisa, che trascorre le giornate al piano a eseguire l'Appassionata, e una figlia adolescente, Eugenia, amica inseparabile di Nicola, disinibita coetanea che le seduce l'anziano genitore............ [img]http://i.imgur.com/48xHWWH.png[/img] Two teenage friends conspire to find out how much their youthful sensuality can disrupt one of their households, headed by a dentist and his mentally-ill wife. [img]http://i.imgur.com/K8bfNTy.png[/img] [img]https://extraimage.net/images/2017/04/17/1d9939adb027263924e350f0f0af8a9c.png[/img] [img]https://extraimage.net/images/2017/04/17/97c731e2588d829c880cb1163e1f972c.png[/img] [img]https://extraimage.net/images/2017/04/17/e02bfbd6ee995dba3386e4fffcb8e109.png[/img] [img]https://extraimage.net/images/2017/04/17/fe89403f25c7875befc55b3ae1c65711.png[/img] [img]http://i.imgur.com/aVrMohH.png[/img] [spoiler] General Unique ID : 237206054899536256968266656801373467230 (0xB2743973123D83373E8712D394EEB25E) Complete name : Appassionata (1974).H264.ita.eng.sub.ita.iCV-MIRCrew.mkv Format : Matroska Format version : Version 2 File size : 1.18 GiB Duration : 1h 38mn Overall bit rate : 1 712 Kbps Movie name : Appassionata Encoded date : UTC 2017-04-15T15:54:46Z Writing application : HandBrake 0.10.5 2016021100 Writing library : Lavf55.12.0 Video ID : 1 Format : AVC Format/Info : Advanced Video Codec Format profile : [email protected] Format settings, CABAC : Yes Format settings, ReFrames : 4 frames Codec ID : V_MPEG4/ISO/AVC Duration : 1h 38mn Bit rate : 1 290 Kbps Width : 720 pixels Height : 390 pixels Display aspect ratio : 16:9 Original display aspect ratio : 1.851 Frame rate mode : Variable Frame rate : 23.976 fps Color space : YUV Chroma subsampling : 4:2:0 Bit depth : 8 bits Scan type : Progressive Bits/(Pixel*Frame) : 0.192 Stream size : 912 MiB (76%) Writing library : x264 core 142 r2479 dd79a61 Encoding settings : cabac=1 / ref=1 / deblock=1:0:0 / analyse=0x1:0x111 / me=hex / subme=2 / psy=1 / psy_rd=1.00:0.00 / mixed_ref=0 / me_range=16 / chroma_me=1 / trellis=0 / 8x8dct=0 / cqm=0 / deadzone=21,11 / fast_pskip=1 / chroma_qp_offset=0 / threads=12 / lookahead_threads=3 / sliced_threads=0 / nr=0 / decimate=1 / interlaced=0 / bluray_compat=0 / constrained_intra=0 / bframes=3 / b_pyramid=2 / b_adapt=1 / b_bias=0 / direct=1 / weightb=1 / open_gop=0 / weightp=1 / keyint=240 / keyint_min=24 / scenecut=40 / intra_refresh=0 / rc_lookahead=10 / rc=abr / mbtree=1 / bitrate=1290 / ratetol=1.0 / qcomp=0.60 / qpmin=0 / qpmax=69 / qpstep=4 / vbv_maxrate=20000 / vbv_bufsize=25000 / nal_hrd=none / filler=0 / ip_ratio=1.40 / aq=1:1.00 Default : Yes Forced : No Color primaries : BT.709-5, BT.1361, IEC 61966-2-4, SMPTE RP177 Transfer characteristics : BT.709-5, BT.1361 Matrix coefficients : BT.709-5, BT.1361, IEC 61966-2-4 709, SMPTE RP177 Audio #1 ID : 2 Format : AC-3 Format/Info : Audio Coding 3 Mode extension : CM (complete main) Codec ID : A_AC3 Duration : 1h 38mn Bit rate mode : Constant Bit rate : 192 Kbps Channel(s) : 2 channels Channel positions : Front: L R Sampling rate : 48.0 KHz Bit depth : 16 bits Compression mode : Lossy Delay relative to video : 1mn 5s Stream size : 135 MiB (11%) Title : Stereo Language : Italian Default : Yes Forced : No Audio #2 ID : 3 Format : AC-3 Format/Info : Audio Coding 3 Mode extension : CM (complete main) Codec ID : A_AC3 Duration : 1h 38mn Bit rate mode : Constant Bit rate : 192 Kbps Channel(s) : 2 channels Channel positions : Front: L R Sampling rate : 48.0 KHz Bit depth : 16 bits Compression mode : Lossy Delay relative to video : 1mn 5s Stream size : 135 MiB (11%) Title : Stereo Language : English Default : No Forced : No Text ID : 4 Format : PGS Codec ID : S_HDMV/PGS Language : English Default : No Forced : No Menu 00:00:00.000 : :Chapter 1 00:04:26.307 : :Chapter 2 00:07:55.266 : :Chapter 3 00:10:12.361 : :Chapter 4 00:17:45.356 : :Chapter 5 00:21:08.225 : :Chapter 6 00:25:49.798 : :Chapter 7 00:30:37.127 : :Chapter 8 00:35:29.669 : :Chapter 9 00:39:00.046 : :Chapter 10 00:42:47.857 : :Chapter 11 00:45:56.587 : :Chapter 12 00:50:33.196 : :Chapter 13 00:53:12.856 : :Chapter 14 00:59:31.860 : :Chapter 15 01:04:05.216 : :Chapter 16 01:08:32.066 : :Chapter 17 01:12:21.170 : :Chapter 18 01:15:21.600 : :Chapter 19 01:19:12.706 : :Chapter 20 01:23:21.121 : :Chapter 21 01:29:18.353 : :Chapter 22 01:31:41.120 : :Chapter 23 01:36:57.061 : :Chapter 24 [/spoiler] [/color][/b][/center]

Piacere, sono un po' incinta (2010).H264.Italian.English.Ac3.5.1.sub.ita.eng.iCV-MIRCrew

Language: | Size: 1.49 GB | Seed: 6 | Leech: 1

Description:

The Back-Up Plan - Piacere, sono un po' incinta (2010).H264.Italian.English.Ac3.5.1.sub.ita.eng.iCV-MIRCrew [center] [color=red][b][img]http://s23.postimg.org/b9yhws27f/0sc_Del1.png[/img] [u]NO FOUND ONLY ORIGINAL RELEASE[/u] [img]http://i.imgur.com/GDNQx1Z.png[/img] My release is always in double track audio italian and Original audio for select it use VLC or dvd player home not use wmp Piacere, sono un po' incinta - The Back-Up Plan (2010) [img]https://extraimage.net/images/2017/04/15/3659bfde4553df352f42ba5ca0746cd0.png[/img] [URL=http://www.imdb.com/title/tt1212436/][IMG]http://www.userlogos.org/files/logos/Sucka/imdb_new.png[/IMG][/URL] [img]http://i.imgur.com/fGu1rKv.png[/img] Titolo originale The Back-Up Plan Lingua originale inglese Paese di produzione USA Anno 2010 Durata 113 min Genere commedia, sentimentale Regia Alan Poul Sceneggiatura Kate Angelo Produttore Todd Black, Jason Blumenthal, Christine Coggins, Lance Johnson, Steve Tisch Produttore esecutivo David J. Bloomfield, Rodney Liber Casa di produzione CBS Films, Escape Artists Distribuzione (Italia) Sony Pictures Fotografia Xavier Pérez Grobet Montaggio Priscilla Nedd-Friendly Effetti speciali Mark R. Byers Musiche Stephen Trask Scenografia Alec Hammond, Priscilla Elliott Costumi Karen Patch Trucco Stephen Bettles, Clare M. Corsick, Danielle Friedman, Jane Galli [img]http://i.imgur.com/W7kBqiE.png[/img] Jennifer Lopez: Zoe Alex O'Loughlin: Stan Eric Christian Olsen: Clive Michaela Watkins: Mona Linda Lavin: Nana Danneel Harris: Olivia Noureen DeWulf: Daphne Anthony Anderson: papà al parco Melissa McCarthy: Carol Tom Bosley: Arthur Adam Rose: Louie Carlease Burke: Tabitha Robert Klein: dottor Scott Harris [img]http://i.imgur.com/bFK3ggF.png[/img] Zoe un avvenente ragazza newyorkese che gestisce un negozio di animali è fortemente motivata a diventare madre. Dopo tante relazioni finite male, capisce che aspettare l'uomo giusto richiede troppo tempo. Decide quindi di prendere un appuntamento per sottoporsi all'inseminazione artificiale, utilizzando lo sperma di un uomo con i capelli rossi e le lentiggini, nonostante i suoi amici pensino sia una pessima idea................ [img]http://i.imgur.com/48xHWWH.png[/img] Zoe is a woman who has a hard time letting anyone into her life. She has a habit of pushing people away whenever they get close. She wants to have a baby but because she has no man in her life, she decides to be artificially inseminated. Shortly after having the procedure she meets a guy named Stan, and she feels a spark. When she tells him about her pregnancy, she thinks he'll bail but he sticks with her... [img]http://i.imgur.com/K8bfNTy.png[/img] [url=https://extraimage.net/image/N86z][img]https://extraimage.net/images/2017/04/15/7e9395216d9afa3252c9a6df6d84b888.th.png[/img][/url] [url=https://extraimage.net/image/N86U][img]https://extraimage.net/images/2017/04/15/4030dada77d0f1090b1c378898d81f9e.th.png[/img][/url] [url=https://extraimage.net/image/N860][img]https://extraimage.net/images/2017/04/15/62445a0f9a7643688d9e11c6423aface.th.png[/img][/url] [url=https://extraimage.net/image/N86J][img]https://extraimage.net/images/2017/04/15/12b7cc0aabde7d695cf07c6a255a7036.th.png[/img][/url] [img]http://i.imgur.com/aVrMohH.png[/img] [spoiler] General Unique ID : 175534771765133231568162198926042543136 (0x840EC46F3D0ED03D807F43F84EF73420) Complete name : Piacere, sono un po' incinta (2010).H264.ita.eng.sub.ita.eng.iCV-MIRCrew.mkv Format : Matroska Format version : Version 2 File size : 1.49 GiB Duration : 1h 44mn Overall bit rate : 2 052 Kbps Movie name : www.icv-crew.org Encoded date : UTC 2017-04-11T16:35:56Z Writing application : mkvmerge v5.4.0 ('Piper') built on Mar 10 2012 13:34:39 Writing library : Lavf55.12.0 Video ID : 1 Format : AVC Format/Info : Advanced Video Codec Format profile : [email protected] Format settings, CABAC : Yes Format settings, ReFrames : 4 frames Muxing mode : Header stripping Codec ID : V_MPEG4/ISO/AVC Duration : 1h 44mn Bit rate : 1 290 Kbps Width : 720 pixels Height : 306 pixels Display aspect ratio : 2.35:1 Frame rate mode : Variable / Variable Frame rate : 23.976 fps Color space : YUV Chroma subsampling : 4:2:0 Bit depth : 8 bits Scan type : Progressive Bits/(Pixel*Frame) : 0.244 Stream size : 927 MiB (61%) Title : Piacere, sono un po' incinta (2010).H264.ita.eng.sub.ita.eng.iCV-MIRCrew Writing library : x264 core 142 r2479 dd79a61 Encoding settings : cabac=1 / ref=1 / deblock=1:0:0 / analyse=0x1:0x111 / me=hex / subme=2 / psy=1 / psy_rd=1.00:0.00 / mixed_ref=0 / me_range=16 / chroma_me=1 / trellis=0 / 8x8dct=0 / cqm=0 / deadzone=21,11 / fast_pskip=1 / chroma_qp_offset=0 / threads=12 / lookahead_threads=2 / sliced_threads=0 / nr=0 / decimate=1 / interlaced=0 / bluray_compat=0 / constrained_intra=0 / bframes=3 / b_pyramid=2 / b_adapt=1 / b_bias=0 / direct=1 / weightb=1 / open_gop=0 / weightp=1 / keyint=240 / keyint_min=24 / scenecut=40 / intra_refresh=0 / rc_lookahead=10 / rc=abr / mbtree=1 / bitrate=1290 / ratetol=1.0 / qcomp=0.60 / qpmin=0 / qpmax=69 / qpstep=4 / vbv_maxrate=20000 / vbv_bufsize=25000 / nal_hrd=none / filler=0 / ip_ratio=1.40 / aq=1:1.00 Language : Italian Default : Yes Forced : No Color primaries : BT.709-5, BT.1361, IEC 61966-2-4, SMPTE RP177 Transfer characteristics : BT.709-5, BT.1361 Matrix coefficients : BT.709-5, BT.1361, IEC 61966-2-4 709, SMPTE RP177 Audio #1 ID : 2 Format : AC-3 Format/Info : Audio Coding 3 Mode extension : CM (complete main) Muxing mode : Header stripping Codec ID : A_AC3 Duration : 1h 44mn Bit rate mode : Constant Bit rate : 384 Kbps Channel(s) : 6 channels Channel positions : Front: L C R, Side: L R, LFE Sampling rate : 48.0 KHz Bit depth : 16 bits Compression mode : Lossy Delay relative to video : -5ms Stream size : 286 MiB (19%) Title : Surround Language : Italian Default : Yes Forced : No Audio #2 ID : 3 Format : AC-3 Format/Info : Audio Coding 3 Mode extension : CM (complete main) Muxing mode : Header stripping Codec ID : A_AC3 Duration : 1h 44mn Bit rate mode : Constant Bit rate : 384 Kbps Channel(s) : 6 channels Channel positions : Front: L C R, Side: L R, LFE Sampling rate : 48.0 KHz Bit depth : 16 bits Compression mode : Lossy Delay relative to video : -5ms Stream size : 286 MiB (19%) Title : Surround Language : English Default : No Forced : No Text #1 ID : 4 Format : ASS Codec ID : S_TEXT/ASS Codec ID/Info : Advanced Sub Station Alpha Compression mode : Lossless Language : Italian Default : No Forced : No Text #2 ID : 5 Format : ASS Codec ID : S_TEXT/ASS Codec ID/Info : Advanced Sub Station Alpha Compression mode : Lossless Language : English Default : No Forced : No Menu 00:00:00.000 : :(01)00:00:00:000 00:06:43.072 : :(02)00:06:42:944 00:14:02.385 : :(03)00:14:02:258 00:21:47.266 : :(04)00:21:47:139 00:26:19.413 : :(05)00:26:19:286 00:31:49.868 : :(06)00:31:49:741 00:39:25.323 : :(07)00:39:25:196 00:45:41.032 : :(08)00:45:40:863 00:50:55.138 : :(09)00:50:55:010 00:57:05.174 : :(10)00:57:05:046 01:03:26.763 : :(11)01:03:26:636 01:09:56.736 : :(12)01:09:56:609 01:14:20.834 : :(13)01:14:20:706 01:22:11.762 : :(14)01:22:11:635 01:27:08.309 : :(15)01:27:08:181 01:31:53.051 : :(16)01:31:52:924 [/spoiler] [/color][/b][/center]

Office Christmas Party - La festa prima delle feste (2016).H264..iCV-MIRCrew

Language: | Size: 1.61 GB | Seed: 19 | Leech: 5

Description:

Office Christmas Party - La festa prima delle feste (2016).H264.Italian.English.Ac3.5.1.sub.ita.eng.iCV-MIRCrew [center] [color=red][b][img]http://s23.postimg.org/b9yhws27f/0sc_Del1.png[/img] [u]NO FOUND ONLY ORIGINAL RELEASE[/u] [img]http://i.imgur.com/GDNQx1Z.png[/img] My release is always in double track audio italian and Original audio for select it use VLC or dvd player home not use wmp La festa prima delle feste - Office Christmas Party (2016) [img]https://extraimage.net/images/2017/04/15/cbdf98bdf0504885519daefda852d19d.png[/img] [URL=http://www.imdb.com/title/tt1711525/][IMG]http://www.userlogos.org/files/logos/Sucka/imdb_new.png[/IMG][/URL] [img]http://i.imgur.com/fGu1rKv.png[/img] DATA USCITA: 07 dicembre 2016 GENERE: Commedia ANNO: 2016 REGIA: Josh Gordon, Will Speck SCENEGGIATURA: Justin Malen, Laura Solon FOTOGRAFIA: Jeff Cutter MONTAGGIO: Jeff Groth MUSICHE: Theodore Shapiro PRODUZIONE: Bluegrass Films, DreamWorks Pictures, DreamWorks SKG DISTRIBUZIONE: Universal Pictures PAESE: USA DURATA: 105 Min [img]http://i.imgur.com/W7kBqiE.png[/img] Kate McKinnon, Olivia Munn, Jennifer Aniston, Jamie Chung, Jason Bateman, T.J. Miller, Abbey Lee, Courtney B. Vance, Matt Walsh, Jillian Bell, Rob Corddry, Randall Park, Oliver Cooper [img]http://i.imgur.com/bFK3ggF.png[/img] Quando un amministratore delegato cerca di chiudere la filiale gestita dal fratello scapestrato, quest'ultimo, insieme al direttore del suo reparto tecnico, decide di radunare i colleghi ed organizzare un'epica festa di Natale nel tentativo di fare colpo su un potenziale cliente, e concludere così una vendita che potrebbe salvare i loro posti di lavoro [img]http://i.imgur.com/48xHWWH.png[/img] When his uptight CEO sister threatens to shut down his branch, the branch manager throws an epic Christmas party in order to land a big client and save the day, but the party gets way out of hand... [img]http://i.imgur.com/K8bfNTy.png[/img] [url=https://extraimage.net/image/N8xl][img]https://extraimage.net/images/2017/04/15/56d99ac1c1e93b60783d880e55f4bc71.th.png[/img][/url] [url=https://extraimage.net/image/N8xi][img]https://extraimage.net/images/2017/04/15/8e6dafd1eda23e9ba6717f00268f31e0.th.png[/img][/url] [url=https://extraimage.net/image/N8xI][img]https://extraimage.net/images/2017/04/15/7277b34c360893f34e2c9768b3eacae8.th.png[/img][/url] [url=https://extraimage.net/image/N8xd][img]https://extraimage.net/images/2017/04/15/078ebe9033cc96442b4e0ef7270c598c.th.png[/img][/url] [img]http://i.imgur.com/aVrMohH.png[/img] [spoiler] General Unique ID : 287332915400999636061428334143172088551 (0xD82A4E7BE36E28929FCAD2AAC04592E7) Complete name : La festa prima delle feste - Office Christmas Party (2016).H264.ita.eng.sub.ita.eng.iCV-MIRCrew.mkv Format : Matroska Format version : Version 2 File size : 1.61 GiB Duration : 1h 45mn Overall bit rate : 2 191 Kbps Movie name : www.icv-crew.org Encoded date : UTC 2017-04-11 21:46:30 Writing application : Lavf54.63.100 Writing library : Lavf54.63.100 COPYRIGHT : robbyrs Video ID : 1 Format : AVC Format/Info : Advanced Video Codec Format profile : [email protected] Format settings, CABAC : Yes Format settings, ReFrames : 2 frames Codec ID : V_MPEG4/ISO/AVC Duration : 1h 45mn Bit rate : 1 290 Kbps Width : 720 pixels Height : 304 pixels Display aspect ratio : 2.40:1 Frame rate mode : Variable Frame rate : 23.976 fps Color space : YUV Chroma subsampling : 4:2:0 Bit depth : 8 bits Scan type : Progressive Bits/(Pixel*Frame) : 0.246 Stream size : 943 MiB (57%) Writing library : x264 core 130 r2273 Encoding settings : cabac=1 / ref=2 / deblock=1:0:0 / analyse=0x1:0x131 / me=hex / subme=7 / psy=1 / psy_rd=1.00:0.00 / mixed_ref=0 / me_range=16 / chroma_me=1 / trellis=1 / 8x8dct=0 / cqm=0 / deadzone=21,11 / fast_pskip=1 / chroma_qp_offset=-2 / threads=12 / lookahead_threads=2 / sliced_threads=0 / nr=0 / decimate=1 / interlaced=0 / bluray_compat=0 / constrained_intra=0 / bframes=3 / b_pyramid=0 / b_adapt=1 / b_bias=0 / direct=3 / weightb=1 / open_gop=0 / weightp=2 / keyint=230 / keyint_min=23 / scenecut=40 / intra_refresh=0 / rc_lookahead=40 / rc=2pass / mbtree=1 / bitrate=1290 / ratetol=1.0 / qcomp=0.60 / qpmin=10 / qpmax=69 / qpstep=4 / cplxblur=20.0 / qblur=0.5 / vbv_maxrate=24000 / vbv_bufsize=24000 / nal_hrd=none / ip_ratio=1.40 / aq=1:1.00 Language : Italian Default : Yes Forced : No DURATION : 01:45:21.190000000 NUMBER_OF_FRAMES : 151557 NUMBER_OF_BYTES : 5685232017 _STATISTICS_WRITING_APP : mkvmerge v10.0.0 ('To Drown In You') 32bit _STATISTICS_WRITING_DATE_UTC : 2017-04-05 16:46:54 _STATISTICS_TAGS : BPS DURATION NUMBER_OF_FRAMES NUMBER_OF_BYTES Audio #1 ID : 2 Format : AC-3 Format/Info : Audio Coding 3 Mode extension : CM (complete main) Codec ID : A_AC3 Duration : 1h 45mn Bit rate mode : Constant Bit rate : 448 Kbps Channel(s) : 6 channels Channel positions : Front: L C R, Side: L R, LFE Sampling rate : 48.0 KHz Bit depth : 16 bits Compression mode : Lossy Delay relative to video : 1mn 5s Stream size : 338 MiB (20%) Language : Italian Default : Yes Forced : No DURATION : 01:45:21.216000000 NUMBER_OF_FRAMES : 197538 NUMBER_OF_BYTES : 505697280 _STATISTICS_WRITING_APP : mkvmerge v10.0.0 ('To Drown In You') 32bit _STATISTICS_WRITING_DATE_UTC : 2017-04-05 16:46:54 _STATISTICS_TAGS : BPS DURATION NUMBER_OF_FRAMES NUMBER_OF_BYTES Audio #2 ID : 3 Format : AC-3 Format/Info : Audio Coding 3 Mode extension : CM (complete main) Codec ID : A_AC3 Duration : 1h 45mn Bit rate mode : Constant Bit rate : 448 Kbps Channel(s) : 6 channels Channel positions : Front: L C R, Side: L R, LFE Sampling rate : 48.0 KHz Bit depth : 16 bits Compression mode : Lossy Delay relative to video : 1mn 5s Stream size : 338 MiB (20%) Language : English Default : No Forced : No DURATION : 01:45:21.195000000 NUMBER_OF_FRAMES : 592612 NUMBER_OF_BYTES : 1192335464 _STATISTICS_WRITING_APP : mkvmerge v10.0.0 ('To Drown In You') 32bit _STATISTICS_WRITING_DATE_UTC : 2017-04-05 16:46:54 _STATISTICS_TAGS : BPS DURATION NUMBER_OF_FRAMES NUMBER_OF_BYTES Text #1 ID : 4 Format : ASS Codec ID : S_TEXT/ASS Codec ID/Info : Advanced Sub Station Alpha Compression mode : Lossless Title : Sub. Ita. Forced Language : Italian Default : Yes Forced : Yes DURATION : 01:35:17.961000000 NUMBER_OF_FRAMES : 26 NUMBER_OF_BYTES : 795 _STATISTICS_WRITING_APP : mkvmerge v10.0.0 ('To Drown In You') 32bit _STATISTICS_WRITING_DATE_UTC : 2017-04-05 16:46:54 _STATISTICS_TAGS : BPS DURATION NUMBER_OF_FRAMES NUMBER_OF_BYTES Text #2 ID : 5 Format : ASS Codec ID : S_TEXT/ASS Codec ID/Info : Advanced Sub Station Alpha Compression mode : Lossless Title : Sub. Ita. Language : Italian Default : No Forced : No DURATION : 01:41:08.896000000 NUMBER_OF_FRAMES : 2196 NUMBER_OF_BYTES : 65062 _STATISTICS_WRITING_APP : mkvmerge v10.0.0 ('To Drown In You') 32bit _STATISTICS_WRITING_DATE_UTC : 2017-04-05 16:46:54 _STATISTICS_TAGS : BPS DURATION NUMBER_OF_FRAMES NUMBER_OF_BYTES Text #3 ID : 6 Format : ASS Codec ID : S_TEXT/ASS Codec ID/Info : Advanced Sub Station Alpha Compression mode : Lossless Title : Sub. Eng. Language : English Default : No Forced : No DURATION : 01:40:59.178000000 NUMBER_OF_FRAMES : 2164 NUMBER_OF_BYTES : 72534 _STATISTICS_WRITING_APP : mkvmerge v10.0.0 ('To Drown In You') 32bit _STATISTICS_WRITING_DATE_UTC : 2017-04-05 16:46:54 _STATISTICS_TAGS : BPS DURATION NUMBER_OF_FRAMES NUMBER_OF_BYTES Menu 00:00:00.000 : :00:00:00.000 00:08:03.983 : :00:08:03.983 00:12:27.872 : :00:12:27.872 00:22:27.388 : :00:22:27.388 00:28:48.185 : :00:28:48.185 00:32:03.505 : :00:32:03.505 00:39:21.693 : :00:39:21.693 00:48:54.223 : :00:48:54.223 00:54:06.535 : :00:54:06.535 00:59:23.685 : :00:59:23.685 01:04:30.950 : :01:04:30.950 01:10:07.370 : :01:10:07.370 01:15:37.324 : :01:15:37.324 01:21:03.817 : :01:21:03.817 01:26:29.810 : :01:26:29.810 01:34:50.977 : :01:34:50.977 01:39:19.787 : :01:39:19.787 [/spoiler] [/color][/b][/center]

Damian Marley - Halfway Tree (2001), [Mp3][Tnt]

Language: | Size: 142.16 MB | Seed: 1 | Leech: 1

Description:

Artist: Damian Marley Title: Halfway Tree Year Of Release: 2001 Genre: Reggae Label: Motown Records Tracks: 16 CDs: 1 Format: Mp3 Quality: 320 kbps Included Scans: Cover Archive Size: 142 Mb --------- 01. Educated Fools feat. Treach, Bunny Wailer, & Bounty Killer (05:17) 02. More Justice (03:35) 03. It Was Written feat. Stephen Marley, Capleton, & Drag-On (06:01) 04. Catch A Fire (04:51) 05. Still Searchin' feat. Stephen Marley & Yami Bolo (05:05) 06. She Needs My Love feat. Yami Bolo & Sabor (04:17) 07. Mi Blenda (04:41) 08. Where Is The Love feat. Eve (05:08) 09. Harder (Interlude) (00:43) 10. Born To Be Wild (04:01) 11. Give Dem Some Way feat. Daddigan (04:01) 12. HalfWay Tree (Interlude) (01:45) 13. Paradise Child feat. Mr. Cheeks & Jimmy Cozier (04:02) 14. Stuck In Between (03:43) 15. HalfWay Tree (05:25) 16. Stand A Chance feat. Treach & Yami Bolo (09:31)

U2 - Odds and Demos from 1978 to 1983 [Mp3 320][TntVillage]

Language: | Size: 102.34 MB | Seed: 133 | Leech: 21

Description:

[_to_info] Titolo: Odds & Demos From 1978 To 1983 Anno: 1985 Genere: Rock .: Tracklist :. A1 Magic Carpet A2 Another Time, Another Place A3 Alone In The Light A4 False Prophet A5 Interview Dutch TV (7/82) A6 Touch A7 The Ocean A8 11 O'Clock Tick Tock B1 Interview Dutch TV (7/82) B2 Scarlet B3 Tomorrow B4 Like A Song B5 The Cry / Electric Co. B6 Knockin' On Heaven's Doors [_to_dane] Tipo di file: MPEG-1 Layer III Encoder: LAME3.98r Bitrate: 320 kbps CBR Frequenza: 44100 Hz Emphasis: none Mode: stereo Padding: Sě [_to_opis] Odds & Demos - From 1978 to 1983". It was released in 1985 and contains Rare Live Performances, Demos, Interviews and Studio Sessions.

Oceania.2016.iTALiAN.AC3.BRRip.XviD-T4P3

Language: | Size: 1.46 GB | Seed: 6 | Leech: 0

Description:

Oceania Titolo originale: Moana Nazione: U.S.A. Anno: 2016 Genere: Animazione Durata: 103' Regia: Ron Clements, John Musker Cast (voci): Dwayne Johnson, Alan Tudyk, Auli'i Cravalho, Phillipa Soo Produzione: Walt Disney Animation Studios, Walt Disney Pictures Distribuzione: Walt Disney Studios Motion Pictures Italia Data di uscita: 22 Dicembre 2016 (cinema) Trama: Una vivace adolescente di nome Vaiana s’imbarca in una coraggiosa missione per salvare il suo popolo. Durante il suo viaggio, s’imbatterà nel semidio in disgrazia Maui che la guiderà nella sua ricerca per diventare una grande esploratrice. Insieme, i due attraverseranno l’oceano in un viaggio pieno d’azione che li porterà ad affrontare enormi creature feroci e ostacoli impossibili e, lungo il percorso, Vaiana porterà a compimento l’antica ricerca dei suoi antenati e troverà l’unica cosa che ha sempre desiderato: la propria identità.

CyberLink PowerDVD Ultra 17.0.1201.60 Multilingual + Keygen

Language: | Size: 193.12 MB | Seed: 243 | Leech: 59

Description:

CyberLink PowerDVD Ultra 17.0.1201.60 Multilingual + Keygen

CCleaner Professional Business Technician 5.27.5976 Retail

Language: | Size: 20.23 MB | Seed: 710 | Leech: 56

Description:

CCleaner Professional Business Technician 5.27.5976 Retail