Search Top Tags














Part-Time Friends - Fingers Crossed (2016) (by emi)

Language: | Size: 62.55 MB | Seed: 14 | Leech: 0

Description:

mp3 a 192 kbps audio di qualità a 95 db Tracklist 01 - All The Roads.mp3 (6.3 MB) 02 - Don't Give Up.mp3 (5.1 MB) 03 - Here We Are.mp3 (5.2 MB) 04 - Home.mp3 (5.1 MB) 05 - Johnny Johnny.mp3 (6.3 MB) 06 - Summertime Burns (feat. Dan Black).mp3 (5.3 MB) 07 - The Stain.mp3 (5.0 MB) 08 - Movies.mp3 (5.1 MB) 09 - La Mer Et L'Alaska.mp3 (4.9 MB) 10 - Keep On Walking.mp3 (4.0 MB) 11 - This City.mp3 (5.3 MB) 12 - Art Counter.mp3 (4.7 MB)

Cross Wars (2017).H264.Italian.English.Ac3.5.1.sub.ita.eng.iCV-MIRCrew

Language: | Size: 1.5 GB | Seed: 1 | Leech: 28

Description:

Cross Wars (2017).H264.Italian.English.Ac3.5.1.sub.ita.eng.iCV-MIRCrew [center] [color=red][b][img]http://s23.postimg.org/b9yhws27f/0sc_Del1.png[/img] [u]NO FOUND ONLY ORIGINAL RELEASE[/u] [img]http://i.imgur.com/GDNQx1Z.png[/img] My release is always in double track audio italian and Original audio for select it use VLC or dvd player home not use wmp Cross Wars (2017) [img]https://extraimage.net/images/2017/02/19/471daab27bcea70fd379ba33748d2669.png[/img] [URL=http://www.imdb.com/title/tt3592904/][IMG]http://www.userlogos.org/files/logos/Sucka/imdb_new.png[/IMG][/URL] [img]http://i.imgur.com/fGu1rKv.png[/img] Titolo originale Cross Wars Lingua originale inglese Paese di produzione Stati Uniti d'America Anno 2017 Durata 98 min Genere azione, fantascienza Regia Patrick Durham Sceneggiatura Patrick Durham Produttore Patrick Durham [img]http://i.imgur.com/W7kBqiE.png[/img] Brian Austin Green: Callan Danny Trejo: Lexavier Tom Sizemore: Detective Frank Nitti Vinnie Jones: Gunnar [img]http://i.imgur.com/bFK3ggF.png[/img] Callan ritorna sulla scena con la sua squadra allo scopo di contrastare il ritorno del malefico Gunnar; ci andrà di mezzo per forza di cose anche il poliziotto Frank Nitti detective in forza alla citta di Los Angeles. [img]http://i.imgur.com/48xHWWH.png[/img] Callan (Brian Austin Green) returns to the scene with his team in order to oppose the return of the evil Gunnar (Vinnie Jones); his path crosses again with Frank Nitti (Tom Sizemore) detective under the city of Los Angeles [img]http://i.imgur.com/K8bfNTy.png[/img] [url=https://extraimage.net/image/2Kde][img]https://extraimage.net/images/2017/02/19/546764a40d670b6019dc4977b720b1ce.th.png[/img][/url] [url=https://extraimage.net/image/2KdZ][img]https://extraimage.net/images/2017/02/19/f5cd20dc687b47085044e1a7363246d5.th.png[/img][/url] [url=https://extraimage.net/image/2Kd4][img]https://extraimage.net/images/2017/02/19/f65eface35ac5ac280b84bffc7f7d4ef.th.png[/img][/url] [img]http://i.imgur.com/aVrMohH.png[/img] [spoiler] General Unique ID : 282900291716605516694993761197996119830 (0xD4D49D435FA3F8EFEA58CA64FEB81716) Complete name : Cross Wars (2017).ita.eng.sub.ita.eng.iCV-MIRCrew.mkv Format : Matroska Format version : Version 2 File size : 1.50 GiB Duration : 1h 38mn Overall bit rate : 2 182 Kbps Movie name : VISIT www.icv-crew.org Encoded date : UTC 2017-02-14 18:23:05 Writing application : Lavf54.63.100 Writing library : Lavf54.63.100 COPYRIGHT : robbyrs Video ID : 1 Format : AVC Format/Info : Advanced Video Codec Format profile : Main@L4.1 Format settings, CABAC : Yes Format settings, ReFrames : 2 frames Codec ID : V_MPEG4/ISO/AVC Duration : 1h 38mn Bit rate : 1 280 Kbps Width : 720 pixels Height : 384 pixels Display aspect ratio : 1.854 Original display aspect ratio : 1.853 Frame rate mode : Variable Frame rate : 23.976 fps Color space : YUV Chroma subsampling : 4:2:0 Bit depth : 8 bits Scan type : Progressive Bits/(Pixel*Frame) : 0.193 Stream size : 873 MiB (57%) Writing library : x264 core 130 r2273 Encoding settings : cabac=1 / ref=2 / deblock=1:0:0 / analyse=0x1:0x131 / me=hex / subme=7 / psy=1 / psy_rd=1.00:0.00 / mixed_ref=0 / me_range=16 / chroma_me=1 / trellis=1 / 8x8dct=0 / cqm=0 / deadzone=21,11 / fast_pskip=1 / chroma_qp_offset=-2 / threads=12 / lookahead_threads=2 / sliced_threads=0 / nr=0 / decimate=1 / interlaced=0 / bluray_compat=0 / constrained_intra=0 / bframes=3 / b_pyramid=0 / b_adapt=1 / b_bias=0 / direct=3 / weightb=1 / open_gop=0 / weightp=2 / keyint=230 / keyint_min=23 / scenecut=40 / intra_refresh=0 / rc_lookahead=40 / rc=2pass / mbtree=1 / bitrate=1280 / ratetol=1.0 / qcomp=0.60 / qpmin=10 / qpmax=69 / qpstep=4 / cplxblur=20.0 / qblur=0.5 / vbv_maxrate=24000 / vbv_bufsize=24000 / nal_hrd=none / ip_ratio=1.40 / aq=1:1.00 Language : Italian Default : Yes Forced : No DURATION : 01:38:14.847000000 NUMBER_OF_FRAMES : 141335 NUMBER_OF_BYTES : 10595577565 _STATISTICS_WRITING_APP : mkvmerge v8.7.0 ('All of the above') 64bit _STATISTICS_WRITING_DATE_UTC : 2017-02-10 14:27:37 _STATISTICS_TAGS : BPS DURATION NUMBER_OF_FRAMES NUMBER_OF_BYTES Audio #1 ID : 2 Format : AC-3 Format/Info : Audio Coding 3 Mode extension : CM (complete main) Codec ID : A_AC3 Duration : 1h 38mn Bit rate mode : Constant Bit rate : 448 Kbps Channel(s) : 6 channels Channel positions : Front: L C R, Side: L R, LFE Sampling rate : 48.0 KHz Bit depth : 16 bits Compression mode : Lossy Delay relative to video : 1mn 5s Stream size : 315 MiB (21%) Title : AC3 ITA Language : Italian Default : Yes Forced : No DURATION : 01:38:14.912000000 NUMBER_OF_FRAMES : 184216 NUMBER_OF_BYTES : 471592960 _STATISTICS_WRITING_APP : mkvmerge v8.7.0 ('All of the above') 64bit _STATISTICS_WRITING_DATE_UTC : 2017-02-10 14:27:37 _STATISTICS_TAGS : BPS DURATION NUMBER_OF_FRAMES NUMBER_OF_BYTES Audio #2 ID : 3 Format : AC-3 Format/Info : Audio Coding 3 Mode extension : CM (complete main) Codec ID : A_AC3 Duration : 1h 38mn Bit rate mode : Constant Bit rate : 448 Kbps Channel(s) : 6 channels Channel positions : Front: L C R, Side: L R, LFE Sampling rate : 48.0 KHz Bit depth : 16 bits Compression mode : Lossy Delay relative to video : 1mn 5s Stream size : 315 MiB (21%) Title : AC3 ENG Language : English Default : No Forced : No DURATION : 01:38:14.912000000 NUMBER_OF_FRAMES : 184216 NUMBER_OF_BYTES : 471592960 _STATISTICS_WRITING_APP : mkvmerge v8.7.0 ('All of the above') 64bit _STATISTICS_WRITING_DATE_UTC : 2017-02-10 14:27:37 _STATISTICS_TAGS : BPS DURATION NUMBER_OF_FRAMES NUMBER_OF_BYTES Text #1 ID : 4 Format : UTF-8 Codec ID : S_TEXT/UTF8 Codec ID/Info : UTF-8 Plain Text Title : FORCED Language : Italian Default : Yes Forced : No DURATION : 01:12:57.498000000 NUMBER_OF_FRAMES : 17 NUMBER_OF_BYTES : 483 _STATISTICS_WRITING_APP : mkvmerge v8.7.0 ('All of the above') 64bit _STATISTICS_WRITING_DATE_UTC : 2017-02-10 14:27:37 _STATISTICS_TAGS : BPS DURATION NUMBER_OF_FRAMES NUMBER_OF_BYTES Text #2 ID : 5 Format : UTF-8 Codec ID : S_TEXT/UTF8 Codec ID/Info : UTF-8 Plain Text Title : REGULAR Language : Italian Default : No Forced : No DURATION : 01:37:31.637000000 NUMBER_OF_FRAMES : 1330 NUMBER_OF_BYTES : 44674 _STATISTICS_WRITING_APP : mkvmerge v8.7.0 ('All of the above') 64bit _STATISTICS_WRITING_DATE_UTC : 2017-02-10 14:27:37 _STATISTICS_TAGS : BPS DURATION NUMBER_OF_FRAMES NUMBER_OF_BYTES Text #3 ID : 6 Format : UTF-8 Codec ID : S_TEXT/UTF8 Codec ID/Info : UTF-8 Plain Text Title : REGULAR Language : English Default : No Forced : No DURATION : 01:37:23.171000000 NUMBER_OF_FRAMES : 1310 NUMBER_OF_BYTES : 41330 _STATISTICS_WRITING_APP : mkvmerge v8.7.0 ('All of the above') 64bit _STATISTICS_WRITING_DATE_UTC : 2017-02-10 14:27:37 _STATISTICS_TAGS : BPS DURATION NUMBER_OF_FRAMES NUMBER_OF_BYTES Menu 00:00:00.000 : :00:00:00.000 00:05:20.529 : :00:05:20.529 00:13:17.714 : :00:13:17.714 00:19:28.376 : :00:19:28.376 00:27:18.554 : :00:27:18.554 00:36:47.497 : :00:36:47.497 00:42:52.570 : :00:42:52.570 00:48:13.682 : :00:48:13.682 00:55:09.515 : :00:55:09.515 01:00:26.414 : :01:00:26.414 01:06:06.296 : :01:06:06.296 01:11:04.677 : :01:11:04.677 01:14:51.320 : :01:14:51.320 01:19:50.828 : :01:19:50.828 01:25:02.055 : :01:25:02.055 01:32:19.033 : :01:32:19.033 [/spoiler] [/color][/b][/center]

Doctor Strange (2016).720p.H264.Italian.English.Ac3.5.1.sub.ita.eng.iCV-MIRCrew

Language: | Size: 3.43 GB | Seed: 6 | Leech: 172

Description:

Doctor Strange (2016).720p.H264.Italian.English.Ac3.5.1.sub.ita.eng.iCV-MIRCrew [center] [color=red][b][img]http://s23.postimg.org/b9yhws27f/0sc_Del1.png[/img] [u]NO FOUND ONLY ORIGINAL RELEASE[/u] [img]http://i.imgur.com/GDNQx1Z.png[/img] My release is always in double track audio italian and Original audio for select it use VLC or dvd player home not use wmp Doctor Strange (2016) [img]https://extraimage.net/images/2017/02/18/6ab50999a51f8453d651b80f3154d704.png[/img] [URL=http://www.imdb.com/title/tt1211837/][IMG]http://www.userlogos.org/files/logos/Sucka/imdb_new.png[/IMG][/URL] [img]http://i.imgur.com/fGu1rKv.png[/img] DATA USCITA: 26 ottobre 2016 GENERE: Avventura, Fantasy, Azione ANNO: 2016 REGIA: Scott Derrickson SCENEGGIATURA: Thomas Dean Donnelly, Joshua Oppenheimer, Jon Spaihts FOTOGRAFIA: Ben Davis MONTAGGIO: Wyatt Smith MUSICHE: Christopher Young PRODUZIONE: Marvel Studios DISTRIBUZIONE: Walt Disney Studios Motion Pictures PAESE: USA DURATA: 115 Min [img]http://i.imgur.com/W7kBqiE.png[/img] Benedict Cumberbatch, Rachel McAdams, Tilda Swinton, Mads Mikkelsen, Chiwetel Ejiofor, Michael Stuhlbarg, Benedict Wong, Benjamin Bratt, Scott Adkins [img]http://i.imgur.com/bFK3ggF.png[/img] Doctor Strange racconta la storia del neurochirurgo di fama mondiale Stephen Strange, la cui vita cambia per sempre dopo che un terribile incidente automobilistico lo priva dell’uso delle mani. Quando la medicina tradizionale si dimostra incapace di guarirlo, Strange è costretto cercare una cura in un luogo inaspettato: una misteriosa enclave nota come Kamar-Taj. Scoprirà presto che non si tratta soltanto di un luogo di guarigione ma della prima linea di una battaglia contro invisibili forze oscure decise a..................... [img]http://i.imgur.com/48xHWWH.png[/img] Marvel's "Doctor Strange" follows the story of the talented neurosurgeon Doctor Stephen Strange who, after a tragic car accident, must put ego aside and learn the secrets of a hidden world of mysticism and alternate dimensions. Based in New York City's Greenwich Village, Doctor Strange must act as an intermediary between the real world and what lies beyond, utilising a vast array of metaphysical abilities and artifacts to protect the Marvel Cinematic Universe. [img]http://i.imgur.com/K8bfNTy.png[/img] [url=https://extraimage.net/image/2Kdu][img]https://extraimage.net/images/2017/02/19/c7f882415f6bf688a431eb6c23ebfe52.th.png[/img][/url] [url=https://extraimage.net/image/2KdV][img]https://extraimage.net/images/2017/02/19/e5651dc93703fd38f72c72180190d721.th.png[/img][/url] [url=https://extraimage.net/image/2Kdv][img]https://extraimage.net/images/2017/02/19/dd102944dc3036bcabfe58361a7cad97.th.png[/img][/url] [url=https://extraimage.net/image/2KdA][img]https://extraimage.net/images/2017/02/19/f0a45b06dd9039cb6b57cbb97e0895b1.th.png[/img][/url] [img]http://i.imgur.com/aVrMohH.png[/img] [spoiler] Generale ID univoco : 211373727805697524236788858647509402455 (0x9F0519641B9DD0FFBEB74BE3477B0357) Nome completo : Doctor Strange (2016).720p.H264.ita.eng.sub.ita.eng.iCV-MIRCrew.mkv Formato : Matroska Versione formato : Version 2 Dimensione : 3,43 GiB Durata : 1o 54min Bitrate totale : 4.273 Kbps Film : VISIT www.icv-crew.org Data codifica : UTC 2017-02-19 01:59:26 / UTC 2017-02-19 01:59:26 Creato con : Lavf54.63.100 Compressore : Lavf54.63.100 / Lavf54.63.100 Video ID : 1 Formato : AVC Formato/Informazioni : Advanced Video Codec Profilo formato : Main@L4.1 Impostazioni formato, CABAC : Si Impostazioni formato, ReFrames : 2 frame ID codec : V_MPEG4/ISO/AVC Durata : 1o 54min Bitrate : 3.500 Kbps Larghezza : 1.712 pixel Altezza : 720 pixel Rapporto aspetto visualizzazione : 2,40:1 Modalità frame rate : Costante Frame rate : 23,976 (24000/1001) fps Spazio colore : YUV Croma subsampling : 4:2:0 Profondità bit : 8 bit Tipo scansione : Progressivo Bit/(pixel*frame) : 0.118 Dimensione della traccia : 2,75 GiB (80%) Compressore : x264 core 130 r2273 Impostazioni compressione : cabac=1 / ref=2 / deblock=1:0:0 / analyse=0x1:0x131 / me=hex / subme=7 / psy=1 / psy_rd=1.00:0.00 / mixed_ref=0 / me_range=16 / chroma_me=1 / trellis=1 / 8x8dct=0 / cqm=0 / deadzone=21,11 / fast_pskip=1 / chroma_qp_offset=-2 / threads=12 / lookahead_threads=2 / sliced_threads=0 / nr=0 / decimate=1 / interlaced=0 / bluray_compat=0 / constrained_intra=0 / bframes=3 / b_pyramid=0 / b_adapt=1 / b_bias=0 / direct=3 / weightb=1 / open_gop=0 / weightp=2 / keyint=230 / keyint_min=23 / scenecut=40 / intra_refresh=0 / rc_lookahead=40 / rc=2pass / mbtree=1 / bitrate=3500 / ratetol=1.0 / qcomp=0.60 / qpmin=10 / qpmax=69 / qpstep=4 / cplxblur=20.0 / qblur=0.5 / vbv_maxrate=24000 / vbv_bufsize=24000 / nal_hrd=none / ip_ratio=1.40 / aq=1:1.00 Lingua : Italiano Default : Si Forced : No Statistics Tags Issue : mkvmerge v7.2.0 ('On Every Street') 32bit built on Sep 13 2014 15:42:11 2017-02-15 11:29:50 / Lavf54.63.100 2017-02-19 01:59:26 / UTC 2017-02-19 01:59:26 FromStats_BitRate : 8010636 FromStats_Duration : 01:54:58.559000000 FromStats_FrameCount : 165400 FromStats_StreamSize : 6907730801 Audio #1 ID : 2 Formato : AC-3 Formato/Informazioni : Audio Coding 3 Estensione modo : CM (complete main) Impostazioni formato, Endianness : Big ID codec : A_AC3 Durata : 1o 54min Modalità bitrate : Costante Bitrate : 384 Kbps Canali : 6 canali Posizione canali : Front: L C R, Side: L R, LFE Frequenza campionamento : 48,0 KHz Frame rate : 31,250 fps (1536 spf) Profondità bit : 16 bit Modo compressione : Con perdita Ritardo video : -5ms Dimensione della traccia : 316MiB (9%) Lingua : Italiano Default : Si Forced : Si Statistics Tags Issue : mkvmerge v7.2.0 ('On Every Street') 32bit built on Sep 13 2014 15:42:11 2017-02-15 11:29:50 / Lavf54.63.100 2017-02-19 01:59:26 / UTC 2017-02-19 01:59:26 FromStats_BitRate : 384000 FromStats_Duration : 01:54:58.464000000 FromStats_FrameCount : 215577 FromStats_StreamSize : 331126272 Audio #2 ID : 3 Formato : AC-3 Formato/Informazioni : Audio Coding 3 Estensione modo : CM (complete main) Impostazioni formato, Endianness : Big ID codec : A_AC3 Durata : 1o 54min Modalità bitrate : Costante Bitrate : 384 Kbps Canali : 6 canali Posizione canali : Front: L C R, Side: L R, LFE Frequenza campionamento : 48,0 KHz Frame rate : 31,250 fps (1536 spf) Profondità bit : 16 bit Modo compressione : Con perdita Ritardo video : -5ms Dimensione della traccia : 316MiB (9%) Lingua : Inglese Default : No Forced : No Statistics Tags Issue : mkvmerge v7.2.0 ('On Every Street') 32bit built on Sep 13 2014 15:42:11 2017-02-15 11:29:50 / Lavf54.63.100 2017-02-19 01:59:26 / UTC 2017-02-19 01:59:26 FromStats_BitRate : 640000 FromStats_Duration : 01:54:58.592000000 FromStats_FrameCount : 215581 FromStats_StreamSize : 551887360 Testo #1 ID : 4 Formato : UTF-8 ID codec : S_TEXT/UTF8 ID codec/Informazioni : UTF-8 Plain Text Titolo : FORCED iTA Lingua : Italiano Default : Si Forced : Si Statistics Tags Issue : mkvmerge v7.2.0 ('On Every Street') 32bit built on Sep 13 2014 15:42:11 2017-02-15 11:29:50 / Lavf54.63.100 2017-02-19 01:59:26 / UTC 2017-02-19 01:59:26 FromStats_BitRate : 55 FromStats_Duration : 00:00:03.336000000 FromStats_FrameCount : 1 FromStats_StreamSize : 23 Testo #2 ID : 5 Formato : UTF-8 ID codec : S_TEXT/UTF8 ID codec/Informazioni : UTF-8 Plain Text Titolo : REGULAR iTA Lingua : Italiano Default : No Forced : No Statistics Tags Issue : mkvmerge v7.2.0 ('On Every Street') 32bit built on Sep 13 2014 15:42:11 2017-02-15 11:29:50 / Lavf54.63.100 2017-02-19 01:59:26 / UTC 2017-02-19 01:59:26 FromStats_BitRate : 45 FromStats_Duration : 01:52:19.739000000 FromStats_FrameCount : 1278 FromStats_StreamSize : 38071 Testo #3 ID : 6 Formato : UTF-8 ID codec : S_TEXT/UTF8 ID codec/Informazioni : UTF-8 Plain Text Titolo : REGULAR ENG Lingua : Inglese Default : No Forced : No Statistics Tags Issue : mkvmerge v7.2.0 ('On Every Street') 32bit built on Sep 13 2014 15:42:11 2017-02-15 11:29:50 / Lavf54.63.100 2017-02-19 01:59:26 / UTC 2017-02-19 01:59:26 FromStats_BitRate : 43 FromStats_Duration : 01:52:14.186000000 FromStats_FrameCount : 1319 FromStats_StreamSize : 36953 Testo #4 ID : 7 Formato : UTF-8 ID codec : S_TEXT/UTF8 ID codec/Informazioni : UTF-8 Plain Text Titolo : NON UDENTI ENG Lingua : Inglese Default : No Forced : No Statistics Tags Issue : mkvmerge v7.2.0 ('On Every Street') 32bit built on Sep 13 2014 15:42:11 2017-02-15 11:29:50 / Lavf54.63.100 2017-02-19 01:59:26 / UTC 2017-02-19 01:59:26 FromStats_BitRate : 49 FromStats_Duration : 01:54:01.626000000 FromStats_FrameCount : 1584 FromStats_StreamSize : 42310 Menu 00:00:00.000 : :00:00:00.000 00:04:34.566 : :00:04:34.566 00:10:16.825 : :00:10:16.825 00:18:32.153 : :00:18:32.153 00:24:37.017 : :00:24:37.017 00:31:40.482 : :00:31:40.482 00:38:33.811 : :00:38:33.811 00:43:16.135 : :00:43:16.135 00:48:24.527 : :00:48:24.527 00:55:34.498 : :00:55:34.498 01:05:04.359 : :01:05:04.359 01:12:38.437 : :01:12:38.437 01:22:14.346 : :01:22:14.346 01:28:28.637 : :01:28:28.637 01:35:00.904 : :01:35:00.904 01:45:06.509 : :01:45:06.509 [/spoiler] [/color][/b][/center]

Hunter x Hunter 1998 Anime Complete Series Burntodisc

Language: | Size: 22.86 GB | Seed: 9 | Leech: 2

Description:

Gon Freecss is a young boy living on Whale Island.He learns from "Hunter" Kite, that his father, whom he was told was dead, is still alive somewhere as a top "Hunter," risking his life to seek unknown items, such as hidden treasures, curiosa, exotic living creatures, etc. Gon decides to become a professional Hunter and leaves the island. To become a Hunter, he must pass the Hunter Examination, where he meets and befriends three other applicants:Kurapika, Leorio and Killua. Can Gon pass this formidable hurdle, the Hunter Examination, to become "the Best Hunter in the World" and eventually meet his father? DISCS IN SET...: 3 EPISODES.......: 62 SIZE...........: DVD9 VIDEO CODEC....: MPEG2 RESOLUTION.....: 720x480 ASPECT RATIO...: NTSC 4:3 FRAMERATE......: 29.97fps AUDIO .........: English and Japanese 192kb/s SUBTITLES......: None MENU...........: Yes CHAPTERS.......: Yes DISC COVER.....: Yes [url]http://www.imdb.com/title/tt2098220/[/url] [url]http://en.wikipedia.org/wiki/Hunter_%C3%97_Hunter[/url]

American Pastoral (2016).H264.Italian.English.Ac3.5.1.sub.ita.eng.iCV-MIRCrew

Language: | Size: 1.65 GB | Seed: 283 | Leech: 243

Description:

American Pastoral (2016).H264.Italian.English.Ac3.5.1.sub.ita.eng.iCV-MIRCrew [center] [color=red][b][img]http://s23.postimg.org/b9yhws27f/0sc_Del1.png[/img] [u]NO FOUND ONLY ORIGINAL RELEASE[/u] [img]http://i.imgur.com/GDNQx1Z.png[/img] My release is always in double track audio italian and Original audio for select it use VLC or dvd player home not use wmp American Pastoral (2016) [img]https://extraimage.net/images/2017/02/18/59d0aebc15e0c522997c80e4eb656da3.png[/img] [URL=http://www.imdb.com/title/tt0376479/][IMG]http://www.userlogos.org/files/logos/Sucka/imdb_new.png[/IMG][/URL] [img]http://i.imgur.com/fGu1rKv.png[/img] DATA USCITA: 20 ottobre 2016 GENERE: Drammatico ANNO: 2016 REGIA: Ewan McGregor SCENEGGIATURA: John Romano FOTOGRAFIA: Martin Ruhe MONTAGGIO: Melissa Kent MUSICHE: Alexandre Desplat PRODUZIONE: Lakeshore Entertainment DISTRIBUZIONE: Eagle Pictures PAESE: USA DURATA: 108 Min [img]http://i.imgur.com/W7kBqiE.png[/img] Ewan McGregor, Dakota Fanning, Jennifer Connelly, Uzo Aduba, Molly Parker, Rupert Evans, David Strathairn, Valorie Curry, Peter Riegert, Mark Hildreth [img]http://i.imgur.com/bFK3ggF.png[/img] Tratto dal libro capolavoro di Philip Roth vincitore del Premio Pulitzer, American Pastoral è la storia di Seymour Levov detto "lo Svedese", un uomo che dalla vita ha avuto tutto: bellezza, carriera, soldi, una moglie ex Miss New Jersey e una bambina a lungo desiderata, ma il cui mondo pian piano va in pezzi quando la figlia ormai adolescente compie un attacco terroristico che provoca una vittima. [img]http://i.imgur.com/48xHWWH.png[/img] An All-American college star and his beauty queen wife watch their seemingly perfect life fall apart, as their daughter joins the turmoil of '60s America. [img]http://i.imgur.com/K8bfNTy.png[/img] [url=https://extraimage.net/image/2K2Y][img]https://extraimage.net/images/2017/02/18/a528ea950a49ecaa54f8a5b3006b905d.th.png[/img][/url] [url=https://extraimage.net/image/2K2C][img]https://extraimage.net/images/2017/02/18/c62dda9a79d92663cdef9ca38872abb5.th.png[/img][/url] [url=https://extraimage.net/image/2K2p][img]https://extraimage.net/images/2017/02/18/8f027579db93fda5402dc9d47e689b79.th.png[/img][/url] [img]http://i.imgur.com/aVrMohH.png[/img] [spoiler] General Unique ID : 96775692770109054989759546975931929077 (0x48CE5209A1DE6B760A2F46984AB911F5) Complete name : American Pastoral (2016).H264.ita.eng.sub.ita.eng.iCV-MIRCrew.mkv Format : Matroska Format version : Version 2 File size : 1.65 GiB Duration : 1h 48mn Overall bit rate : 2 173 Kbps Movie name : VISIT www.icv-crew.org Encoded date : UTC 2017-02-12 19:29:01 Writing application : Lavf54.63.100 Writing library : Lavf54.63.100 COPYRIGHT : robbyrs Video ID : 1 Format : AVC Format/Info : Advanced Video Codec Format profile : Main@L4.1 Format settings, CABAC : Yes Format settings, ReFrames : 2 frames Codec ID : V_MPEG4/ISO/AVC Duration : 1h 48mn Bit rate : 1 280 Kbps Width : 720 pixels Height : 304 pixels Display aspect ratio : 2.35:1 Frame rate mode : Variable Frame rate : 24.000 fps Color space : YUV Chroma subsampling : 4:2:0 Bit depth : 8 bits Scan type : Progressive Bits/(Pixel*Frame) : 0.244 Stream size : 959 MiB (57%) Writing library : x264 core 130 r2273 Encoding settings : cabac=1 / ref=2 / deblock=1:0:0 / analyse=0x1:0x131 / me=hex / subme=7 / psy=1 / psy_rd=1.00:0.00 / mixed_ref=0 / me_range=16 / chroma_me=1 / trellis=1 / 8x8dct=0 / cqm=0 / deadzone=21,11 / fast_pskip=1 / chroma_qp_offset=-2 / threads=12 / lookahead_threads=2 / sliced_threads=0 / nr=0 / decimate=1 / interlaced=0 / bluray_compat=0 / constrained_intra=0 / bframes=3 / b_pyramid=0 / b_adapt=1 / b_bias=0 / direct=3 / weightb=1 / open_gop=0 / weightp=2 / keyint=240 / keyint_min=24 / scenecut=40 / intra_refresh=0 / rc_lookahead=40 / rc=2pass / mbtree=1 / bitrate=1280 / ratetol=1.0 / qcomp=0.60 / qpmin=10 / qpmax=69 / qpstep=4 / cplxblur=20.0 / qblur=0.5 / vbv_maxrate=24000 / vbv_bufsize=24000 / nal_hrd=none / ip_ratio=1.40 / aq=1:1.00 Language : Italian Default : Yes Forced : No DURATION : 01:48:10.327000000 NUMBER_OF_FRAMES : 155768 NUMBER_OF_BYTES : 9478078336 _STATISTICS_WRITING_APP : mkvmerge v8.7.0 ('All of the above') 64bit _STATISTICS_WRITING_DATE_UTC : 2017-02-11 15:06:43 _STATISTICS_TAGS : BPS DURATION NUMBER_OF_FRAMES NUMBER_OF_BYTES Audio #1 ID : 2 Format : AC-3 Format/Info : Audio Coding 3 Mode extension : CM (complete main) Codec ID : A_AC3 Duration : 1h 48mn Bit rate mode : Constant Bit rate : 448 Kbps Channel(s) : 6 channels Channel positions : Front: L C R, Side: L R, LFE Sampling rate : 48.0 KHz Bit depth : 16 bits Compression mode : Lossy Delay relative to video : 1mn 5s Stream size : 348 MiB (21%) Title : AC3 ITA Language : Italian Default : No Forced : No DURATION : 01:48:42.976000000 NUMBER_OF_FRAMES : 203843 NUMBER_OF_BYTES : 521838080 _STATISTICS_WRITING_APP : mkvmerge v8.7.0 ('All of the above') 64bit _STATISTICS_WRITING_DATE_UTC : 2017-02-11 15:06:43 _STATISTICS_TAGS : BPS DURATION NUMBER_OF_FRAMES NUMBER_OF_BYTES Audio #2 ID : 3 Format : AC-3 Format/Info : Audio Coding 3 Mode extension : CM (complete main) Codec ID : A_AC3 Duration : 1h 48mn Bit rate mode : Constant Bit rate : 448 Kbps Channel(s) : 6 channels Channel positions : Front: L C R, Side: L R, LFE Sampling rate : 48.0 KHz Bit depth : 16 bits Compression mode : Lossy Delay relative to video : 1mn 5s Stream size : 348 MiB (21%) Title : AC3 ENG Language : English Default : No Forced : No DURATION : 01:48:16.896000000 NUMBER_OF_FRAMES : 203028 NUMBER_OF_BYTES : 519751680 _STATISTICS_WRITING_APP : mkvmerge v8.7.0 ('All of the above') 64bit _STATISTICS_WRITING_DATE_UTC : 2017-02-11 15:06:43 _STATISTICS_TAGS : BPS DURATION NUMBER_OF_FRAMES NUMBER_OF_BYTES Text #1 ID : 4 Format : UTF-8 Codec ID : S_TEXT/UTF8 Codec ID/Info : UTF-8 Plain Text Title : Forced Language : Italian Default : Yes Forced : No DURATION : 01:04:08.937000000 NUMBER_OF_FRAMES : 16 NUMBER_OF_BYTES : 509 _STATISTICS_WRITING_APP : mkvmerge v8.7.0 ('All of the above') 64bit _STATISTICS_WRITING_DATE_UTC : 2017-02-11 15:06:43 _STATISTICS_TAGS : BPS DURATION NUMBER_OF_FRAMES NUMBER_OF_BYTES Text #2 ID : 5 Format : UTF-8 Codec ID : S_TEXT/UTF8 Codec ID/Info : UTF-8 Plain Text Title : Regular Language : Italian Default : No Forced : No DURATION : 01:39:35.416000000 NUMBER_OF_FRAMES : 1343 NUMBER_OF_BYTES : 46692 _STATISTICS_WRITING_APP : mkvmerge v8.7.0 ('All of the above') 64bit _STATISTICS_WRITING_DATE_UTC : 2017-02-11 15:06:43 _STATISTICS_TAGS : BPS DURATION NUMBER_OF_FRAMES NUMBER_OF_BYTES Text #3 ID : 6 Format : UTF-8 Codec ID : S_TEXT/UTF8 Codec ID/Info : UTF-8 Plain Text Title : Regular Language : English Default : No Forced : No DURATION : 01:42:12.742000000 NUMBER_OF_FRAMES : 1442 NUMBER_OF_BYTES : 53682 _STATISTICS_WRITING_APP : mkvmerge v8.7.0 ('All of the above') 64bit _STATISTICS_WRITING_DATE_UTC : 2017-02-11 15:06:43 _STATISTICS_TAGS : BPS DURATION NUMBER_OF_FRAMES NUMBER_OF_BYTES Menu 00:00:00.000 : :00:00:00.000 00:07:28.708 : :00:07:28.708 00:11:13.249 : :00:11:13.249 00:19:18.249 : :00:19:18.249 00:25:57.374 : :00:25:57.374 00:32:13.666 : :00:32:13.666 00:38:49.833 : :00:38:49.833 00:45:39.249 : :00:45:39.249 00:52:48.041 : :00:52:48.041 00:58:01.249 : :00:58:01.249 01:04:57.166 : :01:04:57.166 01:11:57.124 : :01:11:57.124 01:17:30.541 : :01:17:30.541 01:25:35.875 : :01:25:35.875 01:32:33.416 : :01:32:33.416 01:38:56.666 : :01:38:56.666 [/spoiler] [/color][/b][/center]

Doctor Strange (2016).H264.Italian.English.Ac3.5.1.sub.ita.eng.iCV-MIRCrew

Language: | Size: 1.66 GB | Seed: 3 | Leech: 15

Description:

Doctor Strange (2016).H264.Italian.English.Ac3.5.1.sub.ita.eng.iCV-MIRCrew [center] [color=red][b][img]http://s23.postimg.org/b9yhws27f/0sc_Del1.png[/img] [u]NO FOUND ONLY ORIGINAL RELEASE[/u] [img]http://i.imgur.com/GDNQx1Z.png[/img] My release is always in double track audio italian and Original audio for select it use VLC or dvd player home not use wmp Doctor Strange (2016) [img]https://extraimage.net/images/2017/02/18/6ab50999a51f8453d651b80f3154d704.png[/img] [URL=http://www.imdb.com/title/tt1211837/][IMG]http://www.userlogos.org/files/logos/Sucka/imdb_new.png[/IMG][/URL] [img]http://i.imgur.com/fGu1rKv.png[/img] DATA USCITA: 26 ottobre 2016 GENERE: Avventura, Fantasy, Azione ANNO: 2016 REGIA: Scott Derrickson SCENEGGIATURA: Thomas Dean Donnelly, Joshua Oppenheimer, Jon Spaihts FOTOGRAFIA: Ben Davis MONTAGGIO: Wyatt Smith MUSICHE: Christopher Young PRODUZIONE: Marvel Studios DISTRIBUZIONE: Walt Disney Studios Motion Pictures PAESE: USA DURATA: 115 Min [img]http://i.imgur.com/W7kBqiE.png[/img] Benedict Cumberbatch, Rachel McAdams, Tilda Swinton, Mads Mikkelsen, Chiwetel Ejiofor, Michael Stuhlbarg, Benedict Wong, Benjamin Bratt, Scott Adkins [img]http://i.imgur.com/bFK3ggF.png[/img] Doctor Strange racconta la storia del neurochirurgo di fama mondiale Stephen Strange, la cui vita cambia per sempre dopo che un terribile incidente automobilistico lo priva dell’uso delle mani. Quando la medicina tradizionale si dimostra incapace di guarirlo, Strange è costretto cercare una cura in un luogo inaspettato: una misteriosa enclave nota come Kamar-Taj. Scoprirà presto che non si tratta soltanto di un luogo di guarigione ma della prima linea di una battaglia contro invisibili forze oscure decise a..................... [img]http://i.imgur.com/48xHWWH.png[/img] Marvel's "Doctor Strange" follows the story of the talented neurosurgeon Doctor Stephen Strange who, after a tragic car accident, must put ego aside and learn the secrets of a hidden world of mysticism and alternate dimensions. Based in New York City's Greenwich Village, Doctor Strange must act as an intermediary between the real world and what lies beyond, utilising a vast array of metaphysical abilities and artifacts to protect the Marvel Cinematic Universe. [img]http://i.imgur.com/K8bfNTy.png[/img] [url=https://extraimage.net/image/2Jv4][img]https://extraimage.net/images/2017/02/18/2675fe5b3d6cbabcbe71463adce6453e.th.png[/img][/url] [url=https://extraimage.net/image/2Jve][img]https://extraimage.net/images/2017/02/18/08e0d2c28242fda25a276625d0ca470e.th.png[/img][/url] [url=https://extraimage.net/image/2JvB][img]https://extraimage.net/images/2017/02/18/a1fc21bf709d11944d92f24ffbafdf85.th.png[/img][/url] [url=https://extraimage.net/image/2JvC][img]https://extraimage.net/images/2017/02/18/1aedf5fed9f2c3c10c895fc19fbfaf24.th.png[/img][/url] [url=https://extraimage.net/image/2JvY][img]https://extraimage.net/images/2017/02/18/2df68790334143ca5aa8baab8cec2453.th.png[/img][/url] [img]http://i.imgur.com/aVrMohH.png[/img] [spoiler] General Unique ID : 161932788932128110612184617998612430941 (0x79D31EE76431DEE9495178AB6640005D) Complete name : Doctor Strange (2016).ita.eng.sub.ita.eng.iCV-MIRCrew.mkv Format : Matroska Format version : Version 2 File size : 1.66 GiB Duration : 1h 54mn Overall bit rate : 2 073 Kbps Movie name : VISIT www.icv-crew.org Encoded date : UTC 2017-02-15 19:41:23 Writing application : Lavf54.63.100 Writing library : Lavf54.63.100 COPYRIGHT : robbyrs Video ID : 1 Format : AVC Format/Info : Advanced Video Codec Format profile : Main@L4.1 Format settings, CABAC : Yes Format settings, ReFrames : 2 frames Codec ID : V_MPEG4/ISO/AVC Duration : 1h 54mn Bit rate : 1 300 Kbps Width : 720 pixels Height : 304 pixels Display aspect ratio : 2.40:1 Frame rate mode : Variable Frame rate : 23.976 fps Color space : YUV Chroma subsampling : 4:2:0 Bit depth : 8 bits Scan type : Progressive Bits/(Pixel*Frame) : 0.248 Stream size : 1.01 GiB (61%) Writing library : x264 core 130 r2273 Encoding settings : cabac=1 / ref=2 / deblock=1:0:0 / analyse=0x1:0x131 / me=hex / subme=7 / psy=1 / psy_rd=1.00:0.00 / mixed_ref=0 / me_range=16 / chroma_me=1 / trellis=1 / 8x8dct=0 / cqm=0 / deadzone=21,11 / fast_pskip=1 / chroma_qp_offset=-2 / threads=12 / lookahead_threads=2 / sliced_threads=0 / nr=0 / decimate=1 / interlaced=0 / bluray_compat=0 / constrained_intra=0 / bframes=3 / b_pyramid=0 / b_adapt=1 / b_bias=0 / direct=3 / weightb=1 / open_gop=0 / weightp=2 / keyint=230 / keyint_min=23 / scenecut=40 / intra_refresh=0 / rc_lookahead=40 / rc=2pass / mbtree=1 / bitrate=1300 / ratetol=1.0 / qcomp=0.60 / qpmin=10 / qpmax=69 / qpstep=4 / cplxblur=20.0 / qblur=0.5 / vbv_maxrate=24000 / vbv_bufsize=24000 / nal_hrd=none / ip_ratio=1.40 / aq=1:1.00 Language : Italian Default : Yes Forced : No DURATION : 01:54:58.559000000 NUMBER_OF_FRAMES : 165400 NUMBER_OF_BYTES : 6907730801 _STATISTICS_WRITING_APP : mkvmerge v7.2.0 ('On Every Street') 32bit built on Sep 13 2014 15:42:11 _STATISTICS_WRITING_DATE_UTC : 2017-02-15 11:29:50 _STATISTICS_TAGS : BPS DURATION NUMBER_OF_FRAMES NUMBER_OF_BYTES Audio #1 ID : 2 Format : AC-3 Format/Info : Audio Coding 3 Mode extension : CM (complete main) Codec ID : A_AC3 Duration : 1h 54mn Bit rate mode : Constant Bit rate : 384 Kbps Channel(s) : 6 channels Channel positions : Front: L C R, Side: L R, LFE Sampling rate : 48.0 KHz Bit depth : 16 bits Compression mode : Lossy Delay relative to video : 1mn 5s Stream size : 316 MiB (19%) Language : Italian Default : Yes Forced : Yes DURATION : 01:54:58.464000000 NUMBER_OF_FRAMES : 215577 NUMBER_OF_BYTES : 331126272 _STATISTICS_WRITING_APP : mkvmerge v7.2.0 ('On Every Street') 32bit built on Sep 13 2014 15:42:11 _STATISTICS_WRITING_DATE_UTC : 2017-02-15 11:29:50 _STATISTICS_TAGS : BPS DURATION NUMBER_OF_FRAMES NUMBER_OF_BYTES Audio #2 ID : 3 Format : AC-3 Format/Info : Audio Coding 3 Mode extension : CM (complete main) Codec ID : A_AC3 Duration : 1h 54mn Bit rate mode : Constant Bit rate : 384 Kbps Channel(s) : 6 channels Channel positions : Front: L C R, Side: L R, LFE Sampling rate : 48.0 KHz Bit depth : 16 bits Compression mode : Lossy Delay relative to video : 1mn 5s Stream size : 316 MiB (19%) Language : English Default : No Forced : No DURATION : 01:54:58.592000000 NUMBER_OF_FRAMES : 215581 NUMBER_OF_BYTES : 551887360 _STATISTICS_WRITING_APP : mkvmerge v7.2.0 ('On Every Street') 32bit built on Sep 13 2014 15:42:11 _STATISTICS_WRITING_DATE_UTC : 2017-02-15 11:29:50 _STATISTICS_TAGS : BPS DURATION NUMBER_OF_FRAMES NUMBER_OF_BYTES Text #1 ID : 4 Format : UTF-8 Codec ID : S_TEXT/UTF8 Codec ID/Info : UTF-8 Plain Text Title : FORCED iTA Language : Italian Default : Yes Forced : Yes DURATION : 00:00:03.336000000 NUMBER_OF_FRAMES : 1 NUMBER_OF_BYTES : 23 _STATISTICS_WRITING_APP : mkvmerge v7.2.0 ('On Every Street') 32bit built on Sep 13 2014 15:42:11 _STATISTICS_WRITING_DATE_UTC : 2017-02-15 11:29:50 _STATISTICS_TAGS : BPS DURATION NUMBER_OF_FRAMES NUMBER_OF_BYTES Text #2 ID : 5 Format : UTF-8 Codec ID : S_TEXT/UTF8 Codec ID/Info : UTF-8 Plain Text Title : REGULAR iTA Language : Italian Default : No Forced : No DURATION : 01:52:19.739000000 NUMBER_OF_FRAMES : 1278 NUMBER_OF_BYTES : 38071 _STATISTICS_WRITING_APP : mkvmerge v7.2.0 ('On Every Street') 32bit built on Sep 13 2014 15:42:11 _STATISTICS_WRITING_DATE_UTC : 2017-02-15 11:29:50 _STATISTICS_TAGS : BPS DURATION NUMBER_OF_FRAMES NUMBER_OF_BYTES Text #3 ID : 6 Format : UTF-8 Codec ID : S_TEXT/UTF8 Codec ID/Info : UTF-8 Plain Text Title : REGULAR ENG Language : English Default : No Forced : No DURATION : 01:52:14.186000000 NUMBER_OF_FRAMES : 1319 NUMBER_OF_BYTES : 36953 _STATISTICS_WRITING_APP : mkvmerge v7.2.0 ('On Every Street') 32bit built on Sep 13 2014 15:42:11 _STATISTICS_WRITING_DATE_UTC : 2017-02-15 11:29:50 _STATISTICS_TAGS : BPS DURATION NUMBER_OF_FRAMES NUMBER_OF_BYTES Text #4 ID : 7 Format : UTF-8 Codec ID : S_TEXT/UTF8 Codec ID/Info : UTF-8 Plain Text Title : NON UDENTI ENG Language : English Default : No Forced : No DURATION : 01:54:01.626000000 NUMBER_OF_FRAMES : 1584 NUMBER_OF_BYTES : 42310 _STATISTICS_WRITING_APP : mkvmerge v7.2.0 ('On Every Street') 32bit built on Sep 13 2014 15:42:11 _STATISTICS_WRITING_DATE_UTC : 2017-02-15 11:29:50 _STATISTICS_TAGS : BPS DURATION NUMBER_OF_FRAMES NUMBER_OF_BYTES Menu 00:00:00.000 : :00:00:00.000 00:04:34.566 : :00:04:34.566 00:10:16.825 : :00:10:16.825 00:18:32.153 : :00:18:32.153 00:24:37.017 : :00:24:37.017 00:31:40.482 : :00:31:40.482 00:38:33.811 : :00:38:33.811 00:43:16.135 : :00:43:16.135 00:48:24.527 : :00:48:24.527 00:55:34.498 : :00:55:34.498 01:05:04.359 : :01:05:04.359 01:12:38.437 : :01:12:38.437 01:22:14.346 : :01:22:14.346 01:28:28.637 : :01:28:28.637 01:35:00.904 : :01:35:00.904 01:45:06.509 : :01:45:06.509 [/spoiler] [/color][/b][/center]

Ultimate Spider-Man 2012 Animated Complete Series SE3 Burntodisc

Language: | Size: 15.68 GB | Seed: 6 | Leech: 14

Description:

Spider-Man realizes he has inspired a whole new generation of aspiring super-heroes and wants to encourage them to have S.H.I.E.L.D. training and form a new team, the New Warriors. SE3 DISCS..........: 2 EPISODES.......: 26 SIZE...........: DVD9 VIDEO CODEC....: MPEG2 RESOLUTION.....: 720x480 ASPECT RATIO...: NTSC 16:9 FRAMERATE......: 29.97fps AUDIO .........: English 192kb/s SUBTITLES......: None MENU...........: Yes CHAPTERS.......: Yes DISC COVER.....: Yes [url]http://www.imdb.com/title/tt3105120/[/url] [url]http://en.wikipedia.org/wiki/List_of_Ultimate_Spider-Man_episodes[/url]

Ultimate Spider-Man 2012 Animated Complete Series SE4 Burntodisc

Language: | Size: 15.4 GB | Seed: 5 | Leech: 17

Description:

COMPLETE 4 SEASONS: 8 DISCS SEASON 4:2 DISCS EPISODES: 26 SIZE: DVD9 VIDEO CODEC: MPEG2 RESOLUTION: 720x480 ASPECT RATIO: NTSC 16:9 FRAMERATE: 29.97fps AUDIO: English 192kb/s SUBTITLES: None MENU: Yes CHAPTERS: Yes DISC COVER: Yes [url]http://www.imdb.com/title/tt1722512/episodes[/url] [url]https://en.wikipedia.org/wiki/List_of_Ultimate_Spider-Man_episodes[/url]

Sausage.Party.Vita.Segreta.Di.Una.Salsiccia.2016.iTA-ENG.Bluray.1080p.x265-CYBER.mkv

Language: | Size: 4.97 GB | Seed: 52 | Leech: 63

Description:

Titolo originale Sausage Party Lingua originale inglese Paese di produzione Stati Uniti d'America Anno 2016 Durata 89 min Colore colore Audio sonoro Rapporto 1,85:1 Genere animazione, commedia, erotico, avventura Regia Greg Tiernan, Conrad Vernon Soggetto Seth Rogen, Evan Goldberg, Jonah Hill Sceneggiatura Evan Goldberg, Kyle Hunter, Seth Rogen, Ariel Shaffir Produttore Megan Ellison, Evan Goldberg, Seth Rogen, Conrad Vernon Produttore esecutivo David Distenfeld, Jonah Hill, Kyle Hunter, Ariel Shaffir, James Weaver Casa di produzione Annapurna Pictures, Nitrogen Studios Canada, Point Grey Pictures, Sony Pictures Entertainment Distribuzione (Italia) Warner Bros. Storyboard David Dick, Kenny Park, Scott Underwood, James Wootton Art director Kyle McQueen Character design Jacqueline Doyle, Michael Linton, Kent Reimer, Michael Vatcher Montaggio Kevin Pavlovic Musiche Christopher Lennertz, Alan Menken Scenografia Kyle McQueen Doppiatori originali Seth Rogen: Frank e Sergente Peperone Kristen Wiig: Brenda Jonah Hill: Carl Michael Cera: Barry Nick Kroll: Lavanda Edward Norton: Sammy Bagel Jr. David Krumholtz: Kareem Abdul Lavash Bill Hader: Acquavite, Tequila e El Guaco Salma Hayek: Teresa Del Taco James Franco: Drogato Danny McBride: Mostarda Al Miele Craig Robinson: Mr. Grits Paul Rudd: Darren Anders Holm: Troy Scott 'Diggs' Underwood: Gomma, Twink, Pizza e Potato Chip Iris Apatow: Berry Good Candies Sugar Lyn Beard: Baby Carota e Cookies Brian Dobson: Pomodoro Italiano e Lattuga Nicole Olivier: Sally, Gelato, e Donna Lauren Miller-Rogen: Camille Toh e Tampon Kelly Sheridan: Roberta Maryke Hendrikse: Loretta, Bottiglia Di Cherry e Frutta Congelata Michael Daingerfield: Chutney Indiano Greg Tiernan: Patata Conrad Vernon: Adolf Sauerkraut Hitler Doppiatori italiani Simone Mori: Frank Rossella Acerbo: Brenda Simone Crisari: Carl Luigi Ferraro: Barry Pasquale Anselmo: Lavanda Luca Dal Fabbro: Sammy Bagel Jr. Roberto Gammino: Kareem Abdul Lavash e Darren Mario Cordova: Acquavite Ilaria Latini: Teresa Del Taco Paolo Vivio: Drogato Roberto Draghetti: Mr. Grits Riccardo Rossi: Chutney Indiano Franco Mannella: Patata Jenny De Cesarei: Camille Toh Gianluca Crisafi: Gomma Oliviero Dinelli: Pomodoro Italiano Paolo Marchese: Mostarda Al Miele Roberto Stocchi: Peperoni Verdi Beatrice Caggiula: Alex Gilberta Crispino: Donna [/center] [center][imdb]Sausage Party - Vita segreta di una salsiccia (2016)[/imdb][/center] [center][url=http://www.imdb.com/title/tt1700841/]http://www.imdb.com/title/tt1700841/[/url][/center] [center]Sausage Party - Vita segreta di una salsiccia (Sausage Party) è un film d'animazione 3D in CGI del 2016, diretto da Greg Tiernan e Conrad Vernon.[/center] [center][img]http://i.imgur.com/oHhsEdx.png[/img][/center] In un supermercato chiamato "Shopwell's", il cibo e gli altri articoli in vendita adorano i compratori umani come dei che li porteranno nel "Grande Oltre" quando li acquisteranno. Tra gli articoli nel supermercato vi è un würstel di nome Frank, che sogna di poter stare finalmente insieme alla sua fidanzata Brenda, un panino da hot dog, nel Grande Oltre, dove finalmente potranno consumare il loro rapporto. Frank vive in un pacco di salsicce con i suoi due migliori amici Barry e Carl, anch'essi ansiosi di poter sperimentare la vita nel Grande Oltre.

Bob Dylan - New Morning (1970), [Mp3][Tnt]

Language: | Size: 83.94 MB | Seed: 1 | Leech: 2

Description:

Artist: Bob Dylan Title: New Morning Year Of Release: 1970 Genre: Folk Rock Label: Columbia Tracks: 12 CDs: 1 Format: Mp3 Quality: 320kbps Included Scans: Si Archive Size: 84 Mb --------- 01. If Not For You [02:42] 02. Day Of The Locusts [04:00] 03. Time Passes Slowly [02:35] 04. Went To See The Gypsy [02:51] 05. Winterlude [02:23] 06. If Dogs Run Free [03:41] 07. New Morning [03:59] 08. Sign On The Window [03:41] 09. One More Weekend [03:12] 10. The Man In Me [03:10] 11. Three Angels [02:09] 12. Father Of Night [01:29]

Jean-Luc Ponty - A Taste For Passion [Flac][TNT]

Language: | Size: 211.61 MB | Seed: 62 | Leech: 32

Description:

[img]http://i.imgur.com/jeozaNa.jpg[/img] Artist...............: Jean Luc Ponty Album................: A Taste For Passion Genre................: Jazz Source...............: CD Year.................: 1979 Ripper...............: EAC (Secure mode) / LAME 3.92 & Asus CD-S520 Codec................: Free Lossless Audio Codec (FLAC) Version..............: reference libFLAC 1.3.1 20141125 Quality..............: Lossless, (avg. compression: 50 %) Channels.............: Stereo / 44100 HZ / 16 Bit Tags.................: VorbisComment Information..........: TntVillage Ripped by............: Leonenero on 14/02/2017 Posted by............: Leonenero on 14/02/2017 News Server..........: news.astraweb.com News Group(s)........: TNTVILLAGE Included.............: NFO, M3U, LOG, CUE Covers...............: Front Back CD --------------------------------------------------------------------- Tracklisting --------------------------------------------------------------------- 1. Jean Luc Ponty - Farewell [03:01] 2. Jean Luc Ponty - Stay With Me [05:38] 3. Jean Luc Ponty - Sunset Drive [05:44] 4. Jean Luc Ponty - Dreamy Eyes [04:19] 5. Jean Luc Ponty - Beach Girl [04:56] 6. Jean Luc Ponty - A Taste For Passion [05:25] 7. Jean Luc Ponty - Life Circle [05:46] 8. Jean Luc Ponty - Reminiscence [01:27] 9. Jean Luc Ponty - Give Us A Chance [03:21] 10. Jean Luc Ponty - Obsession [00:41] Playing Time.........: 40:22 Total Size...........: 211,09 MB This album contains rather modern fusion music. There is a good balance here between the electric guitars and the electric violins. The very "bottom" BASS is absolutely OUTSTANDING: it is the same musician who wonderfully played the bass on the "Enigmatic Ocean" album: Ralphe Armstrong; the difference here is that he plays a fretless/Wal-like bass: it gives something very personal to this record: just hear this bass sound! How can you ask for more? It is often fast, VERY well played and VERY sophisticated. The "bottom" & loud drums do a very good job too. Daryl Stuermer no longer appears as the lead guitarist: -I think the guitarists here have a better sound, being definitely more varied, modern and interesting. Ponty plays HIMSELF more modern keyboards and it fits well with the other instruments, featuring among others guitar synthesizers, which contribute to REALLY modernize Ponty's overall music & sound. This album can be completely listened with true pleasure because all the songs are very good. Like Anthony Phillips, Geddy Lee or Eddie Jobson, Ponty proves that he has nothing to envy from the great prog keyboardists, even if his more a violinist than a keyboardist.

Marauders - I Predoni (2016).H264.Italian.English.Ac3.5.1.sub.ita.eng.iCV-MIRCrew

Language: | Size: 1.63 GB | Seed: 414 | Leech: 308

Description:

Marauders - I Predoni (2016).H264.Italian.English.Ac3.5.1.sub.ita.eng.iCV-MIRCrew [center] [color=red][b][img]http://s23.postimg.org/b9yhws27f/0sc_Del1.png[/img] [u]NO FOUND ONLY ORIGINAL RELEASE[/u] [img]http://i.imgur.com/GDNQx1Z.png[/img] My release is always in double track audio italian and Original audio for select it use VLC or dvd player home not use wmp I Predoni - Marauders (2016) [img]https://extraimage.net/images/2017/02/15/3d644abe1917694e9e1ddd32c41e003c.png[/img] [URL=http://www.imdb.com/title/tt3963816/][IMG]http://www.userlogos.org/files/logos/Sucka/imdb_new.png[/IMG][/URL] [img]http://i.imgur.com/fGu1rKv.png[/img] Titolo originale Marauders Paese: Canada Anno: 2016 Regia: Steven C. Miller Genere: Azione Durata: 107 min. [img]http://i.imgur.com/W7kBqiE.png[/img] Bruce Willis, Christopher Meloni, Dave Bautista, Adrian Grenier, Lydia Hull, Tyler Jon Olson, Christopher Rob Bowen, Chris Hill, Danny A. Abeckaser, Texas Battle, Tara Holt, Alyshia Ochse [img]http://i.imgur.com/bFK3ggF.png[/img] In seguito a una brutale rapina in banca, tutti gli indizi portano al proprietario e ai suoi potenti clienti. Mentre un gruppo di agenti dell'Fbi conduce approfondite indagini, si susseguono altre rapine che mostrano quanto grande sia la cospirazione in gioco............... [img]http://i.imgur.com/48xHWWH.png[/img] When a bank is hit by a brutal heist, all evidence points to the owner and his high-powered clients. But as a group of FBI agents dig deeper into the case - and the deadly heists continue - it becomes clear that a larger conspiracy is at play. [img]http://i.imgur.com/K8bfNTy.png[/img] [url=https://extraimage.net/image/20K6][img]https://extraimage.net/images/2017/02/15/30ffda63fb2d9376112d06df1369f0b2.th.png[/img][/url] [url=https://extraimage.net/image/20Kx][img]https://extraimage.net/images/2017/02/15/2afaf0b1042541309e40b765b02d6232.th.png[/img][/url] [url=https://extraimage.net/image/20KV][img]https://extraimage.net/images/2017/02/15/b2ff495af492bf0ff53f049a86603430.th.png[/img][/url] [url=https://extraimage.net/image/20Ku][img]https://extraimage.net/images/2017/02/15/f6ca00273363b175982d94904fd4dc04.th.png[/img][/url] [url=https://extraimage.net/image/20Kv][img]https://extraimage.net/images/2017/02/15/3fbfb1130f158193a14ed1fb175fa526.th.png[/img][/url] [img]http://i.imgur.com/aVrMohH.png[/img] [spoiler] General Unique ID : 54758221488687958541218894722541709488 (0x29320CC2BFEF44BE9678F5B98C6268B0) Complete name : I Predoni - Marauders (2016).H264.ita.eng.sub.ita.eng.iCV-MIRCrew.mkv.d1eb2703ff355f30014542e6e102eb3b38b2f24b\I Predoni - Marauders (2016).H264.ita.eng.sub.ita.eng.iCV-MIRCrew.mkv Format : Matroska Format version : Version 2 File size : 1.63 GiB Duration : 1h 47mn Overall bit rate : 2 181 Kbps Movie name : VISIT www.icv-crew.org Encoded date : UTC 2017-02-13 23:24:24 Writing application : Lavf54.63.100 Writing library : Lavf54.63.100 COPYRIGHT : robbyrs Video ID : 1 Format : AVC Format/Info : Advanced Video Codec Format profile : Main@L4.1 Format settings, CABAC : Yes Format settings, ReFrames : 2 frames Codec ID : V_MPEG4/ISO/AVC Duration : 1h 47mn Bit rate : 1 280 Kbps Width : 720 pixels Height : 304 pixels Display aspect ratio : 2.40:1 Frame rate mode : Variable Frame rate : 23.976 fps Color space : YUV Chroma subsampling : 4:2:0 Bit depth : 8 bits Scan type : Progressive Bits/(Pixel*Frame) : 0.244 Stream size : 952 MiB (57%) Writing library : x264 core 130 r2273 Encoding settings : cabac=1 / ref=2 / deblock=1:0:0 / analyse=0x1:0x131 / me=hex / subme=7 / psy=1 / psy_rd=1.00:0.00 / mixed_ref=0 / me_range=16 / chroma_me=1 / trellis=1 / 8x8dct=0 / cqm=0 / deadzone=21,11 / fast_pskip=1 / chroma_qp_offset=-2 / threads=12 / lookahead_threads=2 / sliced_threads=0 / nr=0 / decimate=1 / interlaced=0 / bluray_compat=0 / constrained_intra=0 / bframes=3 / b_pyramid=0 / b_adapt=1 / b_bias=0 / direct=3 / weightb=1 / open_gop=0 / weightp=2 / keyint=230 / keyint_min=23 / scenecut=40 / intra_refresh=0 / rc_lookahead=40 / rc=2pass / mbtree=1 / bitrate=1280 / ratetol=1.0 / qcomp=0.60 / qpmin=10 / qpmax=69 / qpstep=4 / cplxblur=20.0 / qblur=0.5 / vbv_maxrate=24000 / vbv_bufsize=24000 / nal_hrd=none / ip_ratio=1.40 / aq=1:1.00 Language : Italian Default : Yes Forced : No DURATION : 01:47:07.254000000 NUMBER_OF_FRAMES : 154100 NUMBER_OF_BYTES : 6788648995 _STATISTICS_WRITING_APP : mkvmerge v8.7.0 ('All of the above') 64bit _STATISTICS_WRITING_DATE_UTC : 2017-02-13 08:29:16 _STATISTICS_TAGS : BPS DURATION NUMBER_OF_FRAMES NUMBER_OF_BYTES Audio #1 ID : 2 Format : AC-3 Format/Info : Audio Coding 3 Mode extension : CM (complete main) Codec ID : A_AC3 Duration : 1h 47mn Bit rate mode : Constant Bit rate : 448 Kbps Channel(s) : 6 channels Channel positions : Front: L C R, Side: L R, LFE Sampling rate : 48.0 KHz Bit depth : 16 bits Compression mode : Lossy Delay relative to video : 1mn 5s Stream size : 343 MiB (21%) Language : Italian Default : No Forced : No DURATION : 01:47:07.232000000 NUMBER_OF_FRAMES : 200851 NUMBER_OF_BYTES : 514178560 _STATISTICS_WRITING_APP : mkvmerge v8.7.0 ('All of the above') 64bit _STATISTICS_WRITING_DATE_UTC : 2017-02-13 08:29:16 _STATISTICS_TAGS : BPS DURATION NUMBER_OF_FRAMES NUMBER_OF_BYTES Audio #2 ID : 3 Format : AC-3 Format/Info : Audio Coding 3 Mode extension : CM (complete main) Codec ID : A_AC3 Duration : 1h 47mn Bit rate mode : Constant Bit rate : 448 Kbps Channel(s) : 6 channels Channel positions : Front: L C R, Side: L R, LFE Sampling rate : 48.0 KHz Bit depth : 16 bits Compression mode : Lossy Delay relative to video : 1mn 5s Stream size : 343 MiB (21%) Language : English Default : No Forced : No DURATION : 01:47:07.296000000 NUMBER_OF_FRAMES : 602559 NUMBER_OF_BYTES : 1212348776 _STATISTICS_WRITING_APP : mkvmerge v8.7.0 ('All of the above') 64bit _STATISTICS_WRITING_DATE_UTC : 2017-02-13 08:29:16 _STATISTICS_TAGS : BPS DURATION NUMBER_OF_FRAMES NUMBER_OF_BYTES Text #1 ID : 4 Format : UTF-8 Codec ID : S_TEXT/UTF8 Codec ID/Info : UTF-8 Plain Text Title : FORCED Language : Italian Default : Yes Forced : No DURATION : 00:49:03.782000000 NUMBER_OF_FRAMES : 3 NUMBER_OF_BYTES : 68 _STATISTICS_WRITING_APP : mkvmerge v8.7.0 ('All of the above') 64bit _STATISTICS_WRITING_DATE_UTC : 2017-02-13 08:29:16 _STATISTICS_TAGS : BPS DURATION NUMBER_OF_FRAMES NUMBER_OF_BYTES Text #2 ID : 5 Format : UTF-8 Codec ID : S_TEXT/UTF8 Codec ID/Info : UTF-8 Plain Text Title : REGOLARI Language : Italian Default : No Forced : No DURATION : 01:37:51.120000000 NUMBER_OF_FRAMES : 1312 NUMBER_OF_BYTES : 47594 _STATISTICS_WRITING_APP : mkvmerge v8.7.0 ('All of the above') 64bit _STATISTICS_WRITING_DATE_UTC : 2017-02-13 08:29:16 _STATISTICS_TAGS : BPS DURATION NUMBER_OF_FRAMES NUMBER_OF_BYTES Text #3 ID : 6 Format : UTF-8 Codec ID : S_TEXT/UTF8 Codec ID/Info : UTF-8 Plain Text Title : NON UDENTI Language : English Default : No Forced : No DURATION : 01:39:07.566000000 NUMBER_OF_FRAMES : 1534 NUMBER_OF_BYTES : 52916 _STATISTICS_WRITING_APP : mkvmerge v8.7.0 ('All of the above') 64bit _STATISTICS_WRITING_DATE_UTC : 2017-02-13 08:29:16 _STATISTICS_TAGS : BPS DURATION NUMBER_OF_FRAMES NUMBER_OF_BYTES Menu 00:00:00.000 : :Chapter 1 00:05:19.402 : :Chapter 2 00:11:57.717 : :Chapter 3 00:17:46.106 : :Chapter 4 00:24:42.647 : :Chapter 5 00:30:33.873 : :Chapter 6 00:39:07.678 : :Chapter 7 00:46:14.980 : :Chapter 8 00:51:49.356 : :Chapter 9 00:55:58.271 : :Chapter 10 01:02:08.015 : :Chapter 11 01:09:21.699 : :Chapter 12 01:16:38.594 : :Chapter 13 01:22:48.838 : :Chapter 14 01:28:22.171 : :Chapter 15 01:34:08.351 : :Chapter 16 [/spoiler] [/color][/b][/center]

Sausage Party - Vita segreta di una salsiccia (2016).H264.Italian.English.Ac3.5.1.sub.ita.eng.iCV-MIRCrew

Language: | Size: 1.35 GB | Seed: 196 | Leech: 134

Description:

Sausage Party - Vita segreta di una salsiccia (2016).H264.Italian.English.Ac3.5.1.sub.ita.eng.iCV-MIRCrew [center] [color=red][b][img]http://extraimago.com/images/2016/07/16/oCo82IVa08d8.png[/img] [u]NO FOUND ONLY ORIGINAL RELEASE[/u] [img]http://i.imgur.com/GDNQx1Z.png[/img] My release is always in double track audio italian and Original audio for select it use VLC or dvd player home not use wmp Sausage Party - Vita segreta di una salsiccia (2016) [img]https://extraimage.net/images/2017/02/15/f85678e2d5b9d523327f1d2374392567.png[/img] [URL=http://www.imdb.com/title/tt1700841/][IMG]http://www.userlogos.org/files/logos/Sucka/imdb_new.png[/IMG][/URL] [img]http://i.imgur.com/Q5gAZRt.png[/img] DATA USCITA: 31 ottobre 2016 GENERE: Commedia, Animazione ANNO: 2016 REGIA: Greg Tiernan, Conrad Vernon SCENEGGIATURA: Evan Goldberg, Seth Rogen, Kyle Hunter, Ariel Shaffir PRODUZIONE: Annapurna Pictures, Nitrogen Studios Canada, Point Grey Pictures, Sony Pictures Animation. DISTRIBUZIONE: Warner Bros. Italia PAESE: USA DURATA: 89 Min [img]http://i.imgur.com/Jtvgw7x.png[/img] James Franco, Kristen Wiig, Jonah Hill, Seth Rogen, Salma Hayek, Edward Norton, Michael Cera, David Krumholtz, Nick Kroll, Conrad Vernon [img]http://i.imgur.com/hL3n1m8.png[/img] Una salsiccia in crisi esistenziale alla testa di un gruppo di prodotti da supermercato in missione per scoprire la verità su ciò che realmente accade quando vengono scelti e lasciano il negozio di alimentari, tra corridoi e strani incontri, non sarà semplice. [img]http://i.imgur.com/MTp7cO6.png[/img] The products at Shopwell's Grocery Store are made to believe a code that helps them live happy lives until it's time for them to leave the comfort of the supermarket and head for the great beyond. However, after a botched trip to the great beyond leaves one sausage named Frank and his companion Bun stranded, Frank goes to great lengths (pun intended) to return to his package and make another trip to the great beyond................ [img]http://i.imgur.com/6TgqSmf.png[/img] [url=https://extraimage.net/image/20JQ][img]https://extraimage.net/images/2017/02/15/66c9936b82ee9a7901dc8c992a365f81.th.png[/img][/url] [url=https://extraimage.net/image/20JL][img]https://extraimage.net/images/2017/02/15/25d64dc1b66563576947e1a67ad005d4.th.png[/img][/url] [url=https://extraimage.net/image/20JR][img]https://extraimage.net/images/2017/02/15/b6defa7fb8080160367ed2919732bb76.th.png[/img][/url] [url=https://extraimage.net/image/20Jm][img]https://extraimage.net/images/2017/02/15/1c35d1fde8447753289c25c79035634a.th.png[/img][/url] [img]http://i.imgur.com/t8N3Ia1.png[/img] [spoiler] General Unique ID : 22792124710231513967488543620946664701 (0x11259A8217DA4D57AEF22514D82B1CFD) Complete name : Sausage Party - Vita segreta di una salsiccia (2016).H264.ita.eng.sub.ita.eng.iCV-MIRCrew.mkv Format : Matroska Format version : Version 2 File size : 1.35 GiB Duration : 1h 28mn Overall bit rate : 2 181 Kbps Movie name : VISIT www.icv-crew.org Encoded date : UTC 2017-02-11 01:58:14 Writing application : Lavf54.63.100 Writing library : Lavf54.63.100 COPYRIGHT : robbyrs Video ID : 1 Format : AVC Format/Info : Advanced Video Codec Format profile : Main@L4.1 Format settings, CABAC : Yes Format settings, ReFrames : 2 frames Codec ID : V_MPEG4/ISO/AVC Duration : 1h 28mn Bit rate : 1 280 Kbps Width : 720 pixels Height : 384 pixels Display aspect ratio : 1.854 Original display aspect ratio : 1.853 Frame rate mode : Variable Frame rate : 23.976 fps Color space : YUV Chroma subsampling : 4:2:0 Bit depth : 8 bits Scan type : Progressive Bits/(Pixel*Frame) : 0.193 Stream size : 788 MiB (57%) Writing library : x264 core 130 r2273 Encoding settings : cabac=1 / ref=2 / deblock=1:0:0 / analyse=0x1:0x131 / me=hex / subme=7 / psy=1 / psy_rd=1.00:0.00 / mixed_ref=0 / me_range=16 / chroma_me=1 / trellis=1 / 8x8dct=0 / cqm=0 / deadzone=21,11 / fast_pskip=1 / chroma_qp_offset=-2 / threads=12 / lookahead_threads=2 / sliced_threads=0 / nr=0 / decimate=1 / interlaced=0 / bluray_compat=0 / constrained_intra=0 / bframes=3 / b_pyramid=0 / b_adapt=1 / b_bias=0 / direct=3 / weightb=1 / open_gop=0 / weightp=2 / keyint=230 / keyint_min=23 / scenecut=40 / intra_refresh=0 / rc_lookahead=40 / rc=2pass / mbtree=1 / bitrate=1280 / ratetol=1.0 / qcomp=0.60 / qpmin=10 / qpmax=69 / qpstep=4 / cplxblur=20.0 / qblur=0.5 / vbv_maxrate=24000 / vbv_bufsize=24000 / nal_hrd=none / ip_ratio=1.40 / aq=1:1.00 Language : Italian Default : Yes Forced : No DURATION : 01:28:45.279000000 NUMBER_OF_FRAMES : 127679 NUMBER_OF_BYTES : 6375834858 _STATISTICS_WRITING_APP : mkvmerge v8.3.0 ('Over the Horizon') 64bit _STATISTICS_WRITING_DATE_UTC : 2017-02-11 01:58:14 _STATISTICS_TAGS : BPS DURATION NUMBER_OF_FRAMES NUMBER_OF_BYTES Audio #1 ID : 2 Format : AC-3 Format/Info : Audio Coding 3 Mode extension : CM (complete main) Codec ID : A_AC3 Duration : 1h 28mn Bit rate mode : Constant Bit rate : 448 Kbps Channel(s) : 6 channels Channel positions : Front: L C R, Side: L R, LFE Sampling rate : 48.0 KHz Bit depth : 16 bits Compression mode : Lossy Delay relative to video : 1mn 5s Stream size : 284 MiB (21%) Language : Italian Default : No Forced : No DURATION : 01:28:45.344000000 NUMBER_OF_FRAMES : 166417 NUMBER_OF_BYTES : 426027520 _STATISTICS_WRITING_APP : mkvmerge v8.3.0 ('Over the Horizon') 64bit _STATISTICS_WRITING_DATE_UTC : 2017-02-11 01:58:14 _STATISTICS_TAGS : BPS DURATION NUMBER_OF_FRAMES NUMBER_OF_BYTES Audio #2 ID : 3 Format : AC-3 Format/Info : Audio Coding 3 Mode extension : CM (complete main) Codec ID : A_AC3 Duration : 1h 28mn Bit rate mode : Constant Bit rate : 448 Kbps Channel(s) : 6 channels Channel positions : Front: L C R, Side: L R, LFE Sampling rate : 48.0 KHz Bit depth : 16 bits Compression mode : Lossy Delay relative to video : 1mn 5s Stream size : 284 MiB (21%) Language : English Default : No Forced : No DURATION : 01:28:45.323000000 NUMBER_OF_FRAMES : 499249 NUMBER_OF_BYTES : 1004489708 _STATISTICS_WRITING_APP : mkvmerge v8.3.0 ('Over the Horizon') 64bit _STATISTICS_WRITING_DATE_UTC : 2017-02-11 01:58:14 _STATISTICS_TAGS : BPS DURATION NUMBER_OF_FRAMES NUMBER_OF_BYTES Text #1 ID : 4 Format : UTF-8 Codec ID : S_TEXT/UTF8 Codec ID/Info : UTF-8 Plain Text Title : REGOLARI Language : Italian Default : No Forced : No DURATION : 01:22:17.890000000 NUMBER_OF_FRAMES : 1408 NUMBER_OF_BYTES : 54816 _STATISTICS_WRITING_APP : mkvmerge v8.3.0 ('Over the Horizon') 64bit _STATISTICS_WRITING_DATE_UTC : 2017-02-11 01:58:14 _STATISTICS_TAGS : BPS DURATION NUMBER_OF_FRAMES NUMBER_OF_BYTES Text #2 ID : 5 Format : UTF-8 Codec ID : S_TEXT/UTF8 Codec ID/Info : UTF-8 Plain Text Title : NON UDENTI Language : English Default : No Forced : No DURATION : 01:27:02.591000000 NUMBER_OF_FRAMES : 1708 NUMBER_OF_BYTES : 59776 _STATISTICS_WRITING_APP : mkvmerge v8.3.0 ('Over the Horizon') 64bit _STATISTICS_WRITING_DATE_UTC : 2017-02-11 01:58:14 _STATISTICS_TAGS : BPS DURATION NUMBER_OF_FRAMES NUMBER_OF_BYTES Menu 00:00:00.000 : :00:00:00.000 00:04:24.264 : :00:04:24.264 00:10:19.118 : :00:10:19.118 00:15:27.844 : :00:15:27.844 00:19:32.171 : :00:19:32.171 00:24:53.701 : :00:24:53.701 00:29:32.938 : :00:29:32.938 00:35:44.142 : :00:35:44.142 00:41:55.263 : :00:41:55.263 00:48:18.521 : :00:48:18.521 00:54:45.908 : :00:54:45.908 00:59:54.508 : :00:59:54.508 01:03:47.073 : :01:03:47.073 01:08:01.286 : :01:08:01.286 01:11:55.811 : :01:11:55.811 01:16:03.809 : :01:16:03.809 [/spoiler] [/color][/b][/center]

Teen Titans Go! 2014 Animated Complete SE2 Burntodisc

Language: | Size: 15.63 GB | Seed: 4 | Leech: 24

Description:

Teen Titans Go! is a TV show that follows the Teen Titans when not saving the world and when living together as teenagers without adult supervision.[3] The Teen Titans must deal with situations such as teenage pranks, reaching a whole new level, having to retake a driver's test after wrecking the Batmobile, taking part in dodgeball tournaments, fighting each other, and other antics. SE1 SE2 = 4 discs DISCS IN SET...: 2 EPISODES.......: 26 (52 segments) SIZE...........: DVD9 VIDEO CODEC....: MPEG2 RESOLUTION.....: 720x480 ASPECT RATIO...: NTSC 16:9 FRAMERATE......: 29.97fps AUDIO .........: English 192kb/s SUBTITLES......: None MENU...........: Yes CHAPTERS.......: Yes DISC COVER.....: Yes

Teen Titans Go! 2013 Animated Complete SE1 Burntodisc

Language: | Size: 15.48 GB | Seed: 308 | Leech: 34

Description:

Teen Titans Go! is a TV show that follows the Teen Titans when not saving the world and when living together as teenagers without adult supervision.[3] The Teen Titans must deal with situations such as teenage pranks, reaching a whole new level, having to retake a driver's test after wrecking the Batmobile, taking part in dodgeball tournaments, fighting each other, and other antics. SE1 SE2 = 4 discs DISCS IN SET...: 2 EPISODES.......: 26 (52 segments) SIZE...........: DVD9 VIDEO CODEC....: MPEG2 RESOLUTION.....: 720x480 ASPECT RATIO...: NTSC 16:9 FRAMERATE......: 29.97fps AUDIO .........: English 192kb/s SUBTITLES......: None MENU...........: Yes CHAPTERS.......: Yes DISC COVER.....: Yes

Elizabeth - The Golden Age (2007) BDRip 1080p HEVC ITA DTS ITA ENG AC3 PirateMKV.mkv

Language: | Size: 4.31 GB | Seed: 51 | Leech: 53

Description:

Nel 1585 l'Europa è scossa dalla Guerra santa intrapresa da Filippo II di Spagna: solo la regina anglicana d'Inghilterra, Elisabetta, osa opporglisi. La regina, oltre alle preoccupazioni di politica estera, deve anche interessarsi dei problemi interni al suo regno dal momento che, non essendosi sposata e non avendo figli, il suo trono potrebbe essere ereditato dalla sua cugina cattolica Mary Stuart, regina di Scozia, tenuta prigioniera dalla sovrana inglese in un castello. A mature Queen Elizabeth endures multiple crises late in her reign including court intrigues, an assassination plot, the Spanish Armada, and romantic disappointments.

Elizabeth.1998.iTA-ENG.Bluray.1080p.H265.ICV-MIRCrew.mkv

Language: | Size: 5.51 GB | Seed: 10 | Leech: 30

Description:

A film of the early years of the reign of Elizabeth I of England and her difficult task of learning what is necessary to be a monarch.

The Tom And Jerry Show 2014 Complete SE1 Burntodisc

Language: | Size: 15.56 GB | Seed: 5 | Leech: 33

Description:

The series normally follows the antics of Tom in his pursuit of Jerry SE1: 2 DISCS EPISODES: 26 episodes 52 segments SIZE: DVD9 VIDEO CODEC: MPEG2 RESOLUTION: 720x480 ASPECT RATIO: NTSC 16:9 FRAMERATE: 29.97fps AUDIO: English 192kb/s SUBTITLES: None MENU: Yes CHAPTERS: Yes DISC COVER: Custom

Atjazz - Lab Results [Flac][TntVillage]

Language: | Size: 427.11 MB | Seed: 62 | Leech: 27

Description:

[img]http://i.imgur.com/Q0E01LL.jpg[/img] Artist...............: Atjazz Album................: Lab Results Genre................: Acid Jazz Electronic Source...............: CD Year.................: 2001 Ripper...............: EAC (Secure mode) / LAME 3.92 & Asus CD-S520 Codec................: Free Lossless Audio Codec (FLAC) Version..............: reference libFLAC 1.3.1 20141125 Quality..............: Lossless, (avg. compression: 60 %) Channels.............: Stereo / 44100 HZ / 16 Bit Tags.................: VorbisComment Information..........: TntVillage Ripped by............: Leonenero on 12/02/2017 Posted by............: Leonenero on 12/02/2017 News Server..........: news.astraweb.com News Group(s)........: TNTVILLAGE Included.............: NFO, M3U, LOG, CUE Covers...............: Front Back CD --------------------------------------------------------------------- Tracklisting --------------------------------------------------------------------- 1. Atjazz - Harmony (Dixon's Late Night Mix) [05:32] 2. Atjazz - Wrong Type Of Day [05:49] 3. Atjazz - Touch The Sun (Dzihan & Kamien's Sun Care Remix) [05:48] 4. Atjazz - Witchbender [06:52] 5. Atjazz - Day 2001 (Brooks Flood Loop Remix) [05:31] 6. Atjazz - Rain Angel [06:17] 7. Atjazz - Harmony (Little Big Bee Remix) [08:50] 8. Atjazz - It's Complete (Chateau Flight Dark Side Remix) [05:05] 9. Atjazz - The Walk Home [06:35] 10. Atjazz - It's Complete (Phil Barnell's Pushin' Your Love Remix) [05:30] 11. Atjazz - Touch The Sun (King Britt's Scuba Journey) [08:53] Playing Time.........: 01:10:48 Total Size...........: 426,61 MB Atjazz wisely handed a few of his Lab Funk productions to cooler heads than his own for the remixes-and-originals full-length Lab Results. dZihan & Kamien do a good job roughing up "Touch the Sun," Chateau Flight's warped version of "It's Complete" improves the rather bland original, and King Britt and Dixon do solid work as well. Of the originals, "Witchbender" recalls the sublime bleep techno of As One and LFO, though "Rain Angel" descends into the worst excesses of quiet storm.

Atjazz - Labfunk [Flac][TntVillage]

Language: | Size: 477.74 MB | Seed: 37 | Leech: 18

Description:

[img]http://i.imgur.com/07g0t10.jpg[/img] Artist...............: Atjazz Album................: Labfunk Genre................: Acid Jazz Electronic Source...............: CD Year.................: 2001 Ripper...............: EAC (Secure mode) / LAME 3.92 & Asus CD-S520 Codec................: Free Lossless Audio Codec (FLAC) Version..............: reference libFLAC 1.3.1 20141125 Quality..............: Lossless, (avg. compression: 65 %) Channels.............: Stereo / 44100 HZ / 16 Bit Tags.................: VorbisComment Information..........: TntVillage Ripped by............: Leonenero on 12/02/2017 Posted by............: Leonenero on 12/02/2017 News Server..........: news.astraweb.com News Group(s)........: TNTVILLAGE Included.............: NFO, M3U, LOG, CUE Covers...............: Front Back CD --------------------------------------------------------------------- Tracklisting --------------------------------------------------------------------- 1. Atjazz - Labfunk [06:38] 2. Atjazz - Touch The Sun [07:13] 3. Atjazz - Day 2001 [05:40] 4. Atjazz - Strike [07:19] 5. Atjazz - Kidnapped [07:12] 6. Atjazz - All That [09:02] 7. Atjazz - It's Complete [07:12] 8. Atjazz - Interlude [01:20] 9. Atjazz - Harmony [07:21] 10. Atjazz - Heavy Weather [07:20] 11. Atjazz - Casa De Ilusion [06:04] Playing Time.........: 01:12:26 Total Size...........: 477,33 MB Martin Iveson is best known as the music and sound effect producer for the illustrious Tomb Raider video games and a slew of remixes and 12-inch releases on Nottingham's DIY Records. Upon resurrection of his Mantis Recordings in 1998, he hooked up with jazz musician Pete Wraight (who's played with Charles Webster and extensively on Herbert's Bodily Functions) and Atjazz was born.Labfunk is an album that skirts on the outer rim of both deep house and broken beat, in which organic elements and heavily synthesized sounds happily co-exist. Iveson has a very keen ear for both time-honored music and fast-forward future sounds. Tracks like "Strike" exalt this, with a Herbie Hancock-esque neoprene bassline, muted trumpets and ultra-clean drum break. "Kidnapped" continues on the same path, with an aggressive bassline and more of Atjazz's signature '70s throwback muted horns, while "It's Complete" is on more of a mellow tip, with a subtle drum break, star-kissed synths and a synthetic bass line. The true standout of the album is "Harmony," the only female vocal oriented track that makes a very sudden (and tasteful) change-up from broken beat to straight house music mid-way through the track. This is an expertly programmed album that breaks genre barriers and will appeal to fans of house, broken beat, downtempo and funk. This electronic fusion avoids the syrupy, overwrought instrumentation that has plagued this sound for so long. It's an impure record for purists of all genres, and above all, it's damn good.

Wolverine Anime 2011 The Complete Series Burntodisc

Language: | Size: 7.7 GB | Seed: 38 | Leech: 52

Description:

Logan is asked by his old friend, a cop from Japan, to help him take down Shingen Yashida's crime syndicate and save Mariko, Logan's lost love, from forced marriage arranged by her father Shingen. Yukio, a female assassin, helps him. DISCS IN SET: 1 EPISODES: 12 SIZE: DVD9 VIDEO CODEC: MPEG2 RESOLUTION: 720x480 ASPECT RATIO: NTSC 16:9 FRAMERATE: 29.97fps AUDIO: English 192kb/s SUBTITLES: None MENU: Yes CHAPTERS: Yes DISC COVER: Yes [url]http://www.imdb.com/title/tt1847521/[/url] [url]http://en.wikipedia.org/wiki/List_of_Marvel_Anime_episodes[/url]

Wolverine And The X-Men Anime The Complete Series 2009 - Burntodisc

Language: | Size: 15.38 GB | Seed: 5 | Leech: 5

Description:

After an explosion at the school, the x-men went their separate ways. But, they must unite once again under the leadership of Wolverine to prevent an inevitable war while also dealing with present problem. DISCS IN SET: 2 EPISODES: 13 SIZE: DVD9 VIDEO CODEC: MPEG2 RESOLUTION: 720x480 ASPECT RATIO: NTSC 16:9 FRAMERATE: 29.97fps AUDIO: English 192kb/s SUBTITLES: None MENU: Yes CHAPTERS: Yes DISC COVER: Yes [url]http://www.imdb.com/title/tt0772145/[/url] [url]http://en.wikipedia.org/wiki/List_of_Wolverine_and_the_X-Men_episodes[/url]

The Model (2016).H264.Italian.English.Ac3.5.1.sub.ita.iCV-MIRCrew

Language: | Size: 1.65 GB | Seed: 801 | Leech: 80

Description:

The Model (2016).H264.Italian.English.Ac3.5.1.sub.ita.iCV-MIRCrew [center] [color=red][b][img]http://s23.postimg.org/b9yhws27f/0sc_Del1.png[/img] [u]NO FOUND ONLY ORIGINAL RELEASE[/u] [img]http://i.imgur.com/GDNQx1Z.png[/img] My release is always in double track audio italian and Original audio for select it use VLC or dvd player home not use wmp The Model (2016) [img]https://extraimage.net/images/2017/02/12/d4b45a065259b762333e9bfedb568b08.png[/img] [URL=http://www.imdb.com/title/tt4074364/][IMG]http://www.userlogos.org/files/logos/Sucka/imdb_new.png[/IMG][/URL] [img]http://i.imgur.com/fGu1rKv.png[/img] Original title: The Model Year: 2016 Running time: 105 min. Country: Denmark Director: Mads Matthiesen Screenwriter: Anders Frithiof August, Mads Matthiesen, Martin Zandvliet Cinematography: Petrus Sjövik Producer: Zentropa Entertainments Genre: Drama. Romanc [img]http://i.imgur.com/W7kBqiE.png[/img] Maria Palm, Ed Skrein, Yvonnick Muller, Claire Tran, Marco Ilsø, Dominic Allburn, Thierry Hancisse, David L. Price, Virgile Bramly, Aleksandra Yermak, Christian Abart, Elise Lissague, Mehdi Senoussi, Charlotte Tomaszewiska [img]http://i.imgur.com/bFK3ggF.png[/img] Emma (Maria Palm), top model che lotta per entrare nella scena della moda parigina, sviluppa un'ossessione fatale per il fotografo Shane White (Ed Skrein). [img]http://i.imgur.com/48xHWWH.png[/img] Emma, an emerging model, struggles to enter the Parisian fashion scene and develops a dangerous obsession for fashion photographer Shane White. [img]http://i.imgur.com/K8bfNTy.png[/img] [url=https://extraimage.net/image/2UWm][img]https://extraimage.net/images/2017/02/12/ebb30c790e04f75e0d518d7e4525dfa9.th.png[/img][/url] [url=https://extraimage.net/image/2UWR][img]https://extraimage.net/images/2017/02/12/04251adb716a6e35ae9d41f977d294cf.th.png[/img][/url] [url=https://extraimage.net/image/2UWi][img]https://extraimage.net/images/2017/02/12/5d658c591eed3c0218b2877f3602c041.th.png[/img][/url] [url=https://extraimage.net/image/2UWl][img]https://extraimage.net/images/2017/02/12/9b4ee9b6d682c9d7200c2a9a8116f52b.th.png[/img][/url] [img]http://i.imgur.com/aVrMohH.png[/img] [spoiler] General Unique ID : 74381544897541160676287118796114684048 (0x37F55D4D6F0CA09E091D8CF767D0E890) Complete name : The Model (2016).H264.ita.eng.sub.ita.iCV-MIRCrew.mkv Format : Matroska Format version : Version 2 File size : 1.65 GiB Duration : 1h 48mn Overall bit rate : 2 181 Kbps Movie name : VISIT www.icv-crew.org Encoded date : UTC 2017-02-10 19:07:25 Writing application : Lavf54.63.100 Writing library : Lavf54.63.100 COPYRIGHT : robbyrs Video ID : 1 Format : AVC Format/Info : Advanced Video Codec Format profile : Main@L4.1 Format settings, CABAC : Yes Format settings, ReFrames : 2 frames Codec ID : V_MPEG4/ISO/AVC Duration : 1h 48mn Bit rate : 1 280 Kbps Width : 720 pixels Height : 388 pixels Display aspect ratio : 1.856 Frame rate mode : Variable Frame rate : 24.000 fps Color space : YUV Chroma subsampling : 4:2:0 Bit depth : 8 bits Scan type : Progressive Bits/(Pixel*Frame) : 0.191 Stream size : 960 MiB (57%) Writing library : x264 core 130 r2273 Encoding settings : cabac=1 / ref=2 / deblock=1:0:0 / analyse=0x1:0x131 / me=hex / subme=7 / psy=1 / psy_rd=1.00:0.00 / mixed_ref=0 / me_range=16 / chroma_me=1 / trellis=1 / 8x8dct=0 / cqm=0 / deadzone=21,11 / fast_pskip=1 / chroma_qp_offset=-2 / threads=12 / lookahead_threads=2 / sliced_threads=0 / nr=0 / decimate=1 / interlaced=0 / bluray_compat=0 / constrained_intra=0 / bframes=3 / b_pyramid=0 / b_adapt=1 / b_bias=0 / direct=3 / weightb=1 / open_gop=0 / weightp=2 / keyint=240 / keyint_min=24 / scenecut=40 / intra_refresh=0 / rc_lookahead=40 / rc=2pass / mbtree=1 / bitrate=1280 / ratetol=1.0 / qcomp=0.60 / qpmin=10 / qpmax=69 / qpstep=4 / cplxblur=20.0 / qblur=0.5 / vbv_maxrate=24000 / vbv_bufsize=24000 / nal_hrd=none / ip_ratio=1.40 / aq=1:1.00 Language : Italian Default : Yes Forced : No DURATION : 01:48:02.334000000 NUMBER_OF_FRAMES : 155576 NUMBER_OF_BYTES : 7764368037 _STATISTICS_WRITING_APP : mkvmerge v8.3.0 ('Over the Horizon') 64bit _STATISTICS_WRITING_DATE_UTC : 2017-02-08 20:10:18 _STATISTICS_TAGS : BPS DURATION NUMBER_OF_FRAMES NUMBER_OF_BYTES Audio #1 ID : 2 Format : AC-3 Format/Info : Audio Coding 3 Mode extension : CM (complete main) Codec ID : A_AC3 Duration : 1h 48mn Bit rate mode : Constant Bit rate : 448 Kbps Channel(s) : 6 channels Channel positions : Front: L C R, Side: L R, LFE Sampling rate : 48.0 KHz Bit depth : 16 bits Compression mode : Lossy Delay relative to video : 1mn 5s Stream size : 346 MiB (21%) Title : AC3 iTA Language : Italian Default : No Forced : No DURATION : 01:48:00.352000000 NUMBER_OF_FRAMES : 202511 NUMBER_OF_BYTES : 518428160 _STATISTICS_WRITING_APP : mkvmerge v8.3.0 ('Over the Horizon') 64bit _STATISTICS_WRITING_DATE_UTC : 2017-02-08 20:10:18 _STATISTICS_TAGS : BPS DURATION NUMBER_OF_FRAMES NUMBER_OF_BYTES Audio #2 ID : 3 Format : AC-3 Format/Info : Audio Coding 3 Mode extension : CM (complete main) Codec ID : A_AC3 Duration : 1h 48mn Bit rate mode : Constant Bit rate : 448 Kbps Channel(s) : 6 channels Channel positions : Front: L C R, Side: L R, LFE Sampling rate : 48.0 KHz Bit depth : 16 bits Compression mode : Lossy Delay relative to video : 1mn 5s Stream size : 346 MiB (21%) Title : AC3 ENG Language : English Default : No Forced : No DURATION : 01:48:02.368000000 NUMBER_OF_FRAMES : 202574 NUMBER_OF_BYTES : 518589440 _STATISTICS_WRITING_APP : mkvmerge v8.3.0 ('Over the Horizon') 64bit _STATISTICS_WRITING_DATE_UTC : 2017-02-08 20:10:18 _STATISTICS_TAGS : BPS DURATION NUMBER_OF_FRAMES NUMBER_OF_BYTES Text #1 ID : 4 Format : UTF-8 Codec ID : S_TEXT/UTF8 Codec ID/Info : UTF-8 Plain Text Title : FORCED iTA Language : Italian Default : Yes Forced : No DURATION : 00:15:18.916000000 NUMBER_OF_FRAMES : 5 NUMBER_OF_BYTES : 249 _STATISTICS_WRITING_APP : mkvmerge v8.3.0 ('Over the Horizon') 64bit _STATISTICS_WRITING_DATE_UTC : 2017-02-08 20:10:18 _STATISTICS_TAGS : BPS DURATION NUMBER_OF_FRAMES NUMBER_OF_BYTES Text #2 ID : 5 Format : UTF-8 Codec ID : S_TEXT/UTF8 Codec ID/Info : UTF-8 Plain Text Title : REGULAR iTA Language : Italian Default : No Forced : No DURATION : 01:41:23.083000000 NUMBER_OF_FRAMES : 849 NUMBER_OF_BYTES : 23918 _STATISTICS_WRITING_APP : mkvmerge v8.3.0 ('Over the Horizon') 64bit _STATISTICS_WRITING_DATE_UTC : 2017-02-08 20:10:18 _STATISTICS_TAGS : BPS DURATION NUMBER_OF_FRAMES NUMBER_OF_BYTES Menu 00:00:00.000 : :00:00:00.000 00:14:13.625 : :00:14:13.625 00:28:03.792 : :00:28:03.792 00:39:34.833 : :00:39:34.833 00:54:22.250 : :00:54:22.250 01:07:10.875 : :01:07:10.875 01:21:59.750 : :01:21:59.750 01:32:51.542 : :01:32:51.542 [/spoiler] [/color][/b][/center]

Various Artists - Lovy Metal [Flac][TntVillage]

Language: | Size: 387.81 MB | Seed: 48 | Leech: 41

Description:

[img]http://i.imgur.com/x1nzgKU.jpg[/img] Artist...............: Various Artists Album................: Lovy Metal Genre................: Other Source...............: CD Year.................: 2007 Ripper...............: EAC (Secure mode) / LAME 3.92 & Asus CD-S520 Codec................: Free Lossless Audio Codec (FLAC) Version..............: reference libFLAC 1.3.1 20141125 Quality..............: Lossless, (avg. compression: 67 %) Channels.............: Stereo / 44100 HZ / 16 Bit Tags.................: VorbisComment Information..........: TntVillage Ripped by............: Leonenero on 09/02/2017 Posted by............: Leonenero on 11/02/2017 News Server..........: news.astraweb.com News Group(s)........: TNTVILLAGE Included.............: NFO, PLS, M3U, LOG, CUE Covers...............: Front Back CD --------------------------------------------------------------------- Tracklisting --------------------------------------------------------------------- 1. Mr. Mister - Broken Wings [03:18] 2. Warrant - Heaven [03:55] 3. Winger - Miles Away [04:09] 4. Stryper - I Believe in You [03:13] 5. Marc Ferr - Die for Love [03:48] 6. Scorpions - Still Loving You [04:23] 7. Whitesnake - Is This Love [04:37] 8. KISS - Forever [03:49] 9. Skid Row - I Remember You [05:11] 10. Limp Bizkit - Behind Blue Eyes [04:29] 11. The Calling - Wherever You Will Go [03:26] 12. Scorpions - Under The Same Sun [04:53] 13. Cutting Crew - I've Been in Love Before [03:41] 14. Firehouse - I Live My Life for Love [04:19] Playing Time.........: 57:17 Total Size...........: 387,24 MB

Rod Stewart - When We Were The New Boys (1998), [Mp3][Tnt]

Language: | Size: 96.2 MB | Seed: 1 | Leech: 2

Description:

Artist: Rod Stewart Title: When We Were The New Boys Year Of Release: 1998 Genre: Pop Rock, Hard Rock Label: |Warner Bros. Records Tracks: 10 CDs: 1 Format: Mp3 Quality: 320 kbps Included Scans: Si Archive Size: 96 Mb ---------- 01. Cigarettes And Alcohol [0:04:03.70] 02. Ooh La La [0:04:16.20] 03. Rocks [0:04:45.07] 04. Superstar [0:04:20.68] 05. Secret Heart [0:04:07.22] 06. Hotel Chambermaid [0:03:49.53] 07. Shelly My Love [0:03:38.05] 08. When We Were The New Boys [0:04:40.45] 09. Weak [0:04:37.05] 10. What Do You Want Me To Do [0:03:34.57]

Lego Star Wars The Complete Brick Saga So Far 2011 Burntodisc

Language: | Size: 7.82 GB | Seed: 12 | Leech: 7

Description:

The Force of Star Wars and the fun of LEGO combine in this series of irresistible all-ages animated adventures. DISCS IN SERIES: 1 EPISODES.......: 9 TOTAL SIZE...........: DVD9 VIDEO CODEC....: MPEG2 RESOLUTION.....: 720x480 ASPECT RATIO...: NTSC 16:9 FRAMERATE......: 23.976 fps AUDIO .........: English 256kb/s SUBTITLES......: None MENU...........: Yes CHAPTERS.......: Yes DISC COVER.....: Yes [url]http://www.imdb.com/title/tt2005268/[/url] [url]https://itunes.apple.com/us/tv-season/lego-star-wars-complete-brick/id870790975[/url] [url]https://en.wikipedia.org/wiki/Lego_Star_Wars#Films_and_videos[/url]

Jack Reacher: Never Go Back - 2 Punto di non ritorno (2016).H264.Italian.English.iCV-MIRCrew

Language: | Size: 1.75 GB | Seed: 187 | Leech: 67

Description:

Jack Reacher: Never Go Back - 2 Punto di non ritorno (2016).H264.Italian.English.Ac3.5.1.sub.ita.eng.iCV-MIRCrew [center] [color=red][b][img]http://s23.postimg.org/b9yhws27f/0sc_Del1.png[/img] [u]NO FOUND ONLY ORIGINAL RELEASE[/u] [img]http://i.imgur.com/GDNQx1Z.png[/img] My release is always in double track audio italian and Original audio for select it use VLC or dvd player home not use wmp Jack Reacher 2 Punto di non ritorno - Jack Reacher Never Go Back (2016) [img]https://extraimage.net/images/2017/02/10/fdbd35869b94c6519b6245f28753770b.png[/img] [URL=http://www.imdb.com/title/tt3393786/][IMG]http://www.userlogos.org/files/logos/Sucka/imdb_new.png[/IMG][/URL] [img]http://i.imgur.com/fGu1rKv.png[/img] DATA USCITA: 20 ottobre 2016 GENERE: Azione, Thriller, Drammatico ANNO: 2016 REGIA: Edward Zwick SCENEGGIATURA: Marshall Herskovitz, Edward Zwick FOTOGRAFIA: Oliver Wood MONTAGGIO: Billy Weber MUSICHE: Henry Jackman PRODUZIONE: Paramount Pictures, Skydance Productions, TC Productions DISTRIBUZIONE: Universal Pictures Italia PAESE: USA DURATA: 118 Min [img]http://i.imgur.com/W7kBqiE.png[/img] Tom Cruise, Cobie Smulders, Patrick Heusinger, Robert Knepper, Aldis Hodge, Danika Yarosh [img]http://i.imgur.com/bFK3ggF.png[/img] Jack Reacher (Tom Cruise) ritorna con il suo marchio di giustizia nel sequel Jack Reacher: Punto di non ritorno. Susan Turner (Cobie Smulders), maggiore dell'esercito che dirige la vecchia unità investigativa di Reacher, viene arrestata con l’accusa di spionaggio e Reacher, consapevole della sua innocenza................ [img]http://i.imgur.com/48xHWWH.png[/img] Jack Reacher must uncover the truth behind a major government conspiracy in order to clear his name. On the run as a fugitive from the law, Reacher uncovers a potential secret from his past that could change his life forever. [img]http://i.imgur.com/K8bfNTy.png[/img] [img]https://extraimage.net/images/2017/02/10/b759dc51f5dec0156060b803f2dd762b.png[/img] [img]https://extraimage.net/images/2017/02/10/99e79044fba8da10ac60b065330cbc2a.png[/img] [img]https://extraimage.net/images/2017/02/10/d65cf799ae362c22eae35de7c0df7d7f.png[/img] [img]http://i.imgur.com/aVrMohH.png[/img] [spoiler] General Unique ID : 187353854691026505352872915703805675183 (0x8CF30A3688063E03B3A89403915286AF) Complete name : Jack Reacher 2 Punto di non ritorno - Jack Reacher Never Go Back (2016).ita.eng.sub.ita.eng.iCV-MIRCrew.mkv Format : Matroska Format version : Version 2 File size : 1.75 GiB Duration : 1h 58mn Overall bit rate : 2 111 Kbps Movie name : VISIT www.icv-crew.org Encoded date : UTC 2017-01-17 05:54:59 Writing application : mkvmerge v5.4.0 ('Piper') built on Mar 10 2012 13:34:39 Writing library : Lavf54.63.100 COPYRIGHT : robbyrs Video ID : 1 Format : AVC Format/Info : Advanced Video Codec Format profile : Main@L4.1 Format settings, CABAC : Yes Format settings, ReFrames : 2 frames Muxing mode : Header stripping Codec ID : V_MPEG4/ISO/AVC Duration : 1h 58mn Bit rate : 1 280 Kbps Width : 720 pixels Height : 300 pixels Display aspect ratio : 2.40:1 Original display aspect ratio : 2.40:1 Frame rate mode : Variable Frame rate : 24.000 fps Color space : YUV Chroma subsampling : 4:2:0 Bit depth : 8 bits Scan type : Progressive Bits/(Pixel*Frame) : 0.247 Stream size : 1.02 GiB (59%) Writing library : x264 core 130 r2273 Encoding settings : cabac=1 / ref=2 / deblock=1:0:0 / analyse=0x1:0x131 / me=hex / subme=7 / psy=1 / psy_rd=1.00:0.00 / mixed_ref=0 / me_range=16 / chroma_me=1 / trellis=1 / 8x8dct=0 / cqm=0 / deadzone=21,11 / fast_pskip=1 / chroma_qp_offset=-2 / threads=12 / lookahead_threads=2 / sliced_threads=0 / nr=0 / decimate=1 / interlaced=0 / bluray_compat=0 / constrained_intra=0 / bframes=3 / b_pyramid=0 / b_adapt=1 / b_bias=0 / direct=3 / weightb=1 / open_gop=0 / weightp=2 / keyint=240 / keyint_min=24 / scenecut=40 / intra_refresh=0 / rc_lookahead=40 / rc=2pass / mbtree=1 / bitrate=1280 / ratetol=1.0 / qcomp=0.60 / qpmin=10 / qpmax=69 / qpstep=4 / cplxblur=20.0 / qblur=0.5 / vbv_maxrate=24000 / vbv_bufsize=24000 / nal_hrd=none / ip_ratio=1.40 / aq=1:1.00 Language : English Default : Yes Forced : No Audio #1 ID : 2 Format : AC-3 Format/Info : Audio Coding 3 Mode extension : CM (complete main) Muxing mode : Header stripping Codec ID : A_AC3 Duration : 1h 58mn Bit rate mode : Constant Bit rate : 448 Kbps Channel(s) : 6 channels Channel positions : Front: L C R, Side: L R, LFE Sampling rate : 48.0 KHz Bit depth : 16 bits Compression mode : Lossy Delay relative to video : -42ms Stream size : 380 MiB (21%) Language : English Default : No Forced : No Audio #2 ID : 3 Format : AC-3 Format/Info : Audio Coding 3 Mode extension : CM (complete main) Muxing mode : Header stripping Codec ID : A_AC3 Duration : 1h 58mn Bit rate mode : Constant Bit rate : 384 Kbps Channel(s) : 2 channels Channel positions : Front: L R Sampling rate : 48.0 KHz Bit depth : 16 bits Compression mode : Lossy Delay relative to video : -5ms Stream size : 325 MiB (18%) Language : English Default : Yes Forced : No Text #1 ID : 4 Format : UTF-8 Codec ID : S_TEXT/UTF8 Codec ID/Info : UTF-8 Plain Text Default : No Forced : No Text #2 ID : 5 Format : UTF-8 Codec ID : S_TEXT/UTF8 Codec ID/Info : UTF-8 Plain Text Language : English Default : Yes Forced : No Text #3 ID : 6 Format : UTF-8 Codec ID : S_TEXT/UTF8 Codec ID/Info : UTF-8 Plain Text Default : No Forced : No Text #4 ID : 7 Format : UTF-8 Codec ID : S_TEXT/UTF8 Codec ID/Info : UTF-8 Plain Text Default : No Forced : No Menu 00:00:00.000 : :Chapter 1 00:06:59.000 : :Chapter 2 00:15:19.000 : :Chapter 3 00:20:33.000 : :Chapter 4 00:29:03.000 : :Chapter 5 00:34:34.000 : :Chapter 6 00:42:39.000 : :Chapter 7 00:49:27.000 : :Chapter 8 00:58:43.000 : :Chapter 9 01:03:09.000 : :Chapter 10 01:09:34.000 : :Chapter 11 01:15:04.000 : :Chapter 12 01:21:58.000 : :Chapter 13 01:27:06.000 : :Chapter 14 01:34:13.000 : :Chapter 15 01:46:43.000 : :Chapter 16 01:53:30.000 : :Chapter 17 [/spoiler] [/color][/b][/center]

a-ha - Stay On These Roads [Flac][TntVillage]

Language: | Size: 267.78 MB | Seed: 20 | Leech: 2

Description:

[img]http://i.imgur.com/OqMC8mV.jpg[/img] Artist...............: a-ha Album................: Stay On These Roads Genre................: Pop Source...............: CD Year.................: 1988 Ripper...............: EAC (Secure mode) / LAME 3.92 & Asus CD-S520 Codec................: Free Lossless Audio Codec (FLAC) Version..............: reference libFLAC 1.3.1 20141125 Quality..............: Lossless, (avg. compression: 61 %) Channels.............: Stereo / 44100 HZ / 16 Bit Tags.................: VorbisComment Information..........: TntVillage Ripped by............: Leonenero on 08/02/2017 Posted by............: Leonenero on 08/02/2017 News Server..........: news.astraweb.com News Group(s)........: TNTVILLAGE Included.............: NFO, M3U, LOG, CUE Covers...............: Front Back CD --------------------------------------------------------------------- Tracklisting --------------------------------------------------------------------- 1. a-ha - You'll End Up Crying [02:07] 2. a-ha - Stay On These Roads [04:45] 3. a-ha - The Blood That Moves The Body [04:06] 4. a-ha - Touchy! [04:33] 5. a-ha - This Alone Is Love [05:15] 6. a-ha - Hurry Home [04:37] 7. a-ha - The Living Daylights [04:47] 8. a-ha - There's Never A Forever Thing [02:51] 9. a-ha - Out Of Blue Comes Green [06:42] 10. a-ha - You Are The One [03:51] Playing Time.........: 43:40 Total Size...........: 267,37 MB Stay on These Roads was the band's third studio album. The album's peak on the Billboard 200 was 148. The album was another big hit by A-ha internationally, selling over 4 million copies worldwide. Stay on These Roads achieved Platinum status in Brazil and Gold in the UK, Switzerland, the Netherlands and Germany and Double Platinum status in France.The album reached #2 in the European top-100 albums sales chart. William Ruhlmann of AllMusic said "in the U.K., the album became the group's third straight to peak at number two, though it charted for a shorter period than the first two albums, and there were four Top 25 hits—the title track, 'The Blood That Moves the Body,' 'Touchy!,' and 'You Are the One'." Also included was A-ha's 1987 theme from the James Bond movie The Living Daylights, a U.K. number five that missed the U.S. charts. Lead single "Stay on These Roads", number one in Norway, was a hit across Europe, including top-five showings in the UK, France, Austria and Ireland and top-ten chartings in Germany, the Netherlands, Sweden and Switzerland. Stay on These Roads included three more hit singles, "The Blood That Moves The Body", "Touchy!" and "You Are the One", though a final single, "There's Never a Forever Thing", was released only in Brazil. None of the singles charted on the Billboard Hot 100.

Lego Star Wars Droid Tales Complete 2015 Burntodisc

Language: | Size: 4.18 GB | Seed: 19 | Leech: 15

Description:

Lego Star Wars: Droid Tales is a five-part Lego Star Wars television mini-series that premiered on Disney XD[1] on July 6, 2015. It is an animated comedy series depicting the stories and characters from the Star Wars saga. DISCS IN SERIES: 1 EPISODES: 5 TOTAL SIZE: DVD5 VIDEO CODEC: MPEG2 RESOLUTION: 720x480 ASPECT RATIO: NTSC 16:9 FRAMERATE: 29.97fps AUDIO: English 192kb/s SUBTITLES: En not hardcoded MENU: Yes CHAPTERS: Yes DISC COVER: Yes [url]http://www.imdb.com/title/tt4855868/episodes[/url] [url]https://en.wikipedia.org/wiki/Lego_Star_Wars:_Droid_Tales[/url]

Aerosmith - Greatest Hits (2008) (by emi)

Language: | Size: 225.33 MB | Seed: 54 | Leech: 12

Description:

mp3 a 192 kbps audio di qualità a 95 db Tracklist CD 1 01 - Devil's Got A New Disguise.mp3 (6.2 MB) 02 - Falling In Love (Is Hard On The Knees).mp3 (4.9 MB) 03 - I Don't Want To Miss A Thing (Pop Mix).mp3 (6.2 MB) 04 - Jaded.mp3 (5.1 MB) 05 - Janie's Got A Gun.mp3 (6.4 MB) 06 - Walk This Way (With Run D.M.C.).mp3 (5.2 MB) 07 - Crazy.mp3 (5.8 MB) 08 - Hole In My Soul.mp3 (8.6 MB) 09 - Love In An Elevator.mp3 (7.6 MB) 10 - Pink.mp3 (5.6 MB) 11 - Cryin'.mp3 (7.2 MB) 12 - Rag Doll.mp3 (6.2 MB) 13 - The Other Side.mp3 (5.8 MB) 14 - Amazing.mp3 (8.4 MB) 15 - Livin' On The Edge.mp3 (7.2 MB) 16 - Girls Of Summer.mp3 (4.6 MB) 17 - Lay It Down.mp3 (5.4 MB) 18 - Just Feel Better (Feat. Santana).mp3 (6.0 MB) CD 2 01 - Baby, Please Don't Go.mp3 (4.9 MB) 02 - Just Push Play (Radio Remix).mp3 (4.6 MB) 03 - Sedona Sunrise.mp3 (6.0 MB) 04 - Nine Lives.mp3 (5.7 MB) 05 - Angel's Eye.mp3 (4.8 MB) 06 - Sunshine.mp3 (5.2 MB) 07 - Full Circle.mp3 (7.1 MB) 08 - Can't Stop Messin'.mp3 (6.5 MB) 09 - Dude (Looks Like A Lady).mp3 (6.1 MB) 10 - Fly Away From Here.mp3 (7.1 MB) 11 - Theme From Spider Man (Album Version).mp3 (4.2 MB) 12 - What Kind Of Love Are You On.mp3 (4.7 MB) 13 - What It Takes.mp3 (7.3 MB) 14 - Walk On Water.mp3 (6.9 MB) 15 - Deuces Are Wild.mp3 (5.1 MB) 16 - Dream On.mp3 (6.3 MB) 17 - Hangman Jury.mp3 (7.7 MB) 18 - Blind Man.mp3 (5.6 MB) 19 - Angel.mp3 (7.1 MB)