Search Top Tags











Search results for "2013"




Masha and the Bear - Masha e Orso - Rock Star (2012-2013) [DVD5 - Ita Ac3 2.0]

Language: | Size: 4.26 GB | Seed: 31 | Leech: 25

Description:

Masha e Orso - Rock star *Thx to the Original Uploader .:Info:. Original Title: Маша и Медведь Country: Russia Year: 2012-2013 Genres: Animation, Com Director: Vladislav Bairamgulov, Georgii Orlov, Natalya Malgina, Roman Kozich, Andrey Belyaevedy Production: Art & Science Production, LLC Distribution: Dall'Angelo Pictures (Italia) .:Plot:. Masha is a Russian girl who lives in the forest with her pig, goat and dog. All the animals in the forest are afraid of her as she forces them to play with her. One morning, Masha sees a butterfly and inadvertently follows it inside the home of a bear who has gone fishing. While playing there, she makes a big mess. When the Bear returns, he sees the disaster caused by Masha. The Bear tries to get rid of Masha, but he is unsuccessful, and he and Masha become friends. In each episode of the show, Masha is portrayed as a smart, very kind and mischievous little girl who is exploring the world through a number of entertaining situations where she demonstrates her assertiveness, being absolutely fidgety, whereas the kind-hearted Bear always keeps Masha out of trouble but often ends up the unintended victim of her mischief. There are several supporting characters in the series, including Masha's cousin – Dasha, a penguin adopted by the Bear, a young panda cub from China who is the Bear's cousin, two wolves who live in the old UAZ car, a tiger that worked with the bear in the circus, and Female Bear that is the object of the bear's affections, along with a hare, squirrels and hedgehogs, and a pig Rosie, goat, and dog who live in Masha's front yard. .:Episodes:. 1. Un Quadro Perfetto 2. Corri Corri Cavallino 3. Masha Rock Star 4. La pozione per crescere 5. Vola, vola! 6. Divertirsi in Famiglia 7. La Dolce Vita 8. La Foto Perfetta 9. Una Cugina di Troppo 10. Una volta l'anno, il Compleanno! .:General Info:. Compression: No Movie Quality: DVD5 Size: 4463 Mb Languages: Italian Ac3 2.0 Colors Runtime: 70 min. Menu: Yes

Masha and the Bear - Masha e Orso - Non è Facile essere Piccoli (2013) [DVD5 - Ita Ac3]

Language: | Size: 3.43 GB | Seed: 557 | Leech: 73

Description:

Titolo originale: Маша и Медведь Nazionalità: Russia Anno: 2013-2014 Genere: Animazione, Commedia Regia: Georgii Orlov, Vladislav Bairamgulov, Natalya Malgina, Roman Kozich, Andrey Belyaev Produzione: Art & Science Production, LLC Distribuzione: Dall'Angelo Pictures (Italia) .:Descrizione:. Liberamente ispirata ai personaggi del folklore russo Masha e Orso, è realizzata in CGI dallo studio russo di animazione Animaccord, il cui nome si legge a volte come marchio sul frigorifero o, nella puntata "Masha concertista", appare come marca del pianoforte. Il programma di animazione e rigging utilizzato è Autodesk Maya. I personaggi principali sono una bambina, Masha, e un orso. .:Episodi:. 1. Non è Facile essere Piccoli 2. Buon Viaggio 3. Orso e Masha 4. Una Notte Paurosa 5. Una Bellezza Pericolosa 6. Il Cappello magico 7. La Festa del raccolto 8. Piccoli Ninja .:Scheda tecnica del filmato:. Compressione: No Qualità: DVD5 Dimensione: 3596 Mb Lingue: Italiano Ac3 2.0 Colore Durata: 56 min. Menu:Sì

A Single Shot (2013) iTALiAN.BRRip.XviD.BLUWORLD

Language: | Size: 1.33 GB | Seed: 60 | Leech: 25

Description:

Trama del Film: Il protagonista del thriller A Single Shot streaming (2013) e' John Luna, la storia si apre quando lui va a cacciare i cervi, mentre ne vede uno, lo spara, ma in realta' uccide una donna. John si spaventa molto, e per questo va a vedere se e' ancora viva, nella sua mano trova una lettera e una grande quantita' di soldi in contanti. Cercando di nascondere quello che e' successe, il protagonista di A Single Shot streaming Ita si mette in piu' grossi guai.

Afflicted 2013 iTALiAN DTS 720p BluRay x264

Language: | Size: 4.2 GB | Seed: 58 | Leech: 14

Description:

Due amici per la pelle partono per una vacanza, in giro per il mondo. Il loro viaggio, documentato passo per passo, prende ben presto una piega oscura e inaspettata dopo l'incontro con una bella donna a Parigi, che lascia uno di loro misteriosamente affetto. Vincitore per il miglior film (Horror), migliore sceneggiatura (Horror), miglior regista (Horror) al Fantastic Fest 2013 e di altri riconoscimenti al Toronto International Film Festival e al Festival Internazionale del Film Fantastico di Sitges.

After the Dark - The Philosophers (2013).H264.Italian.English.Ac3.5.1.sub.ita.iCV-MIRCrew

Language: | Size: 1.63 GB | Seed: 55 | Leech: 12

Description:

After the Dark - The Philosophers (2013).H264.Italian.English.Ac3.5.1.sub.ita.iCV-MIRCrew [center] [color=red][b][img]http://extraimago.com/images/2016/07/16/oCo82IVa08d8.png[/img] [u]NO FOUND ONLY ORIGINAL RELEASE[/u] [img]http://i.imgur.com/GDNQx1Z.png[/img] My release is always in double track audio italian and Original audio for select it use VLC or dvd player home not use wmp After the Dark - The Philosophers (2013) [img]https://extraimage.net/images/2017/03/11/0dbca8dbe0cc6da474ee39a17ed02393.png[/img] [URL=http://www.imdb.com/title/tt1928340/][IMG]http://www.userlogos.org/files/logos/Sucka/imdb_new.png[/IMG][/URL] [img]http://i.imgur.com/Q5gAZRt.png[/img] Titolo originale After the Dark Lingua originale inglese Paese di produzione Stati Uniti Anno 2013 Durata 107 min. Genere drammatico, fantastico Regia John Huddles Sceneggiatura John Huddles Produttore George Zakk, Cybill Lui, John Huddles Fotografia John Radel Montaggio William Yeh Musiche Nicholas O'Toole, Jonathan Davis [img]http://i.imgur.com/Jtvgw7x.png[/img] James D'Arcy: Mr. Zimit Sophie Lowe: Petra Daryl Sabara: Chips Freddie Stroma: Jack Rhys Wakefield: James Bonnie Wright: Georgina Jacob Artist: Parker Katie Findlay: Bonnie George Blagden: Andy Erin Moriarty: Vivian Cinta Laura: Utami [img]http://i.imgur.com/hL3n1m8.png[/img] Venti studenti di filosofia della scuola internazionale di Jakarta stanno per laurearsi quando il loro insegnante Mr. Zimit li invita a un esperimento di pensiero finale: una esplosione nucleare fa scattare l'Apocalisse. L'unica possibilità di sopravvivenza è un bunker di un anno offre una protezione - ma solo per dieci persone. Zimit fornisce agli studenti il compito di decidere chi è ammesso nel bunker. [img]http://i.imgur.com/MTp7cO6.png[/img] At an international school in Jakarta, a philosophy teacher challenges his class of twenty graduating seniors to choose which ten of them would take shelter underground and reboot the human race in the event of a nuclear apocalypse. ........ [img]http://i.imgur.com/6TgqSmf.png[/img] [url=https://extraimage.net/image/2GzC][img]https://extraimage.net/images/2017/03/11/8764968edd7c41cee3598a2792fa4dd6.th.png[/img][/url] [url=https://extraimage.net/image/2Gzp][img]https://extraimage.net/images/2017/03/11/13ec7ec9a74061a146be7ffbcec79d0f.th.png[/img][/url] [url=https://extraimage.net/image/2GzG][img]https://extraimage.net/images/2017/03/11/429edf7fc74ffa5212c35c043bfa4448.th.png[/img][/url] [url=https://extraimage.net/image/2GzP][img]https://extraimage.net/images/2017/03/11/a931d0d8626d4a7f9d9b3821bb5e6c87.th.png[/img][/url] [img]http://i.imgur.com/t8N3Ia1.png[/img] [spoiler] General Unique ID : 108214704041634943498031189992536574622 (0x516964D6375431346F1CDC0A9B988A9E) Complete name : After the Dark (2013).H264.ita.eng.sub.ita.iCV-MIRCrew.mkv Format : Matroska Format version : Version 2 File size : 1.63 GiB Duration : 1h 46mn Overall bit rate : 2 191 Kbps Movie name : VISIT www.icv-crew.org Encoded date : UTC 2017-03-09 17:52:06 Writing application : Lavf54.63.100 Writing library : Lavf54.63.100 COPYRIGHT : robbyrs Video ID : 1 Format : AVC Format/Info : Advanced Video Codec Format profile : [email protected] Format settings, CABAC : Yes Format settings, ReFrames : 2 frames Codec ID : V_MPEG4/ISO/AVC Duration : 1h 46mn Bit rate : 1 290 Kbps Width : 720 pixels Height : 300 pixels Display aspect ratio : 2.40:1 Frame rate mode : Variable Frame rate : 24.000 fps Color space : YUV Chroma subsampling : 4:2:0 Bit depth : 8 bits Scan type : Progressive Bits/(Pixel*Frame) : 0.249 Stream size : 955 MiB (57%) Writing library : x264 core 130 r2273 Encoding settings : cabac=1 / ref=2 / deblock=1:0:0 / analyse=0x1:0x131 / me=hex / subme=7 / psy=1 / psy_rd=1.00:0.00 / mixed_ref=0 / me_range=16 / chroma_me=1 / trellis=1 / 8x8dct=0 / cqm=0 / deadzone=21,11 / fast_pskip=1 / chroma_qp_offset=-2 / threads=12 / lookahead_threads=2 / sliced_threads=0 / nr=0 / decimate=1 / interlaced=0 / bluray_compat=0 / constrained_intra=0 / bframes=3 / b_pyramid=0 / b_adapt=1 / b_bias=0 / direct=3 / weightb=1 / open_gop=0 / weightp=2 / keyint=240 / keyint_min=24 / scenecut=40 / intra_refresh=0 / rc_lookahead=40 / rc=2pass / mbtree=1 / bitrate=1290 / ratetol=1.0 / qcomp=0.60 / qpmin=10 / qpmax=69 / qpstep=4 / cplxblur=20.0 / qblur=0.5 / vbv_maxrate=24000 / vbv_bufsize=24000 / nal_hrd=none / ip_ratio=1.40 / aq=1:1.00 Language : Italian Default : Yes Forced : No DURATION : 01:46:45.667000000 NUMBER_OF_FRAMES : 153736 NUMBER_OF_BYTES : 7983680849 _STATISTICS_WRITING_APP : mkvmerge v8.7.0 ('All of the above') 64bit _STATISTICS_WRITING_DATE_UTC : 2017-03-07 11:44:48 _STATISTICS_TAGS : BPS DURATION NUMBER_OF_FRAMES NUMBER_OF_BYTES Audio #1 ID : 2 Format : AC-3 Format/Info : Audio Coding 3 Mode extension : CM (complete main) Codec ID : A_AC3 Duration : 1h 46mn Bit rate mode : Constant Bit rate : 448 Kbps Channel(s) : 6 channels Channel positions : Front: L C R, Side: L R, LFE Sampling rate : 48.0 KHz Bit depth : 16 bits Compression mode : Lossy Delay relative to video : 1mn 5s Stream size : 342 MiB (20%) Language : Italian Default : Yes Forced : No DURATION : 01:46:45.408000000 NUMBER_OF_FRAMES : 200169 NUMBER_OF_BYTES : 358702848 _STATISTICS_WRITING_APP : mkvmerge v8.7.0 ('All of the above') 64bit _STATISTICS_WRITING_DATE_UTC : 2017-03-07 11:44:48 _STATISTICS_TAGS : BPS DURATION NUMBER_OF_FRAMES NUMBER_OF_BYTES Audio #2 ID : 3 Format : AC-3 Format/Info : Audio Coding 3 Mode extension : CM (complete main) Codec ID : A_AC3 Duration : 1h 46mn Bit rate mode : Constant Bit rate : 448 Kbps Channel(s) : 6 channels Channel positions : Front: L C R, Side: L R, LFE Sampling rate : 48.0 KHz Bit depth : 16 bits Compression mode : Lossy Delay relative to video : 1mn 5s Stream size : 342 MiB (20%) Language : English Default : No Forced : No DURATION : 01:46:38.720000000 NUMBER_OF_FRAMES : 199960 NUMBER_OF_BYTES : 511897600 _STATISTICS_WRITING_APP : mkvmerge v8.7.0 ('All of the above') 64bit _STATISTICS_WRITING_DATE_UTC : 2017-03-07 11:44:48 _STATISTICS_TAGS : BPS DURATION NUMBER_OF_FRAMES NUMBER_OF_BYTES Text #1 ID : 4 Format : UTF-8 Codec ID : S_TEXT/UTF8 Codec ID/Info : UTF-8 Plain Text Title : FORCED Language : Italian Default : Yes Forced : No DURATION : 00:00:01.000000000 NUMBER_OF_FRAMES : 1 NUMBER_OF_BYTES : 52 _STATISTICS_WRITING_APP : mkvmerge v8.7.0 ('All of the above') 64bit _STATISTICS_WRITING_DATE_UTC : 2017-03-07 11:44:48 _STATISTICS_TAGS : BPS DURATION NUMBER_OF_FRAMES NUMBER_OF_BYTES Text #2 ID : 5 Format : UTF-8 Codec ID : S_TEXT/UTF8 Codec ID/Info : UTF-8 Plain Text Title : REGULAR Language : Italian Default : No Forced : No DURATION : 01:39:11.794000000 NUMBER_OF_FRAMES : 1003 NUMBER_OF_BYTES : 40519 _STATISTICS_WRITING_APP : mkvmerge v8.7.0 ('All of the above') 64bit _STATISTICS_WRITING_DATE_UTC : 2017-03-07 11:44:48 _STATISTICS_TAGS : BPS DURATION NUMBER_OF_FRAMES NUMBER_OF_BYTES Menu 00:00:00.000 : :00:00:00.000 00:08:49.417 : :00:08:49.417 00:17:26.375 : :00:17:26.375 00:26:46.958 : :00:26:46.958 00:33:54.458 : :00:33:54.458 00:42:42.833 : :00:42:42.833 00:50:46.792 : :00:50:46.792 00:59:53.958 : :00:59:53.958 01:08:44.292 : :01:08:44.292 01:18:08.375 : :01:18:08.375 01:25:57.875 : :01:25:57.875 01:34:47.792 : :01:34:47.792 [/spoiler] [/color][/b][/center]

Nickelback - The Best Of Nickelback - Volume 1 (2013) (by emi)

Language: | Size: 105.99 MB | Seed: 578 | Leech: 55

Description:

mp3 a 192 kbps audio di qualità a 95 db Tracklist 01 - Photograph.mp3 (6.2 MB) 02 - How You Remind Me.mp3 (5.4 MB) 03 - Burn It To The Ground.mp3 (5.1 MB) 04 - Rockstar.mp3 (6.1 MB) 05 - Savin' Me.mp3 (5.3 MB) 06 - Figured You Out.mp3 (5.5 MB) 07 - Too Bad.mp3 (5.6 MB) 08 - If Today Was Your Last Day.mp3 (6.0 MB) 09 - Far Away.mp3 (5.7 MB) 10 - Feelin' Way Too Damn Good.mp3 (6.1 MB) 11 - Someday.mp3 (5.0 MB) 12 - Never Again.mp3 (6.2 MB) 13 - Lullaby.mp3 (5.5 MB) 14 - If Everyone Cared.mp3 (5.2 MB) 15 - Gotta Be Somebody.mp3 (6.0 MB) 16 - When We Stand Together.mp3 (4.6 MB) 17 - Animals.mp3 (4.5 MB) 18 - This Afternoon.mp3 (6.5 MB) 19 - Something In Your Mouth.mp3 (5.3 MB)

Pacific Rim (2013).720p.H264.Italian.English.Ac3.5.1.sub.ita.NUita.eng.iCV-MIRCrew

Language: | Size: 3.58 GB | Seed: 1 | Leech: 1

Description:

Pacific Rim (2013).720p.H264.Italian.English.Ac3.5.1.sub.ita.NUita.eng.iCV-MIRCrew [center] [color=red][b][img]http://s23.postimg.org/b9yhws27f/0sc_Del1.png[/img] [u]NO FOUND ONLY ORIGINAL RELEASE[/u] [img]http://i.imgur.com/GDNQx1Z.png[/img] My release is always in double track audio italian and Original audio for select it use VLC or dvd player home not use wmp [img]https://extraimage.net/images/2017/02/21/a8e9edb1c7f2240ff5de1cf87083a033.png[/img] [img]https://extraimage.net/images/2017/02/28/59d8756db9a1fad0b409b3697a0536c6.png[/img] [URL=http://www.imdb.com/title/tt1663662/][IMG]http://www.userlogos.org/files/logos/Sucka/imdb_new.png[/IMG][/URL] [img]http://i.imgur.com/fGu1rKv.png[/img] GENERE: Azione, Fantascienza, Avventura ANNO: 2013 REGIA: Guillermo del Toro SCENEGGIATURA: Travis Beacham FOTOGRAFIA: Guillermo Navarro MUSICHE: Ramin Djawadi PRODUZIONE: Legendary Pictures DISTRIBUZIONE: Warner Bros. PAESE: USA DURATA: 131 Min [img]http://i.imgur.com/W7kBqiE.png[/img] Charlie Hunnam, Idris Elba, Rinko Kikuchi, Ron Perlman, Clifton Collins Jr., Max Martini, Robert Maillet, Burn Gorman, Larry Joe Campbell, Diego Klattenhoff, Brad William Henke, Charlie Day [img]http://i.imgur.com/bFK3ggF.png[/img] Il film racconta di come legioni di mostruose creature, note come Kaiju, emerse dal mare danno il via una guerra che costa milioni di vite e consuma la risorse del pianeta a ritmi vertiginosi. Per combattere i giganteschi Kaiji, sono state ideate delle armi speciali: enormi robot chiamati Jaegers comandati mentalmente da due piloti attraverso delle reti neurali. [img]http://i.imgur.com/48xHWWH.png[/img] As a war between humankind and monstrous sea creatures wages on, a former pilot and a trainee are paired up to drive a seemingly obsolete special weapon in a desperate effort to save the world from the apocalypse. [img]http://i.imgur.com/K8bfNTy.png[/img] [url=https://extraimage.net/image/2BdU][img]https://extraimage.net/images/2017/02/28/5399c95bb9da2ec16f72ef4f3751cd1a.th.png[/img][/url] [url=https://extraimage.net/image/2Bdz][img]https://extraimage.net/images/2017/02/28/dc34ed333d9f822f7224a44666086e74.th.png[/img][/url] [url=https://extraimage.net/image/2Bd0][img]https://extraimage.net/images/2017/02/28/1e6ca9e21604b8dc4cc87bf07eb68ac5.th.png[/img][/url] [url=https://extraimage.net/image/2BdJ][img]https://extraimage.net/images/2017/02/28/5f441357a86ccf5a88d4342d408dd3e6.th.png[/img][/url] [url=https://extraimage.net/image/2Bde][img]https://extraimage.net/images/2017/02/28/ae1aeb6157efcd2f4624c723c16df986.th.png[/img][/url] [url=https://extraimage.net/image/2BdB][img]https://extraimage.net/images/2017/02/28/9868e46a4d0e1b1725bf2d18df6c52e6.th.png[/img][/url] [url=https://extraimage.net/image/2BdC][img]https://extraimage.net/images/2017/02/28/081888c13ebab6a5a97cea4cac626e0c.th.png[/img][/url] [url=https://extraimage.net/image/2BdY][img]https://extraimage.net/images/2017/02/28/0fa609c5afec406094e81150ce0f92f4.th.png[/img][/url] [img]http://i.imgur.com/aVrMohH.png[/img] [spoiler] General Unique ID : 223470215752802353841870308025845389893 (0xA81ECC4B04E04E3AEECBFCF659D39A45) Complete name : Pacific Rim (2013).720p.H264.ita.eng.sub.ita.NUita.eng.iCV-MIRCrew.mkv Format : Matroska Format version : Version 2 File size : 3.58 GiB Duration : 2h 11mn Overall bit rate : 3 900 Kbps Movie name : VISIT www.icv-crew.org Encoded date : UTC 2017-02-21 23:03:15 Writing application : Lavf54.63.100 Writing library : Lavf54.63.100 COPYRIGHT : robbyrs Video ID : 1 Format : AVC Format/Info : Advanced Video Codec Format profile : [email protected] Format settings, CABAC : Yes Format settings, ReFrames : 2 frames Codec ID : V_MPEG4/ISO/AVC Duration : 2h 11mn Bit rate : 3 000 Kbps Width : 1 280 pixels Height : 720 pixels Display aspect ratio : 16:9 Frame rate mode : Variable Frame rate : 23.976 fps Color space : YUV Chroma subsampling : 4:2:0 Bit depth : 8 bits Scan type : Progressive Bits/(Pixel*Frame) : 0.136 Stream size : 2.68 GiB (75%) Writing library : x264 core 130 r2273 Encoding settings : cabac=1 / ref=2 / deblock=1:0:0 / analyse=0x1:0x131 / me=hex / subme=7 / psy=1 / psy_rd=1.00:0.00 / mixed_ref=0 / me_range=16 / chroma_me=1 / trellis=1 / 8x8dct=0 / cqm=0 / deadzone=21,11 / fast_pskip=1 / chroma_qp_offset=-2 / threads=12 / lookahead_threads=2 / sliced_threads=0 / nr=0 / decimate=1 / interlaced=0 / bluray_compat=0 / constrained_intra=0 / bframes=3 / b_pyramid=0 / b_adapt=1 / b_bias=0 / direct=3 / weightb=1 / open_gop=0 / weightp=2 / keyint=230 / keyint_min=23 / scenecut=40 / intra_refresh=0 / rc_lookahead=40 / rc=2pass / mbtree=1 / bitrate=3000 / ratetol=1.0 / qcomp=0.60 / qpmin=10 / qpmax=69 / qpstep=4 / cplxblur=20.0 / qblur=0.5 / vbv_maxrate=24000 / vbv_bufsize=24000 / nal_hrd=none / ip_ratio=1.40 / aq=1:1.00 Default : Yes Forced : No DURATION : 02:11:16.952000000 NUMBER_OF_FRAMES : 188858 NUMBER_OF_BYTES : 9645093702 _STATISTICS_WRITING_APP : mkvmerge v8.1.0 ('Psychedelic Postcard') 64bit _STATISTICS_WRITING_DATE_UTC : 2015-07-18 09:27:03 _STATISTICS_TAGS : BPS DURATION NUMBER_OF_FRAMES NUMBER_OF_BYTES Audio #1 ID : 2 Format : AC-3 Format/Info : Audio Coding 3 Mode extension : CM (complete main) Codec ID : A_AC3 Duration : 2h 11mn Bit rate mode : Constant Bit rate : 448 Kbps Channel(s) : 6 channels Channel positions : Front: L C R, Side: L R, LFE Sampling rate : 48.0 KHz Bit depth : 16 bits Compression mode : Lossy Delay relative to video : 1mn 5s Stream size : 421 MiB (11%) Language : Italian Default : Yes Forced : No DURATION : 02:11:16.960000000 NUMBER_OF_FRAMES : 246155 NUMBER_OF_BYTES : 630156800 _STATISTICS_WRITING_APP : mkvmerge v8.1.0 ('Psychedelic Postcard') 64bit _STATISTICS_WRITING_DATE_UTC : 2015-07-18 09:27:03 _STATISTICS_TAGS : BPS DURATION NUMBER_OF_FRAMES NUMBER_OF_BYTES Audio #2 ID : 3 Format : AC-3 Format/Info : Audio Coding 3 Mode extension : CM (complete main) Codec ID : A_AC3 Duration : 2h 11mn Bit rate mode : Constant Bit rate : 448 Kbps Channel(s) : 6 channels Channel positions : Front: L C R, Side: L R, LFE Sampling rate : 48.0 KHz Bit depth : 16 bits Compression mode : Lossy Delay relative to video : 1mn 5s Stream size : 421 MiB (11%) Language : English Default : No Forced : No DURATION : 02:11:17.878000000 NUMBER_OF_FRAMES : 738551 NUMBER_OF_BYTES : 1485966516 _STATISTICS_WRITING_APP : mkvmerge v8.1.0 ('Psychedelic Postcard') 64bit _STATISTICS_WRITING_DATE_UTC : 2015-07-18 09:27:03 _STATISTICS_TAGS : BPS DURATION NUMBER_OF_FRAMES NUMBER_OF_BYTES Text #1 ID : 4 Format : UTF-8 Codec ID : S_TEXT/UTF8 Codec ID/Info : UTF-8 Plain Text Title : Sub. Ita. Forced Language : Italian Default : Yes Forced : Yes DURATION : 02:10:35.702000000 NUMBER_OF_FRAMES : 46 NUMBER_OF_BYTES : 1400 _STATISTICS_WRITING_APP : mkvmerge v8.1.0 ('Psychedelic Postcard') 64bit _STATISTICS_WRITING_DATE_UTC : 2015-07-18 09:27:03 _STATISTICS_TAGS : BPS DURATION NUMBER_OF_FRAMES NUMBER_OF_BYTES Text #2 ID : 5 Format : UTF-8 Codec ID : S_TEXT/UTF8 Codec ID/Info : UTF-8 Plain Text Title : Sub. Ita. Non Udenti Language : Italian Default : No Forced : No DURATION : 02:10:35.702000000 NUMBER_OF_FRAMES : 1856 NUMBER_OF_BYTES : 56186 _STATISTICS_WRITING_APP : mkvmerge v8.1.0 ('Psychedelic Postcard') 64bit _STATISTICS_WRITING_DATE_UTC : 2015-07-18 09:27:03 _STATISTICS_TAGS : BPS DURATION NUMBER_OF_FRAMES NUMBER_OF_BYTES Text #3 ID : 6 Format : UTF-8 Codec ID : S_TEXT/UTF8 Codec ID/Info : UTF-8 Plain Text Title : Sub. Eng. Not Hearing Language : English Default : No Forced : No DURATION : 02:04:22.788000000 NUMBER_OF_FRAMES : 1832 NUMBER_OF_BYTES : 54838 _STATISTICS_WRITING_APP : mkvmerge v8.1.0 ('Psychedelic Postcard') 64bit _STATISTICS_WRITING_DATE_UTC : 2015-07-18 09:27:03 _STATISTICS_TAGS : BPS DURATION NUMBER_OF_FRAMES NUMBER_OF_BYTES Menu 00:00:00.000 : :00:00:00.000 00:09:09.132 : :00:09:09.132 00:18:35.823 : :00:18:35.823 00:23:04.341 : :00:23:04.341 00:33:00.395 : :00:33:00.395 00:42:44.896 : :00:42:44.896 00:50:01.665 : :00:50:01.665 01:01:09.666 : :01:01:09.666 01:14:45.106 : :01:14:45.106 01:22:21.311 : :01:22:21.311 01:32:09.941 : :01:32:09.941 01:41:55.609 : :01:41:55.609 01:51:37.858 : :01:51:37.858 01:59:21.029 : :01:59:21.029 02:02:17.830 : :02:02:17.830 [/spoiler] [/color][/b][/center]

Lene Marlin - Here We Are - Historier så langt (2013) (by emi)

Language: | Size: 82.55 MB | Seed: 226 | Leech: 3

Description:

mp3 a 192 kbps audio di qualità a 95 db Tracklist 01 - Sitting Down Here.mp3 (5.5 MB) 02 - Unforgivable Sinner.mp3 (5.7 MB) 03 - Where I'm Headed.mp3 (5.9 MB) 04 - Sorry.mp3 (5.4 MB) 05 - Another Day.mp3 (5.8 MB) 06 - You Weren't There.mp3 (5.0 MB) 07 - My Love.mp3 (6.3 MB) 08 - Disguise.mp3 (5.4 MB) 09 - How Would It Be.mp3 (5.6 MB) 10 - All I Can Say.mp3 (6.5 MB) 11 - Hope You're Happy.mp3 (6.1 MB) 12 - What If.mp3 (5.5 MB) 13 - Here We Are.mp3 (4.8 MB) 14 - Do You Remember.mp3 (4.9 MB) 15 - You Will Cry No More.mp3 (4.0 MB)

Teen Titans Go! 2013 Animated Complete SE1 Burntodisc

Language: | Size: 15.48 GB | Seed: 308 | Leech: 34

Description:

Teen Titans Go! is a TV show that follows the Teen Titans when not saving the world and when living together as teenagers without adult supervision.[3] The Teen Titans must deal with situations such as teenage pranks, reaching a whole new level, having to retake a driver's test after wrecking the Batmobile, taking part in dodgeball tournaments, fighting each other, and other antics. SE1 SE2 = 4 discs DISCS IN SET...: 2 EPISODES.......: 26 (52 segments) SIZE...........: DVD9 VIDEO CODEC....: MPEG2 RESOLUTION.....: 720x480 ASPECT RATIO...: NTSC 16:9 FRAMERATE......: 29.97fps AUDIO .........: English 192kb/s SUBTITLES......: None MENU...........: Yes CHAPTERS.......: Yes DISC COVER.....: Yes

Ezio Bosso Essential - Music With Piano - Vol. 1 (2013) (by emi)

Language: | Size: 67.13 MB | Seed: 16 | Leech: 6

Description:

mp3 a 192 kbps audio di qualità a 95 db Tracklist 01 - Split, Postcards From Far Away.mp3 (12.2 MB) 02 - Speed Limit, A Night Ride.mp3 (6.3 MB) 03 - Rain, In Your Black Eyes.mp3 (15.3 MB) 04 - Emily Dickinson, Who Cares about The Bluebird Sing.mp3 (5.4 MB) 05 - Diversion, Street Kisses.mp3 (8.3 MB) 06 - The Maddest Noise.mp3 (4.4 MB) 07 - Clouds, The Mind On The (Re)Wind.mp3 (9.8 MB) 08 - Exit, Run 44.mp3 (5.3 MB)

Ano Hana (2013) 1x01-11.H264.Italian.Jpn.Mp3.sub.ita.iCV-MIRCrew

Language: | Size: 2.9 GB | Seed: 1 | Leech: 1

Description:

Ano Hana (2013) 1x01-11.H264.Italian.Jpn.Mp3.sub.ita.iCV-MIRCrew [center] [color=red][b][img]http://extraimago.com/images/2016/07/16/oCo82IVa08d8.png[/img] [u]NO FOUND ONLY ORIGINAL RELEASE[/u] [img]http://i.imgur.com/GDNQx1Z.png[/img] My release is always in double track audio italian and Original audio for select it use VLC or dvd player home not use wmp Ano Hana 1x01-11 [img]http://extraimage.net/images/2017/01/16/edd6139603dd19c479f588c899e88816.png[/img] [URL=http://www.imdb.com/title/tt1913273/][IMG]http://www.userlogos.org/files/logos/Sucka/imdb_new.png[/IMG][/URL] Ano Hana 01 - I Super Busters Della Pace Ano Hana 02 - La Valorosa Menma Ano Hana 03 - Il Circolo Cerchiamo Menma Ano Hana 04 - Il Vestito Bianco Con Un Fiocchetto Ano Hana 05 - Tunnel Ano Hana 06 - Dimenticami Ma Non Dimenticarmi Ano Hana 07 - Il Vero Desiderio Ano Hana 08 - I Wonder Ano Hana 09 - Tutti E Menma Ano Hana 10 - Fuochi D'artificio Ano Hana 11 - Il Fiore Sbocciato Quell'Estate [img]http://i.imgur.com/Q5gAZRt.png[/img] Serie TV anime Lingua orig. giapponese Paese Giappone Regia Tatsuyuki Nagai Soggetto Mari Okada Musiche Remedios Studio A-1 Pictures Reti Fuji TV (noitaminA), BS Fuji, Kansai TV, Tōkai TV 1ª TV 14 aprile – 23 giugno 2011 Episodi 11 (completa) Aspect ratio 16:9 Durata ep. 24 min Distributore it. Dynit Rete it. Rai 4 1ª TV it. 5 febbraio – 15 aprile 2012 Episodi it. 11 (completa) Durata ep. it. 24 min Generi dramma, sentimentale, soprannaturale [img]http://i.imgur.com/Jtvgw7x.png[/img] ****************************************** [img]http://i.imgur.com/hL3n1m8.png[/img] L'infanzia di cinque amici (Jintan, Anaru, Yukiatsu, Tsuruko e Poppo) viene funestata dalla morte di Meiko Honma, soprannominata "Menma", una loro compagna di giochi. Ora i ragazzi sono cresciuti e vanno alle scuole superiori, tuttavia non sono più amici. Improvvisamente Jinta Yadomi, detto "Jintan", che era stato il leader del gruppo, chiamato "i Super Busters della Pace", inizia a vedere il fantasma della sua piccola amica di tanti anni prima. [img]http://i.imgur.com/MTp7cO6.png[/img] Six childhood friends have grown apart over the years following the death of one of them, Menma. The original 'leader' of this friend group, Jintan, is currently aimless in life and it is ................ [img]http://i.imgur.com/6TgqSmf.png[/img] [img]http://extraimage.net/images/2017/01/16/a71694069dfdc251079a4bad48abb0a9.png[/img] [url=https://extraimage.net/image/2Qrf][img]http://extraimage.net/images/2017/01/16/cdab28eb2a2bf1d7446f7429c3c32035.th.png[/img][/url] [url=https://extraimage.net/image/2QrW][img]http://extraimage.net/images/2017/01/16/8d063a1becd4f2c8445d64c31047cbbe.th.png[/img][/url] [url=https://extraimage.net/image/2QG8][img]http://extraimage.net/images/2017/01/16/2987c0a26de2025c4693b6311b4fc89b.th.png[/img][/url] [img]http://i.imgur.com/t8N3Ia1.png[/img] [spoiler] Generale ID univoco : 49435749538294295015497422430626628781 (0x2530FAA218D0547B844939ECC00BC4AD) Nome completo : Ano Hana 1x11.ita.jpn.sub.ita.iCV-MIRCrew\Ano Hana 05 - Tunnel.mkv Formato : Matroska Versione formato : Version 2 Dimensione : 284MiB Durata : 22min Bitrate totale : 1.724 Kbps Film : VISIT www.icv-crew.org Data codifica : UTC 2017-01-15 12:43:51 / UTC 2017-01-15 12:43:51 Creato con : Lavf54.63.100 Compressore : Lavf54.63.100 / Lavf54.63.100 Copyright : robbyrs Video ID : 1 Formato : AVC Formato/Informazioni : Advanced Video Codec Profilo formato : [email protected] Impostazioni formato, CABAC : Si Impostazioni formato, ReFrames : 2 frame ID codec : V_MPEG4/ISO/AVC Durata : 22min Bitrate : 1.434 Kbps Bitrate nominale : 1.270 Kbps Larghezza : 720 pixel Altezza : 404 pixel Rapporto aspetto visualizzazione : 16:9 Modalità frame rate : Costante Frame rate : 23,976 (24000/1001) fps Spazio colore : YUV Croma subsampling : 4:2:0 Profondità bit : 8 bit Tipo scansione : Progressivo Bit/(pixel*frame) : 0.206 Dimensione della traccia : 236MiB (83%) Compressore : x264 core 130 r2273 Impostazioni compressione : cabac=1 / ref=2 / deblock=1:0:0 / analyse=0x1:0x131 / me=hex / subme=7 / psy=1 / psy_rd=1.00:0.00 / mixed_ref=0 / me_range=16 / chroma_me=1 / trellis=1 / 8x8dct=0 / cqm=0 / deadzone=21,11 / fast_pskip=1 / chroma_qp_offset=-2 / threads=12 / lookahead_threads=2 / sliced_threads=0 / nr=0 / decimate=1 / interlaced=0 / bluray_compat=0 / constrained_intra=0 / bframes=3 / b_pyramid=0 / b_adapt=1 / b_bias=0 / direct=3 / weightb=1 / open_gop=0 / weightp=2 / keyint=230 / keyint_min=23 / scenecut=40 / intra_refresh=0 / rc_lookahead=40 / rc=abr / mbtree=1 / bitrate=1270 / ratetol=1.0 / qcomp=0.60 / qpmin=10 / qpmax=69 / qpstep=4 / vbv_maxrate=24000 / vbv_bufsize=24000 / nal_hrd=none / ip_ratio=1.40 / aq=1:1.00 Lingua : Italiano Default : Si Forced : No Audio #1 ID : 2 Formato : MPEG Audio Versione formato : Version 1 Profilo formato : Layer 3 ID codec : A_MPEG/L3 ID codec/Suggerimento : MP3 Durata : 22min Modalità bitrate : Costante Bitrate : 128 Kbps Canali : 2 canali Frequenza campionamento : 44,1 KHz Modo compressione : Con perdita Ritardo video : -25ms Dimensione della traccia : 21,1MiB (7%) Compressore : LAME3.99.5 Default : Si Forced : No Audio #2 ID : 3 Formato : MPEG Audio Versione formato : Version 1 Profilo formato : Layer 3 ID codec : A_MPEG/L3 ID codec/Suggerimento : MP3 Durata : 22min Modalità bitrate : Costante Bitrate : 128 Kbps Canali : 2 canali Frequenza campionamento : 44,1 KHz Modo compressione : Con perdita Ritardo video : -25ms Dimensione della traccia : 21,1MiB (7%) Default : No Forced : No Testo #1 ID : 4 Formato : UTF-8 ID codec : S_TEXT/UTF8 ID codec/Informazioni : UTF-8 Plain Text Titolo : Italiano forced Lingua : Italiano Default : Si Forced : Si Testo #2 ID : 5 Formato : UTF-8 ID codec : S_TEXT/UTF8 ID codec/Informazioni : UTF-8 Plain Text Titolo : Italiano Lingua : Italiano Default : No Forced : No [/spoiler] [/color][/b][/center]

Odd Thomas - Il luogo delle ombre (2013).H264.Italian.English.Ac3.5.1.sub.ita..iCV-MIRCrew

Language: | Size: 1.46 GB | Seed: 38 | Leech: 42

Description:

Odd Thomas - Il luogo delle ombre (2013).H264.Italian.English.Ac3.5.1.sub.ita..iCV-MIRCrew [center] [color=red][b][img]https://s23.postimg.org/b9yhws27f/0sc_Del1.png[/img] [u]NO FOUND ONLY ORIGINAL RELEASE[/u] [img]http://i.imgur.com/GDNQx1Z.png[/img] My release is always in double track audio italian and Original audio for select it use VLC or dvd player home not use wmp Il luogo delle ombre - Odd Thomas (2013) [img]http://extraimage.net/images/2017/01/09/30144f44e49bb1d0cdfa393156a11e1b.png[/img] [URL=http://www.imdb.com/title/tt1767354/][IMG]http://www.userlogos.org/files/logos/Sucka/imdb_new.png[/IMG][/URL] [img]http://i.imgur.com/fGu1rKv.png[/img] Titolo originale Odd Thomas Lingua originale inglese Paese di produzione Stati Uniti d'America Anno 2013 Durata 100 min Rapporto 2.35 : 1 Genere thriller, fantastico Regia Stephen Sommers Soggetto Dean R. Koontz Sceneggiatura Stephen Sommers Produttore John Baldecchi, Howard Kaplan, Stephen Sommers Casa di produzione Fusion Films, Future Films, The Sommers Company Distribuzione (Italia) Eagle Pictures Fotografia Mitchell Amundsen Montaggio Bob Ducsay Musiche John Swihart [img]http://i.imgur.com/W7kBqiE.png[/img] Anton Yelchin: Odd Thomas Willem Dafoe: Sceriffo Wyatt Porter Addison Timlin: Stormy Llewellyn Patton Oswalt: Ozzie P. Boone Gugu Mbatha-Raw: Viola Peabody Nico Tortorella: Simon Varner Leonor Varela: madre di Odd Shuler Hensley: Fungus Bob Melissa Ordway: Lysette Spinelli Kyle McKeever: Bern Eckles Matthew Daniel Page: Harlo Landerson [img]http://i.imgur.com/bFK3ggF.png[/img] Odd Thomas lavora presso la tavola calda di Pico Mundo, cittadina della California meridionale situata nel deserto del Mojave. Sembrerebbe un ragazzo come tanti altri, ma Odd ha un dono speciale; può percepire la presenza dei defunti con qualcosa di sospeso e non solo. [img]http://i.imgur.com/48xHWWH.png[/img] In a California desert town, a short-order cook with clairvoyant abilities encounters a mysterious man with a link to dark, threatening forces. [img]http://i.imgur.com/K8bfNTy.png[/img] [url=https://extraimage.net/image/2qZh][img]http://extraimage.net/images/2017/01/09/2f8c2b3d0fc5f298affdaccd96ad10d6.th.png[/img][/url] [url=https://extraimage.net/image/2qZd][img]http://extraimage.net/images/2017/01/09/55c45a970926e5532b359297378bc2dc.th.png[/img][/url] [url=https://extraimage.net/image/2qZb][img]http://extraimage.net/images/2017/01/09/0097bf7a33b2a25ec6123fc63e26ab61.th.png[/img][/url] [img]http://i.imgur.com/cWb6Z.gif[/img] [img]http://i.imgur.com/aVrMohH.png[/img] [spoiler] General Unique ID : 324047137540361204915632477407430546499 (0xF3C9356411E330F2DDE055AA39479443) Complete name : Il luogo delle ombre (2013).H264.ita.eng.sub.ita.iCV-MIRCrew.mkv Format : Matroska Format version : Version 2 File size : 1.46 GiB Duration : 1h 36mn Overall bit rate : 2 151 Kbps Encoded date : UTC 2017-01-08T16:36:56Z Writing application : HandBrake 0.10.5 2016021100 Writing library : Lavf55.12.0 Video ID : 1 Format : AVC Format/Info : Advanced Video Codec Format profile : [email protected] Format settings, CABAC : Yes Format settings, ReFrames : 4 frames Codec ID : V_MPEG4/ISO/AVC Duration : 1h 36mn Bit rate : 1 270 Kbps Width : 720 pixels Height : 300 pixels Display aspect ratio : 2.40:1 Frame rate mode : Variable Frame rate : 24.000 fps Color space : YUV Chroma subsampling : 4:2:0 Bit depth : 8 bits Scan type : Progressive Bits/(Pixel*Frame) : 0.245 Stream size : 841 MiB (56%) Writing library : x264 core 142 r2479 dd79a61 Encoding settings : cabac=1 / ref=1 / deblock=1:0:0 / analyse=0x1:0x111 / me=hex / subme=2 / psy=1 / psy_rd=1.00:0.00 / mixed_ref=0 / me_range=16 / chroma_me=1 / trellis=0 / 8x8dct=0 / cqm=0 / deadzone=21,11 / fast_pskip=1 / chroma_qp_offset=0 / threads=12 / lookahead_threads=2 / sliced_threads=0 / nr=0 / decimate=1 / interlaced=0 / bluray_compat=0 / constrained_intra=0 / bframes=3 / b_pyramid=2 / b_adapt=1 / b_bias=0 / direct=1 / weightb=1 / open_gop=0 / weightp=1 / keyint=240 / keyint_min=24 / scenecut=40 / intra_refresh=0 / rc_lookahead=10 / rc=abr / mbtree=1 / bitrate=1270 / ratetol=1.0 / qcomp=0.60 / qpmin=0 / qpmax=69 / qpstep=4 / vbv_maxrate=20000 / vbv_bufsize=25000 / nal_hrd=none / filler=0 / ip_ratio=1.40 / aq=1:1.00 Default : Yes Forced : No Color primaries : BT.709-5, BT.1361, IEC 61966-2-4, SMPTE RP177 Transfer characteristics : BT.709-5, BT.1361 Matrix coefficients : BT.709-5, BT.1361, IEC 61966-2-4 709, SMPTE RP177 Audio #1 ID : 2 Format : AC-3 Format/Info : Audio Coding 3 Mode extension : CM (complete main) Codec ID : A_AC3 Duration : 1h 36mn Bit rate mode : Constant Bit rate : 448 Kbps Channel(s) : 6 channels Channel positions : Front: L C R, Side: L R, LFE Sampling rate : 48.0 KHz Bit depth : 16 bits Compression mode : Lossy Delay relative to video : 1mn 5s Stream size : 311 MiB (21%) Language : Italian Default : Yes Forced : No Audio #2 ID : 3 Format : AC-3 Format/Info : Audio Coding 3 Mode extension : CM (complete main) Codec ID : A_AC3 Duration : 1h 36mn Bit rate mode : Constant Bit rate : 448 Kbps Channel(s) : 6 channels Channel positions : Front: L C R, Side: L R, LFE Sampling rate : 48.0 KHz Bit depth : 16 bits Compression mode : Lossy Delay relative to video : 1mn 5s Stream size : 311 MiB (21%) Language : English Default : No Forced : No Text #1 ID : 4 Format : VobSub Codec ID : S_VOBSUB Codec ID/Info : The same subtitle format used on DVDs Language : Italian Default : No Forced : No Text #2 ID : 5 Format : VobSub Codec ID : S_VOBSUB Codec ID/Info : The same subtitle format used on DVDs Language : Italian Default : No Forced : No Menu 00:00:00.000 : :Capitolo 01 00:07:39.041 : :Capitolo 02 00:15:22.958 : :Capitolo 03 00:24:56.041 : :Capitolo 04 00:32:19.458 : :Capitolo 05 00:39:55.416 : :Capitolo 06 00:47:53.583 : :Capitolo 07 00:55:40.375 : :Capitolo 08 01:04:00.083 : :Capitolo 09 01:11:56.375 : :Capitolo 10 01:19:03.333 : :Capitolo 11 01:24:57.083 : :Capitolo 12 [/spoiler] [/color][/b][/center]

Helene Fischer - Farbenspiel (2013)

Language: | Size: 115.07 MB | Seed: 965 | Leech: 32

Description:

Tracce 1. Fehlerfrei 3:38 2. Mit keinem andern 3:42 3. So kann das Leben sein 4:01 4. Marathon 3:47 5. Atemlos durch die Nacht 3:39 6. Der Augenblick 4:14 7. Te Quiero 3:38 8. Captain meiner Seele 3:37 9. In diesen Nächten 4:20 10. Feuerwerk 3:40 11. Ehrlich und klar 4:02 12. Wunder dich nicht 3:51 13. Auf der Suche nach mir 4:09 14. Alice im Wunderland 3:59 15. Unser Tag 3:35 16. Ein kleines Glück 3:40

Dead Drop (2013 Ita)[BRRip-XviD-Ac3 5.1]

Language: | Size: 1.5 GB | Seed: 20 | Leech: 5

Description:

.: SCHEDA :. GENERE: Azione , Thriller ANNO: 2013 REGIA: R. Ellis Frazier ATTORI: Luke Goss, Nestor Carbonell, Daniel Faraldo, Cole Hauser, Jill Remez SCENEGGIATURA: Benjamin Budd PRODUZIONE: Badhouse Studios Mexico, Project One Films DISTRIBUZIONE: Lionsgate Home Entertainment PAESE: USA DURATA: 91 Min .: TRAMA :. Un ex funzionario della Cia sopravvive per miracolo ad un incidente aereo che precipita nell'oceano. Divampa in lui una furia omicida per scoprire la verità. Chi ha organizzato il piano per ucciderlo?

The flu - Il contagio (2013 Ita)[BRRip-XviD-Ac3 5.1]

Language: | Size: 1.65 GB | Seed: 53 | Leech: 9

Description:

.: SCHEDA :. Paese4: Corea del Sud Anno: 2013 Genere: Drammatico Durata: 121 min Regia: Sung-su Kim Attori: Hyuk Jang, Soo Ae, Hyo-ju Park, In-Pyo Cha, Min-ah Park, Sang-Yeob Lee, Andrew William Brand, Hee-joon Lee, Yoo Hae-jin .: TRAMA :. Dopo aver introdotto illegalmente alcuni clandestini nel suo Paese, Byung-woo muore a causa di un virus sconosciuto. Poco dopo, i suoi stessi sintomi affliggono i residenti di Budang, impotenti di fronte a una malattia che si diffonde con l'aria e il cui numero di infetti aumenta esponenzialmente. Per precauzione la città, popolata da mezzo milione di persone e a soli 19 chilometri da Seoul, viene isolata per ordine del governo. Nel frattempo, la specialista in malattie infettive In-hye e il soccorritore Ji-goo arrivano in città per risalire al primo caso, utile per lo sviluppo di un eventuale vaccino.

Saving.General.Yang.2013.1080p.BluRay.x264-FOXM

Language: | Size: 1.74 GB | Seed: 4 | Leech: 4

Description:

Storyline Northeast China, early Northern Song dynasty, AD 986. The Khitan army takes its revenge for a past massacre, abducting General Yang Ye (Adam Cheng) and leaving his wife and seven sons to rescue him - and fall into their deadly trap. Led by the first son (Ekin Cheng), the seven - two of whom have never seen combat - set out with a small band of fighters to face an army of thousands, brave the treacherous Wolf Mountain, face the nemesis of their shared history, and find the way back alive - all to bring their father home. General Size :  1.74 GB Running Time: 1h 42min Genre: Action | Adventure | History Director: Ronny Yu Language: Mandarin Release Date: 4 April 2013 (Hong Kong) http://www.imdb.com/title/tt2072220/ Video======= Video Format......: AAC Video Codec.......: x264 Frame Rate........: 23.000 fps Width.............: 1 920 pixels Height............:  800 Audio======= Format..........: AAC Bitrate.........: 192 Kbps Channels........: 6 channels screenshot [img]http://foxm.to/images/1481567001image3.jpg[/img] [img]http://foxm.to/images/1481567001image2.jpg[/img] [/center]

Saving.General.Yang.2013.720p.BluRay.x264-FOXM

Language: | Size: 1.08 GB | Seed: 5 | Leech: 2

Description:

Storyline Northeast China, early Northern Song dynasty, AD 986. The Khitan army takes its revenge for a past massacre, abducting General Yang Ye (Adam Cheng) and leaving his wife and seven sons to rescue him - and fall into their deadly trap. Led by the first son (Ekin Cheng), the seven - two of whom have never seen combat - set out with a small band of fighters to face an army of thousands, brave the treacherous Wolf Mountain, face the nemesis of their shared history, and find the way back alive - all to bring their father home. General Size : 1.07 GB Running Time: 1h 42min Genre: Action | Adventure | History Director: Ronny Yu Language: Mandarin Release Date: 4 April 2013 (Hong Kong) http://www.imdb.com/title/tt2072220/ Video======= Video Format......: AAC Video Codec.......: x264 Frame Rate........: 23.000 fps Width.............: 1 280 pixels Height............:  534 Audio======= Format..........: AAC Bitrate.........: 192 Kbps Channels........: 6 channels screenshot [img]http://foxm.to/images/1481567001image3.jpg[/img] [img]http://foxm.to/images/1481567001image2.jpg[/img] [/center]

Dido - Greatest Hits (2013) (by emi)

Language: | Size: 199.45 MB | Seed: 44 | Leech: 0

Description:

mp3 a 192 kbps audio di qualità a 95 db Tracklist CD 1 01 - Here With Me.mp3 (6.0 MB) 02 - Thank You.mp3 (5.1 MB) 03 - Hunter.mp3 (5.6 MB) 04 - White Flag.mp3 (5.7 MB) 05 - Life For Rent.mp3 (5.2 MB) 06 - Don't Leave Home.mp3 (5.4 MB) 07 - Sand In My Shoes.mp3 (7.0 MB) 08 - Don't Believe In Love.mp3 (5.5 MB) 09 - Quiet Times.mp3 (4.7 MB) 10 - Grafton Street.mp3 (8.3 MB) 11 - Everything To Lose.mp3 (6.4 MB) 12 - Let Us Move On (Feat. Kendrick Lamar).mp3 (5.9 MB) 13 - No Freedom.mp3 (4.7 MB) 14 - End Of Night.mp3 (5.6 MB) 15 - One Step Too Far (Feat. Dido).mp3 (4.9 MB) 16 - Stan (Feat. Dido).mp3 (9.4 MB) 17 - If I Rise.mp3 (6.5 MB) 18 - NYC.mp3 (5.7 MB) CD 2 01 - Here With Me (Chillin With The Family Mix).mp3 (7.4 MB) 02 - Thank You (Deep Dish Radio Edit).mp3 (5.9 MB) 03 - Hunter (MJ Cole Remix).mp3 (8.6 MB) 04 - White Flag (Timbaland Remix).mp3 (5.0 MB) 05 - Life For Rent (Skinny 4 Rent Mix).mp3 (6.9 MB) 06 - Sand In My Shoes (Above & Beyond Radio Edit).mp3 (4.8 MB) 07 - Don't Leave Home (Gabriel & Dresden Radio Mix).mp3 (6.0 MB) 08 - Don't Believe In Love (Dennis Ferrer's Objektivity Radio Mix).mp3 (6.4 MB) 09 - No Freedom (DJ Cobra Mix).mp3 (8.9 MB) 10 - End Of Night (Cedric Gervais Remix).mp3 (8.2 MB) 11 - Go Dreaming (Mantronix Remix).mp3 (6.4 MB) 12 - Blackbird (Moguai Remix).mp3 (9.5 MB) 13 - Northern Skies (Rollo Remix).mp3 (8.3 MB)

The Conjuring - L'evocazione (2013) [DVD9 - Ita Eng Fra 5.1 - Multisubs]

Language: | Size: 6.52 GB | Seed: 8 | Leech: 2

Description:

Titolo originale: The Conjuring Nazione: Usa Anno: 2013 Genere: Horror Durata: 107' Regia: James Wan Cast: Patrick Wilson, Vera Farmiga, Lili Taylor, Ron Livingston, Mackenzie Foy, Joey King, Shannon Kook, Shanley Caswell, Hayley McFarland, Kyla Deaver, Sterling Jerins, Joseph Bishara Produzione: Evergreen Media Group, New Line Cinema, Safran Company Distribuzione: Warner Bros. Data di uscita: Mercoledì 21 Agosto 2013 Trama: Nel 1971, ad Harrisville, nel Rhode Island, Carolyn e Roger Perron si trasferiscono in un vecchio casale con le loro cinque figlie. Durante il primo giorno le cose sembrano andare per il meglio, anche se trovano la porta della cantina stranamente sprangata e il loro cane si rifiuta di entrare in casa. Il mattino dopo, Carolyn si sveglia con un misterioso livido e il cane viene ritrovato morto. Nei giorni a seguire nella casa si verificano varie forme di attività paranormale, le quali culminano con Carolyn che si ritrova intrappolata in cantina mentre una delle figlie viene attaccata da uno spirito somigliante ad una donna anziana; Roger intanto si trova spesso fuori casa per lavoro. Carolyn, sempre più spaventata, chiede quindi aiuto alla coppia di investigatori del paranormale Ed e Lorraine Warren, marito e moglie, lei anche chiaroveggente.

Pentatonix 2013 PTX, Vol. 2

Language: | Size: 62.37 MB | Seed: 520 | Leech: 63

Description:

Track List: Can't Hold Us Natural Disaster Love Again Valentine Hey Momma - Hit the Road Jack I Need Your Love Run to You Daft Punk

Jay-Z 2013 Magna Carta... Holy Grail

Language: | Size: 136.36 MB | Seed: 10 | Leech: 2

Description:

Track List: Holy Grail (feat. Justin Timberlake) Picasso Baby Tom Ford FuckWithMeYouKnowIGotIt (feat. Rick Ross) Oceans (feat. Frank Ocean) F.U.T.W. Somewhere in America Crown Heaven Versus Part II (On the Run) (feat. Beyoncé) Beach is Better BBC Jay Z Blue La Familia Nickels and Dimes

The Strokes 2013 Comedown Machine

Language: | Size: 91.63 MB | Seed: 0 | Leech: 1

Description:

Track List: Tap Out All The Time One Way Trigger Welcome To Japan 80'S Comedown Machine 50 50 Slow Animals Partners In Crime Chances Happy Ending Call It Fate Call It Karma

Ska-P 2013 99%

Language: | Size: 139.21 MB | Seed: 10 | Leech: 0

Description:

Track List: Full Gas Canto a La Rebelión Ciudadano Papagayo Pandemia.S.L. Se Acabó Ska-pa Marinaleda Alí Babá Victoria Bajo Vigilancia Maquis Oniómanos ¿Quiénes Sois Radio Falacia Africa Agónica

Robin Beck 2013 Underneath

Language: | Size: 94.56 MB | Seed: 662 | Leech: 42

Description:

Track List: Wrecking Ball Aint That Just Like Love Sprain Underneath Catfight Check Your Attitude Burning Me Down Perfect Storm You Can’t Figth Love I Swear The Nights Follow You

The Lumineers 2013 The Lumineers

Language: | Size: 141.55 MB | Seed: 10 | Leech: 2

Description:

Track List: Flowers In Your Hair Classy Girls Submarines Dead Sea Ho Hey Slow It Down Stubborn Love Big Parade Charlie Boy Flapper Girl Morning Song Ain't Nobody's Problem (Bonus Track) This Must Be The Place (na ve Melody) (Bonus Track) Elouise (Bonus Track) Darlene (Bonus Track) Slow It Down (Live) (Bonus Track)

Icona Pop 2013 This Is... Icona Pop

Language: | Size: 119.37 MB | Seed: 5 | Leech: 0

Description:

Track List: I Love It (Feat. Charli XCX) All Night We Got The World Ready For The Weekend Girlfriend In The Stars On A Roll Just Another Night Hold On Light Me Up Then We Kiss Nights Like This Heads Up Lovers To Friends I Love It (Feat. Charli XCX) (FIX8 Remix)

Little River Band 2013 Cuts Like A Diamond

Language: | Size: 107.23 MB | Seed: 495 | Leech: 9

Description:

Track List: The Lost And The Lonely Forever You Forever Me Cuts Like A Diamond You Dream I'll Drive I'm An Island Way Too Good What If You're Wrong Where Do I Run Someone Who Speaks For Me Love Is

Sting 2013 The Last Ship

Language: | Size: 177.48 MB | Seed: 3 | Leech: 0

Description:

Track List: The Last Ship Dead Man's Boots And Yet August Winds Language of Birds Practical Arrangement The Night The Pugilist Learned How To Dance Ballad of the Great Eastern What Have We Got (Feat. Jimmy Nail) I Love Her But She Loves Someone Else So To Speak (Feat. Becky Unthank) The Last Ship (Reprise)

Kurt Vile 2013 Wakin On A Pretty Daze

Language: | Size: 159.03 MB | Seed: 0 | Leech: 0

Description:

Track List: Wakin On A Pretty Day KV Crimes Was All Talk Girl Called Alex Never Run Away Pure Pain Too Hard Shame Chamber Snowflakes Are Dancing Air Bud Goldtone

Molly Nilsson 2013 The Travels

Language: | Size: 110.33 MB | Seed: 216 | Leech: 9

Description:

Track List: Worlds Apart Philadelphia Dirty Fingers The Power Ballad Atlantic Tales Omega Dear Life Going Places City Ten New Lives Kumla Out There