Search Top Tags











Search results for "2014"




Freezer.2014.ITA-ENG.Bluray.1080p.Bymonello78.mkv

Language: | Size: 5.95 GB | Seed: 2 | Leech: 0

Description:

Freezer USA, 2013 Genere: Azione durata 82' Regia di Mikael Salomon Con Dylan McDermott, Peter Facinelli, Yuliya Snigir, David McNally, Milan Malisic, Pascal Petardi, Andrey Ivchenko Trama Robert, un ragazzo ordinario con un'esistenza altrettanto comune, si ritrova a dover mettere alla prova le sue capacità di resistenza umana quando si risveglia bloccato all'interno di un freezer industriale da un gruppo di criminali russi. I banditi minacciano di farlo morire qualora egli non restituisca loro gli otto milioni di dollari che gli ha rubato. Senza sapere di cosa i russi stiano parlando, Robert in un angolo scopre il malconcio Sam e, man mano che i due combattono per la loro sopravvivenza, la verità sulla loro situazione diventa lentamente più chiara.

Freezer.2014.BDRip.AC3.ITA.Bymonello78.avi

Language: | Size: 988.74 MB | Seed: 918 | Leech: 2

Description:

Freezer USA, 2013 Genere: Azione durata 82' Regia di Mikael Salomon Con Dylan McDermott, Peter Facinelli, Yuliya Snigir, David McNally, Milan Malisic, Pascal Petardi, Andrey Ivchenko Trama Robert, un ragazzo ordinario con un'esistenza altrettanto comune, si ritrova a dover mettere alla prova le sue capacità di resistenza umana quando si risveglia bloccato all'interno di un freezer industriale da un gruppo di criminali russi. I banditi minacciano di farlo morire qualora egli non restituisca loro gli otto milioni di dollari che gli ha rubato. Senza sapere di cosa i russi stiano parlando, Robert in un angolo scopre il malconcio Sam e, man mano che i due combattono per la loro sopravvivenza, la verità sulla loro situazione diventa lentamente più chiara.

The.Forger.Il.Falsario.2014.iTALiAN.AC3.BDRip.XviD-BYmonello78.avi

Language: | Size: 1.78 GB | Seed: 183 | Leech: 85

Description:

The Forger USA, 2014 Genere: Giallo durata 92' Regia di Philip Martin Con John Travolta, Christopher Plummer, Tye Sheridan, Jennifer Ehle, Abigail Spencer, Lyndon Smith, Chanty Sok, Christy Scott Cashman. Trama Ray Cutter (John Travolta), ex bambino prodigio del mondo dell'arte e ladruncolo di seconda generazione, ottiene di uscire dal carcere per trascorrere più tempo con il figlio malato. Si ritroverà però costretto a rivedere i suoi piani e a commettere insieme al padre un ultimo grande lavoro per l'associazione criminale che ha finanziato la sua libertà anticipata.

The.Forger.Il.Falsario.2014.iTA.ENG.Bluray.1080p.x264-Bymonello78.mkv

Language: | Size: 9.31 GB | Seed: 534 | Leech: 40

Description:

The Forger USA, 2014 Genere: Giallo durata 92' Regia di Philip Martin Con John Travolta, Christopher Plummer, Tye Sheridan, Jennifer Ehle, Abigail Spencer, Lyndon Smith, Chanty Sok, Christy Scott Cashman. Trama Ray Cutter (John Travolta), ex bambino prodigio del mondo dell'arte e ladruncolo di seconda generazione, ottiene di uscire dal carcere per trascorrere più tempo con il figlio malato. Si ritroverà però costretto a rivedere i suoi piani e a commettere insieme al padre un ultimo grande lavoro per l'associazione criminale che ha finanziato la sua libertà anticipata.

A Girl Walks Home Alone at Night (2014) [720p - H264 - Persian Ac3 5.1 - Sub Ita Eng] WebDl -

Language: | Size: 3.13 GB | Seed: 794 | Leech: 64

Description:

DATA USCITA : 30 giugno 2016 GENERE : Drammatico ANNO : 2014 REGIA : Ana Lily Amirpour ATTORI : Sheila Vand, Arash Marandi, Marshall Manesh, Mozhan Marnò PRODUZIONE : Say Ahh Productions, SpectreVision, Logan Pictures DISTRIBUZIONE : Academy Two PAESE : Iran DURATA : 101 Min Trama Le cose strane si muovono a piedi a Bad City. La città iraniana dei fantasmi, è il rifugio delle prostitute, dei tossici e dei magnaccia e di tutte le anime perverse. È un luogo che puzza di morte e senza speranza, dove un vampiro solitario minaccia gli sgradevoli abitanti della cittadina. Ma quando un ragazzo incontra una ragazza, inizia a sbocciare una anomala storia d'amore... rosso sangue. Parole chiave: drammatico

Güeros (2014) [XviD - Ita Ac3] Drammatico

Language: | Size: 1.57 GB | Seed: 672 | Leech: 79

Description:

DATA USCITA : 23 giugno 2016 GENERE : Commedia ANNO : 2014 REGIA : Alonso Ruizpalacios ATTORI : Tenoch Huerta, Sebastián Aguirre, Ilse Salas, Leonardo Ortizgris SCENEGGIATURA : Alonso Ruizpalacios, Gibran Portela PRODUZIONE : Catatonia Films, Conaculta, Difusion Cultural UNAM DISTRIBUZIONE : Bunker Hill PAESE : Messico DURATA : 106 Min Trama Città del Messico, 1999. Dopo aver scoperto che il suo cantante preferito è in fin di vita, l'irrequieto adolescente Tomàs convince il malinconico fratello Federico a raggiungere l'ospedale per rendere un ultimo omaggio all'artista. Accompagnati dall'amico Santos, i due fratelli arrivano a destinazione e scoprono che il loro idolo d'infanzia è scomparso. Decisi a proseguire le ricerche i ragazzi si lanciano in un'avventura on the road che coinvolge anche la ribelle Ana, passato amore di Federico mai davvero dimenticato. Attraversando Città del Messico in lungo e in largo, inizia così un viaggio che diventa inno della più appassionata e indomabile giovinezza. Parole chiave: commedia

Un' Estate in Provenza (2014) [H264 - Ita Eng Fra Ac3 - Sub Ita] DVDrip

Language: | Size: 1.52 GB | Seed: 78 | Leech: 79

Description:

ilm | Dimensione: 1.52 GB | Seeders: 0 | Leechers: 0 | Completato: 0 | DATA USCITA : 13 aprile 2016 GENERE : Commedia ANNO : 2014 REGIA : Rose Bosch ATTORI : Jean Reno, Anna Galiena, Aure Atika, Jean-Michel Noirey, Charlotte de Turckheim SCENEGGIATURA : Rose Bosch FOTOGRAFIA : Stéphane Le Parc MONTAGGIO : Samuel Danési PRODUZIONE : Légende Films, Gaumont, France 2 Cinéma DISTRIBUZIONE : Nomad Film Distribution PAESE : Francia DURATA : 105 Min Trama Nella campagna provenzale accarezzata dal maestrale giungono in vacanza dai nonni Léa, Adrien e il fratellino Théo, sordo dalla nascita. Non è la vacanza dei loro sogni e in meno di ventiquattro ore è scontro generazionale con il nonno Paul, un olivicoltore rigido e burbero che non hanno mai conosciuto a causa di un vecchio conflitto familiare con la madre. Ben presto però il passato tempestoso di Paul si riaffaccia e i trasgressivi anni Settanta fanno ritorno sullo sfondo incantevole della Provenza mettendo in luce il suo lato più umano e affettuoso. Ecco che le differenze tra la vita di città e di campagna si annullano e le due generazioni possono finalmente incontrarsi dando vita a una vacanza indimenticabile. Parole chiave: commedia

La casa delle estati lontane (2014) [H264 - Ita Fra Ac3 5.1 - Sub Ita] DVDrip by thegatto

Language: | Size: 1.61 GB | Seed: 241 | Leech: 21

Description:

DATA USCITA : 16 giugno 2016 GENERE : Commedia, Drammatico, Fantasy ANNO : 2016 REGIA : Shirel Amitay ATTORI : Géraldine Nakache, Yaël Abecassis, Judith Chemla, Arsinée Khanjian, Pippo Delbono, Makram Khoury SCENEGGIATURA : Shirel Amitay MONTAGGIO : Frédéric Baillehaiche MUSICHE : Reno Isaac PRODUZIONE : En Compagnie Des Lamas, France 2 Cinéma, Centre National de la Cinématographie (CNC) DISTRIBUZIONE : Parthénos PAESE : Francia, Israele DURATA : 91 Min Trama Israele, 1995. La pace è finalmente tangibile. Nella piccola città di Atlit, Cali ritrova le sue due sorelle, Darel e Asia, per vendere la casa ereditata dai genitori. Tra momenti di complicità e incontenibili risate, riaffiorano i dubbi e gli antichi dissapori, ma appaiono anche strani convitati che seminano un'allegra confusione. Il 4 novembre il processo di pace viene annientato, ma le tre sorelle rifiutano di abbandonare la speranza. Parole chiave: commedia drammatico fantasy

Scusate se esisto! (2014) [BDrip 1080p - H264 - Ita Dts Ac3 - Sub Ita Eng] commedia, biografico

Language: | Size: 7.16 GB | Seed: 396 | Leech: 85

Description:

ilm | Dimensione: 7.16 GB | Seeders: 0 | Leechers: 0 | Completato: 0 | DATA USCITA : 20 novembre 2014 GENERE : Commedia ANNO : 2014 REGIA : Riccardo Milani ATTORI : Paola Cortellesi, Raoul Bova, Corrado Fortuna, Lunetta Savino, Marco Bocci, Ennio Fantastichini SCENEGGIATURA : Giulia Calenda, Furio Andreotti, Paola Cortellesi, Riccardo Milani FOTOGRAFIA : Saverio Guarna MONTAGGIO : Patrizia Ceresani PRODUZIONE : Italian International Film, Rai Cinema DISTRIBUZIONE : 01 Distribution PAESE : Italia DURATA : 106 Min Trama Dal regista di BENVENUTO PRESIDENTE Riccardo Milani, una nuova e divertente commedia con protagonista la coppia consacrata da NESSUNO MI PUÒ GIUDICARE: Paola Cortellesi, dopo UN BOSS IN SALOTTO e SOTTO UNA BUONA STELLA, torna al cinema al fianco di Raul Bova con SCUSATE SE ESISTO! Serena è un architetto dal talento straordinario. Dopo una serie di successi professionali all'estero, ha deciso di tornare a lavorare in Italia, perché ama il suo paese. Nell'avventurosa ricerca di un posto di lavoro si trova di fronte a una scelta folle, farsi passare per quello che tutti si aspettano che lei sia: un uomo...O così pare. Nel frattempo incontra Francesco. Bello e affascinante. Il compagno ideale. Se non fosse che a lui non piacciono le donne… O così pare. Tra Serena e Francesco nasce un rapporto intenso e diventano la coppia perfetta… Pronti a tutto pur di darsi una mano saranno costretti a condividere segreti e inganni perché a volte, per essere davvero se stessi, è meglio fingersi qualcun altro! Parole chiave: commedia

Vampire Academy (2014) [BDrip 720p - H264 - Eng Aac - Sub Ita] Fantasy

Language: | Size: 3.06 GB | Seed: 576 | Leech: 85

Description:

DATA USCITA : N.D. GENERE : Fantasy ANNO : 2014 REGIA : Mark Waters ATTORI : Olga Kurylenko, Zoey Deutch, Sarah Hyland, Gabriel Byrne, Cameron Monaghan, Danila Kozlovsky, Joely Richardson, Sami Gayle, Lucy Fry, Claire Foy, Dominic Sherwood, Ashley Charles SCENEGGIATURA : Daniel Waters FOTOGRAFIA : Tony Pierce-Roberts MONTAGGIO : Chris Gill MUSICHE : Rolfe Kent PRODUZIONE : Angry Films, Kintop Pictures, Preger Entertainment DISTRIBUZIONE : Moviemax PAESE : USA DURATA : 104 Min Parole chiave: fantasy

Il.Canale.2014.BDRip.AC3.ITA.BYMONELLO78

Language: | Size: 863 MB | Seed: 1 | Leech: 0

Description:

The Canal Irlanda, 2014 durata 92' Regia di Ivan Kavanagh Con Antonia Campbell-Hughes, Rupert Evans, Steve Oram, Hannah Hoekstra, Anthony Murphy, Maura Foley, Anneke Blok, Carl Shaaban Trama L'archivista di film David e sua moglie sono perfettamente felici o almeno così egli crede. Quando infatti un incombente segreto frantuma il loro matrimonio nello stesso momento in cui un film che sta studiando rivela che la sua casa è stata sede di uno o più omicidi nel 1902, David si ritrova a far fronte alla minaccia del ripetersi di un passato inquietante e agghiacciante

Il.Canale.2014.ITA-ENG.Bluray.1080p.BYMONELLO78.mkv

Language: | Size: 10.96 GB | Seed: 1 | Leech: 0

Description:

The Canal Irlanda, 2014 durata 92' Regia di Ivan Kavanagh Con Antonia Campbell-Hughes, Rupert Evans, Steve Oram, Hannah Hoekstra, Anthony Murphy, Maura Foley, Anneke Blok, Carl Shaaban Trama L'archivista di film David e sua moglie sono perfettamente felici o almeno così egli crede. Quando infatti un incombente segreto frantuma il loro matrimonio nello stesso momento in cui un film che sta studiando rivela che la sua casa è stata sede di uno o più omicidi nel 1902, David si ritrova a far fronte alla minaccia del ripetersi di un passato inquietante e agghiacciante

Maya the Bee Movie - L'Ape Maia Il Film (2014) [DVD5 - Ita Ac3 5.1 - Ita subs]

Language: | Size: 4.02 GB | Seed: 679 | Leech: 6

Description:

Titolo originale: Maya the Bee Movie Nazione: Australia, Germania Anno: 2014 Genere: Animazione Durata: 85' Regia: Alexs Stadermann, Simon Pickerman Produzione: Notorius Pictures (Italia) Trama Per proteggere la Regina, l'Ape Maia e i suoi amici Willy, Flip, Pungolo, la maestra di scuola dei nostri eroi Cassandra e Kurt dovranno formare una vera e propria alleanza con i calabroni, le vespe e gli insetti dall'aria molto generosa per sconfiggere la terribile e infida Ronzelia l'ex consigliera di quest'ultima ed ex insegnante di voli per fare in modo di non essere depredati né dal ragno-femmina Tecla e neanche da altri insetti che li ostacolavano.

The Loft (2014) H264 ita eng sub ita iCV-MIRCrew

Language: | Size: 1.56 GB | Seed: 260 | Leech: 41

Description:

The Loft (2014).H264.Italian.English.Ac3.5.1.sub.ita.iCV-MIRCrew [center] [color=red][b][img]http://s23.postimg.org/b9yhws27f/0sc_Del1.png[/img] [u]NO FOUND ONLY ORIGINAL RELEASE[/u] [img]http://i.imgur.com/GDNQx1Z.png[/img] My release is always in double track audio italian and Original audio for select it use VLC or dvd player home not use wmp The Loft (2014) PRESENTI ANCHE i SOTTOTITOLI ESTERNI IN SRT (ita/eng) [img]https://extraimage.net/images/2017/04/23/30b5061e6853d0d0d4c332813298e6a6.png[/img] [URL=http://www.imdb.com/title/tt1850397/][IMG]http://www.userlogos.org/files/logos/Sucka/imdb_new.png[/IMG][/URL] [img]http://i.imgur.com/fGu1rKv.png[/img] Titolo originale The Loft Lingua originale inglese Paese di produzione Stati Uniti d'America, Belgio Anno 2014 Durata 103 min Rapporto 2,35:1 Genere thriller, drammatico, erotico Regia Erik Van Looy Soggetto Erik Van Looy, Bart De Pauw Sceneggiatura Bart De Pauw, Wesley Strick Produttore Hilde De Laere, Matt DeRoss, Steve Golin, Paul Green, Adam Shulman Casa di produzione Anonymous Content, Woestijnvis Distribuzione (Italia) Open Road Films, Kinepolis Film Distribution Musiche John Frizzell [img]http://i.imgur.com/W7kBqiE.png[/img] Karl Urban: Vincet Stevens Wentworth Miller: Luke Seacord James Marsden: Chris Vanowen Eric Stonestreet: Marty Landry Matthias Schoenaerts: Phillips Williams Rachael Taylor: Ann Morris Isabel Lucas: Sarah Deakins Rhona Mitra: Allison Vanowen Valerie Cruz: Barbara Stevens Elaine Cassidy: Ellie Seacord Kali Rocha: Mimi Landry Margarita Levieva: Vicky Fry Dora Madison: Zoe Trauner Kristin Lehman: Detective Huggins Robert Wisdom: Detective Cohagan Ric Reitz: Joel Kotkin Graham Beckel: Hirman Fry Kathy Deitch: Dana [img]http://i.imgur.com/bFK3ggF.png[/img] Cinque uomini sposati condividono la proprietà di un loft esclusivo, che usano in segreto per soddisfare i propri desideri sessuali con diverse amanti occasionali. Ma quando il corpo di una donna assassinata viene trovato proprio in quel loft, i cinque iniziano a sospettare uno dell'altro in quanto sono gli unici a possedere le chiavi per entrare nel locale.............. [img]http://i.imgur.com/48xHWWH.png[/img] Five married guys conspire to secretly share a penthouse loft in the city--a place where they can carry out hidden affairs and indulge in their deepest fantasies. But the fantasy becomes a nightmare when they discover the dead body of an unknown woman in the loft, and they realize one of the group must be involved. [img]http://i.imgur.com/K8bfNTy.png[/img] [url=https://extraimage.net/image/NNfD][img]https://extraimage.net/images/2017/04/23/b1161f933f6d65ebb13ee2e1903f6d24.th.png[/img][/url] [url=https://extraimage.net/image/NNf5][img]https://extraimage.net/images/2017/04/23/9667ee59090f47ec7195583985154d28.th.png[/img][/url] [url=https://extraimage.net/image/NNfF][img]https://extraimage.net/images/2017/04/23/a66b5a06d10ba23a475b439848777502.th.png[/img][/url] [url=https://extraimage.net/image/NNfH][img]https://extraimage.net/images/2017/04/23/f9e78793fd5a75d994a7084b1ce84794.th.png[/img][/url] [img]http://i.imgur.com/aVrMohH.png[/img] [spoiler] General Unique ID : 270794575492387827460597170203496929880 (0xCBB9235F3AD6757B4B04FD7BD371DA58) Complete name : The Loft (2014).H264.ita.eng.sub.ita.iCV-MIRCrew.mkv Format : Matroska Format version : Version 2 File size : 1.56 GiB Duration : 1h 42mn Overall bit rate : 2 181 Kbps Movie name : www.icv-crew.org Encoded date : UTC 2017-04-20 16:32:59 Writing application : Lavf54.63.100 Writing library : Lavf54.63.100 COPYRIGHT : robbyrs Video ID : 1 Format : AVC Format/Info : Advanced Video Codec Format profile : [email protected] Format settings, CABAC : Yes Format settings, ReFrames : 2 frames Codec ID : V_MPEG4/ISO/AVC Duration : 1h 42mn Bit rate : 1 290 Kbps Width : 720 pixels Height : 300 pixels Display aspect ratio : 2.40:1 Frame rate mode : Variable Frame rate : 24.000 fps Color space : YUV Chroma subsampling : 4:2:0 Bit depth : 8 bits Scan type : Progressive Bits/(Pixel*Frame) : 0.249 Stream size : 911 MiB (57%) Writing library : x264 core 130 r2273 Encoding settings : cabac=1 / ref=2 / deblock=1:0:0 / analyse=0x1:0x131 / me=hex / subme=7 / psy=1 / psy_rd=1.00:0.00 / mixed_ref=0 / me_range=16 / chroma_me=1 / trellis=1 / 8x8dct=0 / cqm=0 / deadzone=21,11 / fast_pskip=1 / chroma_qp_offset=-2 / threads=12 / lookahead_threads=2 / sliced_threads=0 / nr=0 / decimate=1 / interlaced=0 / bluray_compat=0 / constrained_intra=0 / bframes=3 / b_pyramid=0 / b_adapt=1 / b_bias=0 / direct=3 / weightb=1 / open_gop=0 / weightp=2 / keyint=240 / keyint_min=24 / scenecut=40 / intra_refresh=0 / rc_lookahead=40 / rc=abr / mbtree=1 / bitrate=1290 / ratetol=1.0 / qcomp=0.60 / qpmin=10 / qpmax=69 / qpstep=4 / vbv_maxrate=24000 / vbv_bufsize=24000 / nal_hrd=none / ip_ratio=1.40 / aq=1:1.00 Language : Italian Default : Yes Forced : No DURATION : 01:42:33.167000000 NUMBER_OF_FRAMES : 147676 NUMBER_OF_BYTES : 7537132180 _STATISTICS_WRITING_APP : mkvmerge v10.0.0 ('To Drown In You') 32bit _STATISTICS_WRITING_DATE_UTC : 2017-04-19 13:11:27 _STATISTICS_TAGS : BPS DURATION NUMBER_OF_FRAMES NUMBER_OF_BYTES Audio #1 ID : 2 Format : AC-3 Format/Info : Audio Coding 3 Mode extension : CM (complete main) Codec ID : A_AC3 Duration : 1h 42mn Bit rate mode : Constant Bit rate : 448 Kbps Channel(s) : 6 channels Channel positions : Front: L C R, Side: L R, LFE Sampling rate : 48.0 KHz Bit depth : 16 bits Compression mode : Lossy Delay relative to video : 1mn 5s Stream size : 329 MiB (21%) Language : Italian Default : No Forced : No DURATION : 01:42:33.184000000 NUMBER_OF_FRAMES : 192287 NUMBER_OF_BYTES : 492254720 _STATISTICS_WRITING_APP : mkvmerge v10.0.0 ('To Drown In You') 32bit _STATISTICS_WRITING_DATE_UTC : 2017-04-19 13:11:27 _STATISTICS_TAGS : BPS DURATION NUMBER_OF_FRAMES NUMBER_OF_BYTES Audio #2 ID : 3 Format : AC-3 Format/Info : Audio Coding 3 Mode extension : CM (complete main) Codec ID : A_AC3 Duration : 1h 42mn Bit rate mode : Constant Bit rate : 448 Kbps Channel(s) : 6 channels Channel positions : Front: L C R, Side: L R, LFE Sampling rate : 48.0 KHz Bit depth : 16 bits Compression mode : Lossy Delay relative to video : 1mn 5s Stream size : 329 MiB (21%) Language : English Default : No Forced : No DURATION : 01:42:33.152000000 NUMBER_OF_FRAMES : 576858 NUMBER_OF_BYTES : 1160638364 _STATISTICS_WRITING_APP : mkvmerge v10.0.0 ('To Drown In You') 32bit _STATISTICS_WRITING_DATE_UTC : 2017-04-19 13:11:27 _STATISTICS_TAGS : BPS DURATION NUMBER_OF_FRAMES NUMBER_OF_BYTES Text #1 ID : 4 Format : ASS Codec ID : S_TEXT/ASS Codec ID/Info : Advanced Sub Station Alpha Compression mode : Lossless Title : Sub. Ita. Forced Language : Italian Default : Yes Forced : Yes DURATION : 01:25:15.667000000 NUMBER_OF_FRAMES : 4 NUMBER_OF_BYTES : 64 _STATISTICS_WRITING_APP : mkvmerge v10.0.0 ('To Drown In You') 32bit _STATISTICS_WRITING_DATE_UTC : 2017-04-19 13:11:27 _STATISTICS_TAGS : BPS DURATION NUMBER_OF_FRAMES NUMBER_OF_BYTES Text #2 ID : 5 Format : ASS Codec ID : S_TEXT/ASS Codec ID/Info : Advanced Sub Station Alpha Compression mode : Lossless Title : Sub. Ita. Language : Italian Default : No Forced : No DURATION : 01:35:38.166000000 NUMBER_OF_FRAMES : 1344 NUMBER_OF_BYTES : 54192 _STATISTICS_WRITING_APP : mkvmerge v10.0.0 ('To Drown In You') 32bit _STATISTICS_WRITING_DATE_UTC : 2017-04-19 13:11:27 _STATISTICS_TAGS : BPS DURATION NUMBER_OF_FRAMES NUMBER_OF_BYTES Menu 00:00:00.000 : :00:00:00.000 00:04:05.333 : :00:04:05.333 00:08:07.167 : :00:08:07.167 00:13:03.000 : :00:13:03.000 00:18:20.292 : :00:18:20.292 00:22:44.167 : :00:22:44.167 00:26:55.042 : :00:26:55.042 00:31:37.750 : :00:31:37.750 00:37:45.083 : :00:37:45.083 00:41:52.458 : :00:41:52.458 00:46:26.292 : :00:46:26.292 00:51:42.542 : :00:51:42.542 00:57:06.500 : :00:57:06.500 01:01:13.917 : :01:01:13.917 01:06:14.333 : :01:06:14.333 01:11:09.500 : :01:11:09.500 01:15:40.167 : :01:15:40.167 01:21:02.958 : :01:21:02.958 01:29:41.125 : :01:29:41.125 01:37:15.625 : :01:37:15.625 [/spoiler] [/color][/b][/center]

Il.complotto.di.Chernobyl .The.Russian.Woodpecker.2014.WEBRip.Xvid.AC3.ITA-CB01

Language: | Size: 903.36 MB | Seed: 1 | Leech: 1

Description:

Durante le proteste antigovernative in Ucraina, nel gennaio 2014, il pittore e scenografo Fedor Alexandrovich rievoca il trauma vissuto da bambino a seguito dei fatti di Chernobyl (26 aprile 1986), il più grave disastro nucleare (prima di Fukushima) le cui cause furono imputate a errore umano. Convinto che non si sia trattato di un incidente, rabbioso per l'omertà tenuta dalle istituzioni all'epoca e insospettito dall'inquinamento delle prove, ipotizza che l'esplosione del reattore sia stata provocata intenzionalmente da Mosca per disattivare l'inefficiente e costosissimo radar Duga, costruito nelle vicinanze dell'impianto, voluto a scopi militari dal governo sovietico e chiuso proprio a settembre di quell'anno, quando avrebbe dovuto essere sottoposto a revisione. Addirittura individua come mandante Vasily Shamshin, ministro delle comunicazioni russo dall'80 all'89 e morto nel 2009. Per dimostrare la sua teoria, si fa protagonista, insieme al cameraman e direttore della fotografia Artem Ryzhykov, di una rischiosa esplorazione, in cerca di conferme da parte di scienziati, di ormai anziani militari e tecnici allora in servizio e di alcuni superstiti. L'argomento principale della sua inchiesta è il russian woodpecker ("picchio russo"): un segnale costante a bassa frequenza, proveniente dalla Duga, che disturbava le trasmissioni radio ed era noto alle autorità e alla stampa di tutto il mondo, soprattutto statunitensi, fin dal 1976, anno di attivazione di quell'antenna imponente. Nelle interviste in interni privati accordate dai pochi informati, si fa largo, analogamente a The Look of Silence di Joshua Oppenheimer, più che la negazione della teoria di Fedor (tutta da provare), la fedeltà cieca al regime, il silenzio motivato dal terrore del ricordo del KGB. Una traccia narrativa che ripiomba lo spettatore in piena Guerra fredda, in un continuum inquietante tra passato e presente (dall'Unione Sovietica all'autoritarismo liberticida dell'era Putin), il cui equivalente visuale è un sintonizzatore che si muove avanti e indietro tra le frequenze radio come il regista fa con le fasi cruciali della sua storia: la fine del regime comunista e la conseguente indipendenza dell'Ucraina, i notiziari statunitensi di diverse epoche e toni, le riprese delle manifestazioni recenti a Maidan, quelle "rubate" tramite una GoPro (nascosta persino a Fedor) gli archivi del Museo nazionale di Chernobyl e le immagini degli orrori staliniani, di cui la sua famiglia fu vittima; e poi ancora mappe, animazioni in cg, filmati propagandistici di un periodo idillico prima del disastro, in cui il regime assicurava prosperità e sicurezza al popolo, e che a quello stesso negò la verità e gli strumenti per affrontare quella catastrofe immane, i cui esiti drammatici perdurano nel silenzio anche oggi. Il dato più interessante è la commistione di piste e approcci: l'indagine sui responsabili vira a un certo punto verso la denuncia del regime di polizia in Ucraina, con le minacce subite da Fedor e Artem, abbracciando anche una riflessione sul Paese come storica terra di conflitto tra due blocchi contrapposti e la persistenza di un disegno egemonico russo. Oltre a ciò è rappresentazione di come un artista naif - il cui profilo è costruito drammaturgicamente dai suoi 'a solo' in camera e dalle voci delle persone a lui più vicine - rielabori lo choc di quello che chiama "genocidio" e la propria giustificata paranoia. Sperimentale, fantasioso e visionario al punto da sembrare falso, felicemente ibridato col background teatrale del regista e di Fedor, autore-interprete, The Russian Woodpecker (il titolo italiano è un po' fuorviante) è ricerca audace, libertaria che a tratti riesce a trasfigurare anche la tragedia: è il caso delle riprese silenti e perturbanti, tramite droni, ma anche per mano dello stesso Fedor, che lo scala, del monstrum Duga ("creazione dell'Impero"); la ricognizione dell'area contaminata, il tappeto di maschere antigas (purtroppo inutili a evitare le radiazioni) di una scuola abbandonata in fretta, la ruota arrugginita del luna park, il palazzo dello sport deserto e pieno di macerie. Immagini che chiedono senso e si fanno monito universale a non ripetere l'atrocità. Gran premio della Giuria (World Cinema) al Sundance 2015.

Thomas Friends - Tale of the Brave - Thomas il Trenino e i Trenini Coraggiosi (2014) [ MultiLang ]

Language: | Size: 3.08 GB | Seed: 26 | Leech: 10

Description:

Titolo originale: Thomas & Friends - Tale of the Brave Nazione: Regno Unito Anno: 2014 Genere: Animazione Durata: 60' Regia: Rob Silvestri Distribuzione: Universal Picture Sito ufficiale: Data di uscita: 2014 Trama: Il trenino Thomas (titolo originale: Thomas the Tank Engine & Friends dal 1984 al 2003; Thomas and Friends dal 2003 ad oggi) è una serie televisiva inglese per bambini, trasmessa per la prima volta il 4 settembre 1984 sul canale ITV1. Le prime 12 serie furono girate agli Shepperton Studios in 35 mm. È basata su una serie di libri del reverendo W.V. Awdry, intitolata The Railway Series. Le storie riguardano un gruppo di treni ed altri mezzi di trasporto antropomorfizzati che vivono sull'Isola di Sodor. I libri erano basati sulle storielle che Awdry raccontava a suo figlio Christopher quando questi era malato di morbillo. Molte storie traggono ispirazione a situazioni reali della vita di Awdry.

Neil Young - Storytone (2014), [Mp3][Tnt]

Language: | Size: 181.06 MB | Seed: 1 | Leech: 3

Description:

Artist: Neil Young Title: Storytone - Deluxe Edition Year Of Release: 2014 Genre: Folk Rock, Soft Rock Label: Reprise Records Tracks: 20 CDs: 2 Format: Mp3 Quality: 320 kbps Included Scans: Si Archive Size: 181 Mb ------- CD1 01. Plastic Flowers (solo) [4:05] 02. Who’s Gonna Stand Up (solo) [3:49] 03. I Want to Drive My Car (solo) [2:23] 04. Glimmer (solo) [3:11] 05. Say Hello to Chicago (solo) [4:54] 06. Tumbleweed (solo) [3:22] 07. Like You Used to Do (solo) [2:39] 08. I’m Glad I Found You (solo) [3:22] 09. When I Watch You Sleeping (solo) [5:37] 10. All Those Dreams (solo) [3:53] CD2 01. Plastic Flowers (orchestral) [4:06] 02. Who’s Gonna Stand Up (orchestral) [4:24] 03. I Want to Drive My Car (big band) [3:11] 04. Glimmer (orchestral) [5:01] 05. Say Hello to Chicago (big band) [4:58] 06. Tumbleweed (orchestral) [3:38] 07. Like You Used to Do (big band) [2:41] 08. I’m Glad I Found You (orchestral) [3:43] 09. When I Watch You Sleeping (orchestral) [5:31] 10. All Those Dreams (orchestral) [4:25]

La Spia - A Most Wanted Man 2014 .DVDRip.Aac.Ita.Eng.x264

Language: | Size: 2.01 GB | Seed: 44 | Leech: 13

Description:

Un film di Anton Corbijn. Con Philip Seymour Hoffman, Robin Wright, Rachel McAdams, Willem Dafoe, Daniel Brühl. continua» Titolo originale A Most Wanted Man. Thriller, durata 122 min. - Germania, Gran Bretagna, USA 2014. - Notorious Pictures uscita giovedì 30 ottobre 2014. Ad Amburgo e all'indomani degli attentati terroristici dell'undici settembre, Issa Karpov, un povero diavolo di origine russo-cecena, approda nel porto deciso a recuperare il denaro che suo padre, uno spietato criminale di guerra, ha accumulato impunemente. Allertati i servizi segreti tedeschi e americani, spetta a Günther Bachmann scoprire se Issa Karpov è un innocente coinvolto in una storia più grande di lui o un pericoloso terrorista pronto a fare esplodere Amburgo. Cinico e deluso col vizio dell'alcol e della solitudine, Bachmann non può sbagliare e deve riscattare un passato e un fallimento pesante. Costretto suo malgrado a lavorare con un agente americano, con cui sembra nascere un'intesa sentimentale e professionale, Günther Bachmann è deciso a distinguere il bene dal male e a consegnare alla giustizia soltanto i cattivi, quelli che si nascondono dietro una mitezza e una filantropia di facciata.

Frank Zappa - Joe's Camouflage (2014), [Mp3][Tnt]

Language: | Size: 110.75 MB | Seed: 17 | Leech: 0

Description:

Artist: Frank Zappa Title: Joe's Camouflage Year Of Release: 2014 Genre: Rock Label: Vaulternative Records Tracks: 15 CDs: 1 Format: Mp3 Quality: 320 kbps Included Scans: Si Archive Size: 110 Mb ----------- 01 - Phyniox (Take 1) 02 - T'Mershi Duween 03 - Reeny Ra 04 - ''Who Do You Think You Are'' 05 - ''Slack 'Em All Down'' 06 - Honey, Don't You Want A Man Like Me 07 - The Illinois Enema Bandit 08 - Sleep Dirt - In Rehearsal 09 - Black Napkins 10 - Take Your Clothes Off When You Dance 11 - Denny & Froggy Relate 12 - ''Choose Your Foot'' 13 - Any Downers 14 - Phyniox (Take 2) 15 - ''I Heard A Note!''

The Taking of Tiger Mountain - Tiger Mountain (2014).H264.Italian.Chn.Ac3.5.1.iCV-MIRCrew

Language: | Size: 2.17 GB | Seed: 1 | Leech: 17

Description:

The Taking of Tiger Mountain - Tiger Mountain (2014).H264.Italian.Chn.Ac3.5.1.sub.ita.NUita.eng.iCV-MIRCrew [center] [color=red][b][img]http://s23.postimg.org/b9yhws27f/0sc_Del1.png[/img] [u]NO FOUND ONLY ORIGINAL RELEASE[/u] [img]http://i.imgur.com/GDNQx1Z.png[/img] My release is always in double track audio italian and Original audio for select it use VLC or dvd player home not use wmp ENGLISH SUBTITLE INSIDE Tiger Mountain - The Taking of Tiger Mountain (2014) [url=https://postimg.org/image/mc81n8dln/][img]https://s9.postimg.org/yqutnk53z/image.png[/img][/url] [URL=http://www.imdb.com/title/tt3950078/][IMG]http://www.userlogos.org/files/logos/Sucka/imdb_new.png[/IMG][/URL] [img]http://i.imgur.com/fGu1rKv.png[/img] Genere: Avventura Durata: 141 minuti Regista: Tsui Hark Genere: Avventura , azione Uscita ORIG: 24 dicembre 2014 [img]http://i.imgur.com/W7kBqiE.png[/img] Zhang Hanyu, Kenny Lindsay [img]http://i.imgur.com/bFK3ggF.png[/img] Una piccola squadra di soldati selezionati compie una spedizione sulle montagne innevate, alla ricerca di un pericoloso gruppo di banditi. [img]http://i.imgur.com/48xHWWH.png[/img] A story focusing on a conflict between a People's Liberation Army squad and a bandit gang in north-east China during the Chinese revolution. . [img]http://i.imgur.com/K8bfNTy.png[/img] [url=https://postimg.org/image/jqxvlyyu3/][img]https://s9.postimg.org/45gk20mvz/vlcsnap_2017_03_07_15h25m26s308.png[/img][/url] [url=https://postimg.org/image/v4kex69cr/][img]https://s9.postimg.org/z0xqt5ucf/vlcsnap_2017_03_07_15h25m58s141.png[/img][/url] [url=https://postimg.org/image/ei2uo3gez/][img]https://s9.postimg.org/w84j94tzz/vlcsnap_2017_03_07_15h26m22s468.png[/img][/url] [url=https://postimage.org/index.php?lang=italian]upload immagini gratis[/url] [img]http://i.imgur.com/aVrMohH.png[/img] [spoiler] General Unique ID : 58629828270020689334488883208056131483 (0x2C1BB1B66EC2885C943B6A46D5EECF9B) Complete name : Tiger Mountain (2014).H264.ita.chn.sub.ita.NUita.eng.iCV-MIRCrew.mkv Format : Matroska Format version : Version 2 File size : 2.17 GiB Duration : 2h 23mn Overall bit rate : 2 176 Kbps Movie name : VISIT www.icv-crew.org Encoded date : UTC 2017-02-25 19:11:17 Writing application : Lavf54.63.100 Writing library : Lavf54.63.100 COPYRIGHT : robbyrs Video ID : 1 Format : AVC Format/Info : Advanced Video Codec Format profile : [email protected] Format settings, CABAC : Yes Format settings, ReFrames : 2 frames Codec ID : V_MPEG4/ISO/AVC Duration : 2h 23mn Bit rate : 1 280 Kbps Width : 720 pixels Height : 384 pixels Display aspect ratio : 1.854 Original display aspect ratio : 1.853 Frame rate mode : Variable Frame rate : 24.000 fps Color space : YUV Chroma subsampling : 4:2:0 Bit depth : 8 bits Scan type : Progressive Bits/(Pixel*Frame) : 0.193 Stream size : 1.24 GiB (57%) Writing library : x264 core 130 r2273 Encoding settings : cabac=1 / ref=2 / deblock=1:0:0 / analyse=0x1:0x131 / me=hex / subme=7 / psy=1 / psy_rd=1.00:0.00 / mixed_ref=0 / me_range=16 / chroma_me=1 / trellis=1 / 8x8dct=0 / cqm=0 / deadzone=21,11 / fast_pskip=1 / chroma_qp_offset=-2 / threads=12 / lookahead_threads=2 / sliced_threads=0 / nr=0 / decimate=1 / interlaced=0 / bluray_compat=0 / constrained_intra=0 / bframes=3 / b_pyramid=0 / b_adapt=1 / b_bias=0 / direct=3 / weightb=1 / open_gop=0 / weightp=2 / keyint=240 / keyint_min=24 / scenecut=40 / intra_refresh=0 / rc_lookahead=40 / rc=2pass / mbtree=1 / bitrate=1280 / ratetol=1.0 / qcomp=0.60 / qpmin=10 / qpmax=69 / qpstep=4 / cplxblur=20.0 / qblur=0.5 / vbv_maxrate=24000 / vbv_bufsize=24000 / nal_hrd=none / ip_ratio=1.40 / aq=1:1.00 Language : Italian Default : Yes Forced : No DURATION : 02:22:41.209000000 NUMBER_OF_FRAMES : 205469 NUMBER_OF_BYTES : 13278128817 _STATISTICS_WRITING_APP : mkvmerge v8.7.0 ('All of the above') 64bit _STATISTICS_WRITING_DATE_UTC : 2017-01-27 18:45:32 _STATISTICS_TAGS : BPS DURATION NUMBER_OF_FRAMES NUMBER_OF_BYTES Audio #1 ID : 2 Format : AC-3 Format/Info : Audio Coding 3 Mode extension : CM (complete main) Codec ID : A_AC3 Duration : 2h 23mn Bit rate mode : Constant Bit rate : 448 Kbps Channel(s) : 6 channels Channel positions : Front: L C R, Side: L R, LFE Sampling rate : 48.0 KHz Bit depth : 16 bits Compression mode : Lossy Delay relative to video : 1mn 5s Stream size : 459 MiB (21%) Title : AC3 ITA Language : Italian Default : Yes Forced : No DURATION : 02:23:05.088000000 NUMBER_OF_FRAMES : 268284 NUMBER_OF_BYTES : 480764928 _STATISTICS_WRITING_APP : mkvmerge v8.7.0 ('All of the above') 64bit _STATISTICS_WRITING_DATE_UTC : 2017-01-27 18:45:32 _STATISTICS_TAGS : BPS DURATION NUMBER_OF_FRAMES NUMBER_OF_BYTES Audio #2 ID : 3 Format : AC-3 Format/Info : Audio Coding 3 Mode extension : CM (complete main) Codec ID : A_AC3 Duration : 2h 23mn Bit rate mode : Constant Bit rate : 448 Kbps Channel(s) : 6 channels Channel positions : Front: L C R, Side: L R, LFE Sampling rate : 48.0 KHz Bit depth : 16 bits Compression mode : Lossy Delay relative to video : 1mn 5s Stream size : 459 MiB (21%) Title : AC3 CHI Language : Chinese Default : No Forced : No DURATION : 02:22:41.280000000 NUMBER_OF_FRAMES : 267540 NUMBER_OF_BYTES : 684902400 _STATISTICS_WRITING_APP : mkvmerge v8.7.0 ('All of the above') 64bit _STATISTICS_WRITING_DATE_UTC : 2017-01-27 18:45:32 _STATISTICS_TAGS : BPS DURATION NUMBER_OF_FRAMES NUMBER_OF_BYTES Text #1 ID : 4 Format : UTF-8 Codec ID : S_TEXT/UTF8 Codec ID/Info : UTF-8 Plain Text Title : FORCED Language : Italian Default : Yes Forced : No DURATION : 02:13:59.482000000 NUMBER_OF_FRAMES : 8 NUMBER_OF_BYTES : 286 _STATISTICS_WRITING_APP : mkvmerge v8.7.0 ('All of the above') 64bit _STATISTICS_WRITING_DATE_UTC : 2017-01-27 18:45:32 _STATISTICS_TAGS : BPS DURATION NUMBER_OF_FRAMES NUMBER_OF_BYTES Text #2 ID : 5 Format : UTF-8 Codec ID : S_TEXT/UTF8 Codec ID/Info : UTF-8 Plain Text Title : NON UDENTI Language : Italian Default : No Forced : No DURATION : 02:13:40.750000000 NUMBER_OF_FRAMES : 1514 NUMBER_OF_BYTES : 60281 _STATISTICS_WRITING_APP : mkvmerge v8.7.0 ('All of the above') 64bit _STATISTICS_WRITING_DATE_UTC : 2017-01-27 18:45:32 _STATISTICS_TAGS : BPS DURATION NUMBER_OF_FRAMES NUMBER_OF_BYTES Text #3 ID : 6 Format : UTF-8 Codec ID : S_TEXT/UTF8 Codec ID/Info : UTF-8 Plain Text Title : REGULAR Language : Italian Default : No Forced : No DURATION : 02:13:09.085000000 NUMBER_OF_FRAMES : 921 NUMBER_OF_BYTES : 44004 _STATISTICS_WRITING_APP : mkvmerge v8.7.0 ('All of the above') 64bit _STATISTICS_WRITING_DATE_UTC : 2017-01-27 18:45:32 _STATISTICS_TAGS : BPS DURATION NUMBER_OF_FRAMES NUMBER_OF_BYTES Text #4 ID : 7 Format : UTF-8 Codec ID : S_TEXT/UTF8 Codec ID/Info : UTF-8 Plain Text Title : REGULAR Language : English Default : No Forced : No DURATION : 02:13:59.084000000 NUMBER_OF_FRAMES : 1673 NUMBER_OF_BYTES : 37414 _STATISTICS_WRITING_APP : mkvmerge v8.7.0 ('All of the above') 64bit _STATISTICS_WRITING_DATE_UTC : 2017-01-27 18:45:32 _STATISTICS_TAGS : BPS DURATION NUMBER_OF_FRAMES NUMBER_OF_BYTES Menu 00:00:00.000 : :00:00:00.000 00:07:05.342 : :00:07:05.342 00:14:28.201 : :00:14:28.201 00:20:13.838 : :00:20:13.838 00:29:27.099 : :00:29:27.099 00:39:02.590 : :00:39:02.590 00:50:56.804 : :00:50:56.804 00:59:52.756 : :00:59:52.756 01:08:53.129 : :01:08:53.129 01:16:19.950 : :01:16:19.950 01:25:27.706 : :01:25:27.706 01:35:23.259 : :01:35:23.259 01:45:16.300 : :01:45:16:300 01:55:01.150 : :01:55:01:150 02:05:00.150 : :02:05:00:150 [/spoiler] [/color][/b][/center]

Kung Fu Jungle (2014).H264.Italian.Chn.Ac3.5.1.sub.ita.NUita.eng.iCV-MIRCrew

Language: | Size: 1.53 GB | Seed: 73 | Leech: 21

Description:

Kung Fu Jungle (2014).H264.Italian.Chn.Ac3.5.1.sub.ita.NUita.eng.iCV-MIRCrew [center] [color=red][b][img]http://s23.postimg.org/b9yhws27f/0sc_Del1.png[/img] [u]NO FOUND ONLY ORIGINAL RELEASE[/u] [img]http://i.imgur.com/GDNQx1Z.png[/img] My release is always in double track audio italian and Original audio for select it use VLC or dvd player home not use wmp ENGLISH SUBTITLE INSIDE Kung Fu Jungle (2014) [img]https://extraimage.net/images/2017/03/04/eacc6fbdd6f5a799ea09debbf226fe31.png[/img] [URL=http://www.imdb.com/title/tt2952602/][IMG]http://www.userlogos.org/files/logos/Sucka/imdb_new.png[/IMG][/URL] [img]http://i.imgur.com/fGu1rKv.png[/img] Titolo originale Yī Gè Rén De Wǔ Lín Paese di produzione Hong Kong Anno 2014 Durata 100 min Genere azione Regia Teddy Chan Produttore Albert Lee Casa di produzione Emperor Motion Pictures Sun Entertainment Culture Beijing Silver Moon Musiche Peter Kam [img]http://i.imgur.com/W7kBqiE.png[/img] Donnie Yen: Hahou Mo Wang Baoqiang: Fung Yu-Sau Young Charlie: Luk Yuen-Sum Michelle Bai: Sinn Ying Alex Fong: Ispettore Lam Louis Fan: Hung Yip Xing Yu: Tam King-Yiu David Chiang: Maestro Chan Pak-Kwong [img]http://i.imgur.com/bFK3ggF.png[/img] Hahou Mo, esperto di arti marziali e istruttore di autodifesa della polizia, è stato arrestato per omicidio colposo durante un combattimento. Tre anni dopo un killer (Fung Yu-Sau) inizia ad uccidere maestri di arti marziali in pensione, Hahou rivela all'ispettore (Luk Yuen-Sum) che conosce il killer. [img]http://i.imgur.com/48xHWWH.png[/img] A martial arts instructor from the police force gets imprisoned after killing a man by accident. But when a vicious killer starts targeting martial arts masters, the instructor offers to help the police in return for his freedom. [img]http://i.imgur.com/K8bfNTy.png[/img] [url=https://extraimage.net/image/2Ycw][img]https://extraimage.net/images/2017/03/04/4304e11cea8480ea396311e6389ce144.th.png[/img][/url] [url=https://extraimage.net/image/2Yc2][img]https://extraimage.net/images/2017/03/04/c72d1ddc922a6dc6e957ee9872ab30fd.th.png[/img][/url] [url=https://extraimage.net/image/2YcN][img]https://extraimage.net/images/2017/03/04/ce510528fecb4647c6ac38bc428c5c68.th.png[/img][/url] [img]http://i.imgur.com/aVrMohH.png[/img] [spoiler] General Unique ID : 108558065048731872792276366869302644032 (0x51AB85D76A057464C5AA28FCB9D88D40) Complete name : Kung Fu Jungle (2014).H264.ita.chn.sub.ita.eng.iCV-MIRCrew.mkv Format : Matroska Format version : Version 2 File size : 1.53 GiB Duration : 1h 40mn Overall bit rate : 2 175 Kbps Movie name : VISIT www.icv-crew.org Encoded date : UTC 2017-02-27 14:37:02 Writing application : Lavf54.63.100 Writing library : Lavf54.63.100 COPYRIGHT : robbyrs Video ID : 1 Format : AVC Format/Info : Advanced Video Codec Format profile : [email protected] Format settings, CABAC : Yes Format settings, ReFrames : 2 frames Codec ID : V_MPEG4/ISO/AVC Duration : 1h 40mn Bit rate : 1 280 Kbps Width : 720 pixels Height : 304 pixels Display aspect ratio : 2.35:1 Original display aspect ratio : 2.35:1 Frame rate mode : Variable Frame rate : 24.000 fps Color space : YUV Chroma subsampling : 4:2:0 Bit depth : 8 bits Scan type : Progressive Bits/(Pixel*Frame) : 0.244 Stream size : 887 MiB (57%) Writing library : x264 core 130 r2273 Encoding settings : cabac=1 / ref=2 / deblock=1:0:0 / analyse=0x1:0x131 / me=hex / subme=7 / psy=1 / psy_rd=1.00:0.00 / mixed_ref=0 / me_range=16 / chroma_me=1 / trellis=1 / 8x8dct=0 / cqm=0 / deadzone=21,11 / fast_pskip=1 / chroma_qp_offset=-2 / threads=12 / lookahead_threads=2 / sliced_threads=0 / nr=0 / decimate=1 / interlaced=0 / bluray_compat=0 / constrained_intra=0 / bframes=3 / b_pyramid=0 / b_adapt=1 / b_bias=0 / direct=3 / weightb=1 / open_gop=0 / weightp=2 / keyint=240 / keyint_min=24 / scenecut=40 / intra_refresh=0 / rc_lookahead=40 / rc=2pass / mbtree=1 / bitrate=1280 / ratetol=1.0 / qcomp=0.60 / qpmin=10 / qpmax=69 / qpstep=4 / cplxblur=20.0 / qblur=0.5 / vbv_maxrate=24000 / vbv_bufsize=24000 / nal_hrd=none / ip_ratio=1.40 / aq=1:1.00 Language : Italian Default : Yes Forced : No DURATION : 01:40:01.959000000 NUMBER_OF_FRAMES : 144047 NUMBER_OF_BYTES : 7357559279 _STATISTICS_WRITING_APP : mkvmerge v8.7.0 ('All of the above') 64bit _STATISTICS_WRITING_DATE_UTC : 2017-01-25 10:41:24 _STATISTICS_TAGS : BPS DURATION NUMBER_OF_FRAMES NUMBER_OF_BYTES Audio #1 ID : 2 Format : AC-3 Format/Info : Audio Coding 3 Mode extension : CM (complete main) Codec ID : A_AC3 Duration : 1h 40mn Bit rate mode : Constant Bit rate : 448 Kbps Channel(s) : 6 channels Channel positions : Front: L C R, Side: L R, LFE Sampling rate : 48.0 KHz Bit depth : 16 bits Compression mode : Lossy Delay relative to video : 1mn 5s Stream size : 322 MiB (21%) Title : AC3 ITA Language : Italian Default : No Forced : No DURATION : 01:40:26.560000000 NUMBER_OF_FRAMES : 188330 NUMBER_OF_BYTES : 482124800 _STATISTICS_WRITING_APP : mkvmerge v8.7.0 ('All of the above') 64bit _STATISTICS_WRITING_DATE_UTC : 2017-01-25 10:41:24 _STATISTICS_TAGS : BPS DURATION NUMBER_OF_FRAMES NUMBER_OF_BYTES Audio #2 ID : 3 Format : AC-3 Format/Info : Audio Coding 3 Mode extension : CM (complete main) Codec ID : A_AC3 Duration : 1h 40mn Bit rate mode : Constant Bit rate : 448 Kbps Channel(s) : 6 channels Channel positions : Front: L C R, Side: L R, LFE Sampling rate : 48.0 KHz Bit depth : 16 bits Compression mode : Lossy Delay relative to video : 1mn 5s Stream size : 322 MiB (21%) Title : AC3 CHI Language : Chinese Default : No Forced : No DURATION : 01:40:02.016000000 NUMBER_OF_FRAMES : 187563 NUMBER_OF_BYTES : 480161280 _STATISTICS_WRITING_APP : mkvmerge v8.7.0 ('All of the above') 64bit _STATISTICS_WRITING_DATE_UTC : 2017-01-25 10:41:24 _STATISTICS_TAGS : BPS DURATION NUMBER_OF_FRAMES NUMBER_OF_BYTES Text #1 ID : 4 Format : ASS Codec ID : S_TEXT/ASS Codec ID/Info : Advanced Sub Station Alpha Compression mode : Lossless Title : REGULAR Language : Italian Default : No Forced : No DURATION : 01:32:20.700000000 NUMBER_OF_FRAMES : 574 NUMBER_OF_BYTES : 28801 _STATISTICS_WRITING_APP : mkvmerge v8.7.0 ('All of the above') 64bit _STATISTICS_WRITING_DATE_UTC : 2017-01-25 10:41:24 _STATISTICS_TAGS : BPS DURATION NUMBER_OF_FRAMES NUMBER_OF_BYTES Text #2 ID : 5 Format : ASS Codec ID : S_TEXT/ASS Codec ID/Info : Advanced Sub Station Alpha Compression mode : Lossless Title : NON UDENTI Language : Italian Default : No Forced : No DURATION : 01:32:35.700000000 NUMBER_OF_FRAMES : 908 NUMBER_OF_BYTES : 38277 _STATISTICS_WRITING_APP : mkvmerge v8.7.0 ('All of the above') 64bit _STATISTICS_WRITING_DATE_UTC : 2017-01-25 10:41:24 _STATISTICS_TAGS : BPS DURATION NUMBER_OF_FRAMES NUMBER_OF_BYTES Text #3 ID : 6 Format : ASS Codec ID : S_TEXT/ASS Codec ID/Info : Advanced Sub Station Alpha Compression mode : Lossless Title : REGULAR Language : English Default : No Forced : No DURATION : 01:32:19.041000000 NUMBER_OF_FRAMES : 967 NUMBER_OF_BYTES : 25524 _STATISTICS_WRITING_APP : mkvmerge v8.7.0 ('All of the above') 64bit _STATISTICS_WRITING_DATE_UTC : 2017-01-25 10:41:24 _STATISTICS_TAGS : BPS DURATION NUMBER_OF_FRAMES NUMBER_OF_BYTES Menu 00:00:00.000 : :00:00:00.000 00:09:49.589 : :00:09:49.589 00:22:55.374 : :00:22:55.374 00:36:32.190 : :00:36:32.190 00:45:16.714 : :00:45:16.714 01:00:54.651 : :01:00:54.651 01:11:45.301 : :01:11:45.301 01:31:36.491 : :01:31:36.491 01:37:46.861 : :01:37:46.861 [/spoiler] [/color][/b][/center]

Teen Titans Go! 2014 Animated Complete SE2 Burntodisc

Language: | Size: 15.63 GB | Seed: 4 | Leech: 24

Description:

Teen Titans Go! is a TV show that follows the Teen Titans when not saving the world and when living together as teenagers without adult supervision.[3] The Teen Titans must deal with situations such as teenage pranks, reaching a whole new level, having to retake a driver's test after wrecking the Batmobile, taking part in dodgeball tournaments, fighting each other, and other antics. SE1 SE2 = 4 discs DISCS IN SET...: 2 EPISODES.......: 26 (52 segments) SIZE...........: DVD9 VIDEO CODEC....: MPEG2 RESOLUTION.....: 720x480 ASPECT RATIO...: NTSC 16:9 FRAMERATE......: 29.97fps AUDIO .........: English 192kb/s SUBTITLES......: None MENU...........: Yes CHAPTERS.......: Yes DISC COVER.....: Yes

The Tom And Jerry Show 2014 Complete SE1 Burntodisc

Language: | Size: 15.56 GB | Seed: 5 | Leech: 33

Description:

The series normally follows the antics of Tom in his pursuit of Jerry SE1: 2 DISCS EPISODES: 26 episodes 52 segments SIZE: DVD9 VIDEO CODEC: MPEG2 RESOLUTION: 720x480 ASPECT RATIO: NTSC 16:9 FRAMERATE: 29.97fps AUDIO: English 192kb/s SUBTITLES: None MENU: Yes CHAPTERS: Yes DISC COVER: Custom

Big Hero 6 (2014 Ita/Eng) + EXTRA [1080p] [iCV-MIRCrew]

Language: | Size: 6.58 GB | Seed: 1 | Leech: 1

Description:

Titolo originale: Big Hero 6 Nazionalità: USA Anno: 2014 Genere: animazione, commedia, drammatico, fantascienza, azione Regia: Don Hall, Chris Williams Durata: 102 min Trama: Big Hero 6 è una commedia d’avventura ricca d’azione sull’enfant prodige esperto di robot Hiro Hamada, che impara a gestire le sue geniali capacità grazie a suo fratello, il brillante Tadashi e ai suoi amici: l’adrenalica Go Go Tamago, il maniaco dell’ordine Wasabi No-Ginger, la maga della chimica Honey Lemon e l’entusiasta Fred. Quando una serie di circostanze disastrose catapultano i protagonisti al centro di un pericoloso complotto che si consuma sulle strade di San Fransokyo, Hiro si rivolge al suo amico più caro, un robot di nome Baymax, e trasforma il suo gruppo di amici in una squadra altamente tecnologica, per riuscire a rivolvere il mistero. Report: http://freetexthost.com/sdwgrbvtxw Extra: In questa versione sono compresi gli extra: 1 - Corto cinematografico: Winston 2 - L'origine di Big Hero 6: il viaggio di Hiro 3 - Big Animator 6: i protagonisti dietro ai personaggi 4 - Scene eliminate con le introduzioni dei registi Don Hall e Chris Williams 5 - Big Hero 6 Trailer cinematografico 6 - Corto di Topolino - Odissea a Tokyo

I Am Ali (2014).H264.Italian.English.Ac3.5.1.iCV-MIRCrew

Language: | Size: 1.59 GB | Seed: 3 | Leech: 70

Description:

I Am Ali (2014).H264.Italian.English.Ac3.5.1.iCV-MIRCrew [center] [color=red][b][img]http://s23.postimg.org/b9yhws27f/0sc_Del1.png[/img] [u]NO FOUND ONLY ORIGINAL RELEASE[/u] [img]http://i.imgur.com/GDNQx1Z.png[/img] My release is always in double track audio italian and Original audio for select it use VLC or dvd player home not use wmp I Am Ali (2014) [img]https://extraimage.net/images/2017/02/08/f86d499ca85f79e2c9f1c7ff2a353170.png[/img] [URL=http://www.imdb.com/title/tt4008652/][IMG]http://www.userlogos.org/files/logos/Sucka/imdb_new.png[/IMG][/URL] [img]http://i.imgur.com/fGu1rKv.png[/img] Titolo originale: I Am Ali Nazione,Anno: Gran Bretagna, USA 2014. Regia: Clare Lewins Genere: Film sportivo/Film biografico Durata: 01:51:32 [img]http://i.imgur.com/W7kBqiE.png[/img] Mike Tyson Tom Jones George Foreman Jim Brown [img]http://i.imgur.com/bFK3ggF.png[/img] Un accesso senza precedenti all'archivio personale dei 'giornali audio' di Muhammad Ali, così come le interviste e le testimonianze dalla sua cerchia di familiari e amici che vengono utilizzati per raccontare la leggenda della sua vita. [img]http://i.imgur.com/48xHWWH.png[/img] Unprecedented access to Muhammad Ali's personal archive of "audio journals" as well as interviews and testimonials from his inner circle of family and friends are used to tell the legend's life story. [img]http://i.imgur.com/K8bfNTy.png[/img] [img]https://extraimage.net/images/2017/02/08/a99859f150a0bc6b27d5ab4e07bb0fc9.png[/img] [img]https://extraimage.net/images/2017/02/08/462177dec27497ee0aa2b7999fda72d9.png[/img] [img]http://i.imgur.com/aVrMohH.png[/img] [spoiler] General Unique ID : 249502410422860798426526393055200217636 (0xBBB46A9574BEE9752D50ED782A990A24) Complete name : I Am Ali (2014).ita.eng.iCV-MIRCrew.mkv Format : Matroska Format version : Version 2 File size : 1.59 GiB Duration : 1h 51mn Overall bit rate : 2 043 Kbps Encoded date : UTC 2017-01-25T16:34:10Z Writing application : HandBrake 0.10.5 2016021100 Writing library : Lavf55.12.0 Video ID : 1 Format : AVC Format/Info : Advanced Video Codec Format profile : [email protected] Format settings, CABAC : Yes Format settings, ReFrames : 4 frames Codec ID : V_MPEG4/ISO/AVC Duration : 1h 51mn Bit rate : 1 280 Kbps Width : 688 pixels Height : 398 pixels Display aspect ratio : 16:9 Original display aspect ratio : 16:9 Frame rate mode : Variable Frame rate : 23.976 fps Color space : YUV Chroma subsampling : 4:2:0 Bit depth : 8 bits Scan type : Progressive Bits/(Pixel*Frame) : 0.195 Stream size : 985 MiB (60%) Writing library : x264 core 142 r2479 dd79a61 Encoding settings : cabac=1 / ref=1 / deblock=1:0:0 / analyse=0x1:0x111 / me=hex / subme=2 / psy=1 / psy_rd=1.00:0.00 / mixed_ref=0 / me_range=16 / chroma_me=1 / trellis=0 / 8x8dct=0 / cqm=0 / deadzone=21,11 / fast_pskip=1 / chroma_qp_offset=0 / threads=12 / lookahead_threads=3 / sliced_threads=0 / nr=0 / decimate=1 / interlaced=0 / bluray_compat=0 / constrained_intra=0 / bframes=3 / b_pyramid=2 / b_adapt=1 / b_bias=0 / direct=1 / weightb=1 / open_gop=0 / weightp=1 / keyint=240 / keyint_min=24 / scenecut=40 / intra_refresh=0 / rc_lookahead=10 / rc=abr / mbtree=1 / bitrate=1280 / ratetol=1.0 / qcomp=0.60 / qpmin=0 / qpmax=69 / qpstep=4 / vbv_maxrate=20000 / vbv_bufsize=25000 / nal_hrd=none / filler=0 / ip_ratio=1.40 / aq=1:1.00 Default : Yes Forced : No Color primaries : BT.709-5, BT.1361, IEC 61966-2-4, SMPTE RP177 Transfer characteristics : BT.709-5, BT.1361 Matrix coefficients : BT.709-5, BT.1361, IEC 61966-2-4 709, SMPTE RP177 Audio #1 ID : 2 Format : AC-3 Format/Info : Audio Coding 3 Mode extension : CM (complete main) Codec ID : A_AC3 Duration : 1h 51mn Bit rate mode : Constant Bit rate : 384 Kbps Channel(s) : 6 channels Channel positions : Front: L C R, Side: L R, LFE Sampling rate : 48.0 KHz Bit depth : 16 bits Compression mode : Lossy Delay relative to video : 1mn 5s Stream size : 306 MiB (19%) Title : Surround Language : Italian Default : Yes Forced : No Audio #2 ID : 3 Format : AC-3 Format/Info : Audio Coding 3 Mode extension : CM (complete main) Codec ID : A_AC3 Duration : 1h 51mn Bit rate mode : Constant Bit rate : 384 Kbps Channel(s) : 6 channels Channel positions : Front: L C R, Side: L R, LFE Sampling rate : 48.0 KHz Bit depth : 16 bits Compression mode : Lossy Delay relative to video : 1mn 5s Stream size : 306 MiB (19%) Title : Surround Language : English Default : No Forced : No [/spoiler] [/color][/b][/center]

Ashlee K Thomas - Just Got Started (2014) (by emi)

Language: | Size: 44.29 MB | Seed: 21 | Leech: 5

Description:

mp3 a 192 kbps audio di qualità a 95 db Tracklist 01 - Ride Free.mp3 (4.7 MB) 02 - Motorcycles.mp3 (4.2 MB) 03 - Boulder.mp3 (4.8 MB) 04 - Running Wild.mp3 (3.8 MB) 05 - Moon Song.mp3 (4.7 MB) 06 - Losing Side.mp3 (4.7 MB) 07 - Panama.mp3 (4.7 MB) 08 - Who Else Can.mp3 (3.5 MB) 09 - What You're Doing Now.mp3 (4.5 MB) 10 - Simple Life.mp3 (4.7 MB)

Swelter - Vendetta e redenzione (2014).H264.Italian.English.Ac3.5.1.sub.ita.eng.iCV-MIRCrew

Language: | Size: 1.51 GB | Seed: 42 | Leech: 4

Description:

Swelter - Vendetta e redenzione (2014).H264.Italian.English.Ac3.5.1.sub.ita.eng.iCV-MIRCrew [center] [color=red][b][img]http://s23.postimg.org/b9yhws27f/0sc_Del1.png[/img] [u]NO FOUND ONLY ORIGINAL RELEASE[/u] [img]http://i.imgur.com/GDNQx1Z.png[/img] My release is always in double track audio italian and Original audio for select it use VLC or dvd player home not use wmp Vendetta e redenzione - Swelter (2014) [img]http://extraimage.net/images/2017/01/25/aee465badb7a47ce5834da8e714863c1.png[/img] [URL=http://www.imdb.com/title/tt2112277/][IMG]http://www.userlogos.org/files/logos/Sucka/imdb_new.png[/IMG][/URL] [img]http://i.imgur.com/fGu1rKv.png[/img] Titolo originale Swelter Paese di produzione Stati Uniti Anno 2014 Durata 96 min Genere azione, thriller Regia Keith Parmer Soggetto Keith Parmer Sceneggiatura Keith Parmer Produttore Eleonore Dailly Chris Ranta Casa di produzione Entertainm [img]http://i.imgur.com/W7kBqiE.png[/img] Jean-Claude Van Damme: Stillman Lennie James: Bishop Grant Bowler: Cole Josh Henderson: Boyd Alfred Molina: Doc, the town's physician [img]http://i.imgur.com/bFK3ggF.png[/img] La pellicola narra la vicenda della più famosa rapina nella storia di Las Vegas. Cinque uomini, soprannominati il Rat Pack (branco di ratti, ndr.), colpisce il Luxor Casino per oltre cento milioni di dollari. Quattro uomini vengono presto catturati, mentre uno (Van Damme) riesce a sfuggire per un pelo. Dieci anni più tardi, dopo aver creato con la dinamite la loro via d'uscita da una prigione di massima sicurezza............ [img]http://i.imgur.com/48xHWWH.png[/img] Ten years after their casino heist, four escaped convicts trace their former partner to a desert town, where he is now a lawman with no memory of his criminal past. [img]http://i.imgur.com/K8bfNTy.png[/img] [img]http://extraimage.net/images/2017/01/25/21409ff41b3a0287f571ed29f03ec39f.png[/img] [img]http://extraimage.net/images/2017/01/25/ad67e8ee3a9104009a2538e3ff029af5.png[/img] [img]http://extraimage.net/images/2017/01/25/cfce0d75fe7ad5f5e6f22553d2dc0bb9.png[/img] [img]http://i.imgur.com/aVrMohH.png[/img] [spoiler] General Unique ID : 254366058902476937063055623714944732850 (0xBF5D1EF7BBA26428175E5E9AAF9A4EB2) Complete name : Vendetta e redenzione - Swelter (2014).H264.ita.eng.sub.ita.eng.iCV-MIRCrew.mkv Format : Matroska Format version : Version 2 File size : 1.51 GiB Duration : 1h 39mn Overall bit rate : 2 170 Kbps Movie name : VISIT www.icv-crew.org Encoded date : UTC 2017-01-20 19:13:36 Writing application : Lavf54.63.100 Writing library : Lavf54.63.100 COPYRIGHT : robbyrs Video ID : 1 Format : AVC Format/Info : Advanced Video Codec Format profile : [email protected] Format settings, CABAC : Yes Format settings, ReFrames : 2 frames Codec ID : V_MPEG4/ISO/AVC Duration : 1h 39mn Bit rate : 1 270 Kbps Width : 720 pixels Height : 300 pixels Display aspect ratio : 2.40:1 Frame rate mode : Variable Frame rate : 23.976 fps Color space : YUV Chroma subsampling : 4:2:0 Bit depth : 8 bits Scan type : Progressive Bits/(Pixel*Frame) : 0.245 Stream size : 879 MiB (57%) Writing library : x264 core 130 r2273 Encoding settings : cabac=1 / ref=2 / deblock=1:0:0 / analyse=0x1:0x131 / me=hex / subme=7 / psy=1 / psy_rd=1.00:0.00 / mixed_ref=0 / me_range=16 / chroma_me=1 / trellis=1 / 8x8dct=0 / cqm=0 / deadzone=21,11 / fast_pskip=1 / chroma_qp_offset=-2 / threads=12 / lookahead_threads=2 / sliced_threads=0 / nr=0 / decimate=1 / interlaced=0 / bluray_compat=0 / constrained_intra=0 / bframes=3 / b_pyramid=0 / b_adapt=1 / b_bias=0 / direct=3 / weightb=1 / open_gop=0 / weightp=2 / keyint=230 / keyint_min=23 / scenecut=40 / intra_refresh=0 / rc_lookahead=40 / rc=2pass / mbtree=1 / bitrate=1270 / ratetol=1.0 / qcomp=0.60 / qpmin=10 / qpmax=69 / qpstep=4 / cplxblur=20.0 / qblur=0.5 / vbv_maxrate=24000 / vbv_bufsize=24000 / nal_hrd=none / ip_ratio=1.40 / aq=1:1.00 Language : English Default : Yes Forced : No DURATION : 01:39:46.481000000 NUMBER_OF_FRAMES : 143532 NUMBER_OF_BYTES : 7298493121 _STATISTICS_WRITING_APP : mkvmerge v8.7.0 ('All of the above') 64bit _STATISTICS_WRITING_DATE_UTC : 2017-01-11 17:44:24 _STATISTICS_TAGS : BPS DURATION NUMBER_OF_FRAMES NUMBER_OF_BYTES Audio #1 ID : 2 Format : AC-3 Format/Info : Audio Coding 3 Mode extension : CM (complete main) Codec ID : A_AC3 Duration : 1h 39mn Bit rate mode : Constant Bit rate : 448 Kbps Channel(s) : 6 channels Channel positions : Front: L C R, Side: L R, LFE Sampling rate : 48.0 KHz Bit depth : 16 bits Compression mode : Lossy Delay relative to video : 1mn 5s Stream size : 320 MiB (21%) Title : AC3 ITA Language : Italian Default : No Forced : No DURATION : 01:39:48.224000000 NUMBER_OF_FRAMES : 187132 NUMBER_OF_BYTES : 479057920 _STATISTICS_WRITING_APP : mkvmerge v8.7.0 ('All of the above') 64bit _STATISTICS_WRITING_DATE_UTC : 2017-01-11 17:44:24 _STATISTICS_TAGS : BPS DURATION NUMBER_OF_FRAMES NUMBER_OF_BYTES Audio #2 ID : 3 Format : AC-3 Format/Info : Audio Coding 3 Mode extension : CM (complete main) Codec ID : A_AC3 Duration : 1h 39mn Bit rate mode : Constant Bit rate : 448 Kbps Channel(s) : 6 channels Channel positions : Front: L C R, Side: L R, LFE Sampling rate : 48.0 KHz Bit depth : 16 bits Compression mode : Lossy Delay relative to video : 1mn 5s Stream size : 320 MiB (21%) Title : AC3 ENG Language : English Default : No Forced : No DURATION : 01:39:46.624000000 NUMBER_OF_FRAMES : 187082 NUMBER_OF_BYTES : 478929920 _STATISTICS_WRITING_APP : mkvmerge v8.7.0 ('All of the above') 64bit _STATISTICS_WRITING_DATE_UTC : 2017-01-11 17:44:24 _STATISTICS_TAGS : BPS DURATION NUMBER_OF_FRAMES NUMBER_OF_BYTES Text #1 ID : 4 Format : UTF-8 Codec ID : S_TEXT/UTF8 Codec ID/Info : UTF-8 Plain Text Title : Forced Language : Italian Default : Yes Forced : No DURATION : 00:52:23.518000000 NUMBER_OF_FRAMES : 18 NUMBER_OF_BYTES : 551 _STATISTICS_WRITING_APP : mkvmerge v8.7.0 ('All of the above') 64bit _STATISTICS_WRITING_DATE_UTC : 2017-01-11 17:44:24 _STATISTICS_TAGS : BPS DURATION NUMBER_OF_FRAMES NUMBER_OF_BYTES Text #2 ID : 5 Format : UTF-8 Codec ID : S_TEXT/UTF8 Codec ID/Info : UTF-8 Plain Text Title : Regular Language : Italian Default : No Forced : No DURATION : 01:36:46.146000000 NUMBER_OF_FRAMES : 861 NUMBER_OF_BYTES : 29762 _STATISTICS_WRITING_APP : mkvmerge v8.7.0 ('All of the above') 64bit _STATISTICS_WRITING_DATE_UTC : 2017-01-11 17:44:24 _STATISTICS_TAGS : BPS DURATION NUMBER_OF_FRAMES NUMBER_OF_BYTES Text #3 ID : 6 Format : UTF-8 Codec ID : S_TEXT/UTF8 Codec ID/Info : UTF-8 Plain Text Title : Regular Language : English Default : No Forced : No DURATION : 01:37:56.704000000 NUMBER_OF_FRAMES : 948 NUMBER_OF_BYTES : 32154 _STATISTICS_WRITING_APP : mkvmerge v8.7.0 ('All of the above') 64bit _STATISTICS_WRITING_DATE_UTC : 2017-01-11 17:44:24 _STATISTICS_TAGS : BPS DURATION NUMBER_OF_FRAMES NUMBER_OF_BYTES Menu 00:00:00.000 : :00:00:00.000 00:07:40.460 : :00:07:40.460 00:18:18.097 : :00:18:18.097 00:25:28.527 : :00:25:28.527 00:32:20.939 : :00:32:20.939 00:41:01.459 : :00:41:01.459 00:49:42.980 : :00:49:42.980 00:59:27.564 : :00:59:27.564 01:09:11.147 : :01:09:11.147 01:15:37.533 : :01:15:37.533 01:21:47.903 : :01:21:47.903 01:28:51.326 : :01:28:51.326 [/spoiler] [/color][/b][/center]

Citizenfour (2014).H264.Italian.English.Ac3.sub.ita.iCV-MIRCrew

Language: | Size: 1.48 GB | Seed: 28 | Leech: 6

Description:

Citizenfour (2014).H264.Italian.English.Ac3.sub.ita.iCV-MIRCrew [center] [color=red][b][img]http://i.imgur.com/0scDel1.png[/img] [u]NO FOUND ONLY ORIGINAL RELEASE[/u] [img]http://i.imgur.com/GDNQx1Z.png[/img] My release is always in double track audio italian and Original audio for select it use VLC or dvd player home not use wmp Citizenfour (2014) [img]http://extraimage.net/images/2017/01/25/425a95f6a1713f0cc218018a8dda79f1.png[/img] [URL=http://www.imdb.com/title/tt4044364/][IMG]http://www.userlogos.org/files/logos/Sucka/imdb_new.png[/IMG][/URL] [img]http://i.imgur.com/qKKNGHG.png[/img] DATA USCITA: 16 aprile 2015 GENERE: Documentario ANNO: 2014 REGIA: Laura Poitras FOTOGRAFIA: Laura Poitras, Kirsten Johnson, Trevor Paglen, Katy Scoggin MONTAGGIO: Mathilde Bonnefoy DISTRIBUZIONE: I Wonder Pictures PAESE: Germania, USA DURATA: 114 Min [img]http://i.imgur.com/VmqNvIa.png[/img] Edward Snowden, Julian Assange, Glenn Greenwald, Ewen MacAskill [img]http://i.imgur.com/NhlQr0j.png[/img] Ricostruzione della vicenda di Edward Snowden e dello scandalo sulle sorveglianze illegali della NSA americana raccontato dallo stesso protagonista, che ha contattato l'autrice del documentario offrendogli di diffondere ulteriormente la sua storia. [img]http://i.imgur.com/76fgzGF.png[/img] In January 2013, Laura Poitras started receiving anonymous encrypted e-mails from "CITIZENFOUR," who claimed to have evidence of illegal covert surveillance programs run by the NSA in collaboration with other intelligence agencies worldwide. Five months later, she and reporters Glenn Greenwald and Ewen MacAskill flew to Hong Kong for the first of many meetings with the man who turned out to be Edward Snowden. She brought her camera with her. The resulting film is history unfolding before our eyes. [img]http://i.imgur.com/DgAQhgU.png[/img] [img]http://extraimage.net/images/2017/01/25/4bc84f7f62c771bd58afa9d4a8134c29.png[/img] [img]http://extraimage.net/images/2017/01/25/d29d1facec8ce97b8bca9b23f16d9a22.png[/img] [img]http://extraimage.net/images/2017/01/25/843ea325ffc42ee1f52a26b47255594a.png[/img] [img]http://i.imgur.com/DhNFcEV.png[/img] [spoiler] General Unique ID : 188364132769554174961159050405484924853 (0x8DB59CC49AABA7E19B70A45949738FB5) Complete name : Citizenfour (2014).H264.ita.eng.sub.ita.iCV-MIRCrew.mkv Format : Matroska Format version : Version 2 File size : 1.48 GiB Duration : 1h 49mn Overall bit rate : 1 942 Kbps Movie name : CITIZENFOUR.Title1 Encoded date : UTC 2017-01-20 18:11:22 Writing application : DVDFab 9.1.5.7 Writing library : libebml v0.7.8 + libmatroska v0.8.1 Video ID : 1 Format : AVC Format/Info : Advanced Video Codec Format profile : [email protected] Format settings, CABAC : Yes Format settings, ReFrames : 2 frames Codec ID : V_MPEG4/ISO/AVC Duration : 1h 49mn Bit rate : 1 263 Kbps Width : 720 pixels Height : 404 pixels Display aspect ratio : 16:9 Frame rate : 25.000 fps Color space : YUV Chroma subsampling : 4:2:0 Bit depth : 8 bits Scan type : Progressive Bits/(Pixel*Frame) : 0.174 Stream size : 987 MiB (65%) Writing library : x264 core Default : Yes Forced : No Color primaries : BT.601-6 525, BT.1358 525, BT.1700 NTSC, SMPTE 170M Transfer characteristics : BT.709-5, BT.1361 Matrix coefficients : BT.601-6 525, BT.1358 525, BT.1700 NTSC, SMPTE 170M Audio #1 ID : 2 Format : AC-3 Format/Info : Audio Coding 3 Mode extension : CM (complete main) Codec ID : A_AC3 Duration : 1h 49mn Bit rate mode : Constant Bit rate : 192 Kbps Channel(s) : 2 channels Channel positions : Front: L R Sampling rate : 48.0 KHz Bit depth : 16 bits Compression mode : Lossy Stream size : 150 MiB (10%) Language : Italian Default : Yes Forced : No Audio #2 ID : 3 Format : AC-3 Format/Info : Audio Coding 3 Mode extension : CM (complete main) Codec ID : A_AC3 Duration : 1h 49mn Bit rate mode : Constant Bit rate : 448 Kbps Channel(s) : 6 channels Channel positions : Front: L C R, Side: L R, LFE Sampling rate : 48.0 KHz Bit depth : 16 bits Compression mode : Lossy Stream size : 350 MiB (23%) Language : English Default : No Forced : No Text #1 ID : 4 Format : VobSub Codec ID : S_VOBSUB Codec ID/Info : The same subtitle format used on DVDs Language : Italian Default : Yes Forced : No Text #2 ID : 5 Format : VobSub Codec ID : S_VOBSUB Codec ID/Info : The same subtitle format used on DVDs Language : Italian Default : No Forced : No Text #3 ID : 6 Format : VobSub Codec ID : S_VOBSUB Codec ID/Info : The same subtitle format used on DVDs Language : Italian Default : No Forced : No Menu 00:00:00.000 : en:(01)00:00:00:000 00:05:06.880 : en:(02)00:05:06:880 00:08:30.680 : en:(03)00:08:30:680 00:11:50.280 : en:(04)00:11:50:280 00:15:31.800 : en:(05)00:15:31:800 00:20:10.560 : en:(06)00:20:10:560 00:26:42.320 : en:(07)00:26:42:320 00:34:04.680 : en:(08)00:34:04:680 00:39:41.120 : en:(09)00:39:41:120 00:44:09.360 : en:(10)00:44:09:360 00:50:01.520 : en:(11)00:50:01:520 00:56:26.400 : en:(12)00:56:26:400 01:03:42.760 : en:(13)01:03:42:760 01:10:18.880 : en:(14)01:10:18:880 01:16:18.920 : en:(15)01:16:18:920 01:20:11.240 : en:(16)01:20:11:240 01:26:32.840 : en:(17)01:26:32:840 01:30:22.160 : en:(18)01:30:22:160 01:35:58.040 : en:(19)01:35:58:040 01:40:32.720 : en:(20)01:40:32:720 01:46:01.000 : en:(21)01:46:01:000 [/spoiler] [/color][/b][/center]

Jungle Shuffle (2014).H264.Italian.English.Ac3.5.1.sub.ita.iCV-MIRCrew

Language: | Size: 1.23 GB | Seed: 16 | Leech: 2

Description:

Jungle Shuffle (2014).H264.Italian.English.Ac3.5.1.sub.ita.iCV-MIRCrew [center] [color=red][b][img]http://extraimago.com/images/2016/07/16/oCo82IVa08d8.png[/img] [u]NO FOUND ONLY ORIGINAL RELEASE[/u] [img]http://i.imgur.com/GDNQx1Z.png[/img] My release is always in double track audio italian and Original audio for select it use VLC or dvd player home not use wmp Jungle Shuffle (2014) [img]http://extraimage.net/images/2017/01/23/c2da7eb8cb172f2663e1493276fb86c9.png[/img] [URL=http://www.imdb.com/title/tt2722786/][IMG]http://www.userlogos.org/files/logos/Sucka/imdb_new.png[/IMG][/URL] [img]http://i.imgur.com/Q5gAZRt.png[/img] Jungle Shuffle Corea del Sud, Messico 2014 Genere: Animazione Durata 82' Regia di Taedong Park [img]http://i.imgur.com/Jtvgw7x.png[/img] *********************************** [img]http://i.imgur.com/hL3n1m8.png[/img] Manu e Sacha sono due coati che vivono nella giungla messicana e che si amano. Peccato, però, che Sacha sia la figlia del re della tribù dei coati e che Manu brilli in negativo per la sua infinita goffaggine. Un giorno Manu combina un guaio così grosso che finisce addirittura per farlo bandire dalla tribù, costringendolo a vivere da solo nel bosco............... [img]http://i.imgur.com/MTp7cO6.png[/img] 1960 Lacedon Jungle in Mexico. Coatis Manu and Sacha are best friends. However, mischievous Manu is exiled from the empire for breaking a statue ordered to be made by the king, then girlfriend Sacha is captured by hunters................ [img]http://i.imgur.com/6TgqSmf.png[/img] [img]http://extraimage.net/images/2017/01/23/588d3fa0df758eb38844d656ea18d404.png[/img] [img]http://extraimage.net/images/2017/01/23/2e6e5e42f6a20b1c9262ca1df3cd3c9e.png[/img] [img]http://extraimage.net/images/2017/01/23/8c76ded305ba54fd7fa493f07053382c.png[/img] [img]http://i.imgur.com/t8N3Ia1.png[/img] [spoiler] General Unique ID : 182808795594202830039072121759537386050 (0x8987B17F98CDEC7CAC3DFB7A16C95242) Complete name : Jungle Shuffle (2014).H264.ita.eng.sub.ita.iCV-MIRCrew.mkv Format : Matroska Format version : Version 2 File size : 1.23 GiB Duration : 1h 21mn Overall bit rate : 2 167 Kbps Movie name : VISIT www.icv-crew.org Encoded date : UTC 2017-01-21 18:55:45 Writing application : mkvmerge v5.4.0 ('Piper') built on Mar 10 2012 13:34:39 Writing library : Lavf54.63.100 COPYRIGHT : robbyrs Video ID : 1 Format : AVC Format/Info : Advanced Video Codec Format profile : [email protected] Format settings, CABAC : Yes Format settings, ReFrames : 2 frames Muxing mode : Header stripping Codec ID : V_MPEG4/ISO/AVC Duration : 1h 21mn Bit rate : 1 270 Kbps Width : 720 pixels Height : 404 pixels Display aspect ratio : 16:9 Frame rate mode : Variable Frame rate : 23.976 fps Color space : YUV Chroma subsampling : 4:2:0 Bit depth : 8 bits Scan type : Progressive Bits/(Pixel*Frame) : 0.182 Stream size : 716 MiB (57%) Writing library : x264 core 130 r2273 Encoding settings : cabac=1 / ref=2 / deblock=1:0:0 / analyse=0x1:0x131 / me=hex / subme=7 / psy=1 / psy_rd=1.00:0.00 / mixed_ref=0 / me_range=16 / chroma_me=1 / trellis=1 / 8x8dct=0 / cqm=0 / deadzone=21,11 / fast_pskip=1 / chroma_qp_offset=-2 / threads=12 / lookahead_threads=2 / sliced_threads=0 / nr=0 / decimate=1 / interlaced=0 / bluray_compat=0 / constrained_intra=0 / bframes=3 / b_pyramid=0 / b_adapt=1 / b_bias=0 / direct=3 / weightb=1 / open_gop=0 / weightp=2 / keyint=230 / keyint_min=23 / scenecut=40 / intra_refresh=0 / rc_lookahead=40 / rc=2pass / mbtree=1 / bitrate=1270 / ratetol=1.0 / qcomp=0.60 / qpmin=10 / qpmax=69 / qpstep=4 / cplxblur=20.0 / qblur=0.5 / vbv_maxrate=24000 / vbv_bufsize=24000 / nal_hrd=none / ip_ratio=1.40 / aq=1:1.00 Language : Italian Default : Yes Forced : No DURATION : 01:21:34.348000000 NUMBER_OF_FRAMES : 117347 NUMBER_OF_BYTES : 4738624396 _STATISTICS_WRITING_APP : mkvmerge v8.7.0 ('All of the above') 64bit _STATISTICS_WRITING_DATE_UTC : 2017-01-20 20:47:33 _STATISTICS_TAGS : BPS DURATION NUMBER_OF_FRAMES NUMBER_OF_BYTES Audio #1 ID : 2 Format : AC-3 Format/Info : Audio Coding 3 Mode extension : CM (complete main) Muxing mode : Header stripping Codec ID : A_AC3 Duration : 1h 21mn Bit rate mode : Constant Bit rate : 448 Kbps Channel(s) : 6 channels Channel positions : Front: L C R, Side: L R, LFE Sampling rate : 48.0 KHz Bit depth : 16 bits Compression mode : Lossy Delay relative to video : -5ms Stream size : 261 MiB (21%) Title : AC3 ITA Language : Italian Default : No Forced : No DURATION : 01:21:34.304000000 NUMBER_OF_FRAMES : 152947 NUMBER_OF_BYTES : 391544320 _STATISTICS_WRITING_APP : mkvmerge v8.7.0 ('All of the above') 64bit _STATISTICS_WRITING_DATE_UTC : 2017-01-20 20:47:33 _STATISTICS_TAGS : BPS DURATION NUMBER_OF_FRAMES NUMBER_OF_BYTES Audio #2 ID : 3 Format : AC-3 Format/Info : Audio Coding 3 Mode extension : CM (complete main) Muxing mode : Header stripping Codec ID : A_AC3 Duration : 1h 21mn Bit rate mode : Constant Bit rate : 448 Kbps Channel(s) : 6 channels Channel positions : Front: L C R, Side: L R, LFE Sampling rate : 48.0 KHz Bit depth : 16 bits Compression mode : Lossy Delay relative to video : -5ms Stream size : 261 MiB (21%) Title : AC3 ENG Language : English Default : No Forced : No DURATION : 01:21:34.336000000 NUMBER_OF_FRAMES : 152948 NUMBER_OF_BYTES : 391546880 _STATISTICS_WRITING_APP : mkvmerge v8.7.0 ('All of the above') 64bit _STATISTICS_WRITING_DATE_UTC : 2017-01-20 20:47:33 _STATISTICS_TAGS : BPS DURATION NUMBER_OF_FRAMES NUMBER_OF_BYTES Text #1 ID : 4 Format : UTF-8 Codec ID : S_TEXT/UTF8 Codec ID/Info : UTF-8 Plain Text Default : Yes Forced : No Text #2 ID : 5 Format : UTF-8 Codec ID : S_TEXT/UTF8 Codec ID/Info : UTF-8 Plain Text Default : No Forced : No Menu 00:00:00.000 : :00:00:00.000 00:07:05.342 : :00:07:05.342 00:14:28.201 : :00:14:28.201 00:20:13.838 : :00:20:13.838 00:29:27.099 : :00:29:27.099 00:39:02.590 : :00:39:02.590 00:50:56.804 : :00:50:56.804 00:59:52.756 : :00:59:52.756 01:08:53.129 : :01:08:53.129 01:16:19.950 : :01:16:19.950 [/spoiler] [/color][/b][/center]

The Fault in Our Stars - Colpa delle Stelle (2014) [DVD9 - MultiLang 5.1 - Multisubs]

Language: | Size: 7.28 GB | Seed: 7 | Leech: 12

Description:

Titolo originale: The Fault in Our Stars Nazione: Usa Anno: 2014 Genere: Drammatico, Sentimentale Durata: Versione cinematografica 1201., Versione estesa 1271. Regia: Josh Boone Produzione: 20th Century Fox Sito ufficiale: http://thefaultinourstarsmovie.com/ Cast: Shailene Woodley, Ansel Elgort, Laura Dern, Sam Trammell, Nat Wolff Data di uscita: Giovedì 4 Settembre 2014 (Cinema) Trama: Hazel Grace Lancaster, una sedicenne affetta da cancro, è obbligata dai genitori a frequentare un gruppo di supporto. Qui incontra e si innamora del diciottenne Augustus Waters, un ex giocatore di basket con una gamba amputata. Hazel fa conoscere ad Augustus il suo romanzo preferito, Un'imperiale afflizione. La passione comune per il romanzo li porta ad Amsterdam, dove hanno un burrascoso incontro con l'autore, Peter Van Houten, ormai alcolizzato. Là Augustus rivela a Hazel di essere nel corso di una grave ricaduta diagnosticata da una recente PET. Il film si chiude con la descrizione delle ultime settimane di vita e infine della morte del ragazzo, del dolore di Hazel e delle rispettive famiglie, ma anche con nuovi sviluppi del difficile rapporto dei ragazzi con Van Houten.