Support us
Login | Signup

Popular TAGs: 2016 2015 2014 2013 720p 1080p m1080p XviD x264 x265 3D DVDrip BDrip MKV 320kbps

Show only:                                            

Sort by: Date | Name | Seeders | Leechers | Comments

Milionari (2014) iTA AC3 6 CH DVDRip XviD

Language: | Size: 1.36 GB | Seed: 391 | Leech: 43

Description:

Titolo originale: Milionari Nazione: Italia Anno: 2014 Genere: Drammatico Durata: 104' Regia: Alessandro Piva Cast: Francesco Scianna, Valentina Lodovini, Carmine Recano, Francesco Di Leva, Salvatore Striano, Gianfranco Gallo Produzione: Margherita Film Data di uscita: Roma 2014 - Cinema d'Oggi 11 Febbraio 2016 (cinema) Trama: Ascesa e caduta di un clan criminale napoletano attraverso il racconto di un boss e della sua famiglia, scissa tra l'aspirazione a una vita borghese e le pulsioni profonde della sopraffazione. Trent'anni di storia di una delle città più belle e discusse del mondo, il sogno di un ragazzo che si fa travolgere dalla brama di un potere fine a se stesso, per diventare l'incubo di un uomo e di chi gli vive accanto. Risoluzione: 720 x 400

MilitAnt [2016, ]

Language: | Size: 2.85 GB | Seed: 329 | Leech: 18

Description:

Title: MilitAnt Genre: Platform: Windows Multiplayer: No Year: 2016 Type of publication: Language of the game: Crack: Not Required Description : MilitAnt is an action-packed side-scrolling platform/shooter. Set in a world ruled by insects, a lone soldier ant must defend his home colony at all costs from a brutal invasion by the termite infantry, the wasp air force and other enemy bug nations. Packed with customizable weapon load-outs, a large variety of enemies and challenging boss battles, MilitAnt takes you into a rich stylized insect world, blending novel 2.5D shooter gameplay with epic platforming action. Test your reflexes and prove your might in the biggest action adventure any player or ant has ever seen. Jump to the battlefield world of MilitAnt for a completely original experience of Epic-tiny proportions . INSTALL NOTES 1. Unpack the release 2. Mount or burn image 3. Install 4. Copy the cracked content from the SKIDROW folder and into the main install folder and overwrite 5. Block the game in your firewall and mark our cracked content as secure/trusted in your antivirus program 6. Play the game 7. Support the companies, which software you actually enjoy! GREETINGS

Milk & Bone 2015 Little Mourning

Language: | Size: 64.83 MB | Seed: 412 | Leech: 40

Description:

Track List: Elephant Easy to read Pressure New York X Tomodachi Coconut Water Watch

Milking The Goatmachine 2015 Goatgrind

Language: | Size: 99.43 MB | Seed: 0 | Leech: 0

Description:

Track List: Burn Your Shed Fear The Goathammer U.H.T. Milk Is Murder Talk To The Hoofe Mrs. Goat re (Nanny Of The Damned) Wolf Expander 7 Sound Of Breaking Horns Shadows And Crust Blow Your Sneakers The Goatastic Four No More Space In Herd #Idiot Goatgrind Farm Of The Mutilated Wheels Of Fire (Manowar Cover)

Millencolin 2015 True Brew

Language: | Size: 79.55 MB | Seed: 2 | Leech: 1

Description:

Track List: Egocentric Man Chameleon Autopilot Mode Bring Me Home Sense & Sensibility True Brew Perfection is Boring Wall of Doubt Something I would Die For Silent Suicide Man of 1000 Tics Mr. Fake Believe Believe in John

Miller s Crossing - Crocevia della Morte (1990).H264.Italian.English.Ac3.multisub.iCV-MIRCrew

Language: | Size: 1.36 GB | Seed: 19 | Leech: 10

Description:

Miller s Crossing - Crocevia della Morte (1990).H264.Italian.English.Ac3.multisub.iCV-MIRCrew [center] [color=red][b][img]https://s23.postimg.org/b9yhws27f/0sc_Del1.png[/img] [u]NO FOUND ONLY ORIGINAL RELEASE[/u] [img]http://i.imgur.com/GDNQx1Z.png[/img] My release is always in double track audio italian and Original audio for select it use VLC or dvd player home not use wmp Miller's Crossing - Crocevia della Morte (1990) [img]http://extraimage.net/images/2017/01/11/6b71d1a8054ce68f8683a50c4eb67827.png[/img] [URL=http://www.imdb.com/title/tt0060955/][IMG]http://www.userlogos.org/files/logos/Sucka/imdb_new.png[/IMG][/URL] [img]http://i.imgur.com/fGu1rKv.png[/img] Titolo originale Miller's Crossing Paese di produzione Stati Uniti d'America Anno 1990 Durata 115 min Genere noir, drammatico, thriller Regia Joel Coen (Ethan Coen non accreditato) Soggetto Dashiell Hammett (romanzi) (non accreditato), Joel Coen, Ethan Coen Sceneggiatura Joel Coen, Ethan Coen Produttore Ethan Coen (Joel Coen non accreditato) Fotografia Barry Sonnenfeld Montaggio Michael R. Miller Musiche Carter Burwell (con musiche di repertorio) Scenografia Dennis Gassner [img]http://i.imgur.com/W7kBqiE.png[/img] Gabriel Byrne: Tom Reagan Marcia Gay Harden: Verna Bernbaum John Turturro: Bernie Bernbaum Jon Polito: Johnny Caspar J.E. Freeman: Eddie Dane Albert Finney: Leo Mike Starr: Frankie Al Mancini: Tic-Tac Richard Woods: Sindaco Dale Levander Thomas Toner: O'Doole Steve Buscemi: Mink Frances McDormand: Segretaria del sindaco Michael Badalucco: Autista di Caspar [img]http://i.imgur.com/bFK3ggF.png[/img] Stati Uniti, fine anni venti: le bande malavitose della città si fanno guerra a causa di un piccolo ebreo bookmaker, Bernie Bernbaum, che sembra aver truffato il capo della mafia italiana, Johnny Caspar. A proteggerlo c'è il capo della mafia irlandese, Leo, affascinato, innamorato e raggirato dalla sorella del bookmaker, Verna. Tom Reagan, braccio destro del capomafia irlandese, a sua volta innamorato di Verna, cerca di risolvere la situazione e di evitare spargimenti di sangue inutili, ma quando l'amore si mette in mezzo le cose peggiorano................... [img]http://i.imgur.com/48xHWWH.png[/img] Tom Reagan (played by Gabriel Byrne) is the right-hand man, and chief adviser, to a mob boss, Leo (Albert Finney). Trouble is brewing between Leo and another mob boss, Johnny Caspar (Jon Polito), over the activities of a bookie, Bernie Bernbaum (John Turturro) and Leo and Tom are at odds on how to deal with it. Meanwhile, Tom is in a secret relationship with Leo's girlfriend, Verna (Marcia Gay Harden), who happens to be the sister of Bernie............... [img]http://i.imgur.com/K8bfNTy.png[/img] [url=https://extraimage.net/image/2yL8][img]http://extraimage.net/images/2017/01/11/bd6cc8bf39fc52c6e14b04e0748993bb.th.png[/img][/url] [url=https://extraimage.net/image/2yyf][img]http://extraimage.net/images/2017/01/11/2551ba84c24a95ba672caf15cfd45408.th.png[/img][/url] [url=https://extraimage.net/image/2yLa][img]http://extraimage.net/images/2017/01/11/ff29b3771e37aaee5355d5cc9cd75857.th.png[/img][/url] [img]http://i.imgur.com/cWb6Z.gif[/img] [img]http://i.imgur.com/aVrMohH.png[/img] [spoiler] General Unique ID : 73060314655370539669705735116612714400 (0x36F6E79F46BA59187E5367F4686C3FA0) Complete name : Miller's Crossing - Crocevia della Morte (1990).H264.ita.eng.multisub.iCV-MIRCrew.mkv Format : Matroska Format version : Version 2 File size : 1.36 GiB Duration : 1h 54mn Overall bit rate : 1 701 Kbps Movie name : VISIT www.icv-crew.org Encoded date : UTC 2016-12-19T14:03:31Z Writing application : HandBrake 0.10.5 2016021100 Writing library : Lavf55.12.0 Video ID : 1 Format : AVC Format/Info : Advanced Video Codec Format profile : [email protected] Format settings, CABAC : Yes Format settings, ReFrames : 4 frames Codec ID : V_MPEG4/ISO/AVC Duration : 1h 54mn Bit rate : 1 270 Kbps Width : 720 pixels Height : 390 pixels Display aspect ratio : 16:9 Frame rate : 23.976 fps Color space : YUV Chroma subsampling : 4:2:0 Bit depth : 8 bits Scan type : Progressive Bits/(Pixel*Frame) : 0.189 Stream size : 1.03 GiB (75%) Writing library : x264 core 142 r2479 dd79a61 Encoding settings : cabac=1 / ref=1 / deblock=1:0:0 / analyse=0x1:0x111 / me=hex / subme=2 / psy=1 / psy_rd=1.00:0.00 / mixed_ref=0 / me_range=16 / chroma_me=1 / trellis=0 / 8x8dct=0 / cqm=0 / deadzone=21,11 / fast_pskip=1 / chroma_qp_offset=0 / threads=3 / lookahead_threads=1 / sliced_threads=0 / nr=0 / decimate=1 / interlaced=0 / bluray_compat=0 / constrained_intra=0 / bframes=3 / b_pyramid=2 / b_adapt=1 / b_bias=0 / direct=1 / weightb=1 / open_gop=0 / weightp=1 / keyint=240 / keyint_min=24 / scenecut=40 / intra_refresh=0 / rc_lookahead=10 / rc=abr / mbtree=1 / bitrate=1270 / ratetol=1.0 / qcomp=0.60 / qpmin=0 / qpmax=69 / qpstep=4 / vbv_maxrate=20000 / vbv_bufsize=25000 / nal_hrd=none / filler=0 / ip_ratio=1.40 / aq=1:1.00 Default : Yes Forced : No Color primaries : BT.709-5, BT.1361, IEC 61966-2-4, SMPTE RP177 Transfer characteristics : BT.709-5, BT.1361 Matrix coefficients : BT.709-5, BT.1361, IEC 61966-2-4 709, SMPTE RP177 Audio #1 ID : 2 Format : AC-3 Format/Info : Audio Coding 3 Mode extension : CM (complete main) Codec ID : A_AC3 Duration : 1h 54mn Bit rate mode : Constant Bit rate : 192 Kbps Channel(s) : 2 channels Channel positions : Front: L R Sampling rate : 48.0 KHz Bit depth : 16 bits Compression mode : Lossy Delay relative to video : 1mn 5s Stream size : 158 MiB (11%) Title : Stereo Language : Italian Default : Yes Forced : No Audio #2 ID : 3 Format : AC-3 Format/Info : Audio Coding 3 Mode extension : CM (complete main) Codec ID : A_AC3 Duration : 1h 54mn Bit rate mode : Constant Bit rate : 192 Kbps Channel(s) : 2 channels Channel positions : Front: L R Sampling rate : 48.0 KHz Bit depth : 16 bits Compression mode : Lossy Delay relative to video : 1mn 5s Stream size : 158 MiB (11%) Title : Stereo Language : English Default : No Forced : No Text #1 ID : 4 Format : VobSub Codec ID : S_VOBSUB Codec ID/Info : The same subtitle format used on DVDs Language : English Default : No Forced : No Text #2 ID : 5 Format : VobSub Codec ID : S_VOBSUB Codec ID/Info : The same subtitle format used on DVDs Language : Japanese Default : No Forced : No Text #3 ID : 6 Format : VobSub Codec ID : S_VOBSUB Codec ID/Info : The same subtitle format used on DVDs Language : Spanish Default : No Forced : No Text #4 ID : 7 Format : VobSub Codec ID : S_VOBSUB Codec ID/Info : The same subtitle format used on DVDs Language : French Default : No Forced : No Text #5 ID : 8 Format : VobSub Codec ID : S_VOBSUB Codec ID/Info : The same subtitle format used on DVDs Language : Italian Default : No Forced : No Text #6 ID : 9 Format : VobSub Codec ID : S_VOBSUB Codec ID/Info : The same subtitle format used on DVDs Language : Russian Default : No Forced : No [/spoiler] [/color][/b][/center]

Million Dollar Arm - Film (2014) ITALIAN BDRip AC3 x264 HD 720p

Language: | Size: 3.48 GB | Seed: 991 | Leech: 89

Description:

TITOLO ORIGINALE: Million Dollar Arm LINGUA ORIGINALE: Inglese PAESE: USA ANNO: 2014 GENERE: Biografico, Drammatico, Sportivo DURATA: 02:04:14 FORMATO: Film TV REGIA: Craig Gillespie ATTORI: Jon Hamm, Bill Paxton, Alan Arkin DATA USCITA: 2 Septtembre 2014 (Italy) PRODUZIONE: Mayhem Pictures, Roth Films TRAMA: Jon Hamm è JB Bernstein, il talent manager ed esperto di marketing sportivo, inventore del contest televisivo The Million Dollar Arm. La storia del film racconta come Bernstein, figura popolarissima in America, abbia trovato col suo reality, in India, grandi talenti del cricket trasformandoli in giocatori di baseball. Lo show selezionò i concorrenti tra oltre 40.000 giocatori. Tra questi, Rinku Singh e Dinesh Patel diventarono professionisti nella squadra dei Pittsburgh Pirates. VIDEO: 1280 x 536 (2.40:1), 23.976 fps, AVC [email protected] ~3733 kbps AUDIO: 48 kHz, AC3 Dolby Digital, 2 ch, ~192 kbps HDTV SOTTOTITOLI: Inglese VALUTAZIONE: RECENSIONI: Mymovies Parole chiave: biografico dramma sportivo

Million Dollar Arm - Film (2014) ITALIAN HDRip AC3 XviD

Language: | Size: 1.46 GB | Seed: 854 | Leech: 49

Description:

TITOLO ORIGINALE: Million Dollar Arm LINGUA ORIGINALE: Inglese PAESE: USA ANNO: 2014 GENERE: Biografico, Drammatico, Sportivo DURATA: 02:04:14 FORMATO: Film TV REGIA: Craig Gillespie ATTORI: Jon Hamm, Bill Paxton, Alan Arkin DATA USCITA: 2 Septtembre 2014 (Italy) PRODUZIONE: Mayhem Pictures, Roth Films TRAMA: Jon Hamm è JB Bernstein, il talent manager ed esperto di marketing sportivo, inventore del contest televisivo The Million Dollar Arm. La storia del film racconta come Bernstein, figura popolarissima in America, abbia trovato col suo reality, in India, grandi talenti del cricket trasformandoli in giocatori di baseball. Lo show selezionò i concorrenti tra oltre 40.000 giocatori. Tra questi, Rinku Singh e Dinesh Patel diventarono professionisti nella squadra dei Pittsburgh Pirates. VIDEO: 720 x 304 (2.37:1), 23.976 fps, XviD ~1435 kbps AUDIO: 48 kHz, AC3 Dolby Digital, 2 ch, ~192 kbps HDTV SOTTOTITOLI: No VALUTAZIONE: RECENSIONI: Mymovies Parole chiave: biografico dramma sportivo

Mina Celentano - Le.Migliori (2016)

Language: | Size: 116.73 MB | Seed: 489 | Leech: 4

Description:

tracklist Amami Amami E’ L’amore Con Se mi ami davvero Ti lascio amore Ad un passo da te Non mi ami Ma che ci faccio qui Sono le 3 Il bambino col fucile Quando la smetterò Come un diamante nascosto nella neve Prisencolinensinainciusol

Mind Path To Thalamus-CODEX [2014, Adventure] EN

Language: | Size: 2.11 GB | Seed: 98 | Leech: 1

Description:

Mind Path To Thalamus-CODEX Genre: Adventure Platform: Windows Multiplayer: No Year: 2014 Type of publication: Language of the game: EN Crack: Available Description : MIND: Path to Thalamus is a First Person Puzzler that throws you into a fantastic and surreal environment. You will bend the natural elements to your will in order to progress in this emotive, mindbending tale. - Burn or mount the .iso - Run setup.exe and install - copy crack from CODEX dir to installdir - Play System requirements: Size: 2.11 GB

Mind Zero [2016, Action (Shooters, MMO FPS, TPS)] CH

Language: | Size: 1.13 GB | Seed: 327 | Leech: 45

Description:

Title: Mind Zero Genre: Action (Shooters, MMO FPS, TPS) Platform: Windows Multiplayer: No Year: 2016 Type of publication: Language of the game: CH Crack: Description : Mind Zero is an action-packed dungeon-crawler RPG. Play as Kei, a high school student whose life turns upside down when he forms a contract with a MIND, a weapon/being with deadly powers. With the government and other forces trailing him and his friends, Kei will need to discover the secret behind MIND. Will these newfound powers help him or ultimately be his doom? INSTALL - Extract - Burn or mount the .iso - Run setup.exe and install - Copy crack from CODEX dir to installdir - Play System requirements:

mind.in.a.box 2015 Memories

Language: | Size: 158.79 MB | Seed: 2 | Leech: 0

Description:

Track List: Travel Guide I Knew Unforgiving World No Hope Synchronize Bad Dreams Silent Pain Timelessness Face It Up There Pedro Shake-Up 5Ynchr0Ni7E

Mindcrafter 2015 Signs Revealed

Language: | Size: 148.11 MB | Seed: 1 | Leech: 0

Description:

Track List: The Night Wizard A Warrior's Blaze Against The Ravens In The Sky Paths To Redemption The Grasping Hand During The Storm Secret Worlds Challenge Of The Gods Alternative Fields Endless Hope

Mindless Faith 2015 Eden To Abyss

Language: | Size: 123.71 MB | Seed: 0 | Leech: 0

Description:

Track List: Devil May Care Shit Show Red Halos Hollow Victory 13Th Floor Leachate The Fluffer Dead Inside Deaf To Defeat Minerals

Mindless Self Indulgence 2013 How I Learned To Stop Giving A Shit And Love Mindless Self Indulgence

Language: | Size: 98.76 MB | Seed: 0 | Leech: 0

Description:

Track List: Witness Fuck Machine It Gets Worse I Want To Be Black Hey Tomorrow Fuck You And Your Friend Yesterday You're No Fun Anymore Mark Trezona Ala Mode Casio Anonymous Kill You All In A Hip Hop Rage Stalkers (Slit My Wrists) Jack You Up Ass Backwards Angel (Bonus Track) I Am Not Here To Make Any Friends (Bonus Track) Last Gay Song (Bonus Track)

Mindscape - ESP XViD DVDrip

Language: | Size: 1.25 GB | Seed: 14 | Leech: 1

Description:

Descripción: Título: Mindscape Título original: Mindscape País: España, USA Estreno en USA: Estreno en España: 24/01/2014 Lanzamiento en DVD (alquiler): 14/05/2014 Productora: Ombra Films, The Safran Company, Antena 3 Films, Roxbury Pictures Director: Jorge Dorado Guión: Guy Holmes Reparto: Mark Strong, Taissa Farmiga, Brian Cox, Indira Varma, Noah Taylor, Saskia Reeves, Clare Calbraith, Jessica Barden, Alberto Ammann, Julio Perillán, Hovik Keuchkerian Notas de producción: No recomendada para menores de 12 años Género: Thriller. Intriga. Ciencia ficción | Thriller psicológico SINOPSIS: En un futuro cercano, se ha descubierto que ciertas personas tienen la habilidad de leer los recuerdos de las personas. John es uno de ellos, y trabaja como detective para una agencia especializada en resolver crímenes y casos complicados mediante esta habilidad. Después de un suceso dramático que a punto estuvo de costarle la vida, y tras el que estuvo seis meses retirado, John vuelve a la actividad encargándose de un caso aparentemente sencillo: una adolescente que no se lleva bien con sus padres y se niega a comer. Conforme John vaya desentrañando la tela de araña de los recuerdos y traumas de la joven, se encontrará más y más convencido de que guarda un secreto muy turbio y peligroso...

Mindslip 2015 Mindslip

Language: | Size: 113.46 MB | Seed: 0 | Leech: 0

Description:

Track List: In This Moment Face to Ground Testify Five Words Carry On Fake Undone Memento Hologram Cover Your Eyes New Identity Break These Walls Kids on the Run

Mindwave 2015 Package

Language: | Size: 378.23 MB | Seed: 0 | Leech: 0

Description:

Track List: Crispy Water Shaman Insight Transparent People Within You Contact Concept Of Freedom Underwater Guiding Voice Particles Human Traffic Perception Fear & Love (Mindwave remix) Crawling Demons (Mindwave remix) Black Light Nebula Surreal Enlightenment Levity Simple Moves

Minecraft 1.7.9 by TeamExtremeMc [2014, Action (Shooters, MMO FPS, TPS)] EN

Language: | Size: 148.15 MB | Seed: 742 | Leech: 63

Description:

Minecraft 1.7.9 by TeamExtremeMc Genre: Action (Shooters, MMO FPS, TPS) Platform: Windows Multiplayer: No Year: 2014 Type of publication: Language of the game: EN Crack: Available Description : Official Minecraft 1.7.9 by TeamExtreme Instructions: Make sure you read the ReadMe file first! 1. Download and install Minecraft. 2. Run the shortcut from the desktop or start menu. 3. Pick a username.(this is very important for multiplayer) 4. Enjoy the game in single player or multiplayer.(server list provided) If you are having any problems running this game, please install the latest 64bit java located at: http://javadl.sun.com/webapps/download/AutoDL?BundleId=83385 If you have any questions about the server, please post them on our forums or if you have a question about the torrent, feel free to post them here. System requirements: Size: 148 MB

Minecraft 1.8 by TeamExtremeMc [2014, Simulation (Sports)] EN

Language: | Size: 136.62 MB | Seed: 70 | Leech: 72

Description:

Minecraft 1.8 by TeamExtremeMc Genre: Simulation (Sports) Platform: Windows Multiplayer: No Year: 2014 Type of publication: Language of the game: EN Crack: Available Description : System requirements: CPU: Intel Pentium D or AMD Athlon 64 (K8) 2.6 GHz RAM: 4GB VGA: GeForce 6xxx or ATI Radeon 9xxx and up with OpenGL 2 Support (Excluding Integrated Chipsets) OS: Windows XP or better, Mac OS 10.5.8 or better, Linux HDD: 150MB Note: Java (Java SE 6 Update 32 or Java SE 7 Update 4 or newer is preferred) Size: 136 MB

Minecraft Mac OS X 1.7.5 [2016, Action (Shooters, MMO FPS, TPS)] EN

Language: | Size: 682.1 MB | Seed: 790 | Leech: 37

Description:

Title: Minecraft Mac OS X 1.7.5 Genre: Action (Shooters, MMO FPS, TPS) Platform: Mac Multiplayer: No Year: 2016 Type of publication: Language of the game: EN Crack: Not Required Description : Minecraft is a game about breaking and placing blocks. At first, people built structures to protect against nocturnal monsters, but as the game grew players worked together to create wonderful, imaginative things. It can also be about adventuring with friends or watching the sun rise over a blocky ocean. It’s pretty. Brave players battle terrible things in The Nether, which is more scary than pretty. You can also visit a land of mushrooms if it sounds more like your cup of tea. System requirements: Mac Platform: Intel Includes: Unofficial Wineskin (games only)/Pre-K'ed OS version: Mac OS 10.5.8 Processor type(s) & speed: Core 2 Duo 2.3 Ghz RAM minimum: 2GB Video RAM: 1024 MB

Minecraft Story Mode Episode 1 [2015, Action-adventure] EN

Language: | Size: 741.47 MB | Seed: 670 | Leech: 56

Description:

Title: Minecraft Story Mode Episode 1 Genre: Action-adventure Platform: Windows Multiplayer: No Year: 2015 Type of publication: Language of the game: EN Crack: Available Description : Minecraft: Story Mode is a narrative-driven video game series created by Mojang AB in cooperation with Telltale Games. Set in the world of Minecraft,but not related to the origianl game's character Steve, the series features an original story driven by player decision.It is released in an episodic structure

Minecraft Story Mode Episode 3 [2015, Action-adventure] EN

Language: | Size: 1.95 GB | Seed: 14 | Leech: 90

Description:

Title: Minecraft Story Mode Episode 3 Genre: Action-adventure Platform: Windows Multiplayer: No Year: 2015 Type of publication: Language of the game: EN Crack: Not Available Description : Minecraft: Story Mode is a narrative-driven video game series created by Mojang AB in cooperation with Telltale Games. Set in the world of Minecraft,but not related to the origianl game's character Steve, the series features an original story driven by player decision.It is released in an episodic structure

Minecraft Story Mode Episode 3 [MULTI][RELOADED]

Language: | Size: 1.89 GB | Seed: 177 | Leech: 8

Description:

EspañolEnglishFrenchItalianGermanPortuguese IMPORTANTE. Incluye el Episodio 1, 2 y 3. El popular juego de crafting y exploración tridimensional, Minecraft, recibe un modo historia independiente y alternativo a cargo de Telltale Games, responsables de revitalizar el género narrativo cercano a la aventura gráfica. Minecraft: Story Mode será a una aventura episódica al estilo de otros juegos de Telltale Games, en el que nuestras decisiones tendrán impacto en el pixelado mundo del juego de Mojang. REQUISITOS DEL SISTEMA OS: Windows XP Service Pack 3 Processor: Core 2 Duo 2GHz or equivalent Memory: 3 GB RAM Graphics: ATI or NVIDIA card w/512 MB RAM DirectX: Version 9.0 Hard Drive: 3 GB available space Sound Card: Direct X 9.0c sound device Additional Notes: Not Recommended for Intel integrated graphics

Minecraft Story Mode Episode 4 [2015, ] EN

Language: | Size: 2.54 GB | Seed: 486 | Leech: 76

Description:

Title: Minecraft Story Mode Episode 4 Genre: Platform: Windows Multiplayer: No Year: 2015 Type of publication: Language of the game: EN Crack: Description : In Minecraft: Story Mode, playing as either a male or female hero named 'Jesse,' you'll embark on a perilous adventure across the Overworld, through the Nether, to the End, and beyond. System requirements: Size: 2.91 GB

Minecraft Story Mode Episode 6 [2016, Action (Shooters, MMO FPS, TPS), Role-playing (RPG)] EN

Language: | Size: 4.26 GB | Seed: 736 | Leech: 79

Description:

tle: Minecraft Story Mode Episode 6 Genre: Action (Shooters, MMO FPS, TPS), Role-playing (RPG) Platform: Windows Multiplayer: No Year: 2016 Type of publication: Language of the game: EN Crack: Available Description : THE ADVENTURE OF A LIFETIME IN THE WORLD OF MINECRAFT In this five part episodic series, youll embark on a perilous adventure across the Overworld, through the Nether, to the End, and beyond. You and your friends revere the legendary Order of the Stone: Warrior, Redstone Engineer, Griefer, and Architect; slayers of the Ender Dragon. While at EnderCon in hopes of meeting Gabriel the Warrior, you and your friends discover that something is wrong something dreadful. - Extract - Burn or mount the .iso - Run setup.exe and install - Copy crack from CODEX dir to installdir - Play System requirements: S

Minecraft Story Mode Episode 7 [2016, Action (Shooters, MMO FPS, TPS)] EN

Language: | Size: 5 GB | Seed: 860 | Leech: 73

Description:

tle: Minecraft Story Mode Episode 7 Genre: Action (Shooters, MMO FPS, TPS) Platform: Windows Multiplayer: No Year: 2016 Type of publication: Language of the game: EN Crack: Not Required Description : In Minecraft: Story Mode, playing as either a male or female hero named 'Jesse,' you'll embark on a perilous adventure across the Overworld, through the Nether, to the End, and beyond. 1. Unrar. 2. Burn or mount the image. 3. Install the game. 4. Copy over the cracked content from the /Crack directory on the image to your game install directory. 5. Play the game. 6. Support the software developers. If you like this game, BUY IT! System requirements:

Minecraft Story Mode Episode 8 [2016, Adventure] EN

Language: | Size: 5.62 GB | Seed: 189 | Leech: 50

Description:

Tiitle: Minecraft Story Mode Episode 8 Genre: Adventure Platform: Windows Multiplayer: No Year: 2016 Type of publication: Language of the game: EN Crack: Description : THE ADVENTURE OF A LIFETIME IN THE WORLD OF MINECRAFT In this five part episodic series, youll embark on a perilous adventure across the Overworld, through the Nether, to the End, and beyond. You and your friends revere the legendary Order of the Stone: Warrior, Redstone Engineer, Griefer, and Architect; slayers of the Ender Dragon. While at EnderCon in hopes of meeting Gabriel the Warrior, you and your friends discover that something is wrong something dreadful. - Extract - Burn or mount the .iso - Run setup.exe and install - Copy crack from CODEX dir to installdir - Play System requirements: OS: Windows XP Service Pack 3 Processor: Core 2 Duo 2GHz or equivalent Memory: 3 GB RAM Graphics: ATI or NVIDIA card w/512 MB RAM DirectX: Version 9.0 Storage: 3 GB available space Sound Card: Direct X 9.0c sound device Additional Notes: Not Recommended for Intel integrated graphics

Minigolf VR - SteamVR 2016 VR

Language: | Size: 166.21 MB | Seed: 729 | Leech: 51

Description:

1. Unrar 2. Start Launcher.exe for play The game no need Crack! IF YOU LIKE IT BUY THE GAME FOR SUPPORT THE DEVELOPER! Minigolf VR is the first ‘Social VR’ game developed exclusively for current-gen VR hardware. Built exclusively for VR from day 1, MinigolfVR lets you play with friends, and experience a social gaming like never before! Featuring up to 4 player multiplayer, players can select from a range of courses with various mechanics, from boosters, to traps, to portals. Courses will feature global leaderboards, allowing players to compete internationally. Requisiti di sistema MINIMI: Sistema operativo: Windows 7 Processore: Intel i5-4590 Memoria: 8 GB di RAM Scheda video: NVidia GTX 770 DirectX: Versione 11 Rete: Connessione Internet a banda larga Memoria: 750 MB di spazio disponibile CONSIGLIATI: Sistema operativo: Windows 7 Processore: Intel i5-4590 Memoria: 8 MB di RAM Scheda video: NVidia GTX 970 DirectX: Versione 11 Memoria: 750 MB di spazio disponibile

Minions (2015) .avi iTA AC3 5.1 BDRip XviD

Language: | Size: 1.21 GB | Seed: 208 | Leech: 45

Description:

Titolo originale: Minions Nazione: U.S.A. Anno: 2015 Genere: Animazione Durata: 91' Regia: Kyle Balda, Pierre Coffin Sito ufficiale: www.minionsmovie.com Sito italiano: universalshowtimes.com/it/minions/ Social network: facebook, twitter Cast (voci): Sandra Bullock, Steve Carell, Jon Hamm, Pierre Coffin, Chris Renaud Produzione: Illumination Entertainment Distribuzione: Universal Pictures Italia Data di uscita: 27 Agosto 2015 (cinema) Trama: La storia di Minions inizia all'alba dei tempi. Partendo da organismi gialli unicellulari, i Minion si evolvono attraverso i secoli, perennemente al servizio del più spregevole dei padroni. Continuamente senza successo nel preservare questi maestri, dal T-Rex a Napoleone, i Minion si sono ritrovati senza qualcuno da servire e sono caduti in una profonda depressione. Ma un Minion di nome Kevin ha un piano, e lui - insieme all'adolescente ribelle Stuart e all'adorabile piccolo Bob - decide di avventurarsi nel mondo per trovare un nuovo capo malvagio da seguire per sé e i suoi fratelli. Il trio si imbarca in un viaggio emozionante che li condurrà alla loro prossima potenziale padrona, Scarlet Overkill (Sandra Bullock), la prima super-cattiva al mondo. Un viaggio che li porterà dalla gelida Antartide alla New York City del 1960, fino ad arrivare a Londra, dove dovranno affrontare la loro sfida più grande: salvare tutti i Minion... dall'annientamento. Parole chiave: animazione

Minions (2015) 1080p BDRip [2015, Animation, Comedy, Family Blu-Ray Disc] EN

Language: | Size: 4.37 GB | Seed: 570 | Leech: 67

Description:

Title: Minions (2015) 1080p BDRip Country: USA Region: Hollywood movies Genre: Animation, Comedy, Family Duration: 01:30:00 Year: 2015 Language: EN Subtitle: English Director: Kyle Balda, Pierre Coffin Cast: Sandra Bullock, Jon Hamm, Michael Keaton Description: Minions Stuart, Kevin and Bob are recruited by Scarlett Overkill, a super-villain who, alongside her inventor husband Herb, hatches a plot to take over the world. Rating: Quality: Blu-Ray Disc Format: MKV Video codec: 6237 Kbps, 1920*1040 (1.85:1), 23.976 fps, x264 Audio codec: 640 Kbps, 48.0 KHz, 6 Channels, AC3

Minions (2015) 1080p BluRay AC3 x264 - ETRG

Language: | Size: 3.1 GB | Seed: 0 | Leech: 0

Description:

The story of Universal Pictures and Illumination Entertainment's Minions begins at the dawn of time. Starting as single-celled yellow organisms, Minions evolve through the ages, perpetually serving the most despicable of masters. Continuously unsuccessful at keeping these masters-from T. rex to Napoleon-the Minions find themselves without someone to serve and fall into a deep depression. But one Minion named Kevin has a plan, and he-alongside teenage rebel Stuart and lovable little Bob-ventures out into the world to find a new evil boss for his brethren to follow. The trio embarks upon a thrilling journey that ultimately leads them to their next potential master, Scarlet Overkill (Academy Award (R) winner Sandra Bullock), the world's first-ever female super-villain. They travel from frigid Antarctica to 1960s New York City, ending in mod London, where they must face their biggest challenge to date: saving all of Minionkind...from annihilation.

Minority Report (2002).H264.Italian.English.Ac3.5.1.sub.ita.eng.iCV-MIRCrew

Language: | Size: 2.21 GB | Seed: 2 | Leech: 0

Description:

[img]http://i.imgur.com/GDNQx1Z.png[/img] My release is always in double track audio italian and Original audio for select it use VLC or dvd player home not use wmp Minority Report (2002) [img]https://extraimage.net/images/2016/12/18/551eb5b70362c70019974cf0a31e0ea4.png[/img] [URL=http://www.imdb.com/title/tt0181689/][IMG]http://www.userlogos.org/files/logos/Sucka/imdb_new.png[/IMG][/URL] [img]http://s19.postimage.org/bgh0za7kj/banner_scheda.gif[/img] Titolo originale Minority Report Paese di produzione Stati Uniti d'America Anno 2002 Durata 146 min Rapporto 2,40:1 Genere fantascienza Regia Steven Spielberg Soggetto dall'omonimo racconto di Philip K. Dick Sceneggiatura Scott Frank, Jon Cohen Produttore Jan de Bont, Gerald R. Molen, Walter F. Parkes, Bonnie Curtis Produttore esecutivo Michael Doven, Gary Goldman, Ronald Shusett, Sergio Mimica-Gezzan Casa di produzione Twentieth Century Fox, DreamWorks SKG, Cruise/Wagner Productions, Blue Tulip Productions, Blue Tulip Productions, Amblin Entertainment Distribuzione (Italia) Twentieth Century Fox Fotografia Janusz Kaminski Montaggio Michael Kahn Effetti speciali Industrial Light & Magic Musiche John Williams Scenografia Anne Kuljian [img]http://s19.postimage.org/i9hdvjydv/banner_trama.gif[/img] Tom Cruise: Detective John Anderton Colin Farrell: Detective Danny Witwer Samantha Morton: Agatha Max von Sydow: Direttore Lamar Burgess Patrick Kilpatrick: Ufficiale Knott Lois Smith: Iris Hineman Peter Stormare: Dr. Solomon Eddie Tim Blake Nelson: Gideon Steve J. Harris: Jad Kathryn Morris: Lara Anderton Mike Binder: Leo F. Crow Neal McDonough: Fletcher Daniel London: Wally [img]http://s19.postimage.org/i9hdvjydv/banner_trama.gif[/img] Nel 2054 la città di Washington ha cancellato gli omicidi da ormai 6 anni grazie a un sistema chiamato Precrimine. Basandosi sulle premonizioni di tre individui dotati di poteri extrasensoriali di precognizione amplificati, detti Precog, la polizia riesce a impedire gli omicidi prima che essi avvengano e ad arrestare i potenziali "colpevoli". In questo modo non viene punito il fatto (che non avviene), bensì l'intenzione di compierlo e che porterebbe a concretizzarlo: è un sistema delicato, osteggiato da molti, che però sembra funzionare senza intoppi. [img]http://s19.postimage.org/nwdqt10wj/banner_storyline.gif[/img] In a future where a special police unit is able to arrest murderers before they commit their crimes, an officer from that unit is himself accused of a future murder. [img]http://i.imgur.com/GgEl7ea.png[/img] [url=https://extraimage.net/image/2jhN][img]https://extraimage.net/images/2016/12/18/0f70f627cd94a0b9c2617a9e0597da41.th.png[/img][/url] [url=https://extraimage.net/image/2jhT][img]https://extraimage.net/images/2016/12/18/6f654e93c4b75557e8a01a6339972f6c.th.png[/img][/url] [url=https://extraimage.net/image/2jhj][img]https://extraimage.net/images/2016/12/18/c7c823be8138f57e4947af8d61b05d80.th.png[/img][/url] [img]http://i.imgur.com/cWb6Z.gif[/img] [img]http://s19.postimage.org/f07k2tzo3/banner_dati_file.gif[/img] [spoiler] General Unique ID : 261192316747753230957747462400523622603 (0xC47FCF76D28EF263B4BEBB1D1FBFD8CB) Complete name : Minority Report (2002).H264.ita.eng.sub.ita.eng.iCV-MIRCrew.mkv Format : Matroska Format version : Version 2 File size : 2.21 GiB Duration : 2h 25mn Overall bit rate : 2 181 Kbps Movie name : Minority Report (2002) Encoded date : UTC 2016-12-12T21:32:27Z Writing application : HandBrake 0.10.5 2016021100 Writing library : Lavf55.12.0 Video ID : 1 Format : AVC Format/Info : Advanced Video Codec Format profile : [email protected] Format settings, CABAC : Yes Format settings, ReFrames : 4 frames Codec ID : V_MPEG4/ISO/AVC Duration : 2h 25mn Bit rate : 1 280 Kbps Width : 688 pixels Height : 288 pixels Display aspect ratio : 2.40:1 Original display aspect ratio : 2.40:1 Frame rate mode : Variable Frame rate : 23.976 fps Color space : YUV Chroma subsampling : 4:2:0 Bit depth : 8 bits Scan type : Progressive Bits/(Pixel*Frame) : 0.269 Stream size : 1.26 GiB (57%) Writing library : x264 core 142 r2479 dd79a61 Encoding settings : cabac=1 / ref=1 / deblock=1:0:0 / analyse=0x1:0x111 / me=hex / subme=2 / psy=1 / psy_rd=1.00:0.00 / mixed_ref=0 / me_range=16 / chroma_me=1 / trellis=0 / 8x8dct=0 / cqm=0 / deadzone=21,11 / fast_pskip=1 / chroma_qp_offset=0 / threads=3 / lookahead_threads=1 / sliced_threads=0 / nr=0 / decimate=1 / interlaced=0 / bluray_compat=0 / constrained_intra=0 / bframes=3 / b_pyramid=2 / b_adapt=1 / b_bias=0 / direct=1 / weightb=1 / open_gop=0 / weightp=1 / keyint=240 / keyint_min=24 / scenecut=40 / intra_refresh=0 / rc_lookahead=10 / rc=2pass / mbtree=1 / bitrate=1280 / ratetol=1.0 / qcomp=0.60 / qpmin=0 / qpmax=69 / qpstep=4 / cplxblur=20.0 / qblur=0.5 / vbv_maxrate=20000 / vbv_bufsize=25000 / nal_hrd=none / filler=0 / ip_ratio=1.40 / aq=1:1.00 Default : Yes Forced : No Color primaries : BT.709-5, BT.1361, IEC 61966-2-4, SMPTE RP177 Transfer characteristics : BT.709-5, BT.1361 Matrix coefficients : BT.709-5, BT.1361, IEC 61966-2-4 709, SMPTE RP177 Audio #1 ID : 2 Format : AC-3 Format/Info : Audio Coding 3 Mode extension : CM (complete main) Codec ID : A_AC3 Duration : 2h 25mn Bit rate mode : Constant Bit rate : 448 Kbps Channel(s) : 6 channels Channel positions : Front: L C R, Side: L R, LFE Sampling rate : 48.0 KHz Bit depth : 16 bits Compression mode : Lossy Delay relative to video : 1mn 5s Stream size : 465 MiB (21%) Language : Italian Default : Yes Audio #2 ID : 3 Format : AC-3 Format/Info : Audio Coding 3 Mode extension : CM (complete main) Codec ID : A_AC3 Duration : 2h 25mn Bit rate mode : Constant Bit rate : 448 Kbps Channel(s) : 6 channels Channel positions : Front: L C R, Side: L R, LFE Sampling rate : 48.0 KHz Bit depth : 16 bits Compression mode : Lossy Delay relative to video : 1mn 5s Stream size : 465 MiB (21%) Title : Surround Language : English Default : No Text #1 ID : 4 Format : ASS Codec ID : S_TEXT/ASS Codec ID/Info : Advanced Sub Station Alpha Compression mode : Lossless Language : Italian Default : No Forced : No Text #2 ID : 5 Format : ASS Codec ID : S_TEXT/ASS Codec ID/Info : Advanced Sub Station Alpha Compression mode : Lossless Language : Italian Default : No Forced : No Text #3 ID : 6 Format : ASS Codec ID : S_TEXT/ASS Codec ID/Info : Advanced Sub Station Alpha Compression mode : Lossless Language : English Default : No Forced : No Menu 00:00:00.000 : :00:00:00.000 00:06:47.156 : :00:06:47.073 00:14:50.264 : :00:14:49.889 00:21:13.146 : :00:21:13.022 00:24:43.774 : :00:24:43.691 00:29:46.117 : :00:29:46.034 00:37:09.602 : :00:37:09.519 00:42:42.560 : :00:42:42.477 00:51:42.057 : :00:51:41.974 00:55:18.690 : :00:55:18.607 00:59:57.468 : :00:59:57.385 01:04:04.674 : :01:04:04.591 01:09:42.011 : :01:09:41.928 01:17:00.824 : :01:17:00.658 01:22:21.645 : :01:22:21.562 01:27:57.981 : :01:27:57.898 01:35:42.528 : :01:35:42.445 01:39:08.859 : :01:39:08.776 01:49:06.289 : :01:49:06.206 01:54:02.085 : :01:54:02.002 02:01:28.781 : :02:01:28.531 02:06:43.179 : :02:06:43.095 02:13:11.900 : :02:13:11.817 02:15:40.716 : :02:15:40.632 [/spoiler] [/color][/b][/center]

Minority Report S01e01 (2015) DLMux - H264 - Ita Aac

Language: | Size: 375.33 MB | Seed: 962 | Leech: 85

Description:

Stagione 1/1 Episodi: 10 Italia: 13/07/2016 al (In Corso) Usa: 21/09/2015 al 30/11/2015 GENERE: Fantascienza IDEATORE: Max Borenstein ATTORI: Stark Sands, Meagan Good, Nick Zano, Laura Regan, Wilmer Valderrama, Daniel London, Li Jun Li ANNO: 2015 PAESE: USA PRODUZIONE: 20th Century Fox Television, Paramount Television DURATA: 45 Min STATO: Cancellata Washington, 2065. Dieci anni dopo la chiusura dell'Unità Pre-Crimine, un'agenzia il cui compito era identificare ed eliminare i criminali prima che commettessero il reato, i crimini vengono risolti in modo diverso e la giustizia si affida a una tecnologia più sofisticata e sicura degli istinti dei precognitivi. Dash, dilaniato da visioni terrificanti e frammentarie, è tornato in segreto per aiutare la sfacciata ma scaltra detective Lara Vega a fermare gli omicidi che predice. Per riuscirci e nel frattempo sfuggire a chi intende sfruttare le abilità dei precog con ogni mezzo, i due forgiano una difficile alleanza con Arthur, il fratello gemello di Dash, un manipolatore cui sembrano preoccupare solo i propri interessi. Rappresentano un'ulteriore complicazione Will Blake, il nuovo capo della Vega, e Agatha, l'ingegnosa ma solitaria sorella adottiva dei gemelli, la quale vuole solo il meglio per loro ed è disposta a giocare duro per ottenerlo. 1. Salvare il futuro - Pilot Parole chiave: minority report

Minority Report S01e02-03 (2015) DLMux - H264 - Ita Aac

Language: | Size: 726.43 MB | Seed: 700 | Leech: 93

Description:

Stagione 1/1 Episodi: 10 Italia: 13/07/2016 al (In Corso) Usa: 21/09/2015 al 30/11/2015 GENERE: Fantascienza IDEATORE: Max Borenstein ATTORI: Stark Sands, Meagan Good, Nick Zano, Laura Regan, Wilmer Valderrama, Daniel London, Li Jun Li ANNO: 2015 PAESE: USA PRODUZIONE: 20th Century Fox Television, Paramount Television DURATA: 45 Min STATO: Cancellata Washington, 2065. Dieci anni dopo la chiusura dell'Unità Pre-Crimine, un'agenzia il cui compito era identificare ed eliminare i criminali prima che commettessero il reato, i crimini vengono risolti in modo diverso e la giustizia si affida a una tecnologia più sofisticata e sicura degli istinti dei precognitivi. Dash, dilaniato da visioni terrificanti e frammentarie, è tornato in segreto per aiutare la sfacciata ma scaltra detective Lara Vega a fermare gli omicidi che predice. Per riuscirci e nel frattempo sfuggire a chi intende sfruttare le abilità dei precog con ogni mezzo, i due forgiano una difficile alleanza con Arthur, il fratello gemello di Dash, un manipolatore cui sembrano preoccupare solo i propri interessi. Rappresentano un'ulteriore complicazione Will Blake, il nuovo capo della Vega, e Agatha, l'ingegnosa ma solitaria sorella adottiva dei gemelli, la quale vuole solo il meglio per loro ed è disposta a giocare duro per ottenerlo. 2. Signor Bravo ragazzo - Mr. Nice Guy 3. Occhio di Falco - Hawk-Eye Parole chiave: minority report
 «  1 2 3 4 5 ... 276 277 278 279 280 281 282 283 284 ... 448 449 450 451 452  »
  Movie/Films     Animation/Cartoons     TV Shows/Series     Music     Games     Applications     Books     Other  

   How works MfT    Rules    Suggest idea    Request torrent    Privacy Policy    DMCA    Contacts    MfT Status    Friends sites    Is this site safe?   

mkv, HD-Rip , BD-Rip , Blu-Ray , HD Film , hd film , hd films , scarica film gratis , hd torrents , hd torrent , hdtorrents, hdrip , bdrip , Bluray ,

Blu-Ray player, scarica film , scarica torrent , torrent film , film ita, bluray, mux, 1080p, 720p, hdtorrents, torrent ita, torrents ita, HD film ita, HD ita, Blu-Ray ita