Support us
Login | Signup

Popular TAGs: 2016 2015 2014 2013 720p 1080p m1080p XviD x264 x265 3D DVDrip BDrip MKV 320kbps

Show only:                                            

Sort by: Date | Name | Seeders | Leechers | Comments

Zagor Speciale Collezione Storica a Colori 12 Il Sepolcro dello Stregone [Cbr - ITA]

Language: | Size: 165.53 MB | Seed: 1 | Leech: 45

Description:

[b]IL SEPOLCRO DELLO STREGONE [/b]Zagor Speciale Collezione Storica a Colori Volume 12 [b]ITA | 276 pagg | PDF | 169 Mb [/b]

The Lady (2011).H264.Italian.English.Ac3.5.1.sub.ita.iCV-MIRCrew

Language: | Size: 1.94 GB | Seed: 3 | Leech: 14

Description:

The Lady (2011).H264.Italian.English.Ac3.5.1.sub.ita.iCV-MIRCrew [center] [color=red][b][img]http://extraimago.com/images/2016/07/16/oCo82IVa08d8.png[/img] [u]NO FOUND ONLY ORIGINAL RELEASE[/u] [img]http://i.imgur.com/GDNQx1Z.png[/img] My release is always in double track audio italian and Original audio for select it use VLC or dvd player home not use wmp The Lady (2011) [img]https://extraimage.net/images/2016/12/10/4519aa285e7c3bd6abbb503e0f231aa8.png[/img] [URL=http://www.imdb.com/title/tt1802197/][IMG]http://www.userlogos.org/files/logos/Sucka/imdb_new.png[/IMG][/URL] [img]http://i.imgur.com/fGu1rKv.png[/img] Titolo originale The Lady Lingua originale inglese, birmano Paese di produzione Francia, Regno Unito Anno 2011 Durata 132 min Rapporto 2,35:1 Genere drammatico, biografico Regia Luc Besson Sceneggiatura Rebecca Frayn Produttore Luc Besson, Andy Harries, Didier Hoarau, Virginie Silla, Jean Todt Casa di produzione EuropaCorp, Left Bank Pictures, France 2 Cinéma Distribuzione (Italia) Good Films Fotografia Thierry Arbogast Montaggio Julien Rey Musiche Eric Serra Scenografia Hugues Tissandier Costumi Olivier Bériot [img]http://i.imgur.com/W7kBqiE.png[/img] Michelle Yeoh: Aung San Suu Kyi David Thewlis: Michael Aris Jonathan Raggett: Kim Aris Jonathan Woodhouse: Alexander Aris Susan Wooldridge: Lucinda Philips Benedict Wong: Karma Phuntsho Sahajak Boonthanakit: Leo Nichols William Hope: James Baker [img]http://i.imgur.com/bFK3ggF.png[/img] La giovane madre Aung San Suu Kyi (Suu) vive a Londra con il marito, Michael Aris e i figli, Kim e Alexander. Una improvvisa telefonata la avvisa che la madre ha avuto un infarto ed è stata ricoverata in un ospedale in Birmania, il paese dove Suu ha vissuto da bambina prima della morte del padre. [img]http://i.imgur.com/48xHWWH.png[/img] The story of Aung San Suu Kyi as she becomes the core of Burma's democracy movement, and her relationship with her husband, writer Michael Aris. ........... [img]http://i.imgur.com/K8bfNTy.png[/img] [url=https://extraimage.net/image/22n1][img]https://extraimage.net/images/2016/12/10/0c0883861591d64d4821c2a422f7ec4c.th.png[/img][/url] [url=https://extraimage.net/image/22nc][img]https://extraimage.net/images/2016/12/10/427cbd46a737544e97d4c4ac87ac9d55.th.png[/img][/url] [url=https://extraimage.net/image/22nE][img]https://extraimage.net/images/2016/12/10/2ba63d72dfcd96430508fe62639ac2fd.th.png[/img][/url] [img]http://i.imgur.com/aVrMohH.png[/img] [spoiler] General Unique ID : 202908475536569939335025020275134007297 (0x98A6C03B054CF40761CA351BBD478801) Complete name : The Lady (2011).H264.ita.eng.sub.ita.iCV-MIRCrew.mkv Format : Matroska Format version : Version 2 File size : 1.94 GiB Duration : 2h 7mn Overall bit rate : 2 181 Kbps Movie name : VISIT www.icv-crew.org Encoded date : UTC 2016-12-07T20:15:39Z Writing application : Lavf54.63.100 Writing library : Lavf54.63.100 COPYRIGHT : robbyrs DATE : 2016 Video ID : 1 Format : AVC Format/Info : Advanced Video Codec Format profile : [email protected] Format settings, CABAC : Yes Format settings, ReFrames : 2 frames Codec ID : V_MPEG4/ISO/AVC Duration : 2h 7mn Bit rate : 1 280 Kbps Width : 720 pixels Height : 300 pixels Display aspect ratio : 2.40:1 Frame rate mode : Variable Frame rate : 25.000 fps Color space : YUV Chroma subsampling : 4:2:0 Bit depth : 8 bits Scan type : Progressive Bits/(Pixel*Frame) : 0.237 Stream size : 1.10 GiB (57%) Writing library : x264 core 130 r2273 Encoding settings : cabac=1 / ref=2 / deblock=1:0:0 / analyse=0x1:0x131 / me=hex / subme=7 / psy=1 / psy_rd=1.00:0.00 / mixed_ref=0 / me_range=16 / chroma_me=1 / trellis=1 / 8x8dct=0 / cqm=0 / deadzone=21,11 / fast_pskip=1 / chroma_qp_offset=-2 / threads=3 / lookahead_threads=1 / sliced_threads=0 / nr=0 / decimate=1 / interlaced=0 / bluray_compat=0 / constrained_intra=0 / bframes=3 / b_pyramid=0 / b_adapt=1 / b_bias=0 / direct=3 / weightb=1 / open_gop=0 / weightp=2 / keyint=240 / keyint_min=24 / scenecut=40 / intra_refresh=0 / rc_lookahead=40 / rc=abr / mbtree=1 / bitrate=1280 / ratetol=1.0 / qcomp=0.60 / qpmin=10 / qpmax=69 / qpstep=4 / vbv_maxrate=24000 / vbv_bufsize=24000 / nal_hrd=none / ip_ratio=1.40 / aq=1:1.00 Default : Yes Forced : No Audio #1 ID : 2 Format : AC-3 Format/Info : Audio Coding 3 Mode extension : CM (complete main) Codec ID : A_AC3 Duration : 2h 7mn Bit rate mode : Constant Bit rate : 448 Kbps Channel(s) : 6 channels Channel positions : Front: L C R, Side: L R, LFE Sampling rate : 48.0 KHz Bit depth : 16 bits Compression mode : Lossy Delay relative to video : 75ms Stream size : 407 MiB (21%) Language : Italian Default : Yes Forced : No Audio #2 ID : 3 Format : AC-3 Format/Info : Audio Coding 3 Mode extension : CM (complete main) Codec ID : A_AC3 Duration : 2h 7mn Bit rate mode : Constant Bit rate : 448 Kbps Channel(s) : 6 channels Channel positions : Front: L C R, Side: L R, LFE Sampling rate : 48.0 KHz Bit depth : 16 bits Compression mode : Lossy Delay relative to video : 75ms Stream size : 407 MiB (21%) Language : English Default : No Forced : No Text #1 ID : 4 Format : VobSub Codec ID : S_VOBSUB Codec ID/Info : The same subtitle format used on DVDs Language : Italian Default : No Forced : No Text #2 ID : 5 Format : VobSub Codec ID : S_VOBSUB Codec ID/Info : The same subtitle format used on DVDs Language : Italian Default : No Forced : No Menu 00:00:00.000 : :Chapter 1 00:16:27.880 : :Chapter 2 00:30:02.200 : :Chapter 3 00:43:46.200 : :Chapter 4 00:57:01.120 : :Chapter 5 01:15:34.840 : :Chapter 6 01:32:24.960 : :Chapter 7 01:48:07.120 : :Chapter 8 [/spoiler] [/color][/b][/center]

Return to Oz - Nel fantastico mondo di Oz (1985).H264.Italian.English.Ac3.iCV-MIRCrew

Language: | Size: 1.27 GB | Seed: 2 | Leech: 21

Description:

Return to Oz - Nel fantastico mondo di Oz (1985).H264.Italian.English.Ac3.iCV-MIRCrew [center] [color=red][b][img]http://extraimago.com/images/2016/07/16/oCo82IVa08d8.png[/img] [u]NO FOUND ONLY ORIGINAL RELEASE[/u] [img]http://i.imgur.com/GDNQx1Z.png[/img] My release is always in double track audio italian and Original audio for select it use VLC or dvd player home not use wmp Nel fantastico mondo di Oz - Return to Oz (1985) [img]https://extraimage.net/images/2016/12/10/0965c0888a5c974a75aba1f624c1f82d.png[/img] [URL=http://www.imdb.com/title/tt0089908/][IMG]http://www.userlogos.org/files/logos/Sucka/imdb_new.png[/IMG][/URL] [img]http://i.imgur.com/fGu1rKv.png[/img] Titolo originale Return to Oz Paese di produzione Stati Uniti d'America Anno 1985 Durata 113 min Genere fantastico Regia Walter Murch Soggetto L. Frank Baum (romanzi) Sceneggiatura Gill Dennis, Walter Murch Produttore Gary Kurtz Casa di produzione Walt Disney Pictures Fotografia Michael Ford Effetti speciali Peter Davey, Michael Dawson, Ken Gittens Musiche David Shire Herbert W. Spencer [img]http://i.imgur.com/W7kBqiE.png[/img] Fairuza Balk: Dorothy Gale Nicol Williamson: Dr. Worley/Re degli Gnomi Jean Marsh: Infermiera Wilson/Mombi Piper Laurie: Zia Emma Matt Clark: Zio Henry Thimothy M. Rose: Tik-Tok Michael Sundin: Tik-Tok Mark Wilson: Billina Stewart Larange: Jack Testa di Zucca Stephen Norrington: Gump Justin Case: Spaventapasseri Deep Roy: Boscaiolo di Latta John Alexander: Leone codardo/Ruotante Emma Ridley: Ozma Pons Maar: Capo dei Ruotanti/Messaggero degli Gnomi [img]http://i.imgur.com/bFK3ggF.png[/img] Sono passati diversi mesi dagli avvenimenti de Il Mago di Oz, e Dorothy Gale è malinconica per il fatto che continua a non fare altro che sognare la sua magica avventura, e che lo Zio Enrico e la Zia Emma non le credono. Preoccupati dal pensiero che la nipote abbia problemi mentali, gli zii decidono di portarla dal Dottor Worley, specializzato in cure con l'uso dell'elettroterapia.............. [img]http://i.imgur.com/48xHWWH.png[/img] Dorothy, saved from a psychiatric experiment by a mysterious girl, is somehow called back to Oz when a vain witch and the Nome King destroy everything that makes the magical land beautiful. ............ [img]http://i.imgur.com/K8bfNTy.png[/img] [img]https://extraimage.net/images/2016/12/10/0fcf3eabb61d875caa0d0dc582b108d6.png[/img] [img]https://extraimage.net/images/2016/12/10/38120c5716f989ed0b8fb0e25e26f604.png[/img] [img]https://extraimage.net/images/2016/12/10/f684aae4b54ae78e01507850806de573.png[/img] [img]http://i.imgur.com/aVrMohH.png[/img] [spoiler] General Unique ID : 30442814201681532903668478599820382236 (0x16E7129F7F70F0C9405CA293B17A901C) Complete name : Nel fantastico mondo di Oz - Return to Oz (1985).H264.ita.eng.sub.ita.eng.iCV-MIRCrew.mkv Format : Matroska Format version : Version 2 File size : 1.27 GiB Duration : 1h 49mn Overall bit rate : 1 658 Kbps Movie name : VISIT www.icv-crew.org Encoded date : UTC 2016-08-08 01:33:17 Writing application : Lavf54.63.100 Writing library : Lavf54.63.100 COPYRIGHT : robbyrs Video ID : 1 Format : AVC Format/Info : Advanced Video Codec Format profile : [email protected] Format settings, CABAC : Yes Format settings, ReFrames : 2 frames Codec ID : V_MPEG4/ISO/AVC Duration : 1h 49mn Bit rate : 1 270 Kbps Width : 688 pixels Height : 372 pixels Display aspect ratio : 16:9 Original display aspect ratio : 16:9 Frame rate mode : Variable Frame rate : 23.976 fps Color space : YUV Chroma subsampling : 4:2:0 Bit depth : 8 bits Scan type : Progressive Bits/(Pixel*Frame) : 0.207 Stream size : 976 MiB (75%) Writing library : x264 core 130 r2273 Encoding settings : cabac=1 / ref=2 / deblock=1:0:0 / analyse=0x1:0x131 / me=hex / subme=7 / psy=1 / psy_rd=1.00:0.00 / mixed_ref=0 / me_range=16 / chroma_me=1 / trellis=1 / 8x8dct=0 / cqm=0 / deadzone=21,11 / fast_pskip=1 / chroma_qp_offset=-2 / threads=12 / lookahead_threads=2 / sliced_threads=0 / nr=0 / decimate=1 / interlaced=0 / bluray_compat=0 / constrained_intra=0 / bframes=3 / b_pyramid=0 / b_adapt=1 / b_bias=0 / direct=3 / weightb=1 / open_gop=0 / weightp=2 / keyint=230 / keyint_min=23 / scenecut=40 / intra_refresh=0 / rc_lookahead=40 / rc=2pass / mbtree=1 / bitrate=1270 / ratetol=1.0 / qcomp=0.60 / qpmin=10 / qpmax=69 / qpstep=4 / cplxblur=20.0 / qblur=0.5 / vbv_maxrate=24000 / vbv_bufsize=24000 / nal_hrd=none / ip_ratio=1.40 / aq=1:1.00 Language : Italian Default : Yes Forced : No DURATION : 01:49:48.707000000 NUMBER_OF_FRAMES : 157971 NUMBER_OF_BYTES : 8400584519 _STATISTICS_WRITING_APP : mkvmerge v9.3.1 ('Mask Machine') 64bit _STATISTICS_WRITING_DATE_UTC : 2016-08-08 01:33:17 _STATISTICS_TAGS : BPS DURATION NUMBER_OF_FRAMES NUMBER_OF_BYTES Audio #1 ID : 2 Format : AC-3 Format/Info : Audio Coding 3 Mode extension : CM (complete main) Codec ID : A_AC3 Duration : 1h 49mn Bit rate mode : Constant Bit rate : 192 Kbps Channel(s) : 2 channels Channel positions : Front: L R Sampling rate : 48.0 KHz Bit depth : 16 bits Compression mode : Lossy Delay relative to video : 1mn 5s Stream size : 151 MiB (12%) Language : Italian Default : Yes Forced : No DURATION : 01:49:56.640000000 NUMBER_OF_FRAMES : 206145 NUMBER_OF_BYTES : 158319360 _STATISTICS_WRITING_APP : mkvmerge v9.3.1 ('Mask Machine') 64bit _STATISTICS_WRITING_DATE_UTC : 2016-08-08 01:33:17 _STATISTICS_TAGS : BPS DURATION NUMBER_OF_FRAMES NUMBER_OF_BYTES Audio #2 ID : 3 Format : AC-3 Format/Info : Audio Coding 3 Mode extension : CM (complete main) Codec ID : A_AC3 Duration : 1h 49mn Bit rate mode : Constant Bit rate : 192 Kbps Channel(s) : 2 channels Channel positions : Front: L R Sampling rate : 48.0 KHz Bit depth : 16 bits Compression mode : Lossy Delay relative to video : 1mn 5s Stream size : 151 MiB (12%) Language : English Default : No Forced : No DURATION : 01:49:56.629000000 NUMBER_OF_FRAMES : 618434 NUMBER_OF_BYTES : 1244289208 _STATISTICS_WRITING_APP : mkvmerge v9.3.1 ('Mask Machine') 64bit _STATISTICS_WRITING_DATE_UTC : 2016-08-08 01:33:17 _STATISTICS_TAGS : BPS DURATION NUMBER_OF_FRAMES NUMBER_OF_BYTES Text #1 ID : 4 Format : UTF-8 Codec ID : S_TEXT/UTF8 Codec ID/Info : UTF-8 Plain Text Title : Sub Forced Language : Italian Default : Yes Forced : Yes DURATION : 00:30:25.541000000 NUMBER_OF_FRAMES : 2 NUMBER_OF_BYTES : 45 _STATISTICS_WRITING_APP : mkvmerge v9.3.1 ('Mask Machine') 64bit _STATISTICS_WRITING_DATE_UTC : 2016-08-08 01:33:17 _STATISTICS_TAGS : BPS DURATION NUMBER_OF_FRAMES NUMBER_OF_BYTES Text #2 ID : 5 Format : UTF-8 Codec ID : S_TEXT/UTF8 Codec ID/Info : UTF-8 Plain Text Title : Sub Regular Language : Italian Default : No Forced : No DURATION : 01:45:08.429000000 NUMBER_OF_FRAMES : 926 NUMBER_OF_BYTES : 29206 _STATISTICS_WRITING_APP : mkvmerge v9.3.1 ('Mask Machine') 64bit _STATISTICS_WRITING_DATE_UTC : 2016-08-08 01:33:17 _STATISTICS_TAGS : BPS DURATION NUMBER_OF_FRAMES NUMBER_OF_BYTES Text #3 ID : 6 Format : UTF-8 Codec ID : S_TEXT/UTF8 Codec ID/Info : UTF-8 Plain Text Title : Sub Regular Language : English Default : No Forced : No DURATION : 01:44:13.581000000 NUMBER_OF_FRAMES : 1130 NUMBER_OF_BYTES : 34139 _STATISTICS_WRITING_APP : mkvmerge v9.3.1 ('Mask Machine') 64bit _STATISTICS_WRITING_DATE_UTC : 2016-08-08 01:33:17 _STATISTICS_TAGS : BPS DURATION NUMBER_OF_FRAMES NUMBER_OF_BYTES Menu 00:00:00.000 : :Opening Credits / A Shooting Star 00:09:19.725 : :Electrical Marvel 00:19:15.070 : :"Run, Dorothy, Run!' 00:28:38.883 : :The Yellow Brick Road 00:40:39.228 : :Princess Mombi 00:46:21.445 : :Jack Pumpkinhead 00:54:17.379 : :Powder Of Life 01:04:40.376 : :Crash Landing 01:12:35.392 : :Three Chances 01:26:24.429 : :Scarecrow 01:34:16.442 : :Emerald City 01:45:06.925 : :End Credits [/spoiler] [/color][/b][/center]

Litfiba - Eutòpia (2016) (by emi)

Language: | Size: 62.68 MB | Seed: 17 | Leech: 11

Description:

mp3 a 192 kbps audio di qualità a 95 db Tracklist 01 - Dio Del Tuono.mp3 (5.0 MB) 02 - L'Impossibile.mp3 (6.2 MB) 03 - Maria Coraggio.mp3 (5.8 MB) 04 - Santi Di Periferia.mp3 (5.4 MB) 05 - Gorilla Go.mp3 (5.3 MB) 06 - In Nome Di Dio.mp3 (7.2 MB) 07 - Straniero.mp3 (7.0 MB) 08 - Intossicato.mp3 (6.6 MB) 09 - Oltre.mp3 (5.1 MB) 10 - Eutòpia.mp3 (8.8 MB)

Ligabue - Made In Italy (2016) (by emi)

Language: | Size: 70.81 MB | Seed: 115 | Leech: 11

Description:

mp3 a 192 kbps audio di qualità a 95 db Tracklist 01 - La Vita Facile.mp3 (6.7 MB) 02 - Mi Chiamano Tutti Riko.mp3 (5.7 MB) 03 - E' Venerdì Non Mi Rompete i Coglioni.mp3 (5.6 MB) 04 - Vittime E Complici.mp3 (5.2 MB) 05 - Meno Male.mp3 (3.0 MB) 06 - G Come Giungla.mp3 (5.6 MB) 07 - Ho Fatto In Tempo Ad Avere Un Futuro (Che Non Fosse Soltanto Per Me).mp3 (6.5 MB) 08 - L'Occhio Del Ciclone.mp3 (6.6 MB) 09 - Quasi Uscito_.mp3 (2.5 MB) 10 - Dottoressa.mp3 (4.7 MB) 11 - I Miei Quindici Minuti.mp3 (5.8 MB) 12 - Apperò.mp3 (2.2 MB) 13 - Made In Italy.mp3 (6.2 MB) 14 - Un'Altra Realtà.mp3 (4.3 MB)

Tiziano Ferro - Il Mestiere Della Vita (2016) (by emi)

Language: | Size: 67.49 MB | Seed: 52 | Leech: 6

Description:

mp3 a 192 kbps audio di qualità a 95 db Tracklist 01 - Epic.mp3 (4.2 MB) 02 - 'Solo' E' Solo Una Parola.mp3 (5.3 MB) 03 - Il Mestiere Della Vita.mp3 (4.8 MB) 04 - Valore Assoluto.mp3 (5.5 MB) 05 - Il Conforto (Feat. Carmen Consoli).mp3 (5.7 MB) 06 - Lento/Veloce.mp3 (4.8 MB) 07 - Troppo Bene (Per Stare Male).mp3 (5.7 MB) 08 - My Steelo Featuring Tormento.mp3 (5.3 MB) 09 - Potremmo Ritornare.mp3 (5.1 MB) 10 - Ora Perdona.mp3 (5.3 MB) 11 - Casa E' Vuota.mp3 (5.1 MB) 12 - La Tua Vita Intera.mp3 (5.0 MB) 13 - Quasi Quasi.mp3 (5.4 MB)

A.Moment.to.Remember.2004.720p.BluRay.x264-FOXM

Language: | Size: 1012.3 MB | Seed: 2 | Leech: 2

Description:

Storyline A Korean love story about a young couple's enduring love, which is tested when 27 year old Sun-jin is diagnosed with a rare form of Alzheimer's disease. General Size : 1012 MB Running Time: 1h 57min Genre: Drama | Romance | Thriller Director: John H. Lee Language: Korean Release Date: 5 November 2004 (South Korea) http://www.imdb.com/title/tt0428870/ Video======= Video Format......: AAC Video Codec.......: x264 Frame Rate........: 23.000 fps Width.............: 1 272 pixels Height............:  542 Audio======= Format..........: AAC Bitrate.........: 224 Kbps Channels........: 6 channels screenshot [img]http://foxm.to/images/1481331461image3.jpg[/img] [img]http://foxm.to/images/1481331461image2.jpg[/img] [/center]

Under - The Movie (2014).H264Italian.Ac3.iCV-MIRCrew

Language: | Size: 857.47 MB | Seed: 140 | Leech: 72

Description:

Under - The Movie (2014).H264Italian.Ac3.iCV-MIRCrew [center] [color=red][b][img]http://i.imgur.com/0scDel1.png[/img] [u]NO FOUND ONLY ORIGINAL RELEASE[/u] [img]http://i.imgur.com/GDNQx1Z.png[/img] My release is always in double track audio italian and Original audio for select it use VLC or dvd player home not use wmp Under - The Movie (2014) [img]http://extraimage.net/images/2016/12/09/f3c8139a26b43f1e9f84662a199823bc.png[/img] [URL=http://www.imdb.com/title/tt3830316/][IMG]http://www.userlogos.org/files/logos/Sucka/imdb_new.png[/IMG][/URL] [img]http://i.imgur.com/fWCejk0.png[/img] Titolo Originale: UNDER - THE MOVIE Regia: Ivan Silvestrini Durata: h 1.07 Nazionalità: Italia 2014 Genere: fantascienza [img]http://i.imgur.com/V3qrNAd.png[/img] Valentina Bellé, Giorgio Colangeli, Marta Gastini, José Dammert, Chiara Iezzi, Gianmarco Tognazzi [img]http://i.imgur.com/GOBJ1sT.png[/img] Italia, 2020. Il Paese è sopravvissuto alla Grande Crisi del 2008, ma è allo sbando, al default economico, ed è percorso da ondate di violenza fuori controllo: la politica ha perso ogni potere, la gente non ha più né casa né lavoro; l’ordine pubblico e tutte le ricchezze residue sono nelle mani di un’Autorità provvisoria militarizzata con a capo un Presidente che vive a Città06, la capitale, il solo luogo in cui è rimasto un barlume di civiltà. [img]http://i.imgur.com/R7WrNZe.png[/img] Italy, 2020. The country has survived the Great Depression of 2008, but is in disarray, the Economic default, and is crossed by waves of violence out of control: the policy has lost all power, people have neither home nor work; public order and any remaining wealth is in the hands of militarized Provisional Authority headed by a President who lives in Città06, the capital, the only place where it has remained a glimmer of civilization. [img]http://i.imgur.com/GgEl7ea.png[/img] [url=http://extraimage.net/image/2wXs][img]https://extraimage.net/images/2016/12/09/f052c496d770513ca7f8826e80cd343f.th.png[/img][/url] [url=http://extraimage.net/image/2wXn][img]http://extraimage.net/images/2016/12/09/f1fa08737a0bd0e1aa240f0cc55960d0.th.png[/img][/url] [url=http://extraimage.net/image/2wX7][img]https://extraimage.net/images/2016/12/09/2df1197283c4ead79c3eabc6e273fc38.th.png[/img][/url] [url=http://extraimage.net/image/2wXc][img]http://extraimage.net/images/2016/12/09/112b74b631edb65dda31b74717f57236.th.png[/img][/url] [img]http://i.imgur.com/Hm4fw0l.png[/img] [spoiler] Generale ID univoco : 201726954519300223882175285531969939474 (0x97C332BF3173837C8DD56268633D6812) Nome completo : Under - The Movie (2014).H264.Ita.MIRCrew.mkv Formato : Matroska Versione formato : Version 2 Dimensione : 857MiB Durata : 1o 7min Bitrate totale : 1.777 Kbps Film : Under - The Movie (2014).Title1 Data codifica : UTC 2015-05-07 16:23:38 Creato con : DVDFab 9.1.5.7 Compressore : libebml v0.7.8 + libmatroska v0.8.1 Video ID : 1 Formato : AVC Formato/Informazioni : Advanced Video Codec Profilo formato : [email protected] Impostazioni formato, CABAC : Si Impostazioni formato, ReFrames : 2 frame ID codec : V_MPEG4/ISO/AVC Durata : 1o 7min Bitrate : 1.549 Kbps Larghezza : 720 pixel Altezza : 304 pixel Rapporto aspetto visualizzazione : 2,35:1 Modalità frame rate : Costante Frame rate : 25,000 fps Spazio colore : YUV Croma subsampling : 4:2:0 Profondità bit : 8 bit Tipo scansione : Progressivo Bit/(pixel*frame) : 0.283 Dimensione della traccia : 748MiB (87%) Compressore : x264 core Default : Si Forced : No colour_range : Limited Colori primari : BT.601 NTSC Caratteristiche trasferimento : BT.709 Coefficienti matrici : BT.601 Audio ID : 2 Formato : AC-3 Formato/Informazioni : Audio Coding 3 Estensione modo : CM (complete main) Impostazioni formato, Endianness : Big ID codec : A_AC3 Durata : 1o 7min Modalità bitrate : Costante Bitrate : 192 Kbps Canali : 2 canali Posizione canali : Front: L R Frequenza campionamento : 48,0 KHz Frame rate : 31,250 fps (1536 spf) Modo compressione : Con perdita Dimensione della traccia : 92,7MiB (11%) Lingua : Italiano Default : Si Forced : No Menu 00:00:00.000 : en:(01)00:00:00:000 00:01:21.560 : en:(02)00:01:21:560 00:04:33.520 : en:(03)00:04:33:520 00:07:15.000 : en:(04)00:07:15:000 00:10:12.680 : en:(05)00:10:12:680 00:13:33.640 : en:(06)00:13:33:640 00:16:18.520 : en:(07)00:16:18:520 00:19:16.080 : en:(08)00:19:16:080 00:22:17.720 : en:(09)00:22:17:720 00:25:50.320 : en:(10)00:25:50:320 00:29:54.720 : en:(11)00:29:54:720 00:32:42.400 : en:(12)00:32:42:400 00:38:05.200 : en:(13)00:38:05:200 00:41:04.800 : en:(14)00:41:04:800 00:47:01.520 : en:(15)00:47:01:520 00:49:46.400 : en:(16)00:49:46:400 00:53:29.960 : en:(17)00:53:29:960 00:57:28.400 : en:(18)00:57:28:400 01:00:16.680 : en:(19)01:00:16:680 01:04:55.760 : en:(20)01:04:55:760 [/spoiler] [/color][/b][/center]

Planeta.Singli.2016.1080p.BluRay.x264-FOXM

Language: | Size: 1.47 GB | Seed: 3 | Leech: 1

Description:

http://FOXM.TO ------------------------------------------------------------------------------------------------------------------------------------------- Get all FOXM newest releases first at  FOXM website http://foxm.to/film?id=227 Also there you will find a list of upcoming uploads, account registration and an effective movie search. ------------------------------------------------------------------------------------------------------------------------------------------- http://www.imdb.com/title/tt5127398/ IMDB RATING: 7.2 #1 Video FORMAT.......................: MP4 CODEC........................: X264 GENRE........................:  Comedy, Drama, Romance FILE SIZE....................: 1.47 GB RESOLUTION...................: 1920*808 FRAME RATE...................: 23.976 fps LANGUAGE.....................: English SUBTITLES....................: NONE RUNTIME......................: 2h 16min #2 Audio Format :.....................: AAC Mode : ......................: 16 Channel(s)...................: 5.1 channels Bit rate.....................: 320 kbps Audio sample rate............: 48 kHz Summary: He is one of the top celebrities in the country: a fast-talking TV host, who can joke his way out of any situation. Women want to be with him, men want to be like him. He is looking for a new topic to discuss in his popular talk-show. She is a teacher at a musical school - a timid girl looking for Mr. Perfect on an internet dating site. He will help her realise her potential and teach her how to recognise various types of men for what they are, she will teach him what real life is about. The show will become a huge hit. It seems they are destined to fall in love and be together, but one day she actually does meet Mr. Perfect on the net. Screenshots [img]http://foxm.to/images/1481294834image1.jpg[/img] [img]http://foxm.to/images/1481294834image2.jpg[/img] [img]http://foxm.to/images/1481294834image3.jpg[/img] ------------------------------------------------------------------------------------------------------------------------------------------- http://FOXM.TO -------------------------------------------------------------------------------------------------------------------------------------------

Snowden.2016.720p.BluRay.x264-FOXM

Language: | Size: 1018.13 MB | Seed: 4 | Leech: 1

Description:

http://FOXM.TO ------------------------------------------------------------------------------------------------------------------------------------------- Get all FOXM newest releases first at FOXM website http://foxm.to/film?id=226 Also there you will find a list of upcoming uploads, account registration and an effective movie search. ------------------------------------------------------------------------------------------------------------------------------------------- http://www.imdb.com/title/tt3774114/ IMDB RATING: 7.4 #1 Video FORMAT.......................: MP4 CODEC........................: X264 GENRE........................: Biography, Drama, Thriller FILE SIZE....................: 1018 MB RESOLUTION...................: 1280*720 FRAME RATE...................: 23.976 fps LANGUAGE.....................: English SUBTITLES....................: NONE RUNTIME......................: 2h 14min #2 Audio Format :.....................: AAC Mode : ......................: 16 Channel(s)...................: 5.1 channels Bit rate.....................: 320 kbps Audio sample rate............: 48 kHz Summary: The NSA's illegal surveillance techniques are leaked to the public by one of the agency's employees, Edward Snowden, in the form of thousands of classified documents distributed to the press. Screenshots [img]http://foxm.to/images/1481279745image1.jpg[/img] [img]http://foxm.to/images/1481279745image2.jpg[/img] [img]http://foxm.to/images/1481279745image3.jpg[/img] ------------------------------------------------------------------------------------------------------------------------------------------- http://FOXM.TO -------------------------------------------------------------------------------------------------------------------------------------------

Atomix VirtualDJ 8 Pro Infinity 8.2.3409 Multilingual + Keygen

Language: | Size: 37.68 MB | Seed: 600 | Leech: 10

Description:

Atomix VirtualDJ 8 Pro Infinity 8.2.3409 Multilingual VirtualDJ is a DJ software for PC and MAC. It is used by DJs to replace their turntables and CD players, and use digital music instead of vinyl and CDs. In the same way that the CD players used by DJs have more options than a regular Hi-Fi CD player, VirtualDJ has more options than a simple media player like iTunes. VirtualDJ Pro 8 In Detail: – In the same way that the CD players used by DJs have more options than a regular Hi-Fi CD player, VirtualDJ has more options than a simple media player like iTunes. It lets you “mix” your songs, by playing two or more tracks at the same time, adjust their relative speed so that their tempo will…

Any Video Converter Ultimate 6.0.1 Multilingual Incl Serials + Portable

Language: | Size: 217.88 MB | Seed: 360 | Leech: 71

Description:

Any Video Converter Ultimate 6.0.0 Multilingual As Ultimate video converter, Any Video Converter performs its excellence in converting AVI, MPG, RMVB, MOV, MKV and many other video formats to WMV, AVI, MP4, FLV, 3GP and other popular formats at fast speed and with outstanding quality. Any Video Converter supports iPod, iPhone, Zune, PSP and other Portable Media Players (PMPs) and cell phones. Besides the output formats dedicated for iPod, iPhone, Zune, PSP and cell phones, Any Video Converter supports customizing WMV, AVI and 3GP formats. Any Video Converter features include: • User-friendly interface that is easy to use. • Converts all video formats to Apple iPod Video, Sony…

Advanced SystemCare Pro 9.4.0.1131 Multilingual Incl Key + Portable

Language: | Size: 224.35 MB | Seed: 0 | Leech: 0

Description:

Advanced SystemCare Pro 9.4.0.1131 Multilingual + Portable Advanced SystemCare 9 PRO provides an always-on, automated, the all-in-one PC optimization utility, specializes in ONE-Click solutions to detect, clean, repair, speed up and eventually protect PC. To better protect users online privacy with Advanced SystemCare 9, Protect tab is newly added, which is designed to provide quick access to protect browsing frombeing tracked by automatically cleaning privacy traces once browser closed and detect and resist the attack of malicious plugin/toolbar by Browser Anti-Tracking and Plugin/Toolbar Cleaner in this tab. Advanced SystemCare 9 is a PC maintenance program that’s…

Adobe Photoshop Lightroom CC 6.7 Multilingual + Crack

Language: | Size: 1000.45 MB | Seed: 0 | Leech: 0

Description:

Adobe Photoshop Lightroom CC - Capture the full range of light. Create amazing images from challenging high-contrast scenes. New HDR Merge lets you combine multiple photos taken with different exposure settings into a single high dynamic range image. Features : HDR images made easy Create natural-looking or surreal images from extremely high-contrast scenes. Using HDR Merge, you can easily combine multiple shots taken with different exposure settings into a single high dynamic range image. Stunning panoramas Capture superwide fields of view and amazing detail. Photomerge technology lets you stitch together multiple images, including raw files, to create seamless panoramas. Faster performance Import and perfect your photos faster than ever. Lightroom takes advantage of compatible graphics processors to boost its overall speed, especially when you’re enhancing images in the Develop module. Facial recognition Quickly find images of family and friends, even without metadata tags. Select a face in one photo, and Lightroom searches for that person in all your other images. Categorize and group your photos based on faces. Advanced video slide shows Create beautiful, polished slide shows using still images, video and music along with professional effects like pan and zoom. Improved web galleries Showcase your work in more elegant, engaging and interactive web galleries. New HTML5-compatible gallery templates work with the widest range of desktop and mobile browsers. Better control of filters Precisely control which parts of your image are affected by the Graduated or Radial filters. Now you can use a brush to edit the filter’s mask, adding or subtracting filter effects wherever you want. Easy photo sharing Publish web galleries with Lightroom. Get feedback on your photos, start discussions and more — all from Lightroom on your mobile device or desktop. Support for more devices Lightroom is now on Android devices. And just like on iPad and iPhone, all your edits sync back to your computer. Visual storytelling Pull images from Lightroom into Adobe Voice and Slate on your iPad or iPhone to craft visual stories and animated videos. Copy-paste enhancements On your iPad or iPhone, you can quickly copy adjustments from one photo and paste them onto another for ultra-fast processing. Perfect presentations Use the new Presentation mode on your iPad or iPhone to show off photos without accidentally adjusting or editing them. Fast photo searching The Segmented view on your iPad or iPhone helps you find favorite photos faster than ever. Quick composition adjustment A redesigned cropping experience on iPad and iPhone lets you quickly adjust, align and auto-straighten your photos. System Requirements: Windows: - Intel® or AMD processor with 64-bit support* - Windows 7 with Service Pack 1, Windows 8, or Windows 8.1 - 2 GB of RAM (4 GB recommended) - 2 GB of available hard-disk space - DVD-ROM drive required if purchasing Adobe® Photoshop® Lightroom® retail boxed version - OpenGL 3.3 and DirectX 10-capable video adapter for GPU-related functionality - Internet connection and registration are necessary for required software activation, validation of subscriptions, and access to online services. What's new : Release Notes Notes : Break the connection to the network. Install the program in trial mode. Install the update. Replace the original amtlib.dll patched.

Adguard Premium v6.1.245.1212 (x86x64) + Patch

Language: | Size: 44.86 MB | Seed: 0 | Leech: 0

Description:

Adguard provides you with a reliable and manageable protection that immediately and without your participation filters the loading web pages. Adguard removes all the annoying ads, blocks loading of dangerous websites, and will not allow anyone to track your activities on the Internet. Features: - Comfort and safety - You will be amazed how much more comfortable and safer the Internet will be after you install Adguard. - Adguard for Windows - Short list of important changes: greatly reduced memory usage, we introduced convenient addition of new ad filters, integration with WoT is now a separate extension, added support for new browsers, fixed conflicts with popular programs and defects in the processing of requests and more. - Memory usage reduction - We have significantly optimized memory usage. Now, even if you use an old computer or a weak netbook, Adguard will work silently in a background without slowing down your device. We compared memory footprint with the one of the preceding version. And we must say showed a result several times lower. - More ad filters - In addition, Adguard has became an even more comprehensive program. Now users can install any ad filters. What does it mean? In addition to the filters that are already installed in Adguard by default, you can add third-party ones, such as a list of filters that allow Adguard to block ads in different segments of the Internet – websites in different languages, in particular. All of this can be done directly in the program, simply by selecting a filter you want and clicking on the “Add selected” button. - Displaying the possible danger - Integration with Web of Trust is now brought out in the separate extension, which can be disabled. Also a warning when visiting a suspicious website has changed. With the help of WoT, our Adguard is able to notify you instantly about the reputation of websites and show the reasons for which the site is considered to be suspicious. “Categories of suspicion” can be, in particular: scam, potentially illegal, misleading claims or unethical, poor customer experience, privacy risks and others. https://i2.wp.com/www.4realtorrentz.com/wp-content/uploads/2016/06/4realtorrentz.com-2016-08-01-10-19-25-660.jpg

Actual Multiple Monitors 8.9.1 Multilingual + Crack

Language: | Size: 12.56 MB | Seed: 0 | Leech: 0

Description:

Actual Multiple Monitors is the comprehensive solution to improve the functionality of MS Windows user interface for comfortable and effective work with multi-monitor configurations. The smart app emulates standard Windows services on secondary monitors, and offers new window management services to free you from routine clicking and let you concentrate on your work undisturbed. Powerful yet easy-to-use, Actual Multiple Monitors emulates the original Windows Taskbar on the secondary displays, allowing you to manage windows in your usual manner. Such Taskbar can work in the individual mode, displaying only the tasks running on the same monitor, or in the mirror mode, displaying all the tasks running on all monitors in your setup. OS : Windows 8/7/Server/Vista/2008/XP/2003/2000 x86/x64. Language : Multilingual HomePage – http://actualtools.com/ https://i1.wp.com/www.4realtorrentz.com/wp-content/uploads/2016/08/4realtorrentz.com-2016-09-07-14-03-00-117.jpg Instructions: 1. Unpack and install 2. Copy contents of crack folder to installation directory 3. Done.

Acoustica Mixcraft Pro Studio 7.7.310 Multilingual + Keygen

Language: | Size: 366.15 MB | Seed: 0 | Leech: 0

Description:

Acoustica Mixcraft Pro Studio 7.7.310 Multilingual The ultimate software tool for pro-level mixing and mastering! With 5 additional virtual instruments and 27 additional effects, Mixcraft Pro Studio 7 features over $1100.00 worth of plug-ins - the complete package for "record-ready" productions with incredibly realistic instruments and superlative audio processing capabilities. For a list of all instruments and effects, view the comparison chart below. Mixcraft Pro Studio 7 adds painstakingly modeled virtual analog and digital professional synthesizers. Memorymoon is a spot-on recreation of the Moog Memorymoog’s crushing analog fatness. ME80 Version 2 is a killer model of the classic Yamaha CS80 synthesizer, now with a gorgeous new user interface and a whole new sound engine. Glass Viper takes its inspiration from classic 80s and 90s digital synths and offers unique waveform shaping for a deep and natural sense of movement. Peerless Piano Pianissimo is an incredibly playable and realistic virtual piano. Combining 250 MB of high quality Steinway™ Model D piano samples with advanced physical modeling, Pianissimo recreates the warmth, response, and playability of a real grand piano. With modeled sympathetic resonance, incidental mechanical hammer sounds, remarkable tonal control and velocity response, 256 voices of polyphony, and incredibly low CPU usage, Pianissimo Virtual Piano lends an air of class and realism to any project. Superior Mastering Tools Your tracks will reach a new level of audio fidelity with an awesome array of mastering plug-ins. Add a professional sheen with iZotope Mastering Essentials suite. EQ to perfection with TB Parametric EQ or GSXL4070 Parametric, replicating the equalizer section of one of the world’s most coveted mixing consoles. Impart analog tape compression and punch with Ferox Tape Emulator. Create bangin’ dance remixes with SideKick6 Sidechaining Compressor. Vacuum Tube Virtuosity Who doesn’t love the warm, smooth sound of tubes? Mixcraft Pro Studio 7 delivers a knockout punch of tube-modeled effects with the Pentode Audio Series featuring the VTC-1 Vacuum Tube Compressor, TRW-1 Vacuum Tube Triode Warmer, PSEQ-1 Vacuum Tube Passive EQ, and VBE-1 Vacuum Tube Bass Enhancer. Treblecream smoothes harsh high frequencies to perfection, while FAT+ combines analog warmth, vacuum-tube distortion, and tape saturation into a single effect for enormous-sounding tracks. Innovative Sound Shapers Recreate the grunge of 8-bit video games and 12-bit samplers with TimeMachine Bit Crusher. Build lush, three-dimensional sonic spaces with Fusion Field’s convolution reverb technology. Inspire sonic anarchy with Dubshox Multi-Band Distortion, featuring over 40 types of distortion and shapers. Go beyond standard beat-synced delays with POD4500 Particle Delay's wildly unique "particles" that can be delayed, tuned up and down by octaves, filtered, and modulated. And So Much More! Boost your bass to the max with XBass Bass Enhancer. Enhance stereo imaging with Mid-Side Harmonic Vitaliser+. Add grunge and warmth to vocals with Twisthead VS-206 Preamp. Whats New ?

ACDSee Ultimate 10.0 Build 839 (x64) + Patch

Language: | Size: 148.97 MB | Seed: 0 | Leech: 0

Description:

ACDSee Ultimate 10.0 Build 839 (x64) As the first digital asset management software with layers, ACDSee Ultimate 9 is able to answer an unparalleled number of creative graphic and image composition needs. Armed with a potent list of adjustment layers, working with layers just became non-destructive, giving you the complete flexibility to create the image composites, photo manipulations, and innovative graphics you’ve been envisioning. With new ways to track your adjustments and apply them to batches, development snapshots, extended creative capabilities through Photoshop™ plugin support, new lighting and skin tone adjustments, additional ways to compartmentalize, even more drawing tools,…

Windows Repair Pro 3.9.11 + Portable

Language: | Size: 57 MB | Seed: 0 | Leech: 0

Description:

Tweaking.com – Windows Repair is an all-in-one repair tool to help fix a large majority of known Windows problems including registry errors and file permissions as well as issues with Internet Explorer, Windows Update, Windows Firewall and more. Malware and installed programs can modify your default settings. Using Tweaking.com – Windows Repair you will have the possibility to restore your OS to its original settings. Tweaking.com – Windows Repair can do the following: · Reset Registry Permissions · Reset File Permissions · Register System Files · Repair WMI · Repair Windows Firewall · Repair Internet Explorer · Repair MDAC & MS Jet · Repair Hosts File · Remove Policies Set By Infections

Windows 10 Pro Permanent Activator Ultimate 1.4.1

Language: | Size: 7.62 MB | Seed: 0 | Leech: 0

Description:

Windows 10 Pro Permanent Activator 1.2? + Portable Windows 10 Pro Permanent Activator is a program that finder for mak and retail key in different servers for Windows 10 pro. The Keys are automatically updated daily. This software is one of the best for Windows 10 Activators with daily mak and retail key updates. Its a best program in order to permanently activate your Windows 10. In addition to it its easy to use and does not require experience to bring the activation keys to use when trying to activate the program.? Features: -Update Daily Mak and Retail Keys -Uninstall Product Key -KMS Activation …

VSO ConvertXtoHD 2.0.0.55 Final + Patch

Language: | Size: 84.33 MB | Seed: 0 | Leech: 0

Description:

VSO ConvertXtoHD software is a Blu-ray and AVCHD Creator that lets you convert your videos in HD in just a click, whatever their original format. The program will give you the exceptional HD quality results. Give your videos Blu-ray treatment with exceptional image quality! VSO ConvertXtoHD will allow you to create AVCHD and Blu-ray folders, disks and ISO images. Create Blu-ray from any video with guaranteed compatibility with all home Blu-ray and AVCHD players. VSO ConvertXtoHD supports all input files – avi, mkv, Blu-rays, DVDs, mts, mpg, FLV, etc. The output size can be DVD-5, DVD-9, BD-25, BD-50, or custom value. You can see your changes in real time with the live preview. Conversions are made with professional looking menus making your disks extra easy to watch! Features: - Add subtitles and audio - Advanced subtitle editing - Adjust synchronization - Brightness/Contrast - Rotate videos - Chapter managment - Cut out sections of the video - 480, 576, 720, 1080 resolution - 16:9 widescreen or 4:3 full screen - Increase audio volume - Join files into one - Personalize HD menus - Padding/Cropping - Live preview! - Burn to disk - Burn multiple copies - Make copies of Blu-ray disks - Create BDMV and AVCHD ISO - Compatible with all disk formats and burners - Store conversions on USB key or PC. - Shutdown PC option when finished - Various skins to change look and feel of the interface - Available in multiple languages - Includes several HD menu templates - Includes “how to” tutorials and video guides http://i0.wp.com/www.4realtorrentz.com/wp-content/uploads/2016/08/4realtorrentz.com-2016-08-28-13-51-57-405.jpg Instructions: 1. Unpack and install 2. Don't run 3. Copy patch to installation directory and patch main exe. 4. Done.

VMware Workstation Pro 12.5.0 Build 4352439 + Serial Keys

Language: | Size: 303.75 MB | Seed: 0 | Leech: 0

Description:

VMware Workstation Pro 12.5.0 Build 4352439 VMware Workstation Pro transforms the way technical professionals develop, test, demonstrate and deploy software by running multiple x86-based operating systems simultaneously on the same PC. Built on 15 years of virtualization excellence and winner of more than 50 industry awards, VMware Workstation Pro takes desktop virtualization to the next level by giving users an unmatched operating system support, rich user experience and incredible performance. Introducing Workstation 12 Pro VMware Workstation 12 Pro continues VMware’s tradition of delivering leading edge features and performance that technical professionals rely on every day…

Unity Pro v5.4.1f1 (x64) + Crack

Language: | Size: 1.02 GB | Seed: 0 | Leech: 0

Description:

Unity Pro v5.4.1f1 (x64) For independent developers and studios, Unity’s democratizing ecosystem smashes the time and cost barriers to creating uniquely beautiful games. They are using Unity to build a livelihood doing what they love: creating games that hook and delight players on any platform. Workflow Rapidly assemble your scenes in an intuitive, extensible Editor workspace. Play, test and edit for fast iteration towards your finished game. Quality Create a game with AAA visual fidelity, audio and full-throttle action that performs smooth and clean on any screen. 2D & 3D Get dedicated tools for both 2D and 3D…

Adobe Premiere Pro CC 2017 v11.0.1 + Crack.torrent

Language: | Size: 1.67 GB | Seed: 597 | Leech: 62

Description:

Adobe Premiere Pro CC 2017 v11.0.1 Make visually stunning videos virtually anywhere. With the industry-leading video editing software, you can edit virtually any type of media in its native format and create professional productions with brilliant color for film, TV, and web. Itâ?™s the most colorful Premiere Pro yet. See how the fastest and most efficient video editor helps you create your most visually stunning productions yet — and easily make the switch from Final Cut or Avid. - Edit anything from virtual reality to 8K footage in native format or by creating lightweight proxies that let you easily switch between low- and high-res formats. - Enhanced Lumetri Color tools give you new ways to get creative with color, plus you can apply new preset SpeedLooks in a single click. - Save time and stay in your creative flow with improved integration between Premiere Pro, After Effects and Audition that eliminates steps like intermediate rendering. - Collaborate on shared sequences or compositions across Premiere Pro, After Effects, and Prelude with Team Projects (Beta). For teams and enterprise customers. Go from blank page to brilliant. Premiere Pro is part of Creative Cloud, which means you can access all your assets — including Adobe Stock — right inside the app and quickly put an idea into production. And with Adobe CreativeSync, everything is connected across your desktop and mobile apps. All your assets. Always at your fingertips. Creative Cloud Libraries store all your Looks, photos, graphics, stock videos, and other creative assets, so theyâ?™re instantly available across your desktop and mobile devices. Adobe Stock built right in. Spend less time searching and more time designing with more than 60 million high-quality images, graphics, videos, 3D objects and our Premium collection inside your apps. With built-in templates for web, print, mobile and more, you can dive right into your production. What's New in Premiere Pro CC (2017): Easier collaboration with Team Projects (Beta) Improved captions Lumetri Color enhancements Accelerated Dynamic Link Auto-aware VR Publish directly to Behance Dynamic Link with Character Animator Live Text template improvements New Getting Started experience Typekit font sync Audition audio effects Keyboard shortcut mapping Easier ingest Better performance Import more native formats And so much more System Requirements: - Multicore processor with 64-bit support - Microsoft Windows 7 with Service Pack 1 (64 bit) or Windows 8 (64 bit), or Windows 10 (64 bit). - 8GB of RAM (16GB recommended) - 8GB of available hard-disk space for installation; additional free space required during installation (cannot install on removable flash storage devices) - 1280x800 display - Sound card compatible with ASIO protocol or Microsoft Windows Driver Model - Optional: Adobe-recommended GPU card for GPU-accelerated performance - Internet connection and registration are necessary for required software activation, validation of subscriptions, and access to online services.*

Tron.Legacy.2010.1080p.BluRay.x264-FOXM

Language: | Size: 2.08 GB | Seed: 2 | Leech: 2

Description:

[center] [size=100][img]http://foxm.to/images/1481208200filmimage.jpg[/img] [/size] Storyline Sam Flynn, the tech-savvy 27-year-old son of Kevin Flynn, looks into his father's disappearance and finds himself pulled into the same world of fierce programs and gladiatorial games where his father has been living for 20 years. Along with Kevin's loyal confidant Quorra, father and son embark on a life-and-death journey across a visually-stunning cyber universe that has become far more advanced and exceedingly dangerous. Meanwhile, the malevolent program CLU, who dominates the digital world, plans to invade the real world and will stop at nothing to prevent their escape. General Size : 2.07 GB Running Time: 2h 5min Genre: Action | Adventure | Sci-Fi Director: Joseph Kosinski Language: English Release Date: 17 December 2010 (USA) http://www.imdb.com/title/tt1104001/ Video======= Video Format......: AAC Video Codec.......: x264 Frame Rate........: 23.000 fps Width.............: 1 920 pixels Height............:  816 Audio======= Format..........: AAC Bitrate.........: 320 Kbps Channels........: 6 channels screenshot [img]http://foxm.to/images/1481208200image3.jpg[/img] [img]http://foxm.to/images/1481208200image2.jpg[/img] [/center]

[Web Seed] MAGIX VEGAS Pro 14 Suite + NewBlueFX Titler Pro 5

Language: | Size: 2.06 GB | Seed: 776 | Leech: 87

Description:

Exclusive release by [url=http://crack-legend.blogspot.com/2016/11/magix-vegas-pro-14-suite-complete-crack-download.html]Crack Legend[/url], [url=http://crack-legend.blogspot.com/2016/11/magix-vegas-pro-14-suite-complete-crack-download.html]破解傳說[/url] Instruction: Please use BitComet. Please watch [url]vimeo.com/184500896[/url].

Gotan Project - Tango 3.0 [Flac][TntVillage]

Language: | Size: 265.32 MB | Seed: 48 | Leech: 38

Description:

Artist...............: Gotan Project Album................: Tango 3.0 Genre................: Tango Electronic Source...............: CD Year.................: 2010 Ripper...............: EAC (Secure mode) / LAME 3.92 & Asus CD-S520 Codec................: Free Lossless Audio Codec (FLAC) Version..............: reference libFLAC 1.2.1 20070917 Quality..............: Lossless, (avg. compression: 60 %) Channels.............: Stereo / 44100 HZ / 16 Bit Tags.................: VorbisComment Information..........: TntVillage Ripped by............: Leonenero on 07/12/2016 Posted by............: Leonenero on 07/12/2016 News Server..........: news.astraweb.com News Group(s)........: TntVillage Included.............: NFO, MD5, PLS, LOG, CUE, M3U8 Covers...............: Front Back CD --------------------------------------------------------------------- Tracklisting --------------------------------------------------------------------- 1. Gotan Project - Panamericana [04:29] 2. Gotan Project - Érase Una Vez [04:20] 3. Gotan Project - Tango Square [03:44] 4. Gotan Project - Rayuela [04:25] 5. Gotan Project - Desilusión [04:22] 6. Gotan Project - Peligro [03:57] 7. Gotan Project - La Gloria [04:08] 8. Gotan Project - Mil Millones [05:00] 9. Gotan Project - Tu Misterio [03:19] 10. Gotan Project - De Hombre A Hombre [03:23] 11. Gotan Project - El Mensajero [02:33] Playing Time.........: 43:47 Total Size...........: 265,19 MB The music of Gotan Project comprises Tango inflected electronic/Dub sounds, with instrumentals (the beautiful melancholic Jazzy "Tango square" with an incredible horn section), some disembodied vocals ("Rayuela" with a childrens chorus and author Julio Cortázar reading from his novel of the same name, "La Gloria" with a narration by Victor Hugo Morales of Maradona's second goal against England), and some clear female vocals by Villalonga ("Desilusion", "Peligro"). The dark ominous "Mil milones" has a deep Dub bassline, while the lush "Tu misterio" is a soothing male/female duet. The truly beautiful instrumental "De hombre a hombre" has a big band Jazz feel and sounds like something from some Spagetti Western. Closing is the lilting theatrical "Erase una vez" with weeping lyricon. For dancing, or just plain chilling out.

The Conversation - La conversazione (1974).H264.Italian.English.Ac3.sub.ita.eng.iCV-MIRCrew

Language: | Size: 1.44 GB | Seed: 101 | Leech: 24

Description:

The Conversation - La conversazione (1974).H264.Italian.English.Ac3.sub.ita.eng.iCV-MIRCrew [center] [color=red][b][img]http://i.imgur.com/0scDel1.png[/img] [u]NO FOUND ONLY ORIGINAL RELEASE[/u] [img]http://i.imgur.com/GDNQx1Z.png[/img] My release is always in double track audio italian and Original audio for select it use VLC or dvd player home not use wmp La conversazione - The Conversation (1974) [img]https://extraimage.net/images/2016/12/08/02b9cb0ff94a32c846553bd26f7c2bc8.png[/img] [URL=http://www.imdb.com/title/tt0071360/][IMG]http://www.userlogos.org/files/logos/Sucka/imdb_new.png[/IMG][/URL] [img]http://i.imgur.com/fWCejk0.png[/img] Titolo originale The Conversation Paese di produzione Stati Uniti d'America Anno 1974 Durata 113 min Genere drammatico, thriller Regia Francis Ford Coppola Soggetto Francis Ford Coppola Sceneggiatura Francis Ford Coppola Produttore Francis Ford Coppola Fotografia Bill Butler Montaggio Walter Murch, Richard Chew Musiche David Shire Scenografia Dean Tavoularis, Doug von Koss Costumi Aggie Guerard Rodgers [img]http://i.imgur.com/V3qrNAd.png[/img] Gene Hackman: Harry Caul John Cazale: Stan Allen Garfield: Bernie Moran Frederic Forrest: Mark, amante di Ann Cindy Williams: Ann, moglie del direttore Michael Higgins: Paul Elizabeth MacRae: Meredith Teri Garr: Amy Fredericks Harrison Ford: Martin Stett Robert Duvall: Il direttore (non accreditato) [img]http://i.imgur.com/GOBJ1sT.png[/img] San Francisco. Harry Caul è un investigatore privato, esperto di sorveglianza ed intercettazioni, che nutre un'ossessione paranoica per la propria privacy. Il suo appartamento è quasi totalmente spoglio e la porta ha una tripla serratura, lui stesso usa telefoni pubblici e finge di non avere un numero telefonico privato. Il suo laboratorio è ricavato in uno spazio delimitato da un reticolato all'interno di un capannone................ [img]http://i.imgur.com/R7WrNZe.png[/img] Harry Caul is a devout Catholic and a lover of jazz music who plays his saxophone while listening to his jazz records. He is a San Francisco-based electronic surveillance expert who owns and operates his own small surveillance business. He is renowned within the profession as being the best, one who designs and constructs his own surveillance equipment. He is an intensely private and solitary man in both his personal and professional life, which especially irks Stan, his business associate who often feels shut out of what is happening with their work. ............... [img]http://i.imgur.com/GgEl7ea.png[/img] [url=https://extraimage.net/image/2wyK][img]https://extraimage.net/images/2016/12/08/cbc4e40b0fab4ee7b9eea399e65cb671.th.png[/img][/url] [url=https://extraimage.net/image/2wyJ][img]https://extraimage.net/images/2016/12/08/e9c01756ab80edb4c4ca9d2390446f9a.th.png[/img][/url] [url=https://extraimage.net/image/2wyZ][img]https://extraimage.net/images/2016/12/08/8edb4a15bff727d7a3a23eb70b6d5cc1.th.png[/img][/url] [url=https://extraimage.net/image/2wye][img]https://extraimage.net/images/2016/12/08/bab951c4fcbd09c08856c1da187b8c13.th.png[/img][/url] [img]http://i.imgur.com/Hm4fw0l.png[/img] [spoiler] General Unique ID : 238122375129478159620564558267389509593 (0xB324B3865E479636724227EAB852FFD9) Complete name : La conversazione - The Conversation (1974).H264.ita.eng.sub.ita.eng.iCV-MIRCrew.mkv Format : Matroska Format version : Version 2 File size : 1.44 GiB Duration : 1h 54mn Overall bit rate : 1 809 Kbps Movie name : VISIT www.icv-crew.org Encoded date : UTC 2016-11-01 11:21:24 Writing application : Lavf54.63.100 Writing library : Lavf54.63.100 COPYRIGHT : robbyrs Video ID : 1 Format : AVC Format/Info : Advanced Video Codec Format profile : [email protected] Format settings, CABAC : Yes Format settings, ReFrames : 2 frames Codec ID : V_MPEG4/ISO/AVC Duration : 1h 54mn Bit rate : 1 270 Kbps Width : 720 pixels Height : 390 pixels Display aspect ratio : 1.854 Original display aspect ratio : 1.853 Frame rate mode : Variable Frame rate : 23.976 fps Color space : YUV Chroma subsampling : 4:2:0 Bit depth : 8 bits Scan type : Progressive Bits/(Pixel*Frame) : 0.189 Stream size : 1.01 GiB (70%) Writing library : x264 core 130 r2273 Encoding settings : cabac=1 / ref=2 / deblock=1:0:0 / analyse=0x1:0x131 / me=hex / subme=7 / psy=1 / psy_rd=1.00:0.00 / mixed_ref=0 / me_range=16 / chroma_me=1 / trellis=1 / 8x8dct=0 / cqm=0 / deadzone=21,11 / fast_pskip=1 / chroma_qp_offset=-2 / threads=12 / lookahead_threads=2 / sliced_threads=0 / nr=0 / decimate=1 / interlaced=0 / bluray_compat=0 / constrained_intra=0 / bframes=3 / b_pyramid=0 / b_adapt=1 / b_bias=0 / direct=3 / weightb=1 / open_gop=0 / weightp=2 / keyint=230 / keyint_min=23 / scenecut=40 / intra_refresh=0 / rc_lookahead=40 / rc=2pass / mbtree=1 / bitrate=1270 / ratetol=1.0 / qcomp=0.60 / qpmin=10 / qpmax=69 / qpstep=4 / cplxblur=20.0 / qblur=0.5 / vbv_maxrate=24000 / vbv_bufsize=24000 / nal_hrd=none / ip_ratio=1.40 / aq=1:1.00 Language : English Default : Yes Forced : No DURATION : 01:54:06.799000000 NUMBER_OF_FRAMES : 164159 NUMBER_OF_BYTES : 12671608656 _STATISTICS_WRITING_APP : mkvmerge v8.8.0 ('Wind at my back') 64bit _STATISTICS_WRITING_DATE_UTC : 2016-02-01 15:55:44 _STATISTICS_TAGS : BPS DURATION NUMBER_OF_FRAMES NUMBER_OF_BYTES Audio #1 ID : 2 Format : AC-3 Format/Info : Audio Coding 3 Mode extension : CM (complete main) Codec ID : A_AC3 Duration : 1h 54mn Bit rate mode : Constant Bit rate : 256 Kbps Channel(s) : 2 channels Channel positions : Front: L R Sampling rate : 48.0 KHz Bit depth : 16 bits Compression mode : Lossy Delay relative to video : 1mn 5s Stream size : 209 MiB (14%) Language : Italian Default : Yes Forced : No DURATION : 01:54:07.008000000 NUMBER_OF_FRAMES : 641907 NUMBER_OF_BYTES : 657312768 _STATISTICS_WRITING_APP : mkvmerge v8.8.0 ('Wind at my back') 64bit _STATISTICS_WRITING_DATE_UTC : 2016-02-01 15:55:44 _STATISTICS_TAGS : BPS DURATION NUMBER_OF_FRAMES NUMBER_OF_BYTES Audio #2 ID : 3 Format : AC-3 Format/Info : Audio Coding 3 Mode extension : CM (complete main) Codec ID : A_AC3 Duration : 1h 54mn Bit rate mode : Constant Bit rate : 256 Kbps Channel(s) : 2 channels Channel positions : Front: L R Sampling rate : 48.0 KHz Bit depth : 16 bits Compression mode : Lossy Delay relative to video : 1mn 5s Stream size : 209 MiB (14%) Language : English Default : No Forced : No DURATION : 01:54:06.912000000 NUMBER_OF_FRAMES : 213966 NUMBER_OF_BYTES : 547752960 _STATISTICS_WRITING_APP : mkvmerge v8.8.0 ('Wind at my back') 64bit _STATISTICS_WRITING_DATE_UTC : 2016-02-01 15:55:44 _STATISTICS_TAGS : BPS DURATION NUMBER_OF_FRAMES NUMBER_OF_BYTES Text #1 ID : 4 Format : VobSub Codec ID : S_VOBSUB Codec ID/Info : The same subtitle format used on DVDs Language : Italian Default : No Forced : No DURATION : 01:50:32.270000000 NUMBER_OF_FRAMES : 1116 NUMBER_OF_BYTES : 5679613 _STATISTICS_WRITING_APP : mkvmerge v8.8.0 ('Wind at my back') 64bit _STATISTICS_WRITING_DATE_UTC : 2016-02-01 15:55:44 _STATISTICS_TAGS : BPS DURATION NUMBER_OF_FRAMES NUMBER_OF_BYTES Text #2 ID : 5 Format : VobSub Codec ID : S_VOBSUB Codec ID/Info : The same subtitle format used on DVDs Language : Italian Default : No Forced : No DURATION : 01:50:32.270000000 NUMBER_OF_FRAMES : 1116 NUMBER_OF_BYTES : 5679613 _STATISTICS_WRITING_APP : mkvmerge v8.8.0 ('Wind at my back') 64bit _STATISTICS_WRITING_DATE_UTC : 2016-02-01 15:55:44 _STATISTICS_TAGS : BPS DURATION NUMBER_OF_FRAMES NUMBER_OF_BYTES Text #3 ID : 6 Format : VobSub Codec ID : S_VOBSUB Codec ID/Info : The same subtitle format used on DVDs Language : English Default : No Forced : No DURATION : 01:51:07.350000000 NUMBER_OF_FRAMES : 1240 NUMBER_OF_BYTES : 7570648 _STATISTICS_WRITING_APP : mkvmerge v8.8.0 ('Wind at my back') 64bit _STATISTICS_WRITING_DATE_UTC : 2016-02-01 15:55:44 _STATISTICS_TAGS : BPS DURATION NUMBER_OF_FRAMES NUMBER_OF_BYTES Menu 00:00:00.000 : :00:00:00.000 00:10:53.278 : :00:10:53.278 00:20:33.524 : :00:20:33.524 00:32:18.770 : :00:32:18.770 00:42:01.394 : :00:42:01.394 00:52:41.909 : :00:52:41.909 01:02:33.249 : :01:02:33.249 01:17:12.253 : :01:17:12.253 01:24:55.716 : :01:24:55.716 01:37:10.533 : :01:37:10.533 01:43:19.902 : :01:43:19.902 01:53:11.326 : :01:53:11.326 01:54:06.757 : :01:54:06.757 [/spoiler] [/color][/b][/center]

Una Nube Di Terrore - Ishirô Honda (1960).H264.Italian.Jpn.Ac3.5.1.sub.ita.iCV-MIRCrew

Language: | Size: 1.02 GB | Seed: 3 | Leech: 5

Description:

Una Nube Di Terrore - Ishirô Honda (1960).H264.Italian.Jpn.Ac3.5.1.sub.ita.iCV-MIRCrew [center] [color=red][b][img]http://i.imgur.com/0scDel1.png[/img] [u]NO FOUND ONLY ORIGINAL RELEASE[/u] [img]http://i.imgur.com/GDNQx1Z.png[/img] My release is always in double track audio italian and Original audio for select it use VLC or dvd player home not use wmp Una Nube Di Terrore - Ishirô Honda (1960) [img]https://extraimage.net/images/2016/12/08/7a7f9b1368b57c625c38aa352c7f9479.png[/img] [URL=http://www.imdb.com/title/tt0053853/][IMG]http://www.userlogos.org/files/logos/Sucka/imdb_new.png[/IMG][/URL] [img]http://i.imgur.com/fWCejk0.png[/img] Titolo Originale: GASU NINGEN DAI ICHIGO Regia: Ishiro Honda Durata: h 1.32 Nazionalità: Giappone 1960 Genere: fantascienza [img]http://i.imgur.com/V3qrNAd.png[/img] Tatsuya Mihashi, Kaoru Yachigusa, Yoshio Tsuchiya, Keiko Sata, Fuyuki Murakami, Ko Mishima [img]http://i.imgur.com/GOBJ1sT.png[/img] Il film vede protagonosta un uomo di nome Mizuno che, sottoposto agli esperimenti del professor Sano, è in grado di diventare gassoso mutando la propia struttura molecolare. Dopo aver ucciso lo scienziato in un impeto d' ira, è ricercato dalla polizia, alla quale decide di raccontare tutta la sua storia e il fatto di aver anche compiuto svariate rapine in banca grazie al suo potere di disgregarsi. Le sue azioni criminali sono spinte dall'amore che prova verso un'attrice e il denaro rubato è appunto il sostegno per il rilancio della sua carriera. [img]http://i.imgur.com/R7WrNZe.png[/img] A librarian is subject to a scientific experiment which goes wrong and transforms him into 'The Human Vapour'. He uses his new ability to rob banks to fund the career of his girlfriend, a .. [img]http://i.imgur.com/GgEl7ea.png[/img] [url=https://extraimage.net/image/2wSj][img]https://extraimage.net/images/2016/12/08/e47ec8c0fdcf40f28a400a014f1f1e05.th.png[/img][/url] [url=https://extraimage.net/image/2wSn][img]https://extraimage.net/images/2016/12/08/c4343929405398bf2699b5ed47701f52.th.png[/img][/url] [url=https://extraimage.net/image/2wSs][img]https://extraimage.net/images/2016/12/08/c0a3c3125fd0ab01084fc94cc55a23d4.th.png[/img][/url] [img]http://i.imgur.com/Hm4fw0l.png[/img] [spoiler] General Unique ID : 46589221673097324828479404486108477832 (0x230CC1F95241702248993F9965297988) Complete name : Una Nube Di Terrore - Ishirô Honda (1960).ita.lpn.sub.ita.iCV-MIRCrew.mkv Format : Matroska Format version : Version 2 File size : 1.02 GiB Duration : 1h 27mn Overall bit rate : 1 673 Kbps Encoded date : UTC 2016-12-07T11:35:57Z Writing application : HandBrake 0.10.5 2016021100 Writing library : Lavf55.12.0 Video ID : 1 Format : AVC Format/Info : Advanced Video Codec Format profile : [email protected] Format settings, CABAC : Yes Format settings, ReFrames : 4 frames Codec ID : V_MPEG4/ISO/AVC Duration : 1h 27mn Bit rate : 1 280 Kbps Width : 688 pixels Height : 410 pixels Display aspect ratio : 2.40:1 Original display aspect ratio : 2.40:1 Frame rate : 25.000 fps Color space : YUV Chroma subsampling : 4:2:0 Bit depth : 8 bits Scan type : Progressive Bits/(Pixel*Frame) : 0.182 Stream size : 786 MiB (75%) Writing library : x264 core 142 r2479 dd79a61 Encoding settings : cabac=1 / ref=1 / deblock=1:0:0 / analyse=0x1:0x111 / me=hex / subme=2 / psy=1 / psy_rd=1.00:0.00 / mixed_ref=0 / me_range=16 / chroma_me=1 / trellis=0 / 8x8dct=0 / cqm=0 / deadzone=21,11 / fast_pskip=1 / chroma_qp_offset=0 / threads=3 / lookahead_threads=1 / sliced_threads=0 / nr=0 / decimate=1 / interlaced=0 / bluray_compat=0 / constrained_intra=0 / bframes=3 / b_pyramid=2 / b_adapt=1 / b_bias=0 / direct=1 / weightb=1 / open_gop=0 / weightp=1 / keyint=250 / keyint_min=25 / scenecut=40 / intra_refresh=0 / rc_lookahead=10 / rc=2pass / mbtree=1 / bitrate=1280 / ratetol=1.0 / qcomp=0.60 / qpmin=0 / qpmax=69 / qpstep=4 / cplxblur=20.0 / qblur=0.5 / vbv_maxrate=20000 / vbv_bufsize=25000 / nal_hrd=none / filler=0 / ip_ratio=1.40 / aq=1:1.00 Default : Yes Forced : No Color primaries : BT.470-6 System B, BT.470-6 System G, BT.601-6 625, BT.1358 625, BT.1700 625 PAL, BT.1700 625 SECAM Transfer characteristics : BT.709-5, BT.1361 Matrix coefficients : BT.601-6 525, BT.1358 525, BT.1700 NTSC, SMPTE 170M Audio #1 ID : 2 Format : AC-3 Format/Info : Audio Coding 3 Mode extension : CM (complete main) Codec ID : A_AC3 Duration : 1h 27mn Bit rate mode : Constant Bit rate : 192 Kbps Channel(s) : 2 channels Channel positions : Front: L R Sampling rate : 48.0 KHz Bit depth : 16 bits Compression mode : Lossy Delay relative to video : 1mn 5s Stream size : 120 MiB (11%) Title : Stereo Language : Italian Default : Yes Forced : No Audio #2 ID : 3 Format : AC-3 Format/Info : Audio Coding 3 Mode extension : CM (complete main) Codec ID : A_AC3 Duration : 1h 27mn Bit rate mode : Constant Bit rate : 192 Kbps Channel(s) : 2 channels Channel positions : Front: L R Sampling rate : 48.0 KHz Bit depth : 16 bits Compression mode : Lossy Delay relative to video : 1mn 5s Stream size : 120 MiB (11%) Title : Stereo Language : Japanese Default : No Forced : No Text #1 ID : 4 Format : VobSub Codec ID : S_VOBSUB Codec ID/Info : The same subtitle format used on DVDs Language : Italian Default : No Forced : No Text #2 ID : 5 Format : VobSub Codec ID : S_VOBSUB Codec ID/Info : The same subtitle format used on DVDs Language : Italian Default : No Forced : No Menu 00:00:00.000 : :Chapter 1 00:07:21.960 : :Chapter 2 00:14:38.240 : :Chapter 3 00:21:55.960 : :Chapter 4 00:29:13.080 : :Chapter 5 00:36:30.240 : :Chapter 6 00:43:47.760 : :Chapter 7 00:51:05.280 : :Chapter 8 00:58:22.560 : :Chapter 9 01:05:40.120 : :Chapter 10 01:12:57.200 : :Chapter 11 01:20:14.560 : :Chapter 12 [/spoiler] [/color][/b][/center]

Tron.Legacy.2010.720p.BluRay.x264-FOXM

Language: | Size: 1.01 GB | Seed: 3 | Leech: 4

Description:

[center] [size=100][img]http://foxm.to/images/1481208200filmimage.jpg[/img] [/size] Storyline Sam Flynn, the tech-savvy 27-year-old son of Kevin Flynn, looks into his father's disappearance and finds himself pulled into the same world of fierce programs and gladiatorial games where his father has been living for 20 years. Along with Kevin's loyal confidant Quorra, father and son embark on a life-and-death journey across a visually-stunning cyber universe that has become far more advanced and exceedingly dangerous. Meanwhile, the malevolent program CLU, who dominates the digital world, plans to invade the real world and will stop at nothing to prevent their escape. General Size : 1.74 GB Running Time: 2h 5min Genre: Action | Adventure | Sci-Fi Director: Joseph Kosinski Language: English Release Date: 17 December 2010 (USA) http://www.imdb.com/title/tt1104001/ Video======= Video Format......: AAC Video Codec.......: x264 Frame Rate........: 23.000 fps Width.............: 1 280 pixels Height............:  544 Audio======= Format..........: AAC Bitrate.........: 224 Kbps Channels........: 6 channels screenshot [img]http://foxm.to/images/1481208200image3.jpg[/img] [img]http://foxm.to/images/1481208200image2.jpg[/img] [/center]
  1 2 3 4 5 ... 439 440 441 442 443  »
  Movie/Films     Animation/Cartoons     TV Shows/Series     Music     Games     Applications     Books     Other  

   How works MfT    Rules    Suggest idea    Request torrent    Privacy Policy    DMCA    Contacts    MfT Status    Friends sites    Is this site safe?   

mkv, HD-Rip , BD-Rip , Blu-Ray , HD Film , hd film , hd films , scarica film gratis , hd torrents , hd torrent , hdtorrents, hdrip , bdrip , Bluray ,

Blu-Ray player, scarica film , scarica torrent , torrent film , film ita, bluray, mux, 1080p, 720p, hdtorrents, torrent ita, torrents ita, HD film ita, HD ita, Blu-Ray ita