Search Top Tags














Ma Ma -Tutto andra bene (2015).H264.Italian.Spanish.Ac3.5.1.sub.ita.eng.iCV-MIRCrew

Language: | Size: 1.71 GB | Seed: 1 | Leech: 6

Description:

Ma Ma Tutto andra bene (2015).H264.Italian.Spanish.Ac3.5.1.sub.ita.eng.iCV-MIRCrew [center] [color=red][b][img]http://s23.postimg.org/b9yhws27f/0sc_Del1.png[/img] [u]NO FOUND ONLY ORIGINAL RELEASE[/u] [img]http://i.imgur.com/GDNQx1Z.png[/img] My release is always in double track audio italian and Original audio for select it use VLC or dvd player home not use wmp ENGLISH SUBTITLE INSIDE Ma Ma - Tutto andra bene (2015) [img]https://extraimage.net/images/2017/03/07/6594da4f3a5f44c31a60d21ddb9e21ec.png[/img] [URL=http://www.imdb.com/title/tt3480886/][IMG]http://www.userlogos.org/files/logos/Sucka/imdb_new.png[/IMG][/URL] [img]http://i.imgur.com/fGu1rKv.png[/img] GENERE: Drammatico ANNO: 2015 REGIA: Julio Medem SCENEGGIATURA: Julio Medem FOTOGRAFIA: Kiko de la Rica MONTAGGIO: Iván Aledo, Julio Medem, Yago Muñiz MUSICHE: Eduardo Cruz, Alberto Iglesias PRODUZIONE: Backup Media, Ma Ma Películas AIE, Mare Nostrum Productions DISTRIBUZIONE: I Wonder Pictures PAESE: Spagna, Francia DURATA: 111 Min [img]http://i.imgur.com/W7kBqiE.png[/img] Penélope Cruz, Silvia Abascal, Luis Tosar, Alex Brendemühl, Asier Etxeandia, Elena Carranza [img]http://i.imgur.com/bFK3ggF.png[/img] Magda è un'insegnante che ha da poco perso il lavoro e a cui viene diagnosticato per ben due volte un cancro al seno. La prima volta il cancro è curabile, la seconda il verdetto non lascia scampo: il cancro è tornato e non è più curabile. La vicenda si svolge nella crisi economica e nell'anno in cui la Spagna è Campione d'Europa.............. [img]http://i.imgur.com/48xHWWH.png[/img] In the aftermath of a tragedy a woman, Magda, reacts with a surge of newfound life that engulfs her circle of family and friends. [img]http://i.imgur.com/K8bfNTy.png[/img] [url=https://extraimage.net/image/2pBA][img]https://extraimage.net/images/2017/03/07/9bfd0b8589412114c300cb84769a47b6.th.png[/img][/url] [url=https://extraimage.net/image/2pBW][img]https://extraimage.net/images/2017/03/07/2359793a16d2c7bfb2db74263d0f80ef.th.png[/img][/url] [url=https://extraimage.net/image/2pBf][img]https://extraimage.net/images/2017/03/07/3e08680211797a106911cbbb980c3173.th.png[/img][/url] [url=https://postimage.org/index.php?lang=italian]upload immagini gratis[/url] [img]http://i.imgur.com/aVrMohH.png[/img] [spoiler] General Unique ID : 133032078768605469700229378432785363384 (0x64150BE14B19B3345F6E5F73B2DEB1B8) Complete name : Ma Ma Tutto andra bene (2015).H264.ita.spa.sub.ita.eng.iCV-MIRCrew.mkv Format : Matroska Format version : Version 2 File size : 1.71 GiB Duration : 1h 51mn Overall bit rate : 2 191 Kbps Movie name : VISIT www.icv-crew.org Encoded date : UTC 2017-03-06 09:09:26 Writing application : Lavf54.63.100 Writing library : Lavf54.63.100 COPYRIGHT : robbyrs Video ID : 1 Format : AVC Format/Info : Advanced Video Codec Format profile : [email protected] Format settings, CABAC : Yes Format settings, ReFrames : 2 frames Codec ID : V_MPEG4/ISO/AVC Duration : 1h 51mn Bit rate : 1 290 Kbps Width : 720 pixels Height : 304 pixels Display aspect ratio : 2.35:1 Original display aspect ratio : 2.35:1 Frame rate mode : Variable Frame rate : 23.976 fps Color space : YUV Chroma subsampling : 4:2:0 Bit depth : 8 bits Scan type : Progressive Bits/(Pixel*Frame) : 0.246 Stream size : 1 000 MiB (57%) Writing library : x264 core 130 r2273 Encoding settings : cabac=1 / ref=2 / deblock=1:0:0 / analyse=0x1:0x131 / me=hex / subme=7 / psy=1 / psy_rd=1.00:0.00 / mixed_ref=0 / me_range=16 / chroma_me=1 / trellis=1 / 8x8dct=0 / cqm=0 / deadzone=21,11 / fast_pskip=1 / chroma_qp_offset=-2 / threads=12 / lookahead_threads=2 / sliced_threads=0 / nr=0 / decimate=1 / interlaced=0 / bluray_compat=0 / constrained_intra=0 / bframes=3 / b_pyramid=0 / b_adapt=1 / b_bias=0 / direct=3 / weightb=1 / open_gop=0 / weightp=2 / keyint=230 / keyint_min=23 / scenecut=40 / intra_refresh=0 / rc_lookahead=40 / rc=2pass / mbtree=1 / bitrate=1290 / ratetol=1.0 / qcomp=0.60 / qpmin=10 / qpmax=69 / qpstep=4 / cplxblur=20.0 / qblur=0.5 / vbv_maxrate=24000 / vbv_bufsize=24000 / nal_hrd=none / ip_ratio=1.40 / aq=1:1.00 Default : Yes Forced : No DURATION : 01:51:38.912000000 NUMBER_OF_FRAMES : 160613 NUMBER_OF_BYTES : 7266748369 _STATISTICS_WRITING_APP : mkvmerge v8.7.0 ('All of the above') 64bit _STATISTICS_WRITING_DATE_UTC : 2017-02-19 10:24:12 _STATISTICS_TAGS : BPS DURATION NUMBER_OF_FRAMES NUMBER_OF_BYTES Audio #1 ID : 2 Format : AC-3 Format/Info : Audio Coding 3 Mode extension : CM (complete main) Codec ID : A_AC3 Duration : 1h 51mn Bit rate mode : Constant Bit rate : 448 Kbps Channel(s) : 6 channels Channel positions : Front: L C R, Side: L R, LFE Sampling rate : 48.0 KHz Bit depth : 16 bits Compression mode : Lossy Delay relative to video : 1mn 5s Stream size : 358 MiB (20%) Title : AC3 ITA Language : Italian Default : Yes Forced : No DURATION : 01:51:39.072000000 NUMBER_OF_FRAMES : 209346 NUMBER_OF_BYTES : 375148032 _STATISTICS_WRITING_APP : mkvmerge v8.7.0 ('All of the above') 64bit _STATISTICS_WRITING_DATE_UTC : 2017-02-19 10:24:12 _STATISTICS_TAGS : BPS DURATION NUMBER_OF_FRAMES NUMBER_OF_BYTES Audio #2 ID : 3 Format : AC-3 Format/Info : Audio Coding 3 Mode extension : CM (complete main) Codec ID : A_AC3 Duration : 1h 51mn Bit rate mode : Constant Bit rate : 448 Kbps Channel(s) : 6 channels Channel positions : Front: L C R, Side: L R, LFE Sampling rate : 48.0 KHz Bit depth : 16 bits Compression mode : Lossy Delay relative to video : 1mn 5s Stream size : 358 MiB (20%) Title : AC3 SPA Language : Spanish Default : No Forced : No DURATION : 01:51:39.040000000 NUMBER_OF_FRAMES : 209345 NUMBER_OF_BYTES : 535923200 _STATISTICS_WRITING_APP : mkvmerge v8.7.0 ('All of the above') 64bit _STATISTICS_WRITING_DATE_UTC : 2017-02-19 10:24:12 _STATISTICS_TAGS : BPS DURATION NUMBER_OF_FRAMES NUMBER_OF_BYTES Text #1 ID : 4 Format : UTF-8 Codec ID : S_TEXT/UTF8 Codec ID/Info : UTF-8 Plain Text Title : FORCED Language : Italian Default : Yes Forced : No DURATION : 01:40:42.463000000 NUMBER_OF_FRAMES : 4 NUMBER_OF_BYTES : 66 _STATISTICS_WRITING_APP : mkvmerge v8.7.0 ('All of the above') 64bit _STATISTICS_WRITING_DATE_UTC : 2017-02-19 10:24:12 _STATISTICS_TAGS : BPS DURATION NUMBER_OF_FRAMES NUMBER_OF_BYTES Text #2 ID : 5 Format : UTF-8 Codec ID : S_TEXT/UTF8 Codec ID/Info : UTF-8 Plain Text Title : REGULAR Language : English Default : No Forced : No DURATION : 01:48:10.275000000 NUMBER_OF_FRAMES : 1107 NUMBER_OF_BYTES : 34980 _STATISTICS_WRITING_APP : mkvmerge v8.7.0 ('All of the above') 64bit _STATISTICS_WRITING_DATE_UTC : 2017-02-19 10:24:12 _STATISTICS_TAGS : BPS DURATION NUMBER_OF_FRAMES NUMBER_OF_BYTES Menu 00:00:00.000 : :00:00:00.000 00:07:05.342 : :00:07:05.342 00:14:28.201 : :00:14:28.201 00:20:13.838 : :00:20:13.838 00:29:27.099 : :00:29:27.099 00:39:02.590 : :00:39:02.590 00:50:56.804 : :00:50:56.804 00:59:52.756 : :00:59:52.756 01:08:53.129 : :01:08:53.129 01:16:19.950 : :01:16:19.950 01:25:27.706 : :01:25:27.706 01:35:23.259 : :01:35:23.259 01:47:10.200 : :01:47:10:200 [/spoiler] [/color][/b][/center]

The Taking of Tiger Mountain - Tiger Mountain (2014).H264.Italian.Chn.Ac3.5.1.iCV-MIRCrew

Language: | Size: 2.17 GB | Seed: 1 | Leech: 17

Description:

The Taking of Tiger Mountain - Tiger Mountain (2014).H264.Italian.Chn.Ac3.5.1.sub.ita.NUita.eng.iCV-MIRCrew [center] [color=red][b][img]http://s23.postimg.org/b9yhws27f/0sc_Del1.png[/img] [u]NO FOUND ONLY ORIGINAL RELEASE[/u] [img]http://i.imgur.com/GDNQx1Z.png[/img] My release is always in double track audio italian and Original audio for select it use VLC or dvd player home not use wmp ENGLISH SUBTITLE INSIDE Tiger Mountain - The Taking of Tiger Mountain (2014) [url=https://postimg.org/image/mc81n8dln/][img]https://s9.postimg.org/yqutnk53z/image.png[/img][/url] [URL=http://www.imdb.com/title/tt3950078/][IMG]http://www.userlogos.org/files/logos/Sucka/imdb_new.png[/IMG][/URL] [img]http://i.imgur.com/fGu1rKv.png[/img] Genere: Avventura Durata: 141 minuti Regista: Tsui Hark Genere: Avventura , azione Uscita ORIG: 24 dicembre 2014 [img]http://i.imgur.com/W7kBqiE.png[/img] Zhang Hanyu, Kenny Lindsay [img]http://i.imgur.com/bFK3ggF.png[/img] Una piccola squadra di soldati selezionati compie una spedizione sulle montagne innevate, alla ricerca di un pericoloso gruppo di banditi. [img]http://i.imgur.com/48xHWWH.png[/img] A story focusing on a conflict between a People's Liberation Army squad and a bandit gang in north-east China during the Chinese revolution. . [img]http://i.imgur.com/K8bfNTy.png[/img] [url=https://postimg.org/image/jqxvlyyu3/][img]https://s9.postimg.org/45gk20mvz/vlcsnap_2017_03_07_15h25m26s308.png[/img][/url] [url=https://postimg.org/image/v4kex69cr/][img]https://s9.postimg.org/z0xqt5ucf/vlcsnap_2017_03_07_15h25m58s141.png[/img][/url] [url=https://postimg.org/image/ei2uo3gez/][img]https://s9.postimg.org/w84j94tzz/vlcsnap_2017_03_07_15h26m22s468.png[/img][/url] [url=https://postimage.org/index.php?lang=italian]upload immagini gratis[/url] [img]http://i.imgur.com/aVrMohH.png[/img] [spoiler] General Unique ID : 58629828270020689334488883208056131483 (0x2C1BB1B66EC2885C943B6A46D5EECF9B) Complete name : Tiger Mountain (2014).H264.ita.chn.sub.ita.NUita.eng.iCV-MIRCrew.mkv Format : Matroska Format version : Version 2 File size : 2.17 GiB Duration : 2h 23mn Overall bit rate : 2 176 Kbps Movie name : VISIT www.icv-crew.org Encoded date : UTC 2017-02-25 19:11:17 Writing application : Lavf54.63.100 Writing library : Lavf54.63.100 COPYRIGHT : robbyrs Video ID : 1 Format : AVC Format/Info : Advanced Video Codec Format profile : [email protected] Format settings, CABAC : Yes Format settings, ReFrames : 2 frames Codec ID : V_MPEG4/ISO/AVC Duration : 2h 23mn Bit rate : 1 280 Kbps Width : 720 pixels Height : 384 pixels Display aspect ratio : 1.854 Original display aspect ratio : 1.853 Frame rate mode : Variable Frame rate : 24.000 fps Color space : YUV Chroma subsampling : 4:2:0 Bit depth : 8 bits Scan type : Progressive Bits/(Pixel*Frame) : 0.193 Stream size : 1.24 GiB (57%) Writing library : x264 core 130 r2273 Encoding settings : cabac=1 / ref=2 / deblock=1:0:0 / analyse=0x1:0x131 / me=hex / subme=7 / psy=1 / psy_rd=1.00:0.00 / mixed_ref=0 / me_range=16 / chroma_me=1 / trellis=1 / 8x8dct=0 / cqm=0 / deadzone=21,11 / fast_pskip=1 / chroma_qp_offset=-2 / threads=12 / lookahead_threads=2 / sliced_threads=0 / nr=0 / decimate=1 / interlaced=0 / bluray_compat=0 / constrained_intra=0 / bframes=3 / b_pyramid=0 / b_adapt=1 / b_bias=0 / direct=3 / weightb=1 / open_gop=0 / weightp=2 / keyint=240 / keyint_min=24 / scenecut=40 / intra_refresh=0 / rc_lookahead=40 / rc=2pass / mbtree=1 / bitrate=1280 / ratetol=1.0 / qcomp=0.60 / qpmin=10 / qpmax=69 / qpstep=4 / cplxblur=20.0 / qblur=0.5 / vbv_maxrate=24000 / vbv_bufsize=24000 / nal_hrd=none / ip_ratio=1.40 / aq=1:1.00 Language : Italian Default : Yes Forced : No DURATION : 02:22:41.209000000 NUMBER_OF_FRAMES : 205469 NUMBER_OF_BYTES : 13278128817 _STATISTICS_WRITING_APP : mkvmerge v8.7.0 ('All of the above') 64bit _STATISTICS_WRITING_DATE_UTC : 2017-01-27 18:45:32 _STATISTICS_TAGS : BPS DURATION NUMBER_OF_FRAMES NUMBER_OF_BYTES Audio #1 ID : 2 Format : AC-3 Format/Info : Audio Coding 3 Mode extension : CM (complete main) Codec ID : A_AC3 Duration : 2h 23mn Bit rate mode : Constant Bit rate : 448 Kbps Channel(s) : 6 channels Channel positions : Front: L C R, Side: L R, LFE Sampling rate : 48.0 KHz Bit depth : 16 bits Compression mode : Lossy Delay relative to video : 1mn 5s Stream size : 459 MiB (21%) Title : AC3 ITA Language : Italian Default : Yes Forced : No DURATION : 02:23:05.088000000 NUMBER_OF_FRAMES : 268284 NUMBER_OF_BYTES : 480764928 _STATISTICS_WRITING_APP : mkvmerge v8.7.0 ('All of the above') 64bit _STATISTICS_WRITING_DATE_UTC : 2017-01-27 18:45:32 _STATISTICS_TAGS : BPS DURATION NUMBER_OF_FRAMES NUMBER_OF_BYTES Audio #2 ID : 3 Format : AC-3 Format/Info : Audio Coding 3 Mode extension : CM (complete main) Codec ID : A_AC3 Duration : 2h 23mn Bit rate mode : Constant Bit rate : 448 Kbps Channel(s) : 6 channels Channel positions : Front: L C R, Side: L R, LFE Sampling rate : 48.0 KHz Bit depth : 16 bits Compression mode : Lossy Delay relative to video : 1mn 5s Stream size : 459 MiB (21%) Title : AC3 CHI Language : Chinese Default : No Forced : No DURATION : 02:22:41.280000000 NUMBER_OF_FRAMES : 267540 NUMBER_OF_BYTES : 684902400 _STATISTICS_WRITING_APP : mkvmerge v8.7.0 ('All of the above') 64bit _STATISTICS_WRITING_DATE_UTC : 2017-01-27 18:45:32 _STATISTICS_TAGS : BPS DURATION NUMBER_OF_FRAMES NUMBER_OF_BYTES Text #1 ID : 4 Format : UTF-8 Codec ID : S_TEXT/UTF8 Codec ID/Info : UTF-8 Plain Text Title : FORCED Language : Italian Default : Yes Forced : No DURATION : 02:13:59.482000000 NUMBER_OF_FRAMES : 8 NUMBER_OF_BYTES : 286 _STATISTICS_WRITING_APP : mkvmerge v8.7.0 ('All of the above') 64bit _STATISTICS_WRITING_DATE_UTC : 2017-01-27 18:45:32 _STATISTICS_TAGS : BPS DURATION NUMBER_OF_FRAMES NUMBER_OF_BYTES Text #2 ID : 5 Format : UTF-8 Codec ID : S_TEXT/UTF8 Codec ID/Info : UTF-8 Plain Text Title : NON UDENTI Language : Italian Default : No Forced : No DURATION : 02:13:40.750000000 NUMBER_OF_FRAMES : 1514 NUMBER_OF_BYTES : 60281 _STATISTICS_WRITING_APP : mkvmerge v8.7.0 ('All of the above') 64bit _STATISTICS_WRITING_DATE_UTC : 2017-01-27 18:45:32 _STATISTICS_TAGS : BPS DURATION NUMBER_OF_FRAMES NUMBER_OF_BYTES Text #3 ID : 6 Format : UTF-8 Codec ID : S_TEXT/UTF8 Codec ID/Info : UTF-8 Plain Text Title : REGULAR Language : Italian Default : No Forced : No DURATION : 02:13:09.085000000 NUMBER_OF_FRAMES : 921 NUMBER_OF_BYTES : 44004 _STATISTICS_WRITING_APP : mkvmerge v8.7.0 ('All of the above') 64bit _STATISTICS_WRITING_DATE_UTC : 2017-01-27 18:45:32 _STATISTICS_TAGS : BPS DURATION NUMBER_OF_FRAMES NUMBER_OF_BYTES Text #4 ID : 7 Format : UTF-8 Codec ID : S_TEXT/UTF8 Codec ID/Info : UTF-8 Plain Text Title : REGULAR Language : English Default : No Forced : No DURATION : 02:13:59.084000000 NUMBER_OF_FRAMES : 1673 NUMBER_OF_BYTES : 37414 _STATISTICS_WRITING_APP : mkvmerge v8.7.0 ('All of the above') 64bit _STATISTICS_WRITING_DATE_UTC : 2017-01-27 18:45:32 _STATISTICS_TAGS : BPS DURATION NUMBER_OF_FRAMES NUMBER_OF_BYTES Menu 00:00:00.000 : :00:00:00.000 00:07:05.342 : :00:07:05.342 00:14:28.201 : :00:14:28.201 00:20:13.838 : :00:20:13.838 00:29:27.099 : :00:29:27.099 00:39:02.590 : :00:39:02.590 00:50:56.804 : :00:50:56.804 00:59:52.756 : :00:59:52.756 01:08:53.129 : :01:08:53.129 01:16:19.950 : :01:16:19.950 01:25:27.706 : :01:25:27.706 01:35:23.259 : :01:35:23.259 01:45:16.300 : :01:45:16:300 01:55:01.150 : :01:55:01:150 02:05:00.150 : :02:05:00:150 [/spoiler] [/color][/b][/center]

The Automatic - Not Accepted Anywhere (2006) (by emi)

Language: | Size: 57.31 MB | Seed: 903 | Leech: 50

Description:

mp3 a 192 kbps audio di qualità a 95 db Tracklist 01 - That's What She Said.mp3 (4.6 MB) 02 - Raoul.mp3 (5.5 MB) 03 - You Shout You Shout You Shout You Shout.mp3 (4.3 MB) 04 - Recover.mp3 (4.1 MB) 05 - Monster.mp3 (5.2 MB) 06 - Lost At Home.mp3 (4.9 MB) 07 - Keep Your Eyes Peeled.mp3 (4.3 MB) 08 - Seriously... I Hate You Guys.mp3 (4.9 MB) 09 - On The Campaign Trail.mp3 (4.3 MB) 10 - Team Drama.mp3 (4.5 MB) 11 - By My Side.mp3 (5.3 MB) 12 - Rats.mp3 (5.2 MB)

Cinquanta sbavature di nero [XviD - Ita Ac3]

Language: | Size: 1.16 GB | Seed: 80 | Leech: 9

Description:

Christian Black è un imprenditore di colore arricchitosi col traffico di droga. Hannah Steele una studentessa di letteratura inglese che si guadagna da vivere come commessa in un negozio di ferramenta. Quando un'amica le chiede di sostituirla nell'intervista al giovane manager, i due si incontrano e ne nasce presto un ingaggio sessuo-amoroso che prevede maldestre pratiche di sadismo in un rapporto contrattualizzato tra dominatore e sottomessa. L'idea, sulla carta, poteva risultare vincente. Prendere uno dei casi editoriali e cinematografici di maggior successo degli ultimi anni, portare a caricatura i cliché di un soggetto erotico già parodico di suo, scritturare due interpreti di origine afroamericana a cui affidare la parte dei protagonisti e trarne spunto per aggiungere una sana dose di satira sociale. Il titolo è azzeccato: Fifty Shades of Black, 'Cinquanta sfumature di nero', che in Italia diventa 'sbavature' per non confonderlo col sequel della saga che in originale suona invece Fifty Shades Darker, effetto domino esemplare dei danni prodotti dalla titolatura nostrana. Un'operazione che avrebbe potuto funzionare se la materia grigia, appunto, fosse stata quella dei ZAZ o di altri che, come Jim Abrahams e i fratelli Zucker, hanno fatto la fortuna passata del genere parodistico-demenziale. Diverso il caso in cui la firma è di Mike Tiddes, assistito ancora una volta da Marlon Wayans davanti e oltre la macchina da presa in qualità di sceneggiatore-produttore assieme a Rick Alvarez, gli stessi che ci hanno regalato la doppietta di Ghost Movie, un nome un programma. ----- Titolo Originale: Fifty Shades of Black Nazionalità: Stati Uniti Anno: 2016 Data di uscita: 18 Febbraio 2016 Genere: Commedia Regia: Mike Tiddes Produzione: Rick Alvarez, Marlon Wayans Distribuzione: M2 Pictures Dimensione del file: 1.15 Gb Formato del file: Avi

Fai bei sogni (2016).H264.Italian.Ac3.5.1.sub.ita.iCV-MIRCrew

Language: | Size: 1.6 GB | Seed: 2 | Leech: 29

Description:

Fai bei sogni (2016).H264.Italian.Ac3.5.1.sub.ita.iCV-MIRCrew [center] [color=#00BFFF][b][img]http://s23.postimg.org/b9yhws27f/0sc_Del1.png[/img] [u]NO FOUND ONLY ORIGINAL RELEASE[/u] [img]http://i.imgur.com/GDNQx1Z.png[/img] My release is always in double track audio italian and Original audio for select it use VLC or dvd player home not use wmp Fai bei sogni (2016) [img]https://extraimage.net/images/2017/03/06/b43a5259dd6d14a7e4f16c078954484b.png[/img] [URL=http://www.imdb.com/title/tt4746506/][IMG]http://www.userlogos.org/files/logos/Sucka/imdb_new.png[/IMG][/URL] [img]http://i.imgur.com/fGu1rKv.png[/img] DATA USCITA: 10 novembre 2016 GENERE: Drammatico ANNO: 2016 REGIA: Marco Bellocchio FOTOGRAFIA: Daniele Ciprì MONTAGGIO: Francesca Calvelli MUSICHE: Carlo Crivelli PRODUZIONE: IBC Movie, Kavac Film, Rai Cinema DISTRIBUZIONE: 01 Distribution PAESE: Italia, Francia DURATA: 134 Min [img]http://i.imgur.com/W7kBqiE.png[/img] Valerio Mastandrea, Bérénice Bejo, Fabrizio Gifuni, Guido Caprino, Barbara Ronchi, Miriam Leone, Nicolò Cabras, Dario Dal Pero , Arianna Scommegna, Bruno Torrisi, Manuela Mandracchia, Giulio Brogi, Emmanuelle Devos, Roberto Di Francesco, Fausto Russo Alesi, Pier Giorgio Bellocchio, Piera Degli Esposti, Roberto Herlitzka [img]http://i.imgur.com/bFK3ggF.png[/img] E' la storia di una difficile ricerca della verità e allo stesso tempo la paura di scoprirla. La mattina del 31 dicembre 1969, Massimo, nove anni appena, trova suo padre nel corridoio sorretto da due uomini: sua madre è morta............... [img]http://i.imgur.com/48xHWWH.png[/img] Massimo's idyllic childhood is shattered by the death of his mother. Years later, he is forced to relive his traumatic past and compassionate doctor Elisa could help him open up and confront his childhood wounds. [img]http://i.imgur.com/K8bfNTy.png[/img] [url=https://extraimage.net/image/2pcG][img]https://extraimage.net/images/2017/03/06/540cb251052150e869c19da6682e5621.th.png[/img][/url] [url=https://extraimage.net/image/2pcr][img]https://extraimage.net/images/2017/03/06/81c41c6b4e0eddba36197ab11e076fcc.th.png[/img][/url] [url=https://extraimage.net/image/2pcP][img]https://extraimage.net/images/2017/03/06/baf7ae447e60b3656b58cc62a8c3530d.th.png[/img][/url] [img]http://i.imgur.com/aVrMohH.png[/img] [spoiler] General Unique ID : 183908308353898936170162921775777997969 (0x8A5B73A9B10938010A570688B6D46491) Complete name : Fai bei sogni (2016).H264.ita.sub.ita.iCV-MIRCrew.mkv Format : Matroska Format version : Version 2 File size : 1.60 GiB Duration : 2h 11mn Overall bit rate : 1 741 Kbps Movie name : VISIT www.icv-crew.org Encoded date : UTC 2017-03-04 10:53:56 Writing application : Lavf54.63.100 Writing library : Lavf54.63.100 COPYRIGHT : robbyrs Video ID : 1 Format : AVC Format/Info : Advanced Video Codec Format profile : [email protected] Format settings, CABAC : Yes Format settings, ReFrames : 2 frames Codec ID : V_MPEG4/ISO/AVC Duration : 2h 11mn Bit rate : 1 290 Kbps Width : 720 pixels Height : 300 pixels Display aspect ratio : 2.40:1 Frame rate mode : Variable Frame rate : 23.976 fps Color space : YUV Chroma subsampling : 4:2:0 Bit depth : 8 bits Scan type : Progressive Bits/(Pixel*Frame) : 0.249 Stream size : 1.15 GiB (72%) Writing library : x264 core 130 r2273 Encoding settings : cabac=1 / ref=2 / deblock=1:0:0 / analyse=0x1:0x131 / me=hex / subme=7 / psy=1 / psy_rd=1.00:0.00 / mixed_ref=0 / me_range=16 / chroma_me=1 / trellis=1 / 8x8dct=0 / cqm=0 / deadzone=21,11 / fast_pskip=1 / chroma_qp_offset=-2 / threads=12 / lookahead_threads=2 / sliced_threads=0 / nr=0 / decimate=1 / interlaced=0 / bluray_compat=0 / constrained_intra=0 / bframes=3 / b_pyramid=0 / b_adapt=1 / b_bias=0 / direct=3 / weightb=1 / open_gop=0 / weightp=2 / keyint=230 / keyint_min=23 / scenecut=40 / intra_refresh=0 / rc_lookahead=40 / rc=2pass / mbtree=1 / bitrate=1290 / ratetol=1.0 / qcomp=0.60 / qpmin=10 / qpmax=69 / qpstep=4 / cplxblur=20.0 / qblur=0.5 / vbv_maxrate=24000 / vbv_bufsize=24000 / nal_hrd=none / ip_ratio=1.40 / aq=1:1.00 Language : Italian Default : Yes Forced : No DURATION : 02:11:19.872000000 NUMBER_OF_FRAMES : 188928 NUMBER_OF_BYTES : 7617339727 _STATISTICS_WRITING_APP : mkvmerge v8.7.0 ('All of the above') 64bit _STATISTICS_WRITING_DATE_UTC : 2017-02-24 07:44:07 _STATISTICS_TAGS : BPS DURATION NUMBER_OF_FRAMES NUMBER_OF_BYTES Audio ID : 2 Format : AC-3 Format/Info : Audio Coding 3 Mode extension : CM (complete main) Codec ID : A_AC3 Duration : 2h 11mn Bit rate mode : Constant Bit rate : 448 Kbps Channel(s) : 2 channels Channel positions : Front: L R Sampling rate : 48.0 KHz Bit depth : 16 bits Compression mode : Lossy Delay relative to video : 1mn 5s Stream size : 421 MiB (26%) Title : AC3 ITA Language : Italian Default : No Forced : No DURATION : 02:11:19.904000000 NUMBER_OF_FRAMES : 246247 NUMBER_OF_BYTES : 630392320 _STATISTICS_WRITING_APP : mkvmerge v8.7.0 ('All of the above') 64bit _STATISTICS_WRITING_DATE_UTC : 2017-02-24 07:44:07 _STATISTICS_TAGS : BPS DURATION NUMBER_OF_FRAMES NUMBER_OF_BYTES Text ID : 3 Format : ASS Codec ID : S_TEXT/ASS Codec ID/Info : Advanced Sub Station Alpha Compression mode : Lossless Title : REGULAR Language : Italian Default : No Forced : No DURATION : 02:02:59.247000000 NUMBER_OF_FRAMES : 1063 NUMBER_OF_BYTES : 35805 _STATISTICS_WRITING_APP : mkvmerge v8.7.0 ('All of the above') 64bit _STATISTICS_WRITING_DATE_UTC : 2017-02-24 07:44:07 _STATISTICS_TAGS : BPS DURATION NUMBER_OF_FRAMES NUMBER_OF_BYTES Menu 00:00:00.000 : :00:00:00.000 00:07:05.342 : :00:07:05.342 00:14:28.201 : :00:14:28.201 00:20:13.838 : :00:20:13.838 00:29:27.099 : :00:29:27.099 00:39:02.590 : :00:39:02.590 00:50:56.804 : :00:50:56.804 00:59:52.756 : :00:59:52.756 01:08:53.129 : :01:08:53.129 01:16:19.950 : :01:16:19.950 01:25:27.706 : :01:25:27.706 01:35:23.259 : :01:35:23.259 01:45:16.300 : :01:45:16:300 01:55:01.150 : :01:55:01:150 02:05:00.150 : :02:05:00:150 [/spoiler] [/color][/b][/center]

Land Of Mine - Sotto la sabbia - Under sandet (2015).H264.Italian.Ger.Ac3.5.1iCV-MIRCrew

Language: | Size: 1.55 GB | Seed: 1 | Leech: 50

Description:

Land Of Mine - Sotto la sabbia - Under sandet (2015).H264.Italian.Ger.Ac3.5.1.sub.ita.eng.iCV-MIRCrew [center] [color=red][b][img]http://s23.postimg.org/b9yhws27f/0sc_Del1.png[/img] [u]NO FOUND ONLY ORIGINAL RELEASE[/u] [img]http://i.imgur.com/GDNQx1Z.png[/img] My release is always in double track audio italian and Original audio for select it use VLC or dvd player home not use wmp ENGLISH SUBTITLE INSIDE Land Of Mine - Sotto la sabbia (2015) [img]https://extraimage.net/images/2017/03/06/ccaedb368f192640341f1e0f3482c384.png[/img] [URL=http://www.imdb.com/title/tt3841424/][IMG]http://www.userlogos.org/files/logos/Sucka/imdb_new.png[/IMG][/URL] [img]http://i.imgur.com/fGu1rKv.png[/img] Riconoscimenti 2015 - Tokyo International Film Festival Miglior attore a Roland Møller e Louis Hofmann (ex eaquo) 2016 - Premio Bodil Miglior film Miglior attore a Roland Møller Miglior attore non protagonista a Louis Hofmann 2016 - Göteborg Film Festival Dragon Award per il miglior film nordico Scandinavian Locations Award 2016 - National Board of Review Awards Migliori cinque film stranieri 2017 - Premio Oscar Candidatura per il Miglior film straniero Louis Hofmann e Roland Møller in una scena del film Titolo originale Under Sandet Lingua originale danese, tedesco Paese di produzione Danimarca, Germania Anno 2015 Durata 100 min Genere drammatico Regia Martin Zandvliet Sceneggiatura Martin Zandvliet Produttore Malte Grunert, Mikael Chr. Rieks Casa di produzione Nordisk Film, Amusement Park Films Distribuzione (Italia) Notorious Pictures Fotografia Camilla Hjelm Knudsen Montaggio Per Sandholt, Molly Malene Stensgaard Musiche Sune Martin [img]http://i.imgur.com/W7kBqiE.png[/img] Roland Møller: Sergente Rasmussen Mikkel Følsgaard: Tenente Ebbe Laura Bro: Karin Louis Hofmann: Sebastian Schumann Joel Basman: Helmut Morbach Oskar Bökelmann: Ludwig Haffke Emil Buschow: Werner Lessner Leon Seidel: Wilhelm Hahn Karl Alexander Seider: Manfred Maximilian Beck: August Kluger August Carter: Rodolf Selke Tim Bulow: Hermann Marklein Alexander Rasch: Friedrich Schnurr Julius Kochinke: Johann Wolff [img]http://i.imgur.com/bFK3ggF.png[/img] Nei giorni successivi la resa della Germania nel maggio 1945, un gruppo di giovani prigionieri di guerra tedeschi viene inviato dalle autorità danesi lungo i confini della Danimarca con l'ordine di rimuovere più di due milioni di mine che i tedeschi avevano sotterrato nella sabbia lungo la costa. Con le loro mani nude i ragazzi sono costretti a svolgere questo pericoloso compito sotto la guida del sergente danese Carl Leopold Rasmussen [img]http://i.imgur.com/48xHWWH.png[/img] In post-World War II Denmark, a group of young German POWs is forced to clear a beach of thousands of land mines under the watch of a Danish Sergeant who slowly learns to appreciate their plight. . [img]http://i.imgur.com/K8bfNTy.png[/img] [url=https://extraimage.net/image/2p7u][img]https://extraimage.net/images/2017/03/06/08b213f544fe685a42e96a70ec8fbb35.th.png[/img][/url] [url=https://extraimage.net/image/2p7V][img]https://extraimage.net/images/2017/03/06/fc56cc68c3c9bb570f57536c66304ce6.th.png[/img][/url] [url=https://extraimage.net/image/2p7v][img]https://extraimage.net/images/2017/03/06/8d4e2167457cda2d09b0ae09762fbd59.th.png[/img][/url] [img]http://i.imgur.com/aVrMohH.png[/img] [spoiler] General Unique ID : 217728252653974593420566408410199476100 (0xA3CCEFA7B15F13E6946946975E6BC784) Complete name : Land Of Mine - Sotto la sabbia (2015).H264.Ita.Ger.sub.ita.eng.iCV-MIRCrew.mkv Format : Matroska Format version : Version 2 File size : 1.55 GiB Duration : 1h 41mn Overall bit rate : 2 191 Kbps Movie name : VISIT www.icv-crew.org Encoded date : UTC 2017-03-04 16:15:37 Writing application : Lavf54.63.100 Writing library : Lavf54.63.100 COPYRIGHT : robbyrs Video ID : 1 Format : AVC Format/Info : Advanced Video Codec Format profile : [email protected] Format settings, CABAC : Yes Format settings, ReFrames : 2 frames Codec ID : V_MPEG4/ISO/AVC Duration : 1h 41mn Bit rate : 1 290 Kbps Width : 716 pixels Height : 300 pixels Display aspect ratio : 2.40:1 Frame rate mode : Variable Frame rate : 24.000 fps Color space : YUV Chroma subsampling : 4:2:0 Bit depth : 8 bits Scan type : Progressive Bits/(Pixel*Frame) : 0.250 Stream size : 908 MiB (57%) Writing library : x264 core 130 r2273 Encoding settings : cabac=1 / ref=2 / deblock=1:0:0 / analyse=0x1:0x131 / me=hex / subme=7 / psy=1 / psy_rd=1.00:0.00 / mixed_ref=0 / me_range=16 / chroma_me=1 / trellis=1 / 8x8dct=0 / cqm=0 / deadzone=21,11 / fast_pskip=1 / chroma_qp_offset=-2 / threads=12 / lookahead_threads=2 / sliced_threads=0 / nr=0 / decimate=1 / interlaced=0 / bluray_compat=0 / constrained_intra=0 / bframes=3 / b_pyramid=0 / b_adapt=1 / b_bias=0 / direct=3 / weightb=1 / open_gop=0 / weightp=2 / keyint=240 / keyint_min=24 / scenecut=40 / intra_refresh=0 / rc_lookahead=40 / rc=2pass / mbtree=1 / bitrate=1290 / ratetol=1.0 / qcomp=0.60 / qpmin=10 / qpmax=69 / qpstep=4 / cplxblur=20.0 / qblur=0.5 / vbv_maxrate=24000 / vbv_bufsize=24000 / nal_hrd=none / ip_ratio=1.40 / aq=1:1.00 Language : Italian Default : Yes Forced : Yes DURATION : 01:41:22.875000000 NUMBER_OF_FRAMES : 145989 NUMBER_OF_BYTES : 4979941038 _STATISTICS_WRITING_APP : mkvmerge v9.2.0 ('Photograph') 64bit _STATISTICS_WRITING_DATE_UTC : 2016-07-08 07:59:13 _STATISTICS_TAGS : BPS DURATION NUMBER_OF_FRAMES NUMBER_OF_BYTES Audio #1 ID : 2 Format : AC-3 Format/Info : Audio Coding 3 Mode extension : CM (complete main) Codec ID : A_AC3 Duration : 1h 41mn Bit rate mode : Constant Bit rate : 448 Kbps Channel(s) : 6 channels Channel positions : Front: L C R, Side: L R, LFE Sampling rate : 48.0 KHz Bit depth : 16 bits Compression mode : Lossy Delay relative to video : 1mn 5s Stream size : 325 MiB (20%) Language : Italian Default : Yes Forced : Yes DURATION : 01:41:22.902000000 NUMBER_OF_FRAMES : 570272 NUMBER_OF_BYTES : 1147387264 _STATISTICS_WRITING_APP : mkvmerge v9.2.0 ('Photograph') 64bit _STATISTICS_WRITING_DATE_UTC : 2016-07-08 07:59:13 _STATISTICS_TAGS : BPS DURATION NUMBER_OF_FRAMES NUMBER_OF_BYTES Audio #2 ID : 3 Format : AC-3 Format/Info : Audio Coding 3 Mode extension : CM (complete main) Codec ID : A_AC3 Duration : 1h 41mn Bit rate mode : Constant Bit rate : 448 Kbps Channel(s) : 6 channels Channel positions : Front: L C R, Side: L R, LFE Sampling rate : 48.0 KHz Bit depth : 16 bits Compression mode : Lossy Delay relative to video : 1mn 5s Stream size : 325 MiB (20%) Language : German Default : No Forced : No DURATION : 01:41:22.912000000 NUMBER_OF_FRAMES : 190091 NUMBER_OF_BYTES : 486632960 _STATISTICS_WRITING_APP : mkvmerge v9.2.0 ('Photograph') 64bit _STATISTICS_WRITING_DATE_UTC : 2016-07-08 07:59:13 _STATISTICS_TAGS : BPS DURATION NUMBER_OF_FRAMES NUMBER_OF_BYTES Text #1 ID : 4 Format : UTF-8 Codec ID : S_TEXT/UTF8 Codec ID/Info : UTF-8 Plain Text Title : Italiano SDH Language : Italian Default : No Forced : No DURATION : 01:32:36.334000000 NUMBER_OF_FRAMES : 879 NUMBER_OF_BYTES : 27672 _STATISTICS_WRITING_APP : mkvmerge v9.2.0 ('Photograph') 64bit _STATISTICS_WRITING_DATE_UTC : 2016-07-08 07:59:13 _STATISTICS_TAGS : BPS DURATION NUMBER_OF_FRAMES NUMBER_OF_BYTES Text #2 ID : 5 Format : UTF-8 Codec ID : S_TEXT/UTF8 Codec ID/Info : UTF-8 Plain Text Title : Italiano forced (VUOTO) Language : Italian Default : Yes Forced : No DURATION : 00:00:01.000000000 NUMBER_OF_FRAMES : 1 NUMBER_OF_BYTES : 0 _STATISTICS_WRITING_APP : mkvmerge v9.2.0 ('Photograph') 64bit _STATISTICS_WRITING_DATE_UTC : 2016-07-08 07:59:13 _STATISTICS_TAGS : BPS DURATION NUMBER_OF_FRAMES NUMBER_OF_BYTES Menu 00:00:00.000 : :Capitolo 01 00:01:38.042 : :Capitolo 02 00:07:02.958 : :Capitolo 03 00:11:25.667 : :Capitolo 04 00:18:15.958 : :Capitolo 05 00:22:58.875 : :Capitolo 06 00:28:15.375 : :Capitolo 07 00:34:04.250 : :Capitolo 08 00:39:08.458 : :Capitolo 09 00:45:48.458 : :Capitolo 10 00:51:09.250 : :Capitolo 11 00:56:47.000 : :Capitolo 12 01:03:13.917 : :Capitolo 13 01:07:33.125 : :Capitolo 14 01:13:37.667 : :Capitolo 15 01:18:17.042 : :Capitolo 16 01:20:26.542 : :Capitolo 17 01:25:22.167 : :Capitolo 18 01:31:34.083 : :Capitolo 19 01:35:51.500 : :Capitolo 20 [/spoiler] [/color][/b][/center]

Mechanic.Resurrection.2016.iTALiAN.AC3.BRRip.XviD-T4P3

Language: | Size: 1.42 GB | Seed: 4 | Leech: 0

Description:

Mechanic: Resurrection Titolo originale: Mechanic: Resurrection Conosciuto anche come: Mechanic 2 Nazione: Francia, U.S.A. Anno: 2016 Genere: Azione, Thriller Durata: 98' Regia: Dennis Gansel Cast: Jason Statham, Jessica Alba, Tommy Lee Jones, Michelle Yeoh, Sam Hazeldine, John Cenatiempo, Toby Eddington, Femi Elufowoju Jr., Anteo Quintavalle, Yayaying Rhatha Phongam, Bonnie Zellerbach Produzione: Chartoff-Winkler Productions, Davis-Films, ME2 Productions Distribuzione: Eagle Pictures Data di uscita: 24 Novembre 2016 (cinema) Trama: Il lavoro di un meccanico non finisce mai. Dopo aver inscenato anni prima la sua morte a seguito di una grande esplosione, Arthur Bishop è convinto di essere finalmente uscito dal mondo dei sicari. L’obiettivo è una vita ritirata e nel pieno anonimato. Ma Bishop non è riuscito a ingannare tutti. Qualcuno sa che lui è ancora vivo, qualcuno di molto vicino a lui. Lo spietato uomo d’affari Crain ha bisogno dell’aiuto di un sicario che possa far apparire le morti delle sue vittime come degli incidenti. Crain è l’unico che ancora conosce i segreti della vecchia vita di Bishop e farà di tutto per tirare fuori “il meccanico” dal suo isolamento e usufruire dei suoi unici servizi. In una situazione normale, Bishop non avrebbe preso inconsiderazione questa possibilità, in quanto le minacce non intaccano di certo la sua decisione. Questo però è un nemico particolare, perché sa quale carta giocare per spingere Bishop ad accettare le sue richieste: la salvezza di una donna misteriosa per cui Bishop prova dei sentimenti. Senza altra via di uscita, Bishop accetta di tornare ancora una volta in quel mondo che aveva così dolorosamente cercato di lasciarsi alle spalle. Questa volta il suo compito prevede l’eliminazione di tre sgradevoli obiettivi, protetti da livelli altissimi di sicurezza, incluso uno dei maggiori trafficanti d’armi del mondo. Bishop dovrà girare il pianeta al fine portare a termine il suo compito per amore di una donna. Se però riuscisse a scoprire come questi tre uomini siano collegati tra loro e perché il suo datore di lavoro li vuole eliminare, potrebbe trovare la leva che gli occorre per rivoltare la situazione a sfavore di questo uomo crudele che per il momento ha in mano le carte migliori. Per la prima volta nella sua professione il meccanico ha una nuova motivazione per completare il suo lavoro. Perché questa volta si tratta di affari molto, molto personali...

Matrix (1999 Ita/Eng) + EXTRA [1080p] [Team mulnic]

Language: | Size: 13.88 GB | Seed: 1 | Leech: 1

Description:

Titolo originale: The Matrix Nazionalità: Stati Uniti d'America, Australia Anno: 1999 Genere: fantascienza, azione Regia: Larry e Andy Wachowski Durata: 136 min Cast: Keanu Reeves: Thomas A. Anderson, noto come "Neo" Laurence Fishburne: Morpheus Carrie-Anne Moss: Trinity Hugo Weaving: agente Smith Joe Pantoliano: Cypher Julian Arahanga: Apoc Tim Cortent: Dozer Marcus Chong: Tank Matt Doran: Mouse Gloria Foster: l'Oracolo Belinda McClory: Switch Paul Goddard: agente Brown Robert Taylor: agente Jones Rex Linn: agente Donner Ada Nicodemou: DuJour Trama: Un hacker di nome Neo, grazie all'aiuto del misterioso Morpheus, scopre che quella per lui è la "realtà" non è altro che un facciata, un mondo virtuale creato dal super computer Matrix per controllare gli esseri umani. Ma Morpheus è convinto che Neo sia il prescelto di cui parla un'antica profezia, e che sarà in grado di guidare la rivoluzione contro Matrix. Report: http://freetexthost.com/1popp5qddg Note: Il Team mulnic è stata una crew fondata da nicola939 e multi che aveva come solo scopo quello di soddisfare le richieste di film fatte dagli utenti. La presente release è alla memoria di multi, mio grande compagno di avventure, a lui va tutta la mia riconoscenza. Extra: In questa versione sono compresi gli extra: 1 - Dentro la storia 1 - Commenti 1 - Introduzione scritta dei fratelli Wachowski 2 - The Matrix revisited 2.2.50 3 - Dietro le quinte 1 - Inizio sequenza 42.58 2 - La realizzazione del film 25.50 3 - La danza del maestro: la coreografia di Yuen Wo Ping 5.48 4 - La lotta nel bagno e la parete bagnata 3.15 5 - Ragazza in rosso 0.46 6 - Wabash e Lake 2.36 7 - Agente a terra 1.32 8 - C'è dell'altro 3.09 4 - Segui il coniglio bianco 1 - Inizio sequenza 23.01 2 - Trinity fugge 1.06 3 - Pod 2.24 4 - Kung fu 3.57 5 - Il muro 2.04 6 - La lotta nel bagno 2.05 7 - L'atrio dell'edificio governativo 4.08 8 - Il tetto dell'edificio governativo 2.35 9 - Elicottero 1.02 10 - Metropolitana 3.35 5 - Prendi la pillola rossa 1 - Inizio sequenza 17.42 2 - Che cos'è bullet time? 6.15 3 - L'idea 11.27 2 - Inserti audio 1 - Rock is dead 3.19 3 - Trailer 1 - Teaser 0.59 2 - Trailer 2.27 3 - Spot TV 1 - Inizio sequenza 3.46 2 - Manson 0.32 3 - Reality 0.32 4 - Forget everything 0.32 5 - Mistery 0.32 6 - Buckle up 0.17 7 - The Answer 0.32 8 - Kung fu 0.32 9 - Whoa 0.17

MasterChef Italia S06e21-22 Versione 720p [SATRip - 720p - H264 - Ita Aac] HDTVRip

Language: | Size: 3.21 GB | Seed: 770 | Leech: 207

Description:

Full Title: MasterChef Italia S06e19-20 Versione 720p [SATRip - 720p - H264 - Ita Aac] HDTVRip Descrizione: .: Scheda della serie :. Anno: 2011-in corso Genere: Talent Show Regia: Umberto Spinazzola Cast: Bruno Barbieri; Carlo Cracco; Joe Bastianich; Antonino Cannavacciuolo .: Descrizione :. Dopo un anno di famelica attesa prende il via la sesta stagione di MasterChef Italia. I fornelli della cucina più famosa della TV stanno per riaccendersi. Inizia la nuova stagione MasterChef con i giudici riconfermati Bruno Barbieri, Joe Bastianich, Antonino Cannavacciuolo e Carlo Cracco.

Emmerson Nogueira - Acustica 3cd [Flac][TntVillage]

Language: | Size: 1.27 GB | Seed: 31 | Leech: 55

Description:

[img]https://extraimage.net/images/2017/03/04/e84dc6054eedee32950ce1b7585591f1.jpg[/img] Artist: Emmerson Nogueira Title Of Album: Acustico [3CD Box] Year: 2001,2002,2003 Genre: Rock Source: CD Quality: FLAC + Cue + M3U8 + Log + Cover [Front] [img]https://extraimage.net/images/2017/03/04/f4e5156dd019acb2fae38a35ee20f7a9.jpg[/img] CD 1 1. Emmerson Nogueira - Smoke On The Water [03:53] 2. Emmerson Nogueira - I Want to Break Free [03:24] 3. Emmerson Nogueira - Dust In The Wind [02:39] 4. Emmerson Nogueira - Tears In Heaven [04:21] 5. Emmerson Nogueira - Every Breath You Take [03:27] 6. Emmerson Nogueira - Horse With No Name [03:48] 7. Emmerson Nogueira - Mrs. Robinson [03:54] 8. Emmerson Nogueira - Have You Ever Seen The Rain [02:40] 9. Emmerson Nogueira - Holding Back The Years [04:12] 10. Emmerson Nogueira - Give a Little Bit [02:58] 11. Emmerson Nogueira - Listen to The Music [03:31] 12. Emmerson Nogueira - Unchain My Heart [03:26] 13. Emmerson Nogueira - Show Me The Way [03:45] 14. Emmerson Nogueira - Hotel California [05:12] 15. Emmerson Nogueira - Wish You Were Here [03:56] 16. Emmerson Nogueira - Emotion [04:12] 17. Emmerson Nogueira - Forever Young [02:55] 18. Emmerson Nogueira - Roxanne [03:24] 19. Emmerson Nogueira - Kayleigh [03:48] 20. Emmerson Nogueira - Owner Of a Lonely Heart [03:59] Playing Time.........: 01:13:31 Total Size...........: 443,74 MB [img]https://extraimage.net/images/2017/03/04/f6bb6deeaedb11876aacbbac9c1f2c6b.jpg[/img] CD 2 1. Emmerson Nogueira - Tom Sawyer [03:23] 2. Emmerson Nogueira - Long Train Runnin' [02:57] 3. Emmerson Nogueira - Blowin' In The Wind [03:50] 4. Emmerson Nogueira - Follow You Follow Me [04:03] 5. Emmerson Nogueira - Crazy [04:29] 6. Emmerson Nogueira - You've Got A Friend [04:58] 7. Emmerson Nogueira - Ventura Highway [03:28] 8. Emmerson Nogueira - All My Love [05:12] 9. Emmerson Nogueira - Mercedes Benz [02:45] 10. Emmerson Nogueira - Every Little Thing She Does Is Magic[03:10] 11. Emmerson Nogueira - Africa [04:27] 12. Emmerson Nogueira - More Than Words [03:53] 13. Emmerson Nogueira - The Boxer [04:33] 14. Emmerson Nogueira - The Logical Song [03:08] 15. Emmerson Nogueira - Ticket To Ride [03:23] 16. Emmerson Nogueira - Wild World [04:15] 17. Emmerson Nogueira - I Don't Wanna Talk About It [04:06] 18. Emmerson Nogueira - Skyline Pigeon [04:04] Playing Time.........: 01:10:12 Total Size...........: 447,12 MB [img]https://extraimage.net/images/2017/03/04/4d5ef143b5e0dbbdc024921183dd177c.jpg[/img] CD 3 1. Emmerson Nogueira - Radio Ga Ga [04:50] 2. Emmerson Nogueira - I Heard It Through the Grapevine [03:21] 3. Emmerson Nogueira - Heaven [04:18] 4. Emmerson Nogueira - I Still Haven't Found What I'm Looking For[04:00] 5. Emmerson Nogueira - It's Raining Again [03:53] 6. Emmerson Nogueira - Diamonds On The Inside [04:48] 7. Emmerson Nogueira - My Sweet Lord [04:34] 8. Emmerson Nogueira - Rosanna [03:40] 9. Emmerson Nogueira - Money [03:13] 10. Emmerson Nogueira - Sailing [04:19] 11. Emmerson Nogueira - Baby I Love Your Way [05:00] 12. Emmerson Nogueira - Happy Man [03:16] 13. Emmerson Nogueira - Against All Odds (Take a Look at Me Now)[03:12] 14. Emmerson Nogueira - Ordinary World [04:07] 15. Emmerson Nogueira - Everybody Wants to Rule the World [04:16] 16. Emmerson Nogueira - Overkill [03:29] Playing Time.........: 01:04:23 Total Size...........: 408,87 MB

Legend (2015).H264.Italian.English.Ac3.5.1.sub.ita.iCV-MIRCrew

Language: | Size: 2.01 GB | Seed: 116 | Leech: 86

Description:

Legend (2015).H264.Italian.English.Ac3.5.1.sub.ita.iCV-MIRCrew [center] [color=red][b][img]http://s23.postimg.org/b9yhws27f/0sc_Del1.png[/img] [u]NO FOUND ONLY ORIGINAL RELEASE[/u] [img]http://i.imgur.com/GDNQx1Z.png[/img] My release is always in double track audio italian and Original audio for select it use VLC or dvd player home not use wmp Legend (2015) [img]https://anonimag.es/i/we1c6b.png[/img] [URL=http://www.imdb.com/title/tt3569230/][IMG]http://www.userlogos.org/files/logos/Sucka/imdb_new.png[/IMG][/URL] [img]http://i.imgur.com/fGu1rKv.png[/img] DATA USCITA: 03 marzo 2016 GENERE: Thriller, Drammatico ANNO: 2015 REGIA: Brian Helgeland SCENEGGIATURA: Brian Helgeland FOTOGRAFIA: Dick Pope MONTAGGIO: Peter McNulty MUSICHE: Carter Burwell PRODUZIONE: Cross Creek Pictures, Working Title Films DISTRIBUZIONE: 01 Distribution PAESE: Gran Bretagna DURATA: 131 Min [img]http://i.imgur.com/W7kBqiE.png[/img] Tom Hardy, Taron Egerton, Emily Browning, Colin Morgan, Christopher Eccleston, David Thewlis, Paul Anderson, Tara Fitzgerald, Chazz Palminteri [img]http://i.imgur.com/bFK3ggF.png[/img] La vera storia dell'ascesa e della caduta dei famigerati gangster londinesi Reggie e Ronnie Kray. Insieme, i gemelli Kray conquistarono la città di Londra. Tuttavia il loro legame e il loro impero vennero minati da violente lotte di potere e da una donna, in un crescendo di follia. LEGEND è un classico noir che racconta la storia segreta degli anni '60 e gli eventi straordinari che hanno favorito l'egemonia criminale dei gemelli Kray. [img]http://i.imgur.com/48xHWWH.png[/img] The true story of London's most notorious gangsters, twins Reggie and Ronnie Kray. As the brothers rise through the criminal underworld, Ronnie advances the family business with violence and intimidation while Reggie struggles to go legitimate for local girl Frances Shea. In and out of prison, Ronnie's unpredictable tendencies and the slow disintegration of Reggie's marriage threaten to bring the brothers' empire tumbling to the ground. [img]http://i.imgur.com/K8bfNTy.png[/img] [url=https://pixhost.org/show/50/37994145_vlcsnap-2017-03-05-09h17m57s324.png][img]https://t9.pixhost.org/thumbs/50/37994145_vlcsnap-2017-03-05-09h17m57s324.png[/img][/url] [url=https://pixhost.org/show/50/37994146_vlcsnap-2017-03-05-09h18m10s653.png][img]https://t9.pixhost.org/thumbs/50/37994146_vlcsnap-2017-03-05-09h18m10s653.png[/img][/url] [url=https://pixhost.org/show/50/37994147_vlcsnap-2017-03-05-09h18m27s659.png][img]https://t9.pixhost.org/thumbs/50/37994147_vlcsnap-2017-03-05-09h18m27s659.png[/img][/url] [img]http://i.imgur.com/aVrMohH.png[/img] [spoiler] General Unique ID : 39410117171727082314040890349932182338 (0x1DA61CCB4FAFCD7162FA6C518D5AFB42) Complete name : Legend (2015).ita.eng.sub.ita.eng.iCV-MIRCrew.mkv Format : Matroska Format version : Version 2 File size : 2.01 GiB Duration : 2h 11mn Overall bit rate : 2 191 Kbps Movie name : VISIT www.icv-crew.org Encoded date : UTC 2016-07-16 12:02:36 Writing application : Lavf54.63.100 Writing library : Lavf54.63.100 COPYRIGHT : robbyrs Video ID : 1 Format : AVC Format/Info : Advanced Video Codec Format profile : [email protected] Format settings, CABAC : Yes Format settings, ReFrames : 2 frames Codec ID : V_MPEG4/ISO/AVC Duration : 2h 11mn Bit rate : 1 290 Kbps Width : 720 pixels Height : 304 pixels Display aspect ratio : 2.40:1 Frame rate mode : Variable Frame rate : 24.000 fps Color space : YUV Chroma subsampling : 4:2:0 Bit depth : 8 bits Scan type : Progressive Bits/(Pixel*Frame) : 0.246 Stream size : 1.15 GiB (57%) Writing library : x264 core 130 r2273 Encoding settings : cabac=1 / ref=2 / deblock=1:0:0 / analyse=0x1:0x131 / me=hex / subme=7 / psy=1 / psy_rd=1.00:0.00 / mixed_ref=0 / me_range=16 / chroma_me=1 / trellis=1 / 8x8dct=0 / cqm=0 / deadzone=21,11 / fast_pskip=1 / chroma_qp_offset=-2 / threads=12 / lookahead_threads=2 / sliced_threads=0 / nr=0 / decimate=1 / interlaced=0 / bluray_compat=0 / constrained_intra=0 / bframes=3 / b_pyramid=0 / b_adapt=1 / b_bias=0 / direct=3 / weightb=1 / open_gop=0 / weightp=2 / keyint=240 / keyint_min=24 / scenecut=40 / intra_refresh=0 / rc_lookahead=40 / rc=2pass / mbtree=1 / bitrate=1290 / ratetol=1.0 / qcomp=0.60 / qpmin=10 / qpmax=69 / qpstep=4 / cplxblur=20.0 / qblur=0.5 / vbv_maxrate=24000 / vbv_bufsize=24000 / nal_hrd=none / ip_ratio=1.40 / aq=1:1.00 Language : English Default : Yes Forced : No DURATION : 02:11:26.125000000 NUMBER_OF_FRAMES : 189267 NUMBER_OF_BYTES : 6572270588 _STATISTICS_WRITING_APP : mkvmerge v9.1.0 ('Little Earthquakes') 64bit _STATISTICS_WRITING_DATE_UTC : 2016-07-16 12:02:36 _STATISTICS_TAGS : BPS DURATION NUMBER_OF_FRAMES NUMBER_OF_BYTES Audio #1 ID : 2 Format : AC-3 Format/Info : Audio Coding 3 Mode extension : CM (complete main) Codec ID : A_AC3 Duration : 2h 11mn Bit rate mode : Constant Bit rate : 448 Kbps Channel(s) : 6 channels Channel positions : Front: L C R, Side: L R, LFE Sampling rate : 48.0 KHz Bit depth : 16 bits Compression mode : Lossy Stream size : 421 MiB (20%) Language : Italian Default : Yes Forced : No DURATION : 02:11:26.176000000 NUMBER_OF_FRAMES : 246443 NUMBER_OF_BYTES : 630894080 _STATISTICS_WRITING_APP : mkvmerge v9.1.0 ('Little Earthquakes') 64bit _STATISTICS_WRITING_DATE_UTC : 2016-07-16 12:02:36 _STATISTICS_TAGS : BPS DURATION NUMBER_OF_FRAMES NUMBER_OF_BYTES Audio #2 ID : 3 Format : AC-3 Format/Info : Audio Coding 3 Mode extension : CM (complete main) Codec ID : A_AC3 Duration : 2h 11mn Bit rate mode : Constant Bit rate : 448 Kbps Channel(s) : 6 channels Channel positions : Front: L C R, Side: L R, LFE Sampling rate : 48.0 KHz Bit depth : 16 bits Compression mode : Lossy Stream size : 421 MiB (20%) Language : English Default : No Forced : No DURATION : 02:11:26.176000000 NUMBER_OF_FRAMES : 246443 NUMBER_OF_BYTES : 630894080 _STATISTICS_WRITING_APP : mkvmerge v9.1.0 ('Little Earthquakes') 64bit _STATISTICS_WRITING_DATE_UTC : 2016-07-16 12:02:36 _STATISTICS_TAGS : BPS DURATION NUMBER_OF_FRAMES NUMBER_OF_BYTES Text #1 ID : 4 Format : UTF-8 Codec ID : S_TEXT/UTF8 Codec ID/Info : UTF-8 Plain Text Language : Italian Default : No Forced : No DURATION : 02:03:31.708000000 NUMBER_OF_FRAMES : 1320 NUMBER_OF_BYTES : 55091 _STATISTICS_WRITING_APP : mkvmerge v9.1.0 ('Little Earthquakes') 64bit _STATISTICS_WRITING_DATE_UTC : 2016-07-16 12:02:36 _STATISTICS_TAGS : BPS DURATION NUMBER_OF_FRAMES NUMBER_OF_BYTES Text #2 ID : 5 Format : UTF-8 Codec ID : S_TEXT/UTF8 Codec ID/Info : UTF-8 Plain Text Title : SDH Language : English Default : No Forced : No DURATION : 02:07:14.522000000 NUMBER_OF_FRAMES : 2109 NUMBER_OF_BYTES : 76748 _STATISTICS_WRITING_APP : mkvmerge v9.1.0 ('Little Earthquakes') 64bit _STATISTICS_WRITING_DATE_UTC : 2016-07-16 12:02:36 _STATISTICS_TAGS : BPS DURATION NUMBER_OF_FRAMES NUMBER_OF_BYTES Menu 00:00:00.000 : :00:00:00.000 00:10:48.958 : :00:10:48.958 00:17:48.542 : :00:17:48.542 00:28:15.875 : :00:28:15.875 00:37:58.000 : :00:37:58.000 00:49:00.042 : :00:49:00.042 01:00:01.458 : :01:00:01.458 01:08:34.917 : :01:08:34.917 01:16:20.208 : :01:16:20.208 01:32:49.333 : :01:32:49.333 01:43:33.583 : :01:43:33.583 01:52:17.125 : :01:52:17.125 [/spoiler] [/color][/b][/center]

Michael Bolton - Vintage (2003), [Mp3][Tnt]

Language: | Size: 93.28 MB | Seed: 22 | Leech: 4

Description:

Artist: Michael Bolton Title: Vintage (Special Edition) Year Of Release: 2003 Genre: Jazz, Pop Label: Universal Music Tracks: 12 CDs: 1 Format: Mp3 Quality: 320 kbps Included Scans: Si Archive Size: 93 Mb -------------- 01. The Very Thought Of You [3:22] 02. All The Way [3:32] 03. A Kiss To Build A Dream On [3:02] 04. If I Could [3:08] 05. At Last [3:38] 06. When I Fall In Love [3:19] 07. You Don't Know Me [3:14] 08. Smile [3:18] 09. Daddy's Little Girl [2:12] 10. Summertime [4:32] 11. What Are You Doing The Rest Of Your Life [3:00] 12. God Bless The Child [3:58]

Red e Toby nemiciamici - The Fox and the Hound (1981 Ita/Eng) + EXTRA [1080p] [iCV-MIRCrew]

Language: | Size: 5.07 GB | Seed: 1 | Leech: 2

Description:

Titolo originale: The Fox and the Hound Nazionalità: USA Anno: 1981 Genere: animazione, avventura, drammatico, commedia Regia: Art Stevens, Ted Berman, Richard Rich Durata: 83 min Trama: Una volpe e un cane, da cuccioli, si incontrano nel bosco e diventano amici inseparabili. Il cane, però, viene addestrato dal suo padrone alla caccia e presto si rende conto che l'amica diventa selvaggina. Iniziata la caccia, il cane si trova in difficoltà ma la volpe cacciata non esita a correre in aiuto del vecchio amico. Report: http://freetexthost.com/y2uzhbw132 Extra: In questa versione sono compresi gli extra: 1 - Unlikely Friends 2 - Il Passaggio del Testimone - Come nasce Red e Toby Nemiciamici 3 - Amici per la Pelle - Canta Con Noi 4 - Super Pluto - Cartone Animato 5 - Lambert il leone tenerone 6 - Qua la zampa

Bongo e i tre avventurieri - Fun and Fancy Free (1947 Ita/Eng) + EXTRA [1080p] [iCV-MIRCrew]

Language: | Size: 4.34 GB | Seed: 1 | Leech: 1

Description:

Titolo originale: Fun & Fancy Free Nazionalità: USA Anno: 1947 Genere: animazione, musicale, fantastico Regia: Jack Kinney, Bill Roberts, Hamilton Luske, William Morgan Durata: 70 min Trama: Bongo è un orsacchiotto acrobata cresciuto in circo, quando un bel giorno decide di fuggire per rifugiarsi nel bosco. Qui incontra la bella orsacchiotta Lulubelle. I due s'innamorano e lei, per dimostrare il suo amore, dà uno schiaffo a Bongo, come si usa nel bosco. Ma Bongo, che non capisce tale linguaggio, sentendosi rifiutato e offeso, scappa. Lulubelle nel rincorrerlo allo scopo di spiegargli il malinteso, s'imbatte nell'Orso Gigante che, per sbaglio, riceve da Lulubelle uno schiaffo destinato a Bongo. L'Orso Gigante credendo che la bella orsacchiotta sia innamorata di lui, l'abbraccia con trasporto. Allora Bongo, ingelosito da tale dimostrazione d'amore, sfida l'Orso Gigante in una lotta titanica..."La valle felice":C'era una volta una valle con un castello, dove un'arpa d'oro diffondeva tutt'intorno un suono dolcissimo. Un brutto giorno l'arpa d'oro sparì e la valle diventò un deserto. Fino a quando Topolino, Paperino e Goofy decisero d'andare al Castello del gigante per riprendere l'arpa... Report: http://freetexthost.com/q6w4ffnjm5 Extra: In questa versione è compreso l'extra: 1 - La realizzazione di Bongo e i tre avventurieri

Il Casanova di Federico Fellini (1976).H264.Italian.English.Ac3.sub.ita.eng.iCV-MIRCrew

Language: | Size: 1.79 GB | Seed: 23 | Leech: 12

Description:

Il Casanova di Federico Fellini (1976).H264.Italian.English.Ac3.sub.ita.eng.iCV-MIRCrew [center] [color=red][b][img]http://extraimago.com/images/2016/07/16/oCo82IVa08d8.png[/img] [u]NO FOUND ONLY ORIGINAL RELEASE[/u] [img]http://i.imgur.com/GDNQx1Z.png[/img] My release is always in double track audio italian and Original audio for select it use VLC or dvd player home not use wmp Il Casanova di Federico Fellini (1976) [img]https://extraimage.net/images/2017/03/04/7a3af577c8fc9e9f1d78938fa1217bf2.png[/img] [URL=http://www.imdb.com/title/tt0074291/][IMG]http://www.userlogos.org/files/logos/Sucka/imdb_new.png[/IMG][/URL] [img]http://i.imgur.com/fGu1rKv.png[/img] Lingua originale italiano, francese, tedesco, inglese Paese di produzione Italia Anno 1976 Durata 170 min Rapporto 1,85:1 Genere grottesco, drammatico, storico, fantastico, biografico Regia Federico Fellini Soggetto Federico Fellini tratto da Histoire de ma vie di Giacomo Casanova Sceneggiatura Federico Fellini, Bernardino Zapponi, Andrea Zanzotto Produttore Alberto Grimaldi Casa di produzione PEA Distribuzione (Italia) Titanus Fotografia Giuseppe Rotunno Montaggio Ruggero Mastroianni Effetti speciali Adriano Pischiutta Musiche Nino Rota Scenografia Danilo Donati, Rinaldo Geleng, Giuliano Geleng, Mario Fallani, Roland Topor, Federico Fellini, Giovanni Gianese Costumi Danilo Donati Trucco Rino Carboni [img]http://i.imgur.com/W7kBqiE.png[/img] Donald Sutherland: Giacomo Casanova Mario Cencelli: Dott. Moebius Tina Aumont: Henriette Cicely Browne: Marchesa Durfé Carmen Scarpitta: Sig.ra Charpillon Clara Algranti: Marcolina Daniela Gatti: Giselda Margareth Clementi: Suor Maddalena Olimpia Carlisi: Sorella di Isabella Silvana Fusacchia: Isabella Chesty Morgan: Barberina Leda Lojodice: Bambola meccanica Sandy Allen: Gigantessa Clarissa Maryè Roll: Annamaria Daniel Emilfork-Berenstein: Du Bois Luigi Zerbinati: Papa Hans van de Hoek: Principe Del Brando Dudley Sutton: Duca di Wuertemberg John Karlsen: Lord Talou Reggie Nalder: Faulkircher [img]http://i.imgur.com/bFK3ggF.png[/img] Vecchio e malandato, Giacomo Casanova, bibliotecario nel castello di Dux in Boemia, rievoca la sua vita densa di amori e di avventure. Prima, da giovane, a Venezia dove, incarcerato per le sue sregolatezze, evade dai Piombi e comincia a vagare per le corti europee conducendo una vita brillante, ricca di amori, di truffe, di onori [img]http://i.imgur.com/48xHWWH.png[/img] Casanova is a libertine, collecting seductions and sexual feats. But he is really interested in someone, and is he really an interesting person ? Is he really alive ? ............ [img]http://i.imgur.com/K8bfNTy.png[/img] [url=https://extraimage.net/image/2YRQ][img]https://extraimage.net/images/2017/03/04/9693b9524ec696d71097096fdf1fbbdb.th.png[/img][/url] [url=https://extraimage.net/image/2YRL][img]https://extraimage.net/images/2017/03/04/8bfbd56d5af0a3f21f466637254139ac.th.png[/img][/url] [url=https://extraimage.net/image/2YRR][img]https://extraimage.net/images/2017/03/04/422919d45a601d8c7e11e5dadbbfcee1.th.png[/img][/url] [url=https://extraimage.net/image/2YRm][img]https://extraimage.net/images/2017/03/04/061b0db836d3a407739660ba90d687bf.th.png[/img][/url] [url=https://extraimage.net/image/2YRi][img]https://extraimage.net/images/2017/03/04/1ba93c46d8cd45cbc6848cd3d50b64f2.th.png[/img][/url] [img]http://i.imgur.com/aVrMohH.png[/img] [spoiler] General Unique ID : 80605088065618438338407418170126084242 (0x3CA3F9ABCA31001B755AE3AE432FA892) Complete name : Casanova (1976).H264.ita.eng.sub.eng.iCV-MIRCrew.mkv Format : Matroska Format version : Version 2 File size : 1.79 GiB Duration : 2h 34mn Overall bit rate : 1 665 Kbps Writing application : HandBrake 0.10.5 2016021100 Writing library : Lavf55.12.0 Video ID : 1 Format : AVC Format/Info : Advanced Video Codec Format profile : [email protected] Format settings, CABAC : Yes Format settings, ReFrames : 4 frames Codec ID : V_MPEG4/ISO/AVC Duration : 2h 34mn Bit rate : 1 280 Kbps Width : 688 pixels Height : 374 pixels Display aspect ratio : 16:9 Original display aspect ratio : 16:9 Frame rate mode : Variable Frame rate : 24.000 fps Color space : YUV Chroma subsampling : 4:2:0 Bit depth : 8 bits Scan type : Progressive Bits/(Pixel*Frame) : 0.207 Stream size : 1.34 GiB (75%) Writing library : x264 core 142 r2479 dd79a61 Encoding settings : cabac=1 / ref=1 / deblock=1:0:0 / analyse=0x1:0x111 / me=hex / subme=2 / psy=1 / psy_rd=1.00:0.00 / mixed_ref=0 / me_range=16 / chroma_me=1 / trellis=0 / 8x8dct=0 / cqm=0 / deadzone=21,11 / fast_pskip=1 / chroma_qp_offset=0 / threads=12 / lookahead_threads=2 / sliced_threads=0 / nr=0 / decimate=1 / interlaced=0 / bluray_compat=0 / constrained_intra=0 / bframes=3 / b_pyramid=2 / b_adapt=1 / b_bias=0 / direct=1 / weightb=1 / open_gop=0 / weightp=1 / keyint=240 / keyint_min=24 / scenecut=40 / intra_refresh=0 / rc_lookahead=10 / rc=abr / mbtree=1 / bitrate=1280 / ratetol=1.0 / qcomp=0.60 / qpmin=0 / qpmax=69 / qpstep=4 / vbv_maxrate=20000 / vbv_bufsize=25000 / nal_hrd=none / filler=0 / ip_ratio=1.40 / aq=1:1.00 Default : Yes Forced : No Color primaries : BT.709-5, BT.1361, IEC 61966-2-4, SMPTE RP177 Transfer characteristics : BT.709-5, BT.1361 Matrix coefficients : BT.709-5, BT.1361, IEC 61966-2-4 709, SMPTE RP177 Audio #1 ID : 2 Format : AC-3 Format/Info : Audio Coding 3 Mode extension : CM (complete main) Codec ID : A_AC3 Duration : 2h 34mn Bit rate mode : Constant Bit rate : 192 Kbps Channel(s) : 1 channel Channel positions : Front: C Sampling rate : 48.0 KHz Bit depth : 16 bits Compression mode : Lossy Delay relative to video : 1mn 5s Stream size : 212 MiB (12%) Title : Mono Language : Italian Default : Yes Forced : No Audio #2 ID : 3 Format : AC-3 Format/Info : Audio Coding 3 Mode extension : CM (complete main) Codec ID : A_AC3 Duration : 2h 34mn Bit rate mode : Constant Bit rate : 192 Kbps Channel(s) : 1 channel Channel positions : Front: C Sampling rate : 48.0 KHz Bit depth : 16 bits Compression mode : Lossy Delay relative to video : 1mn 5s Stream size : 212 MiB (12%) Title : Mono Language : English Default : No Forced : No Text ID : 4 Format : ASS Codec ID : S_TEXT/ASS Codec ID/Info : Advanced Sub Station Alpha Compression mode : Lossless Language : English Default : No Forced : No [/spoiler] [/color][/b][/center]

7 Minuti (2016).H264.Italian.Ac3.5.1.sub.ita.iCV-MIRCrew

Language: | Size: 1.1 GB | Seed: 185 | Leech: 57

Description:

7 Minuti (2016).H264.Italian.Ac3.5.1.sub.ita.iCV-MIRCrew [center] [color=red][b][img]http://s23.postimg.org/b9yhws27f/0sc_Del1.png[/img] [u]NO FOUND ONLY ORIGINAL RELEASE[/u] [img]http://i.imgur.com/GDNQx1Z.png[/img] My release is always in double track audio italian and Original audio for select it use VLC or dvd player home not use wmp 7 Minuti (2016) [img]https://extraimage.net/images/2017/03/04/41afe9f417668395bf2d0658aaa1a531.png[/img] [URL=http://www.imdb.com/title/tt6085482/][IMG]http://www.userlogos.org/files/logos/Sucka/imdb_new.png[/IMG][/URL] [img]http://i.imgur.com/fGu1rKv.png[/img] DATA USCITA: 03 novembre 2016 GENERE: Drammatico ANNO: 2016 REGIA: Michele Placido SCENEGGIATURA: Michele Placido, Stefano Massini, Toni Trupia FOTOGRAFIA: Arnaldo Catinari MONTAGGIO: Consuelo Catucci MUSICHE: Paolo Buonvino PRODUZIONE: Goldenart Production, Manny Films, Ventura Film DISTRIBUZIONE: Koch Media PAESE: Italia DURATA: 88 Min [img]http://i.imgur.com/W7kBqiE.png[/img] Cristiana Capotondi, Violante Placido, Ambra Angiolini, Ottavia Piccolo, Fiorella Mannoia, Maria Nazionale, Clémence Poésy, Sabine Timoteo, Anne Consigny [img]http://i.imgur.com/bFK3ggF.png[/img] L'incertezza del futuro appesa a 7 minuti. Un caleidoscopio di vite diversissime e pulsanti, vite di donne, madri, figlie. Undici caratteri, per una riflessione sulla possibilità concreta di opporre resistenza e di reagire all'incertezza del futuro, tra caos, logica e giustizia. [img]http://i.imgur.com/48xHWWH.png[/img] The owners of an Italian textile factory sell the majority of the property to a multinational company. No layoffs are planned, but there's a special clause in the agreement that the new ... [img]http://i.imgur.com/K8bfNTy.png[/img] [url=https://extraimage.net/image/2YLg][img]https://extraimage.net/images/2017/03/04/a739bc5bf5482c4880a4f6f6209a6d2a.th.png[/img][/url] [url=https://extraimage.net/image/2YLX][img]https://extraimage.net/images/2017/03/04/bd5ed4d03c4d0f90d4fd64c6ded68838.th.png[/img][/url] [url=https://extraimage.net/image/2YL5][img]https://extraimage.net/images/2017/03/04/30034672510fb596c72c14d2edce7f68.th.png[/img][/url] [img]http://i.imgur.com/aVrMohH.png[/img] [spoiler] General Unique ID : 195200491152133144055763828092665702055 (0x92DA3F4265D15A5BA97CDE67CA49A6A7) Complete name : 7 Minuti (2016).H264.ita.sub.ita.iCV-MIRCrew.mkv Format : Matroska Format version : Version 2 File size : 1.10 GiB Duration : 1h 30mn Overall bit rate : 1 729 Kbps Movie name : VISIT www.icv-crew.org Encoded date : UTC 2017-02-22 22:32:05 Writing application : mkvmerge v5.4.0 ('Piper') built on Mar 10 2012 13:34:39 Writing library : Lavf54.63.100 COPYRIGHT : robbyrs Video ID : 1 Format : AVC Format/Info : Advanced Video Codec Format profile : [email protected] Format settings, CABAC : Yes Format settings, ReFrames : 2 frames Muxing mode : Header stripping Codec ID : V_MPEG4/ISO/AVC Duration : 1h 30mn Bit rate : 1 280 Kbps Width : 720 pixels Height : 304 pixels Display aspect ratio : 2.40:1 Frame rate mode : Variable Frame rate : 24.000 fps Color space : YUV Chroma subsampling : 4:2:0 Bit depth : 8 bits Scan type : Progressive Bits/(Pixel*Frame) : 0.244 Stream size : 811 MiB (72%) Writing library : x264 core 130 r2273 Encoding settings : cabac=1 / ref=2 / deblock=1:0:0 / analyse=0x1:0x131 / me=hex / subme=7 / psy=1 / psy_rd=1.00:0.00 / mixed_ref=0 / me_range=16 / chroma_me=1 / trellis=1 / 8x8dct=0 / cqm=0 / deadzone=21,11 / fast_pskip=1 / chroma_qp_offset=-2 / threads=12 / lookahead_threads=2 / sliced_threads=0 / nr=0 / decimate=1 / interlaced=0 / bluray_compat=0 / constrained_intra=0 / bframes=3 / b_pyramid=0 / b_adapt=1 / b_bias=0 / direct=3 / weightb=1 / open_gop=0 / weightp=2 / keyint=240 / keyint_min=24 / scenecut=40 / intra_refresh=0 / rc_lookahead=40 / rc=2pass / mbtree=1 / bitrate=1280 / ratetol=1.0 / qcomp=0.60 / qpmin=10 / qpmax=69 / qpstep=4 / cplxblur=20.0 / qblur=0.5 / vbv_maxrate=24000 / vbv_bufsize=24000 / nal_hrd=none / ip_ratio=1.40 / aq=1:1.00 Language : Italian Default : Yes Forced : No DURATION : 01:30:55.292000000 NUMBER_OF_FRAMES : 130927 NUMBER_OF_BYTES : 6619266788 _STATISTICS_WRITING_APP : mkvmerge v8.7.0 ('All of the above') 64bit _STATISTICS_WRITING_DATE_UTC : 2017-02-19 14:15:28 _STATISTICS_TAGS : BPS DURATION NUMBER_OF_FRAMES NUMBER_OF_BYTES Audio ID : 2 Format : AC-3 Format/Info : Audio Coding 3 Mode extension : CM (complete main) Muxing mode : Header stripping Codec ID : A_AC3 Duration : 1h 30mn Bit rate mode : Constant Bit rate : 448 Kbps Channel(s) : 6 channels Channel positions : Front: L C R, Side: L R, LFE Sampling rate : 48.0 KHz Bit depth : 16 bits Compression mode : Lossy Delay relative to video : -5ms Stream size : 291 MiB (26%) Language : Italian Default : Yes Forced : No DURATION : 01:30:55.339000000 NUMBER_OF_FRAMES : 511438 NUMBER_OF_BYTES : 1029013256 _STATISTICS_WRITING_APP : mkvmerge v8.7.0 ('All of the above') 64bit _STATISTICS_WRITING_DATE_UTC : 2017-02-19 14:15:28 _STATISTICS_TAGS : BPS DURATION NUMBER_OF_FRAMES NUMBER_OF_BYTES Menu 00:00:00.000 : :00:00:00.000 00:02:12.167 : :00:02:12.167 00:08:54.500 : :00:08:54.500 00:15:14.708 : :00:15:14.708 00:20:35.125 : :00:20:35.125 00:26:43.292 : :00:26:43.292 00:32:33.750 : :00:32:33.750 00:38:07.375 : :00:38:07.375 00:45:49.042 : :00:45:49.042 00:50:12.583 : :00:50:12.583 00:58:11.333 : :00:58:11.333 01:03:06.625 : :01:03:06.625 01:10:02.333 : :01:10:02.333 01:16:34.917 : :01:16:34.917 01:22:21.833 : :01:22:21.833 01:26:55.417 : :01:26:55.417 [/spoiler] [/color][/b][/center]

Syncios 6.0.3 + KeyGen

Language: | Size: 82.1 MB | Seed: 834 | Leech: 52

Description:

============= :: Name Of the App :: ============= Anvsoft SynciOS Professional ============= :: Description :: ============= Syncios Pro – a powerful alternative to iTunes, which provides a complete solution for transferring files such as music , video, photos , applications , e-books , contacts, messages, etc. between the computer and the device iOS. You can easily import files on iOS- device or export them from it , manage photo albums and upload photos from photostream iCloud. Download videos from Youtube and more than 100 sites without the help of iTunes, view them on the iPad / iPhone / iPod, and also get free ringtones and wallpapers. ============= :: Screenshot :: ============= https://i2.wp.com/fullstuff.co/wp-content/uploads/2016/07/syncios-pro-fullstuffco.png

Stardock Windowblinds 10.5 + Patch

Language: | Size: 54.65 MB | Seed: 391 | Leech: 71

Description:

Stardock Windowblinds 10.5 WindowBlinds enables you to make your desktop interface uniquely yours! From the start panel to the taskbar, window frames and control buttons, WindowBlinds enables users to customize desktop interface themes called skins to personalize the look and feel of their desktop. WindowBlinds Features: - Apply skins to your windows, applications, and desktop - Apply wallpaper backgrounds, texture and colors to skins - Skin title bars and buttons - Choose your own skin fonts - Adjust the transparency of the start menu, taskbar or windows - Save customized skins as presets for quick access later - Randomly select a new skin at timed intervals - Per application skinning - Supported OSes: Windows 10/8/7 - Choose from thousands of FREE skins at WinCustomize.com - Design your own skins with SkinStudio (separate download included with purchase) Whats New ? https://extraimage.net/images/2016/12/28/252c56733b3b0e3aadc77762575c295f.png https://extraimage.net/images/2016/12/28/c4e12e8cb2eb2b6c5bbbc85ca158183c.png

Smart Photo Import 2.3.6 Final + Serial Key

Language: | Size: 6.58 MB | Seed: 543 | Leech: 32

Description:

---------------------- ::Description:: ---------------------- Smart Photo Import is a small but flexible tool which helps you to manage your expanding digital photo collection. With Smart Import you can acquire photos from your preferred digital media device in a fast and effective way, organizing at the same time your pictures into folders on your computer. You choose the organizing criteria and the program does the rest. The import process is completely automatic. The program is able to use exif date informations to divide photos per each year, month or day of the shot. You can specify a subject for each import operation, as well as put your author signature in the imported file names. The software can handle not only your new digital shots from your camera, but also allows to reorganize any picture in any folder of your Pc. Just drag and drop the files and folders you wish to reorganize into the program’s main window and then choose the organization criteria. ---------------------- ::Screenshots:: ---------------------- https://i0.wp.com/softhound.com/wp-content/uploads/2017/02/smartphotoimportreg.png

SketchUp Pro 2017 17.2.2555 + Crack

Language: | Size: 228.94 MB | Seed: 946 | Leech: 38

Description:

SketchUp Pro 2017 17.2.2555 (x64) There’s a reason SketchUp is synonymous with friendly and forgiving 3D modeling software: we don’t sacrifice usability for the sake of functionality. Start by drawing lines and shapes. Push and pull surfaces to turn them into 3D forms. Stretch, copy, rotate and paint to make anything you like. If you want to be productive within a couple of hours, you’ve come to the right place. Find a 3D model of anything Why model everything from scratch? Whether it’s a chair for the room you’re designing or a rhino for your zoo, you’ll find almost anything you need in SketchUp’s 3D Warehouse, the world’s biggest repository of free 3D models. And anyone can use 3D Warehouse to store and share models. Upload your best work and become a SketchUp legend. Turn models into documents At some point in most 3D projects, you’ll need to turn your model into a set of drawings that gets the point across. LayOut in SketchUp Pro lets you add model views to pages, choose drawing scales, adjust line weights, and add dimensions, callouts, and graphics. Make a change to your SketchUp model, and find it reflected automatically in LayOut. And when it’s time, export PDFs, images and CAD files. Make SketchUp yours SketchUp is meant to be customized. Thanks to our Ruby API and an amazing community of developers, today you can explore an entire universe of extensions. These are add-on tools built to solve the kind of 3D modeling problems that might otherwise leave you scratching your head. Need to draw 3D moldings? There’s an extension for that. Wouldn’t it be cool to bend your models to fit a curve? That’s possible, too. Photorealistic rendering? Definitely. If you can imagine a SketchUp extension, chances are it already exists. Language: English

Il mistero delle pagine perdute - National Treasure: Book of Secrets (2007 Ita/Eng) + EXTRA [1080p] [iCV-MIRCrew]

Language: | Size: 15.06 GB | Seed: 0 | Leech: 0

Description:

Titolo originale: National Treasure: Book of Secrets Nazionalità: USA Anno: 2007 Genere: avventura, azione Regia: Jon Turteltaub Durata: 124 min Cast: Nicolas Cage: Ben Gates Diane Kruger: Abigail Chase Ed Harris: Mitch Wilkinson Justin Bartha: Riley Poole Jon Voight: Patrick Gates Helen Mirren: Emily Appleton Harvey Keitel: Peter Sadusky Bruce Greenwood: Presidente degli Stati Uniti Ty Burrell: Connor Michael Maize: Daniel Timothy V. Murphy: Seth Armando Riesco: agente Hendricks Trama: Le nuove avventure di Benjamin Gates, archeologo e avventuriero, lanciato questa volta sulle tracce di un tesoro che riguarda il presidente Abraham Lincoln e il suo omicida John Wilkes Booth. Il mistero da risolvere è rappresentato da alcune pagine mancanti del diario di Lincoln... Report: http://freetexthost.com/qymyfhbtqp Extra: In questa versione sono compresi gli extra: 1 - Scene Eliminate 2 - La Bobina Preziosa - Errori E Fuoriscena 3 - I Segreti Di Un Buon Seguito 4 - Il Mistero Delle Pagine Perdute - I Luoghi Delle Riprese 5 - Acrobazie In Strada - L'Inseguimento Di Londra 6 - All'Interno Della Biblioteca Del Congresso 7 - Azione Sotterranea 8 - La Creazione Del Libro Del Presidente 9 - L'Evoluzione Della Città D'Oro 10 - I Cavalieri Del Circolo Dorato

Franck Pourcel - New Sound Tangos [Flac][TntVillage]

Language: | Size: 195.01 MB | Seed: 65 | Leech: 49

Description:

[img]https://extraimage.net/images/2017/03/01/af4f27ddc8193b6b890f3b0cdb6ec4f0.jpg[/img] Artist...............: Franck Pourcel Album................: New Sound Tangos Genre................: Tango Instrumental Source...............: CD Year.................: 1968 Ripper...............: EAC (Secure mode) / LAME 3.92 & Asus CD-S520 Codec................: Free Lossless Audio Codec (FLAC) Version..............: reference libFLAC 1.3.1 20141125 Quality..............: Lossless, (avg. compression: 61 %) Channels.............: Stereo / 44100 HZ / 16 Bit Tags.................: VorbisComment Information..........: TntVillage Ripped by............: Leonenero on 01/03/2017 Posted by............: Leonenero on 01/03/2017 News Server..........: news.astraweb.com News Group(s)........: TNTVILLAGE Included.............: NFO, M3U, LOG, CUE Covers...............: Front Back CD --------------------------------------------------------------------- Tracklisting --------------------------------------------------------------------- 1. Franck Pourcel - Ce N'est Que Votre Main, Madame [02:23] 2. Franck Pourcel - Il Pleut Sur La Route [02:26] 3. Franck Pourcel - Olé Guapa [03:08] 4. Franck Pourcel - Amour, Castagnettes et Tango (Hernando's Hideway)[02:31] 5. Franck Pourcel - Jalouise [03:31] 6. Franck Pourcel - La Cumparsita [02:44] 7. Franck Pourcel - Les Yeux Noirs [02:26] 8. Franck Pourcel - C'est à Capri [02:19] 9. Franck Pourcel - Pilar [02:12] 10. Franck Pourcel - Tristesse [02:54] 11. Franck Pourcel - Une Nuit à Monte Carlo [02:19] 12. Franck Pourcel - Violetta [02:31] Playing Time.........: 31:30 Total Size...........: 194,83 MB Really nutty arrangements, with Pourcel's elegant strings fronted by piano, guitar, glockenspiel, harpsichord and a very Parisian accordion with attitude. This overlaps, and puts to shame, Mantovani's great tango album of the preceding year. It's new sound tango by pourcel ... This sound is new until now

SAMURAI 3-Miyamoto Musashi-Duello all'isola Garyu[Sub Ita] [TNTVillage]

Language: | Size: 3.88 GB | Seed: 3 | Leech: 0

Description:

SAMURAI 3-Miyamoto Musashi-Duello all'isola Garyu[Sub Ita] [TNTVillage] [BDRip 1080p - H264 - AaC Jap Softsub Ita] [IMG]http://i68.tinypic.com/dcvnds.jpg[/IMG] Scheda del Film Titolo originale: kettô Ganryûjima Nazionalità: Giapponese Anno: 1956 Genere: Azione, storico, arti marziali Durata: 01:44:49 Regia: Hiroshi Inagaki Cast: Toshiro Mifune: Takezo/Musashi, Koji Tsurata: Sasaki Kojiro, Kaoru Yachigusa: Otsu, Mariko Okada: Akemi, Daisuke Kato: Toji, Kejin Lida: Jotaro, Michiko Saga: Omitsu, Kichijiro Ueda:Ogon. Trama Sasaki Kojiro, alla ricerca dell'auto affermazione, si reca a Edo per cercare assunzione presso lo Shogun Hosokawa. Musashi, divenuto ormai un samurai saggio e raffinato, riceve un invito ufiiciale dal Maestro di spada dello stesso Shogun. Sasaki, riesce ad ottenere un duello con Musashi dopo aver provocatoriamente ucciso 4 membri della scuola di spada dello Shogun (che meshinamente non vengono riconosciti dal loro Maestro). Musashi, saputo che Sasaki ha ottenuto l'incarico presso il nobile Signore, con una scusa eviterà il duello: non è più alla ricerca della gloria. Si ritirerà in uno sperduto paese di campagna con i 2 suoi fedeli compagni. La dolce Otsu, da sempre alla ricerca del suo amato, riuscirà a raggiungerli. Tuttavia lo raggiungerà anche Akemi... Sasaki, nel frattempo, è divenuto Maestro di spada dello Shogun, e inviterà formalmente Musashi a duello. Questa volta Musashi non potrà rifiutare. Al crepuscolo, sulla spiaggia dell'isola Garyu, la sfida tra i due arriverà al suo epilogo. Scheda tecnica del filmato Dimensione: 3,87 GB Durata: 01:44:49 Tracce: 3 (video, audio, subtitle) Contenitore: Matroska Video Codec: V_MPEG4/ISO/AVC Risoluzione: 1440 x 1080 FPS (Frames/sec): 23.976024 Frame aspect ratio: 4:3 = 1.333333 Display aspect ratio: 4:3 = 1.333333 Pixel aspect ratio: 1:1 = 1 Bitrate (bs): 5135.184905 kbps Qf[/b]: 0.137719 Audio Codec: A_AAC Freq Audio: 48000 Hz Bitrate (bs): 160.079695 kbps Subtitle: Sub Station Alpha

SAMURAI 2-Miyamoto Musashi-Duello al tempio ichijoji[Sub Ita] [TNTVillage]

Language: | Size: 3.68 GB | Seed: 2 | Leech: 0

Description:

SAMURAI 2-Miyamoto Musashi-Duello al tempio ichijoji[Sub Ita] [TNTVillage] [BDRip 1080p - H264 - A_AAC Jap Softsub Ita] [IMG]http://i68.tinypic.com/dcvnds.jpg[/IMG] Scheda del Film Titolo originale: Ichijoji no ketto Nazionalità: Giapponese Anno: 1955 Genere: Azione, storico, arti marziali Durata: 01:43:38 Regia: Hiroshi Inagaki Cast: Toshiro Mifune: Takezo/Musashi, Sachio Sakai: Matahachi, Kuroemon Onoe: Takuan, Kaoru Yachigusa: Otsu, Michiyo Kogure: Yoshino, Mariko Okada: Akemi, Mitsuko Mito: Oko, Daisuke Kato: Toji, Akihiko Hirata: Seijuro, Ko Mihashi: Koetsu, Kumimori Kodo: Nikkan, Kejin Lida: Jotaro, Eijiro Tono: Baiken. Trama Takezo, con il nome di Miyamoto Musashi, viaggia alla ricerca del suo perfezionamento. Tutto ciò lo porterà a sfidare il Maestro di spada della scuola Yoshioka, promesso sposo di Akemi, una delle due donne, causa delle sue precedenti disavventure. La dolce e fragile Otsu, intanto, aspetta con ansia di poter riabbracciare il suo amato. Anche un giovane e ambizioso samurai di nome Sasaki Kojiro, sogna di incontrare Musashi per sfidarlo a duello... Scheda tecnica del filmato Dimensione: 3,67 GB Durata: 01:43:38 Tracce: 3 (video, audio, subtitle) Contenitore: Matroska Video Codec: V_MPEG4/ISO/AVC Risoluzione: 1440 x 1080 FPS (Frames/sec): 23.976025 Frame aspect ratio: 4:3 = 1.333333 Display aspect ratio: 4:3 = 1.333333 Pixel aspect ratio: 1:1 = 1 Bitrate (bs): 4918.005827 kbps Qf: 0.131894 Audio Codec: A_AAC Freq Audio: 48000 Hz Bitrate (bs): 159.734771 kbps Subtitle: Sub Station Alpha

SAMURAI 1-Miyamoto Musashi[Sub Ita] [TNTVillage]

Language: | Size: 3.81 GB | Seed: 1 | Leech: 1

Description:

SAMURAI 1-Miyamoto Musashi[Sub Ita] [TNTVillage] [H264 - A_AAC Jap Softsub Ita] [IMG]http://i67.tinypic.com/jzkom.jpg[/IMG] Titolo originale: Miyamoto Musashi Nazion 1954 Genere: Azione, storico, arti marziali Durata: 01:33:50 Regia: Toshiro Mifune: Takezo/Musashi, Rentaro Mikuni: Matahachi, Kuroemon Onoe: Takuan, Kaoru Yachigusa: Otsu, Mariko Okada: Akemi, Mitsuko Mito: Oko, Eiko miyoshi: Osugi, Akihiko Hirata: Seijuro. Trama Giappone, 1600. Nel villaggio Miyamoto, i due amici Takezo e Matahachi decidono di partire per la Grande Battaglia (Sekigahara) in cerca di fama e di gloria. Matahachi viene ferito e due amici cercano rifugio presso l'abitazione di due donne. La madre, rifiutata da Takezo, convince Matahachi ad abbandonare l'amico. Takezo, rimasto solo, finisce equivocamente come criminale ricercato. Lo catturerà con uno stratagemma l'astuto e saggio monaco Takuan. Otsu, una dolce ragazza del villaggio, fidanzata in precedenza con Matahachi, impietosita,libera Takezo... Questo intramontabile capolavoro annovera un Oscar come "miglior film straniero". Scheda tecnica del filmato Dimensione: 3,81 GB Durata: 01:33:50 Tracce: 3 (video, audio, subtitle) Contenitore: Matroska Video Codec: V_MPEG4/ISO/AVC Risoluzione: 1422 x 1080 FPS (Frames/sec): 23.976024 Frame aspect ratio: 79:60 = 1.316667 Display aspect ratio: 79:60 = 1.316667 Pixel aspect ratio: 1:1 = 1 Bitrate (bs): 5651.289461 kbps Qf: 0.153478 Audio Codec: A_AAC Freq Audio: 48000 Hz Bitrate (bs): 159.577767 kbps Subtitle: Sub Station Alpha

La verita sta in cielo (2016).H264.Italian..Ac3.5.1.sub.ita.Nuita.eng.iCV-MIRCrew

Language: | Size: 1.18 GB | Seed: 62 | Leech: 19

Description:

La verita sta in cielo (2016).H264.Italian..Ac3.5.1.sub.ita.Nuita.eng.iCV-MIRCrew [center] [color=red][b][img]http://s23.postimg.org/b9yhws27f/0sc_Del1.png[/img] [u]NO FOUND ONLY ORIGINAL RELEASE[/u] [img]http://i.imgur.com/GDNQx1Z.png[/img] My release is always in double track audio italian and Original audio for select it use VLC or dvd player home not use wmp ENGLISH SUBTITLE INSIDE La verita sta in cielo (2016) [img]https://extraimage.net/images/2017/03/04/4d0eac7298d55977f5d3f70df4439709.png[/img] [URL=http://www.imdb.com/title/tt5186860/][IMG]http://www.userlogos.org/files/logos/Sucka/imdb_new.png[/IMG][/URL] [img]http://i.imgur.com/fGu1rKv.png[/img] DATA USCITA: 06 ottobre 2016 GENERE: Drammatico ANNO: 2016 REGIA: Roberto Faenza SCENEGGIATURA: Roberto Faenza FOTOGRAFIA: Maurizio Calvesi MONTAGGIO: Massimo Fiocchi MUSICHE: Teho Teardo PRODUZIONE: Jean Vigo Italia con Rai Cinema, prodotto da Elda Ferri DISTRIBUZIONE: 01 Distribution PAESE: Italia DURATA: 94 Min [img]http://i.imgur.com/W7kBqiE.png[/img] Riccardo Scamarcio, Maya Sansa, Greta Scarano, Valentina Lodovini, Shel Shapiro, Luciano Roffi, Tommaso Lazotti, Alessandro Bertolucci, Giacomo Gonnella, Alberto Cracco [img]http://i.imgur.com/bFK3ggF.png[/img] Il 22 giugno 1983 una ragazza di 15 anni, Emanuela Orlandi, sparisce dal centro di Roma e non farà più ritorno. E' figlia di un commesso pontificio e ben presto si capisce che la sparizione coinvolge diversi poteri forti, dal Vaticano alla Banda della Magliana fino a Mafia Capitale [img]http://i.imgur.com/48xHWWH.png[/img] An english journalist come to Italy to investigate in the mysterious disappearance of a young vatican girl occurred in 1983 [img]http://i.imgur.com/K8bfNTy.png[/img] [url=https://extraimage.net/image/2Y19][img]https://extraimage.net/images/2017/03/04/f0ea38c3c6363b45dce903930d1059f0.th.png[/img][/url] [url=https://extraimage.net/image/2Y13][img]https://extraimage.net/images/2017/03/04/f0f2c2e7568b1732d1d5a3e4d0eab434.th.png[/img][/url] [url=https://extraimage.net/image/2Y1M][img]https://extraimage.net/images/2017/03/04/7659397d9797619defa549160d6b5d33.th.png[/img][/url] [img]http://i.imgur.com/aVrMohH.png[/img] [spoiler] General Unique ID : 18346591041485738979859740950144843897 (0xDCD6CC6AAD410446D7651ACA5E98079) Complete name : La verita sta in cielo (2016).H264.ita.sub.ita.eng.iCV-MIRCrew.mkv Format : Matroska Format version : Version 2 File size : 1.18 GiB Duration : 1h 37mn Overall bit rate : 1 731 Kbps Movie name : VISIT www.icv-crew.org Encoded date : UTC 2017-02-27 19:37:01 Writing application : Lavf54.63.100 Writing library : Lavf54.63.100 COPYRIGHT : robbyrs Video ID : 1 Format : AVC Format/Info : Advanced Video Codec Format profile : [email protected] Format settings, CABAC : Yes Format settings, ReFrames : 2 frames Codec ID : V_MPEG4/ISO/AVC Duration : 1h 37mn Bit rate : 1 280 Kbps Width : 720 pixels Height : 300 pixels Display aspect ratio : 2.40:1 Frame rate mode : Variable Frame rate : 23.976 fps Color space : YUV Chroma subsampling : 4:2:0 Bit depth : 8 bits Scan type : Progressive Bits/(Pixel*Frame) : 0.247 Stream size : 869 MiB (72%) Writing library : x264 core 130 r2273 Encoding settings : cabac=1 / ref=2 / deblock=1:0:0 / analyse=0x1:0x131 / me=hex / subme=7 / psy=1 / psy_rd=1.00:0.00 / mixed_ref=0 / me_range=16 / chroma_me=1 / trellis=1 / 8x8dct=0 / cqm=0 / deadzone=21,11 / fast_pskip=1 / chroma_qp_offset=-2 / threads=12 / lookahead_threads=2 / sliced_threads=0 / nr=0 / decimate=1 / interlaced=0 / bluray_compat=0 / constrained_intra=0 / bframes=3 / b_pyramid=0 / b_adapt=1 / b_bias=0 / direct=3 / weightb=1 / open_gop=0 / weightp=2 / keyint=230 / keyint_min=23 / scenecut=40 / intra_refresh=0 / rc_lookahead=40 / rc=2pass / mbtree=1 / bitrate=1280 / ratetol=1.0 / qcomp=0.60 / qpmin=10 / qpmax=69 / qpstep=4 / cplxblur=20.0 / qblur=0.5 / vbv_maxrate=24000 / vbv_bufsize=24000 / nal_hrd=none / ip_ratio=1.40 / aq=1:1.00 Language : Italian Default : Yes Forced : No DURATION : 01:37:14.996000000 NUMBER_OF_FRAMES : 139900 NUMBER_OF_BYTES : 7002441140 _STATISTICS_WRITING_APP : mkvmerge v8.3.0 ('Over the Horizon') 64bit _STATISTICS_WRITING_DATE_UTC : 2017-02-08 13:02:06 _STATISTICS_TAGS : BPS DURATION NUMBER_OF_FRAMES NUMBER_OF_BYTES Audio ID : 2 Format : AC-3 Format/Info : Audio Coding 3 Mode extension : CM (complete main) Codec ID : A_AC3 Duration : 1h 37mn Bit rate mode : Constant Bit rate : 448 Kbps Channel(s) : 6 channels Channel positions : Front: L C R, Side: L R, LFE Sampling rate : 48.0 KHz Bit depth : 16 bits Compression mode : Lossy Delay relative to video : 1mn 5s Stream size : 312 MiB (26%) Title : AC3 Language : Italian Default : No Forced : No DURATION : 01:37:15.072000000 NUMBER_OF_FRAMES : 182346 NUMBER_OF_BYTES : 466805760 _STATISTICS_WRITING_APP : mkvmerge v8.3.0 ('Over the Horizon') 64bit _STATISTICS_WRITING_DATE_UTC : 2017-02-08 13:02:06 _STATISTICS_TAGS : BPS DURATION NUMBER_OF_FRAMES NUMBER_OF_BYTES Text #1 ID : 3 Format : UTF-8 Codec ID : S_TEXT/UTF8 Codec ID/Info : UTF-8 Plain Text Title : FORCED Language : Italian Default : Yes Forced : No DURATION : 01:21:08.322000000 NUMBER_OF_FRAMES : 136 NUMBER_OF_BYTES : 5914 _STATISTICS_WRITING_APP : mkvmerge v8.3.0 ('Over the Horizon') 64bit _STATISTICS_WRITING_DATE_UTC : 2017-02-08 13:02:06 _STATISTICS_TAGS : BPS DURATION NUMBER_OF_FRAMES NUMBER_OF_BYTES Text #2 ID : 4 Format : UTF-8 Codec ID : S_TEXT/UTF8 Codec ID/Info : UTF-8 Plain Text Title : NON UDENDI Language : Italian Default : No Forced : No DURATION : 01:29:11.763000000 NUMBER_OF_FRAMES : 1176 NUMBER_OF_BYTES : 52668 _STATISTICS_WRITING_APP : mkvmerge v8.3.0 ('Over the Horizon') 64bit _STATISTICS_WRITING_DATE_UTC : 2017-02-08 13:02:06 _STATISTICS_TAGS : BPS DURATION NUMBER_OF_FRAMES NUMBER_OF_BYTES Text #3 ID : 5 Format : UTF-8 Codec ID : S_TEXT/UTF8 Codec ID/Info : UTF-8 Plain Text Title : REGULAR Language : English Default : No Forced : No DURATION : 01:30:11.907000000 NUMBER_OF_FRAMES : 1020 NUMBER_OF_BYTES : 42478 _STATISTICS_WRITING_APP : mkvmerge v8.3.0 ('Over the Horizon') 64bit _STATISTICS_WRITING_DATE_UTC : 2017-02-08 13:02:06 _STATISTICS_TAGS : BPS DURATION NUMBER_OF_FRAMES NUMBER_OF_BYTES Menu 00:00:00.000 : :00:00:00.000 00:09:53.760 : :00:09:53.760 00:15:57.874 : :00:15:57.874 00:24:12.117 : :00:24:12.117 00:33:04.524 : :00:33:04.524 00:43:37.156 : :00:43:37.156 00:53:41.301 : :00:53:41.301 01:01:20.343 : :01:01:20.343 01:11:41.088 : :01:11:41.088 01:15:35.030 : :01:15:35.030 01:19:10.329 : :01:19:10.329 01:26:38.735 : :01:26:38.735 [/spoiler] [/color][/b][/center]

The Last Ronin [sub Ita] [TNTVillage]

Language: | Size: 3.39 GB | Seed: 6 | Leech: 0

Description:

The Last Ronin [sub Ita] [TNTVillage] [BDrip 720p - H264 - Jap AC3 - Sub Ita] [img]http://i.imgur.com/MMXeykg.jpg[/img] Titolo originale: Saigo no Chushingura Paese di produzione: Giappone Anno: 2010 Genere:[ Storico, arti marziali, Drammatico Lingua:[/b] Giapponese Sottotitoli: Italiano (Softsub) Dimensione File: 3,39 GB Durata: 02:13:06 Regia: Shigemichi Sugita TRAMA Durante la fatidica 'vendetta dei 47 ronin', (nel 1702) i samurai del dominio Ako, vendicarono il loro Signore Asano, costretto al seppuku dallo Shogun, dopo una colluttazione con uno deo daymio che lo aveva a sua volta offeso. Consegnatisi alla giustiza dopo la vendetta, i samurai di Ako furono anch'essi condannati al seppuku. Ci fu un unico supestite,Kichhiemon Terasaka. Esso, aveva ricevuto ordine dal comandante Oishi, di diffondere la verità sulla vendetta e di portare sostegno economico alle famiglie dei samurai. 16 anni dopo, sulla strada per il 17° rituale buddista per la morte dei compagni, Kichiemon intravede un ex compagno... un vecchio amico che, la sera prima della vendetta era misteriosamente scomparso, forse, fuggito. Magozaemon, a sua volta, aveva ricevuto un ordine dal comandante cui era molto legato... un ordine di estrema importanza e segretezza... Il film nel 2012 numerose nomine al Japan Academy Award: 'miglior film dell'anno', 'miglior attore protagonista', 'miglior attore non protagonista', 'migliore regia', 'sceneggiatura dell'anno' ed altre.. SCHEDA TECNICA DEL FILMATO Info sul file Nome L'Ultimo Chushingura.mkv Dimensione 3,641,322,353 bytes Info generiche Durata 02:13:06 Contenitore matroska Totale tracce 3 Traccia n. 1 video (V_MPEG4/ISO/AVC) {und} Traccia n. 2 audio (A_AC3) {jpn} Traccia n. 3 subtitle softsub (S_TEXT/ASS) {ita} Dati rilevanti Risoluzione 1280 x 668 Larghezza multipla di 32 Altezza multipla di 16 DRF medio 17.71549 Traccia video Codec ID V_MPEG4/ISO/AVC Risoluzione 1280 x 688 Frame aspect ratio 80:43 Pixel aspect ratio 1:1 Display aspect ratio 80:43 Framerate 23.976025 fps Bitrate (bs) 3005.967731 kbps Qf 0.142367 Traccia audio Codec ID A_AC3 Freq. campionamento 48000 Hz Canali 6 Dimensione stream 638,835,200 bytes Tipo di bitstream (bs) AC3 Frames (bs) 249,545 Bitrate (bs) 640 kbps CBR Freq. campionamento (bs) 48000 Hz File allegati 6 Application/x-truetype-font

TNTVillage - Bushi no ichibun [Sub Ita]

Language: | Size: 3.37 GB | Seed: 15 | Leech: 2

Description:

TNTVillage - Bushi no ichibun [Sub Ita] [BDrip 720p - H264 - Jap Ac3 - Sub Ita] [img]http://i.imgur.com/nfHmnbS.jpg[/img] Titolo originale: Bushi no Ichibun Paese di produzione: Giappone Anno: 2006 Genere: Storico, arti marziali, Drammatico Sottotitoli: Italiano (Softsub) Dimensione File: 3,36 GB Durata: 02:02:03 Regia: Yoji Yamada Soggetto: Shuhei Fujisawa Produttori: Junichi Sakamoto, Takeo Hisamatsu, Hiroshi Fukazawa CAST Shinnojo Mimura/Takuya Kimura, Kayo Mimura/Rei Dan, Toya Shimada/Mitsugoro Bando Tokuhei/Takashi Sasano, Ine Hatano/Kaori Momoi, Sakunosuke Higuchi/Nenji Kobayashi, Istruttore di Shinnojo/Ken Ogata TRAMA Giappone, periodo di Edo. Era uso del tempo, impiegare alcuni dei samurai del castello feudale ad 'assaggiare' il cibo preparato per il Signore, per verificare (a loro spese) che non fosse avvelenato. Bunnojo, giovane samurai tra gli 'assaggiatori', onorando il suo lavoro. La giovane e bella moglie, con l'intento di salvare la posizione dell'amato marito, cederà alle [i]avances[/i] di un personaggio di rilievo al castello. Ma così, farà perdere al marito una cosa che gli è anche più cara della vista... Note: Questo film, conta 4 premi al Japan Accademy Award 2007:Miglior attore protagonista, miglior attore esordiente (Rei Dan), migliore fotografia, migliore illuminazione, e oltre 10 nomination. SCHEDA TECNICA DEL FILMATO Info sul file Nome L'onore del Bushi.mkv Dimensione 3,615,692,748 bytes Info generiche Durata 02:02:03 Contenitore matroska Totale tracce 3 Traccia n. 1 video (V_MPEG4/ISO/AVC) [Love.and.Honor.2006.x264.BDRip.AVC.MediaClub] {jpn} Traccia n. 2 audio (A_AC3) [TRACK_04_ORIGINAL_JPN] {jpn} Traccia n. 3 subtitle (S_TEXT/ASS) [Bushi no ichibun] {ita} Dati rilevanti Risoluzione 1024 x 554 Larghezza multipla di 32 Altezza multipla di 2 DRF medio 18.956042 Traccia video Codec ID V_MPEG4/ISO/AVC Risoluzione 1024 x 554 Frame aspect ratio 512:277 Pixel aspect ratio 1:1 Display aspect ratio 512:277 Framerate 23.976025 fps Bitrate (bs) 3500.07022 kbps Qf 0.25733 Traccia audio Codec ID A_AC3 Freq. campionamento 48000 Hz Canali 6 Dimensione stream 410,088,448 bytes Tipo di bitstream AC3 Frames (bs) 228,844 Bitrate (bs) 448 kbps CBR Freq. campionamento 48000 Hz

TNTVillage - Ai No Kusabi 2011 [Sub Ita]

Language: | Size: 2.1 GB | Seed: 1 | Leech: 0

Description:

TNTVillage - Ai No Kusabi 2011 [Sub Ita] [DBRip 720p - Jap Flac - Softsub Ita] [IMG]http://i64.tinypic.com/21eqeo.jpg[/IMG] Titolo originale: Ai no Kusabi Paese di produzione: Giappone Anno: 2012 Genere: Drammatico, Fantascienza, Shounen-Ai Episodi: 4 Dimensione totale: 2,10 GB Durata episodi: 25 minuti circa Autore: Reiko Yoshihara Regia: Katsuhito Akiyama Studio: Anime International Company TRAMA Ai no Kusabi è in origine un romanzo giapponese, uscito in numerosi episodi, a partire dal 1986. Questa animazione, è il remake di una precedente, risalente al 1994 e completata in 2 OAV. La nuova versione, pensata in 12 episodi, si è però interrotta al 4° lasciando la serie incompleta. La storia si ambienta in un imprecisato futuro, sul pianeta Amoi. L'intelligenza artificiale Jupiter, gestisce la capitale Tanagura per mezzo di androidi dal cervello umano e dal corpo praticamente perfetto: i Blondie. Questi, usano appagare i loro istinti sessuali (in genere solo voyeuristici), attraverso i Pet: umani spesso nati nei loro stessi laboratori e tenuti come animali domestici. La vera città degli uomini è Midas, con i suoi lussi, le sue stravaganze... e il suo fiorente mercato nero. Intorno, i bassifondi... luoghi per reietti senza diritti nè cittadinanza. Qui è la violenza a dettare legge, e l'unico scopo è la sopravvivenza. Riki, leader di una gang dei bassifondi, incapperà durante un borseggio nel Blondie Yason Mink, uno dei pochi ad avere accesso alla mente artificiale Jupiter, oltre che capo del mercato nero di Midas. L'arroganza e la strafottenza di Riki, si scontreranno con la personalità del Blondie. Ognuno di loro, in un modo diverso, resterà "prigioniero" di un perversa relazione vittima-carnefice. La produzione purtroppo è al momento sospesa. Chi desidererà conoscere l'esito drammatico di questa storia non convenzionale, può cercare i 2 OAV precedenti, o leggersi l'intera trama su Wikipedia e sulle altre fonti disponibili. Ai_no_Kusabi-OAV1-Bestia_in_gabbia.mkv Dimensione 641,756,353 bytes (612.026551 MiB) Info generiche Durata 00:26:11 Contenitore matroska Totale tracce 3 Traccia n. 1 video (V_MPEG4/ISO/AVC) Traccia n. 2 audio (A_FLAC) {Jap} Traccia n. 3 subtitle (S_TEXT/ASS) {ita} Dati rilevanti Risoluzione 1280 x 720 Larghezza multipla di 32 Altezza multipla di 16 Traccia video Codec ID V_MPEG4/ISO/AVC Risoluzione 1280 x 720 Frame aspect ratio 16:9 Pixel aspect ratio 1:1 Display aspect ratio 16:9 Framerate 29.970032 fps Content encoding order 0 scope all frames type compression compression algorithm header stripping stripped header 1 bytes Bitrate (bs) 2645.817833 kbps Qf 0.095792 Traccia audio Codec ID A_FLAC Freq. campionamento 48000 Hz Canali 2 Dimensione campioni 16-bit File allegato n. 1 Nome file jesaya free.ttf MIME type application/x-truetype-font Dimensione 123,340 bytes UID 16800457177406853565 File allegato n. 2 Nome file Painted.ttf MIME type application/x-truetype-font Dimensione 84,676 bytes UID 16840453424015022511 File allegato n. 3 Nome file sylfaen.ttf MIME type application/x-truetype-font Dimensione 227,260 bytes UID 16910668186860004239

The Sword of Doom [Sub Ita] [TNTVillage]

Language: | Size: 3.96 GB | Seed: 21 | Leech: 10

Description:

The Sword of Doom [Sub Ita] [TNTVillage] [BDrip 720p - H264 - Jap Ac3 - Sub Ita] [img]http://i.imgur.com/saU5rbG.jpg[/img] Titolo originale: Dai-Bosatsu toge Paese di produzione: Giappone Anno: 1966 Genere: Storico, arti marziali, Drammatico Sottotitoli: Italiano (Softsub) Dimensione File: 3,96 GB Durata: 02:00:30 Regia: Kihaki Okamoto Basato sul romanzo: Dai-Bosatsu Toge Musiche: Masaru Sato CAST Ryunosuke Tsukue/Tatsuia Nakadai, Ohama/Michiyo Aratama, Hyoma Utsuki/Yuzo Kayama, Toranosuke Shimada/Toshirô Mifune Omatsu/Yôko Naito, Isami Kondo/Tadao Nakamaru, Kamo Serizawa/Kei satô, Shichibei/Kô Nishimura, Yohaki/Yasuzô Ogawa... TRAMA Ryunosuke è un samurai sociopatico, crudele e privo di scrupoli. In occasione di un torneo di spada, la moglie di un suo avversario lo implora di lasciar vincere il marito, è in ballo infatti, la posizione di tutto il suo casato. Ryunosuke accetta, in cambio dei favori della donna. Tuttavia durante il torneo, Ryunosuke uccide il marito. Unitosi al gruppo che darà origine alla Shinsengumi, Ryunosuke è inseguito dal fratello dell'uomo ucciso nel torneo... Il brusco finale del film è dovuto al fatto che esso doveva essere la prima parte di una trilogia, basata sul romanzo seriale "Dai-Bosatsu toge" di Nakasato kaizan. SCHEDA TECNICA DEL FILMATO Info sul file Nome Il Passo del Grande Buddha.mkv Dimensione 3,758,289,633 bytes Info generiche Durata 02:00:30 Contenitore matroska Totale tracce 3 Traccia n. 1 video (V_MPEG4/ISO/AVC) {und} Traccia n. 2 audio (A_AAC) [mono] {jpn} Traccia n. 3 subtitle (S_TEXT/ASS) {ita} Dati rilevanti Risoluzione 1280 x 820 Larghezza multipla di 32 Altezza multipla di 4 DRF medio 25.040764 Traccia video Codec ID V_MPEG4/ISO/AVC Risoluzione 1280 x 820 Frame aspect ratio 96:41 Pixel aspect ratio 1:1 Display aspect ratio 96:41 Framerate 23.976025 fps Bitrate (bs) 4524,039062 kbps Qf 0.119849 Traccia audio Codec ID A_AAC Freq. campionamento 48000 Hz Canali 1 Dimensione stream 161,776,719 bytes Tipo di bitstream (bs) AAC LC Frames (bs) 338,892 Bitrate (bs) 179,013578 kbps CBR Freq. campionamento 48000 Hz